  0
SECTION
  2
HEADER
  9
$ACADVER
  1
AC1014
  9
$ACADMAINTVER
 70
     9
  9
$DWGCODEPAGE
  3
ANSI_1252
  9
$INSBASE
 10
19.41511113462645
 20
-7.780174295298665
 30
0.0
  9
$EXTMIN
 10
10.53692843509459
 20
-10.56847807583576
 30
0.0
  9
$EXTMAX
 10
30.64153919566758
 20
0.0001936710581152
 30
0.0
  9
$LIMMIN
 10
0.0
 20
0.0
  9
$LIMMAX
 10
36.0
 20
36.0
  9
$ORTHOMODE
 70
     1
  9
$REGENMODE
 70
     1
  9
$FILLMODE
 70
     1
  9
$QTEXTMODE
 70
     0
  9
$MIRRTEXT
 70
     1
  9
$DRAGMODE
 70
     0
  9
$LTSCALE
 40
1.0
  9
$OSMODE
 70
    37
  9
$ATTMODE
 70
     1
  9
$TEXTSIZE
 40
0.2
  9
$TRACEWID
 40
0.05
  9
$TEXTSTYLE
  7
STANDARD
  9
$CLAYER
  8
0
  9
$CELTYPE
  6
BYLAYER
  9
$CECOLOR
 62
   256
  9
$CELTSCALE
 40
1.0
  9
$DELOBJ
 70
     1
  9
$DISPSILH
 70
     0
  9
$DIMSCALE
 40
1.0
  9
$DIMASZ
 40
0.125
  9
$DIMEXO
 40
0.0625
  9
$DIMDLI
 40
0.38
  9
$DIMRND
 40
0.0
  9
$DIMDLE
 40
0.0
  9
$DIMEXE
 40
0.18
  9
$DIMTP
 40
0.0
  9
$DIMTM
 40
0.0
  9
$DIMTXT
 40
0.125
  9
$DIMCEN
 40
0.1875
  9
$DIMTSZ
 40
0.125
  9
$DIMTOL
 70
     0
  9
$DIMLIM
 70
     0
  9
$DIMTIH
 70
     0
  9
$DIMTOH
 70
     0
  9
$DIMSE1
 70
     0
  9
$DIMSE2
 70
     0
  9
$DIMTAD
 70
     0
  9
$DIMZIN
 70
     3
  9
$DIMBLK
  1

  9
$DIMASO
 70
     1
  9
$DIMSHO
 70
     1
  9
$DIMPOST
  1

  9
$DIMAPOST
  1

  9
$DIMALT
 70
     0
  9
$DIMALTD
 70
     1
  9
$DIMALTF
 40
25.4
  9
$DIMLFAC
 40
1.0
  9
$DIMTOFL
 70
     0
  9
$DIMTVP
 40
0.0
  9
$DIMTIX
 70
     0
  9
$DIMSOXD
 70
     0
  9
$DIMSAH
 70
     0
  9
$DIMBLK1
  1

  9
$DIMBLK2
  1

  9
$DIMSTYLE
  2
STANDARD
  9
$DIMCLRD
 70
     0
  9
$DIMCLRE
 70
     0
  9
$DIMCLRT
 70
     0
  9
$DIMTFAC
 40
1.0
  9
$DIMGAP
 40
0.125
  9
$DIMJUST
 70
     0
  9
$DIMSD1
 70
     0
  9
$DIMSD2
 70
     0
  9
$DIMTOLJ
 70
     1
  9
$DIMTZIN
 70
     3
  9
$DIMALTZ
 70
     3
  9
$DIMALTTZ
 70
     3
  9
$DIMFIT
 70
     5
  9
$DIMUPT
 70
     0
  9
$DIMUNIT
 70
     5
  9
$DIMDEC
 70
     4
  9
$DIMTDEC
 70
     4
  9
$DIMALTU
 70
     5
  9
$DIMALTTD
 70
     1
  9
$DIMTXSTY
  7
STANDARD
  9
$DIMAUNIT
 70
     0
  9
$LUNITS
 70
     5
  9
$LUPREC
 70
     4
  9
$SKETCHINC
 40
0.1
  9
$FILLETRAD
 40
0.187
  9
$AUNITS
 70
     0
  9
$AUPREC
 70
     0
  9
$MENU
  1
acad
  9
$ELEVATION
 40
0.0
  9
$PELEVATION
 40
0.0
  9
$THICKNESS
 40
0.0
  9
$LIMCHECK
 70
     0
  9
$BLIPMODE
 70
     0
  9
$CHAMFERA
 40
0.0
  9
$CHAMFERB
 40
0.0
  9
$CHAMFERC
 40
0.0
  9
$CHAMFERD
 40
0.0
  9
$SKPOLY
 70
     0
  9
$TDCREATE
 40
2450399.633961412
  9
$TDUPDATE
 40
2452297.098240740
  9
$TDINDWG
 40
0.0090393519
  9
$TDUSRTIMER
 40
0.0090393519
  9
$USRTIMER
 70
     1
  9
$ANGBASE
 50
0.0
  9
$ANGDIR
 70
     0
  9
$PDMODE
 70
     0
  9
$PDSIZE
 40
0.0
  9
$PLINEWID
 40
0.0
  9
$COORDS
 70
     2
  9
$SPLFRAME
 70
     0
  9
$SPLINETYPE
 70
     6
  9
$SPLINESEGS
 70
     8
  9
$ATTDIA
 70
     0
  9
$ATTREQ
 70
     1
  9
$HANDLING
 70
 22529
  9
$HANDSEED
  5
34D
  9
$SURFTAB1
 70
     6
  9
$SURFTAB2
 70
     6
  9
$SURFTYPE
 70
     6
  9
$SURFU
 70
     6
  9
$SURFV
 70
     6
  9
$UCSNAME
  2

  9
$UCSORG
 10
0.0
 20
0.0
 30
0.0
  9
$UCSXDIR
 10
1.0
 20
0.0
 30
0.0
  9
$UCSYDIR
 10
0.0
 20
1.0
 30
0.0
  9
$PUCSNAME
  2

  9
$PUCSORG
 10
0.0
 20
0.0
 30
0.0
  9
$PUCSXDIR
 10
1.0
 20
0.0
 30
0.0
  9
$PUCSYDIR
 10
0.0
 20
1.0
 30
0.0
  9
$USERI1
 70
     0
  9
$USERI2
 70
     0
  9
$USERI3
 70
     0
  9
$USERI4
 70
     0
  9
$USERI5
 70
     0
  9
$USERR1
 40
0.0
  9
$USERR2
 40
0.0
  9
$USERR3
 40
0.0
  9
$USERR4
 40
0.0
  9
$USERR5
 40
0.0
  9
$WORLDVIEW
 70
     1
  9
$SHADEDGE
 70
     3
  9
$SHADEDIF
 70
    70
  9
$TILEMODE
 70
     1
  9
$MAXACTVP
 70
    15
  9
$PINSBASE
 10
0.0004882914945483
 20
0.7501408034022604
 30
0.0
  9
$PLIMCHECK
 70
     0
  9
$PEXTMIN
 10
1.000000000000000E+20
 20
1.000000000000000E+20
 30
1.000000000000000E+20
  9
$PEXTMAX
 10
-1.000000000000000E+20
 20
-1.000000000000000E+20
 30
-1.000000000000000E+20
  9
$PLIMMIN
 10
0.0
 20
0.0
  9
$PLIMMAX
 10
12.0
 20
9.0
  9
$UNITMODE
 70
     0
  9
$VISRETAIN
 70
     0
  9
$PLINEGEN
 70
     0
  9
$PSLTSCALE
 70
     1
  9
$TREEDEPTH
 70
  3020
  9
$PICKSTYLE
 70
     1
  9
$CMLSTYLE
  2
STANDARD
  9
$CMLJUST
 70
     0
  9
$CMLSCALE
 40
1.0
  9
$PROXYGRAPHICS
 70
     1
  9
$MEASUREMENT
 70
     0
  0
ENDSEC
  0
SECTION
  2
CLASSES
  0
CLASS
  1
ACDBDICTIONARYWDFLT
  2
AcDbDictionaryWithDefault
  3
AutoCAD 2000
 90
        0
280
     0
281
     0
  0
CLASS
  1
ACDBPLACEHOLDER
  2
AcDbPlaceHolder
  3
AutoCAD 2000
 90
        0
280
     0
281
     0
  0
CLASS
  1
LAYOUT
  2
AcDbLayout
  3
AutoCAD 2000
 90
        0
280
     0
281
     0
  0
CLASS
  1
DICTIONARYVAR
  2
AcDbDictionaryVar
  3
AutoCAD 2000
 90
        0
280
     0
281
     0
  0
CLASS
  1
LONG_TRANSACTION
  2
AcDbLongTransaction
  3
AutoCAD 2000
 90
        0
280
     0
281
     0
  0
CLASS
  1
LWPOLYLINE
  2
AcDbPolyline
  3
AutoCAD 2000
 90
        0
280
     0
281
     1
  0
CLASS
  1
HATCH
  2
AcDbHatch
  3
AutoCAD 2000
 90
        0
280
     0
281
     1
  0
CLASS
  1
XRECORD
  2
AcDbXrecord
  3
AutoCAD 2000
 90
        0
280
     0
281
     0
  0
CLASS
  1
LONG_TRANSACTION
  2
AcDbLongTransaction
  3
AutoCAD 2000
 90
        0
280
     0
281
     0
  0
CLASS
  1
LWPOLYLINE
  2
AcDbPolyline
  3
AutoCAD 2000
 90
        0
280
     0
281
     1
  0
CLASS
  1
HATCH
  2
AcDbHatch
  3
AutoCAD 2000
 90
        0
280
     0
281
     1
  0
CLASS
  1
XRECORD
  2
AcDbXrecord
  3
AutoCAD 2000
 90
        0
280
     0
281
     0
  0
CLASS
  1
LONG_TRANSACTION
  2
AcDbLongTransaction
  3
AutoCAD 2000
 90
        0
280
     0
281
     0
  0
CLASS
  1
LWPOLYLINE
  2
AcDbPolyline
  3
AutoCAD 2000
 90
        0
280
     0
281
     1
  0
CLASS
  1
HATCH
  2
AcDbHatch
  3
AutoCAD 2000
 90
        0
280
     0
281
     1
  0
CLASS
  1
XRECORD
  2
AcDbXrecord
  3
AutoCAD 2000
 90
        0
280
     0
281
     0
  0
CLASS
  1
LONG_TRANSACTION
  2
AcDbLongTransaction
  3
AutoCAD 2000
 90
        0
280
     0
281
     0
  0
CLASS
  1
LWPOLYLINE
  2
AcDbPolyline
  3
AutoCAD 2000
 90
        0
280
     0
281
     1
  0
CLASS
  1
HATCH
  2
AcDbHatch
  3
AutoCAD 2000
 90
        0
280
     0
281
     1
  0
CLASS
  1
XRECORD
  2
AcDbXrecord
  3
AutoCAD 2000
 90
        0
280
     0
281
     0
  0
CLASS
  1
LONG_TRANSACTION
  2
AcDbLongTransaction
  3
AutoCAD 2000
 90
        0
280
     0
281
     0
  0
CLASS
  1
LWPOLYLINE
  2
AcDbPolyline
  3
AutoCAD 2000
 90
        0
280
     0
281
     1
  0
CLASS
  1
HATCH
  2
AcDbHatch
  3
AutoCAD 2000
 90
        0
280
     0
281
     1
  0
CLASS
  1
XRECORD
  2
AcDbXrecord
  3
AutoCAD 2000
 90
        0
280
     0
281
     0
  0
ENDSEC
  0
SECTION
  2
TABLES
  0
TABLE
  2
VPORT
  5
8
330
0
100
AcDbSymbolTable
 70
     2
  0
VPORT
  5
329
330
8
100
AcDbSymbolTableRecord
100
AcDbViewportTableRecord
  2
*ACTIVE
 70
     0
 10
0.0
 20
0.0
 11
1.0
 21
1.0
 12
20.60488217325214
 22
-5.284823523208473
 13
0.0
 23
0.0
 14
0.5740882589684922
 24
0.5740882589684922
 15
0.5
 25
0.5
 16
0.0
 26
0.0
 36
1.0
 17
0.0
 27
0.0
 37
0.0
 40
12.88544644131286
 41
1.570528967254408
 42
50.0
 43
0.0
 44
0.0
 50
0.0
 51
0.0
 71
     0
 72
   100
 73
     1
 74
     0
 75
     0
 76
     0
 77
     0
 78
     0
  0
ENDTAB
  0
TABLE
  2
LTYPE
  5
5
330
0
100
AcDbSymbolTable
 70
     2
  0
LTYPE
  5
13
330
5
100
AcDbSymbolTableRecord
100
AcDbLinetypeTableRecord
  2
BYBLOCK
 70
     0
  3

 72
    65
 73
     0
 40
0.0
  0
LTYPE
  5
14
330
5
100
AcDbSymbolTableRecord
100
AcDbLinetypeTableRecord
  2
BYLAYER
 70
     0
  3

 72
    65
 73
     0
 40
0.0
  0
LTYPE
  5
15
330
5
100
AcDbSymbolTableRecord
100
AcDbLinetypeTableRecord
  2
CONTINUOUS
 70
     0
  3
Solid line
 72
    65
 73
     0
 40
0.0
  0
LTYPE
  5
13A
330
5
100
AcDbSymbolTableRecord
100
AcDbLinetypeTableRecord
  2
CENTER2
 70
     0
  3
___ _ ___ _ ___ _ ___ _ ___ _ ___ _ ___ _ ___ _
 72
    65
 73
     4
 40
1.125
 49
0.75
 74
     0
 49
-0.125
 74
     0
 49
0.125
 74
     0
 49
-0.125
 74
     0
  0
ENDTAB
  0
TABLE
  2
LAYER
  5
2
330
0
100
AcDbSymbolTable
 70
     5
  0
LAYER
  5
10
330
2
100
AcDbSymbolTableRecord
100
AcDbLayerTableRecord
  2
0
 70
     0
 62
     7
  6
CONTINUOUS
  0
LAYER
  5
13E
330
2
100
AcDbSymbolTableRecord
100
AcDbLayerTableRecord
  2
ADP1DETAIL
 70
     0
 62
     7
  6
CONTINUOUS
  0
LAYER
  5
13F
330
2
100
AcDbSymbolTableRecord
100
AcDbLayerTableRecord
  2
ADP3DETAIL
 70
     0
 62
     1
  6
CONTINUOUS
  0
LAYER
  5
140
330
2
100
AcDbSymbolTableRecord
100
AcDbLayerTableRecord
  2
DEFPOINTS
 70
     0
 62
     7
  6
CONTINUOUS
  0
LAYER
  5
143
330
2
100
AcDbSymbolTableRecord
100
AcDbLayerTableRecord
  2
ADPDIM
 70
     0
 62
     3
  6
CONTINUOUS
  0
ENDTAB
  0
TABLE
  2
STYLE
  5
3
330
0
100
AcDbSymbolTable
 70
     2
  0
STYLE
  5
11
330
3
100
AcDbSymbolTableRecord
100
AcDbTextStyleTableRecord
  2
STANDARD
 70
     0
 40
0.0
 41
1.0
 50
0.0
 71
     0
 42
0.2
  3
txt
  4

  0
STYLE
  5
196
330
3
100
AcDbSymbolTableRecord
100
AcDbTextStyleTableRecord
  2
ARIAL_WIDE
 70
     0
 40
0.0
 41
1.25
 50
0.0
 71
     0
 42
0.2
  3
ARIAL.TTF
  4

1001
ACAD
1000
Arial
1071
       34
  0
ENDTAB
  0
TABLE
  2
VIEW
  5
6
330
0
100
AcDbSymbolTable
 70
     0
  0
ENDTAB
  0
TABLE
  2
UCS
  5
7
330
0
100
AcDbSymbolTable
 70
     0
  0
ENDTAB
  0
TABLE
  2
APPID
  5
9
330
0
100
AcDbSymbolTable
 70
     1
  0
APPID
  5
12
330
9
100
AcDbSymbolTableRecord
100
AcDbRegAppTableRecord
  2
ACAD
 70
     0
  0
ENDTAB
  0
TABLE
  2
DIMSTYLE
  5
A
330
0
100
AcDbSymbolTable
 70
     1
  0
DIMSTYLE
105
194
330
A
100
AcDbSymbolTableRecord
100
AcDbDimStyleTableRecord
  2
STANDARD
 70
     0
  3

  4

  5

  6

  7

 40
1.0
 41
0.18
 42
0.0625
 43
0.38
 44
0.18
 45
0.0
 46
0.0
 47
0.0
 48
0.0
140
0.18
141
0.09
142
0.0
143
25.4
144
1.0
145
0.0
146
1.0
147
0.09
 71
     0
 72
     0
 73
     1
 74
     1
 75
     0
 76
     0
 77
     0
 78
     0
170
     0
171
     2
172
     0
173
     0
174
     0
175
     0
176
     0
177
     0
178
     0
270
     2
271
     4
272
     4
273
     2
274
     2
340
11
275
     0
280
     0
281
     0
282
     0
283
     1
284
     0
285
     0
286
     0
287
     3
288
     0
  0
ENDTAB
  0
TABLE
  2
BLOCK_RECORD
  5
1
330
0
100
AcDbSymbolTable
 70
     4
  0
BLOCK_RECORD
  5
1E
102
{ACAD_XDICTIONARY
360
1D3
102
}
330
1
100
AcDbSymbolTableRecord
100
AcDbBlockTableRecord
  2
*MODEL_SPACE
  0
BLOCK_RECORD
  5
1A
102
{ACAD_XDICTIONARY
360
1D5
102
}
330
1
100
AcDbSymbolTableRecord
100
AcDbBlockTableRecord
  2
*PAPER_SPACE
  0
BLOCK_RECORD
  5
132
330
1
100
AcDbSymbolTableRecord
100
AcDbBlockTableRecord
  2
*D0
  0
BLOCK_RECORD
  5
133
330
1
100
AcDbSymbolTableRecord
100
AcDbBlockTableRecord
  2
*D1
  0
BLOCK_RECORD
  5
134
330
1
100
AcDbSymbolTableRecord
100
AcDbBlockTableRecord
  2
*D2
  0
BLOCK_RECORD
  5
135
330
1
100
AcDbSymbolTableRecord
100
AcDbBlockTableRecord
  2
*D3
  0
ENDTAB
  0
ENDSEC
  0
SECTION
  2
BLOCKS
  0
BLOCK
  5
146
330
1E
100
AcDbEntity
  8
0
100
AcDbBlockBegin
  2
*MODEL_SPACE
 70
     0
 10
0.0
 20
0.0
 30
0.0
  3
*MODEL_SPACE
  1

  0
ENDBLK
  5
147
330
1E
100
AcDbEntity
  8
0
100
AcDbBlockEnd
  0
BLOCK
  5
144
330
1A
100
AcDbEntity
 67
     1
  8
0
100
AcDbBlockBegin
  2
*PAPER_SPACE
 70
     0
 10
0.0
 20
0.0
 30
0.0
  3
*PAPER_SPACE
  1

  0
ENDBLK
  5
145
330
1A
100
AcDbEntity
 67
     1
  8
0
100
AcDbBlockEnd
  0
BLOCK
  5
149
330
132
100
AcDbEntity
  8
0
100
AcDbBlockBegin
  2
*D0
 70
     1
 10
0.0
 20
0.0
 30
0.0
  3
*D0
  1

  0
LINE
  5
14A
330
132
100
AcDbEntity
  8
0
  6
BYBLOCK
 62
     0
100
AcDbLine
 10
16.66757857553534
 20
-8.840587713758189
 30
0.0
 11
16.66757857553534
 21
-8.271064692104758
 31
0.0
  0
LINE
  5
14B
330
132
100
AcDbEntity
  8
0
  6
BYBLOCK
 62
     0
100
AcDbLine
 10
19.41032611560188
 20
-8.848793454287896
 30
0.0
 11
19.41032611560188
 21
-8.271064692104758
 31
0.0
  0
LINE
  5
14C
330
132
100
AcDbEntity
  8
0
  6
BYBLOCK
 62
     0
100
AcDbLine
 10
16.66757857553534
 20
-8.451064692104758
 30
0.0
 11
17.62228567890194
 21
-8.451064692104758
 31
0.0
  0
LINE
  5
14D
330
132
100
AcDbEntity
  8
0
  6
BYBLOCK
 62
     0
100
AcDbLine
 10
19.41032611560188
 20
-8.451064692104758
 30
0.0
 11
18.45561901223528
 21
-8.451064692104758
 31
0.0
  0
LINE
  5
14E
330
132
100
AcDbEntity
  8
0
  6
BYBLOCK
 62
     0
100
AcDbLine
 10
16.54257857553534
 20
-8.576064692104758
 30
0.0
 11
16.79257857553534
 21
-8.326064692104758
 31
0.0
  0
LINE
  5
14F
330
132
100
AcDbEntity
  8
0
  6
BYBLOCK
 62
     0
100
AcDbLine
 10
19.28532611560188
 20
-8.576064692104758
 30
0.0
 11
19.53532611560188
 21
-8.326064692104758
 31
0.0
  0
TEXT
  5
150
330
132
100
AcDbEntity
  8
0
  6
BYBLOCK
 62
     0
100
AcDbText
 10
17.74728567890194
 20
-8.513564692104758
 30
0.0
 40
0.125
  1
2 3/4
 72
     1
 11
18.03895234556861
 21
-8.451064692104758
 31
0.0
100
AcDbText
 73
     2
  0
POINT
  5
152
330
132
100
AcDbEntity
  8
DEFPOINTS
  6
BYBLOCK
 62
     0
100
AcDbPoint
 10
16.66757857553534
 20
-8.903087713758189
 30
0.0
  0
POINT
  5
153
330
132
100
AcDbEntity
  8
DEFPOINTS
  6
BYBLOCK
 62
     0
100
AcDbPoint
 10
19.41032611560188
 20
-8.911293454287896
 30
0.0
  0
POINT
  5
154
330
132
100
AcDbEntity
  8
DEFPOINTS
  6
BYBLOCK
 62
     0
100
AcDbPoint
 10
19.41032611560188
 20
-8.451064692104758
 30
0.0
  0
ENDBLK
  5
155
330
132
100
AcDbEntity
  8
0
100
AcDbBlockEnd
  0
BLOCK
  5
156
330
133
100
AcDbEntity
  8
0
100
AcDbBlockBegin
  2
*D1
 70
     1
 10
0.0
 20
0.0
 30
0.0
  3
*D1
  1

  0
LINE
  5
157
330
133
100
AcDbEntity
  8
0
  6
BYBLOCK
 62
     0
100
AcDbLine
 10
19.01596080088785
 20
-3.065395787976728
 30
0.0
 11
21.02850545778203
 21
-5.268128510914159
 31
0.0
  0
LINE
  5
158
330
133
100
AcDbEntity
  8
0
  6
BYBLOCK
 62
     0
100
AcDbLine
 10
18.83936376367821
 20
-3.057427949576207
 30
0.0
 11
19.19255783809749
 21
-3.073363626377249
 31
0.0
  0
TEXT
  5
159
330
133
100
AcDbEntity
  8
0
  6
BYBLOCK
 62
     0
100
AcDbText
 10
21.06667883828405
 20
-5.402568248421522
 30
0.0
 40
0.125
  1
R3
 50
312.4166378140906
 72
     1
 11
21.18308222335706
 21
-5.437312980223475
 31
0.0
100
AcDbText
 73
     2
  0
POINT
  5
15A
330
133
100
AcDbEntity
  8
DEFPOINTS
  6
BYBLOCK
 62
     0
100
AcDbPoint
 10
19.01596080088785
 20
-3.065395787976728
 30
0.0
  0
POINT
  5
15B
330
133
100
AcDbEntity
  8
DEFPOINTS
  6
BYBLOCK
 62
     0
100
AcDbPoint
 10
21.03951118659729
 20
-5.280174295298663
 30
0.0
  0
ENDBLK
  5
15C
330
133
100
AcDbEntity
  8
0
100
AcDbBlockEnd
  0
BLOCK
  5
15D
330
134
100
AcDbEntity
  8
0
100
AcDbBlockBegin
  2
*D2
 70
     1
 10
0.0
 20
0.0
 30
0.0
  3
*D2
  1

  0
LINE
  5
15E
330
134
100
AcDbEntity
  8
0
  6
BYBLOCK
 62
     0
100
AcDbLine
 10
19.4752361142798
 20
-7.780174295298665
 30
0.0
 11
20.42118799824783
 21
-7.780174295298665
 31
0.0
  0
LINE
  5
15F
330
134
100
AcDbEntity
  8
0
  6
BYBLOCK
 62
     0
100
AcDbLine
 10
20.96600545778203
 20
-5.268128510914162
 30
0.0
 11
20.06118799824783
 21
-5.268128510914162
 31
0.0
  0
LINE
  5
160
330
134
100
AcDbEntity
  8
0
  6
BYBLOCK
 62
     0
100
AcDbLine
 10
20.24118799824783
 20
-7.780174295298665
 30
0.0
 11
20.24118799824783
 21
-6.919984736439746
 31
0.0
  0
LINE
  5
161
330
134
100
AcDbEntity
  8
0
  6
BYBLOCK
 62
     0
100
AcDbLine
 10
20.24118799824783
 20
-5.268128510914162
 30
0.0
 11
20.24118799824783
 21
-6.12831806977308
 31
0.0
  0
LINE
  5
162
330
134
100
AcDbEntity
  8
0
  6
BYBLOCK
 62
     0
100
AcDbLine
 10
20.36618799824783
 20
-7.905174295298665
 30
0.0
 11
20.11618799824783
 21
-7.655174295298665
 31
0.0
  0
LINE
  5
163
330
134
100
AcDbEntity
  8
0
  6
BYBLOCK
 62
     0
100
AcDbLine
 10
20.36618799824783
 20
-5.393128510914162
 30
0.0
 11
20.11618799824783
 21
-5.143128510914162
 31
0.0
  0
TEXT
  5
164
330
134
100
AcDbEntity
  8
0
  6
BYBLOCK
 62
     0
100
AcDbText
 10
20.30368799824783
 20
-6.794984736439746
 30
0.0
 40
0.125
  1
2 1/2
 50
90.0
 72
     1
 11
20.24118799824783
 21
-6.524151403106413
 31
0.0
100
AcDbText
 73
     2
  0
POINT
  5
165
330
134
100
AcDbEntity
  8
DEFPOINTS
  6
BYBLOCK
 62
     0
100
AcDbPoint
 10
19.4127361142798
 20
-7.780174295298665
 30
0.0
  0
POINT
  5
166
330
134
100
AcDbEntity
  8
DEFPOINTS
  6
BYBLOCK
 62
     0
100
AcDbPoint
 10
21.02850545778204
 20
-5.268128510914162
 30
0.0
  0
POINT
  5
167
330
134
100
AcDbEntity
  8
DEFPOINTS
  6
BYBLOCK
 62
     0
100
AcDbPoint
 10
20.24118799824783
 20
-5.268128510914162
 30
0.0
  0
ENDBLK
  5
168
330
134
100
AcDbEntity
  8
0
100
AcDbBlockEnd
  0
BLOCK
  5
169
330
135
100
AcDbEntity
  8
0
100
AcDbBlockBegin
  2
*D3
 70
     1
 10
0.0
 20
0.0
 30
0.0
  3
*D3
  1

  0
LINE
  5
16A
330
135
100
AcDbEntity
  8
0
  6
BYBLOCK
 62
     0
100
AcDbLine
 10
17.27152243431452
 20
-9.384036605433745
 30
0.0
 11
17.27152243431452
 21
-9.769006037984773
 31
0.0
  0
LINE
  5
16B
330
135
100
AcDbEntity
  8
0
  6
BYBLOCK
 62
     0
100
AcDbLine
 10
18.80388926348852
 20
-9.38862113405435
 30
0.0
 11
18.80388926348852
 21
-9.769006037984773
 31
0.0
  0
LINE
  5
16C
330
135
100
AcDbEntity
  8
0
  6
BYBLOCK
 62
     0
100
AcDbLine
 10
17.27152243431452
 20
-9.589006037984773
 30
0.0
 11
17.60020584890152
 21
-9.589006037984773
 31
0.0
  0
LINE
  5
16D
330
135
100
AcDbEntity
  8
0
  6
BYBLOCK
 62
     0
100
AcDbLine
 10
18.80388926348852
 20
-9.589006037984773
 30
0.0
 11
18.47520584890152
 21
-9.589006037984773
 31
0.0
  0
LINE
  5
16E
330
135
100
AcDbEntity
  8
0
  6
BYBLOCK
 62
     0
100
AcDbLine
 10
17.14652243431451
 20
-9.714006037984773
 30
0.0
 11
17.39652243431452
 21
-9.464006037984773
 31
0.0
  0
LINE
  5
16F
330
135
100
AcDbEntity
  8
0
  6
BYBLOCK
 62
     0
100
AcDbLine
 10
18.67888926348852
 20
-9.714006037984773
 30
0.0
 11
18.92888926348852
 21
-9.464006037984773
 31
0.0
  0
TEXT
  5
170
330
135
100
AcDbEntity
  8
0
  6
BYBLOCK
 62
     0
100
AcDbText
 10
17.72520584890152
 20
-9.651506037984773
 30
0.0
 40
0.125
  1
1 9/16
 72
     1
 11
18.03770584890152
 21
-9.589006037984773
 31
0.0
100
AcDbText
 73
     2
  0
POINT
  5
171
330
135
100
AcDbEntity
  8
DEFPOINTS
  6
BYBLOCK
 62
     0
100
AcDbPoint
 10
17.27152243431452
 20
-9.321536605433745
 30
0.0
  0
POINT
  5
172
330
135
100
AcDbEntity
  8
DEFPOINTS
  6
BYBLOCK
 62
     0
100
AcDbPoint
 10
18.80388926348852
 20
-9.32612113405435
 30
0.0
  0
POINT
  5
173
330
135
100
AcDbEntity
  8
DEFPOINTS
  6
BYBLOCK
 62
     0
100
AcDbPoint
 10
18.80388926348852
 20
-9.589006037984773
 30
0.0
  0
ENDBLK
  5
174
330
135
100
AcDbEntity
  8
0
100
AcDbBlockEnd
  0
ENDSEC
  0
SECTION
  2
ENTITIES
  0
LINE
  5
175
330
1E
100
AcDbEntity
  8
ADP1DETAIL
100
AcDbLine
 10
23.53951118659729
 20
-3.655774243327832
 30
0.0
 11
21.03951118659729
 21
-3.655774243327832
 31
0.0
  0
LINE
  5
176
330
1E
100
AcDbEntity
  8
ADP3DETAIL
  6
CENTER2
100
AcDbLine
 10
24.79660955061125
 20
-2.280174295298663
 30
0.0
 11
21.03951118659729
 21
-2.280174295298663
 31
0.0
  0
LINE
  5
177
330
1E
100
AcDbEntity
  8
ADP1DETAIL
100
AcDbLine
 10
21.03951118659729
 20
-0.9057742433278326
 30
0.0
 11
23.53951118659729
 21
-0.9057742433278326
 31
0.0
  0
DIMENSION
  5
178
330
1E
100
AcDbEntity
  8
ADPDIM
100
AcDbDimension
  2
*D1
 10
21.03951118659729
 20
-5.280174295298663
 30
0.0
 11
21.18308222335706
 21
-5.437312980223475
 31
0.0
 70
     4
100
AcDbRadialDimension
 15
19.01596080088785
 25
-3.065395787976728
 35
0.0
 40
-2.983683536284084
  0
ARC
  5
179
330
1E
100
AcDbEntity
  8
ADP3DETAIL
  6
CENTER2
100
AcDbCircle
 10
21.03951118659729
 20
-5.280174295298663
 30
0.0
 40
3.0
100
AcDbArc
 50
90.0
 51
180.0
  0
ARC
  5
17A
330
1E
100
AcDbEntity
  8
ADP1DETAIL
100
AcDbCircle
 10
21.03951118659729
 20
-5.280174295298663
 30
0.0
 40
4.374400051970833
100
AcDbArc
 50
90.0
 51
180.0
  0
ARC
  5
17B
330
1E
100
AcDbEntity
  8
ADP1DETAIL
100
AcDbCircle
 10
21.03951118659729
 20
-5.280174295298663
 30
0.0
 40
1.622369303251617
100
AcDbArc
 50
90.0
 51
180.0
  0
LINE
  5
17C
330
1E
100
AcDbEntity
  8
ADP1DETAIL
100
AcDbLine
 10
18.03838926348851
 20
-9.095399312344319
 30
0.0
 11
18.78888926348852
 21
-9.095399312344319
 31
0.0
  0
ARC
  5
17D
330
1E
100
AcDbEntity
  8
ADP1DETAIL
100
AcDbCircle
 10
18.03838926348852
 20
-14.78239931234432
 30
0.0
 40
6.062
100
AcDbArc
 50
77.14144657021674
 51
89.98939599811327
  0
DIMENSION
  5
17E
330
1E
100
AcDbEntity
  8
ADPDIM
100
AcDbDimension
  2
*D3
 10
18.80388926348852
 20
-9.589006037984773
 30
0.0
 11
18.03770584890152
 21
-9.589006037984773
 31
0.0
100
AcDbAlignedDimension
 13
17.27152243431452
 23
-9.321536605433745
 33
0.0
 14
18.80388926348852
 24
-9.32612113405435
 34
0.0
100
AcDbRotatedDimension
  0
DIMENSION
  5
17F
330
1E
100
AcDbEntity
  8
ADPDIM
100
AcDbDimension
  2
*D0
 10
19.41032611560188
 20
-8.451064692104758
 30
0.0
 11
18.03895234556861
 21
-8.451064692104758
 31
0.0
100
AcDbAlignedDimension
 13
16.66757857553534
 23
-8.903087713758189
 33
0.0
 14
19.41032611560188
 24
-8.911293454287896
 34
0.0
100
AcDbRotatedDimension
  0
LINE
  5
180
330
1E
100
AcDbEntity
  8
ADP1DETAIL
100
AcDbLine
 10
19.41511113462645
 20
-7.780174295298665
 30
0.0
 11
16.66511113462645
 21
-7.780174295298665
 31
0.0
  0
LINE
  5
181
330
1E
100
AcDbEntity
  8
ADP3DETAIL
  6
CENTER2
100
AcDbLine
 10
18.03951118659728
 20
-5.280174295298663
 30
0.0
 11
18.03951118659728
 21
-8.154972691011838
 31
0.0
  0
LINE
  5
182
330
1E
100
AcDbEntity
  8
ADP1DETAIL
100
AcDbLine
 10
16.66511113462645
 20
-7.780174295298665
 30
0.0
 11
16.66511113462645
 21
-5.280174295298663
 31
0.0
  0
ARC
  5
183
330
1E
100
AcDbEntity
  8
ADP1DETAIL
100
AcDbCircle
 10
18.00436088281252
 20
-14.78229750637844
 30
0.0
 40
6.062
100
AcDbArc
 50
89.6677704814755
 51
102.515719909372
  0
LINE
  5
184
330
1E
100
AcDbEntity
  8
ADP1DETAIL
100
AcDbLine
 10
18.03838926348851
 20
-9.095399312344319
 30
0.0
 11
17.28790269858213
 21
-9.090908667066081
 31
0.0
  0
LINE
  5
185
330
1E
100
AcDbEntity
  8
ADP1DETAIL
100
AcDbLine
 10
17.25274896913164
 20
-9.335964391201745
 30
0.0
 11
16.75371900556712
 21
-9.206245007312681
 31
0.0
  0
LINE
  5
186
330
1E
100
AcDbEntity
  8
ADP1DETAIL
100
AcDbLine
 10
16.66757857553534
 20
-8.903087713758189
 30
0.0
 11
16.75371900556712
 21
-9.206245007312681
 31
0.0
  0
ARC
  5
187
330
1E
100
AcDbEntity
  8
ADP1DETAIL
100
AcDbCircle
 10
16.6973981527214
 20
-8.894614649587261
 30
0.0
 40
0.031
100
AcDbArc
 50
102.5157199093738
 51
195.8621991326251
  0
ARC
  5
188
330
1E
100
AcDbEntity
  8
ADP1DETAIL
100
AcDbCircle
 10
17.25652270283737
 20
-9.32144685236356
 30
0.0
 40
0.0149999999999988
100
AcDbArc
 50
255.4288388166105
 51
359.6571664795921
  0
LINE
  5
189
330
1E
100
AcDbEntity
  8
ADP1DETAIL
100
AcDbLine
 10
17.2728132140348
 20
-9.105818645473039
 30
0.0
 11
17.27152243431452
 21
-9.321536605433745
 31
0.0
  0
ARC
  5
18A
330
1E
100
AcDbEntity
  8
ADP1DETAIL
100
AcDbCircle
 10
17.28781294551195
 20
-9.105908398543224
 30
0.0
 40
0.0150000000000006
100
AcDbArc
 50
89.65716647958878
 51
179.6571664795887
  0
DIMENSION
  5
18B
330
1E
100
AcDbEntity
  8
ADPDIM
100
AcDbDimension
  2
*D2
 10
20.24118799824783
 20
-5.268128510914162
 30
0.0
 11
20.24118799824783
 21
-6.524151403106413
 31
0.0
100
AcDbAlignedDimension
 13
19.4127361142798
 23
-7.780174295298665
 33
0.0
 14
21.02850545778204
 24
-5.268128510914162
 34
0.0
 50
90.0
100
AcDbRotatedDimension
  0
LINE
  5
18C
330
1E
100
AcDbEntity
  8
ADP1DETAIL
100
AcDbLine
 10
19.41511113462645
 20
-5.280174295298663
 30
0.0
 11
19.41511113462645
 21
-7.780174295298665
 31
0.0
  0
LINE
  5
18D
330
1E
100
AcDbEntity
  8
ADP1DETAIL
100
AcDbLine
 10
18.82257606339318
 20
-9.340660993285545
 30
0.0
 11
19.32237327442537
 21
-9.213929896327387
 31
0.0
  0
LINE
  5
18E
330
1E
100
AcDbEntity
  8
ADP1DETAIL
100
AcDbLine
 10
18.80388926348852
 20
-9.11039931234432
 30
0.0
 11
18.80388926348852
 21
-9.32612113405435
 31
0.0
  0
ARC
  5
18F
330
1E
100
AcDbEntity
  8
ADP1DETAIL
100
AcDbCircle
 10
18.78888926348852
 20
-9.11039931234432
 30
0.0
 40
0.0150000000000006
100
AcDbArc
 50
0.0
 51
90.0
  0
ARC
  5
190
330
1E
100
AcDbEntity
  8
ADP1DETAIL
100
AcDbCircle
 10
18.81888926348851
 20
-9.32612113405435
 30
0.0
 40
0.0149999999999988
100
AcDbArc
 50
179.9999999999966
 51
284.2283276629783
  0
ARC
  5
191
330
1E
100
AcDbEntity
  8
ADP1DETAIL
100
AcDbCircle
 10
19.38055777113324
 20
-8.902642115224121
 30
0.0
 40
0.031
100
AcDbArc
 50
343.7949673469637
 51
77.14144657021492
  0
LINE
  5
192
330
1E
100
AcDbEntity
  8
ADP1DETAIL
100
AcDbLine
 10
19.41032611560188
 20
-8.911293454287896
 30
0.0
 11
19.32237327442537
 21
-9.213929896327387
 31
0.0
  0
LINE
  5
193
330
1E
100
AcDbEntity
  8
ADP1DETAIL
100
AcDbLine
 10
23.53951118659729
 20
-0.9057742433278326
 30
0.0
 11
23.53951118659729
 21
-3.655774243327832
 31
0.0
  0
TEXT
  5
197
330
1E
100
AcDbEntity
  8
ADPDIM
100
AcDbText
 10
10.53692843509459
 20
-10.51296989029688
 30
0.0
 40
0.1875
  1
J U L I U S  B L U M  &  C O . ,  I N C .      ( 8 0 0 )  5 2 6 - 6 2 9 3        W W W . J U L I U S B L U M . C O M        P A R T  N o .  6 9 8 4 - C
 41
1.25
  7
ARIAL_WIDE
 72
     1
 11
20.58923381538109
 21
-10.32546989029688
 31
0.0
100
AcDbText
 73
     3
  0
ENDSEC
  0
SECTION
  2
OBJECTS
  0
DICTIONARY
  5
C
330
0
100
AcDbDictionary
  3
ACAD_GROUP
350
D
  3
ACAD_LAYOUT
350
19
  3
ACAD_MLINESTYLE
350
16
  3
ACAD_PLOTSETTINGS
350
18
  3
ACAD_PLOTSTYLENAME
350
E
  3
ACDBHEADERROUNDTRIPXREC
350
32A
  3
ACDBVARIABLEDICTIONARY
350
208
  0
DICTIONARY
  5
1D3
330
1E
100
AcDbDictionary
280
     1
  3
ACAD_LAYOUTSELFREF
360
34C
  0
DICTIONARY
  5
1D5
330
1A
100
AcDbDictionary
280
     1
  3
ACAD_LAYOUTSELFREF
360
34B
  0
DICTIONARY
  5
D
102
{ACAD_REACTORS
330
C
102
}
330
C
100
AcDbDictionary
  0
DICTIONARY
  5
19
102
{ACAD_REACTORS
330
C
102
}
330
C
100
AcDbDictionary
  0
DICTIONARY
  5
16
102
{ACAD_REACTORS
330
C
102
}
330
C
100
AcDbDictionary
  3
STANDARD
350
17
  0
DICTIONARY
  5
18
102
{ACAD_REACTORS
330
C
102
}
330
C
100
AcDbDictionary
  0
ACDBDICTIONARYWDFLT
  5
E
102
{ACAD_REACTORS
330
C
102
}
330
C
100
AcDbDictionary
281
     1
  3
Normal
350
F
100
AcDbDictionaryWithDefault
340
F
  0
DICTIONARY
  5
32A
102
{ACAD_REACTORS
330
C
102
}
330
C
100
AcDbDictionary
  3
CEPSNTYPE
350
334
  3
DIMSTYLEDATA
350
338
  3
FINGERPRINTGUID
350
335
  3
HYPERLINKBASE
350
32D
  3
INSUNITS
350
333
  3
LAYOUTDICT
350
32F
  3
LWETCUNION
350
332
  3
PLOTSETDICT
350
330
  3
PLOTSTYLNAMDICT
350
331
  3
PSVPSCALE
350
337
  3
PUCSBASE
350
33B
  3
PUCSORGBACK
350
341
  3
PUCSORGBOTTOM
350
33D
  3
PUCSORGFRONT
350
340
  3
PUCSORGLEFT
350
33E
  3
PUCSORGRIGHT
350
33F
  3
PUCSORGTOP
350
33C
  3
PUCSORTHOREF
350
339
  3
PUCSORTHOVIEW
350
33A
  3
STYLESHEET
350
32E
  3
TSTACKALIGN
350
32B
  3
TSTACKSIZE
350
32C
  3
UCSBASE
350
344
  3
UCSORGBACK
350
34A
  3
UCSORGBOTTOM
350
346
  3
UCSORGFRONT
350
349
  3
UCSORGLEFT
350
347
  3
UCSORGRIGHT
350
348
  3
UCSORGTOP
350
345
  3
UCSORTHOREF
350
342
  3
UCSORTHOVIEW
350
343
  3
VERSIONGUID
350
336
  0
DICTIONARY
  5
208
102
{ACAD_REACTORS
330
C
102
}
330
C
100
AcDbDictionary
  3
DIMASSOC
350
20A
  3
HIDETEXT
350
209
  0
XRECORD
  5
34C
102
{ACAD_REACTORS
330
1D3
102
}
330
1D3
100
AcDbXrecord
340
1E
  0
XRECORD
  5
34B
102
{ACAD_REACTORS
330
1D5
102
}
330
1D5
100
AcDbXrecord
340
1A
  0
MLINESTYLE
  5
17
102
{ACAD_REACTORS
330
16
102
}
330
16
100
AcDbMlineStyle
  2
STANDARD
 70
     0
  3

 62
   256
 51
90.0
 52
90.0
 71
     2
 49
0.5
 62
   256
  6
BYLAYER
 49
-0.5
 62
   256
  6
BYLAYER
  0
ACDBPLACEHOLDER
  5
F
102
{ACAD_REACTORS
330
E
102
}
330
E
100
AcDbPlaceHolder
280
     0
  0
XRECORD
  5
334
102
{ACAD_REACTORS
330
32A
102
}
330
32A
100
AcDbXrecord
 90
        0
  0
XRECORD
  5
338
102
{ACAD_REACTORS
330
32A
102
}
330
32A
100
AcDbXrecord
1000
DSTYLE
1002
{
1070
   277
 70
     5
1070
   279
 70
     2
1002
}
  0
XRECORD
  5
335
102
{ACAD_REACTORS
330
32A
102
}
330
32A
100
AcDbXrecord
  1
{F265D917-FE6C-482E-B2E5-B3D313B602D2}
  0
XRECORD
  5
32D
102
{ACAD_REACTORS
330
32A
102
}
330
32A
100
AcDbXrecord
  1

  0
XRECORD
  5
333
102
{ACAD_REACTORS
330
32A
102
}
330
32A
100
AcDbXrecord
 90
        0
  0
XRECORD
  5
32F
102
{ACAD_REACTORS
330
32A
102
}
330
32A
100
AcDbXrecord
340
19
  0
XRECORD
  5
332
102
{ACAD_REACTORS
330
32A
102
}
330
32A
100
AcDbXrecord
 90
    14877
  0
XRECORD
  5
330
102
{ACAD_REACTORS
330
32A
102
}
330
32A
100
AcDbXrecord
340
18
  0
XRECORD
  5
331
102
{ACAD_REACTORS
330
32A
102
}
330
32A
100
AcDbXrecord
340
E
  0
XRECORD
  5
337
102
{ACAD_REACTORS
330
32A
102
}
330
32A
100
AcDbXrecord
 40
0.0
  0
XRECORD
  5
33B
102
{ACAD_REACTORS
330
32A
102
}
330
32A
100
AcDbXrecord
340
0
  0
XRECORD
  5
341
102
{ACAD_REACTORS
330
32A
102
}
330
32A
100
AcDbXrecord
 10
0.0
 20
0.0
 30
0.0
  0
XRECORD
  5
33D
102
{ACAD_REACTORS
330
32A
102
}
330
32A
100
AcDbXrecord
 10
0.0
 20
0.0
 30
0.0
  0
XRECORD
  5
340
102
{ACAD_REACTORS
330
32A
102
}
330
32A
100
AcDbXrecord
 10
0.0
 20
0.0
 30
0.0
  0
XRECORD
  5
33E
102
{ACAD_REACTORS
330
32A
102
}
330
32A
100
AcDbXrecord
 10
0.0
 20
0.0
 30
0.0
  0
XRECORD
  5
33F
102
{ACAD_REACTORS
330
32A
102
}
330
32A
100
AcDbXrecord
 10
0.0
 20
0.0
 30
0.0
  0
XRECORD
  5
33C
102
{ACAD_REACTORS
330
32A
102
}
330
32A
100
AcDbXrecord
 10
0.0
 20
0.0
 30
0.0
  0
XRECORD
  5
339
102
{ACAD_REACTORS
330
32A
102
}
330
32A
100
AcDbXrecord
340
0
  0
XRECORD
  5
33A
102
{ACAD_REACTORS
330
32A
102
}
330
32A
100
AcDbXrecord
 70
     0
  0
XRECORD
  5
32E
102
{ACAD_REACTORS
330
32A
102
}
330
32A
100
AcDbXrecord
  1

  0
XRECORD
  5
32B
102
{ACAD_REACTORS
330
32A
102
}
330
32A
100
AcDbXrecord
 90
        1
  0
XRECORD
  5
32C
102
{ACAD_REACTORS
330
32A
102
}
330
32A
100
AcDbXrecord
 90
       70
  0
XRECORD
  5
344
102
{ACAD_REACTORS
330
32A
102
}
330
32A
100
AcDbXrecord
340
0
  0
XRECORD
  5
34A
102
{ACAD_REACTORS
330
32A
102
}
330
32A
100
AcDbXrecord
 10
0.0
 20
0.0
 30
0.0
  0
XRECORD
  5
346
102
{ACAD_REACTORS
330
32A
102
}
330
32A
100
AcDbXrecord
 10
0.0
 20
0.0
 30
0.0
  0
XRECORD
  5
349
102
{ACAD_REACTORS
330
32A
102
}
330
32A
100
AcDbXrecord
 10
0.0
 20
0.0
 30
0.0
  0
XRECORD
  5
347
102
{ACAD_REACTORS
330
32A
102
}
330
32A
100
AcDbXrecord
 10
0.0
 20
0.0
 30
0.0
  0
XRECORD
  5
348
102
{ACAD_REACTORS
330
32A
102
}
330
32A
100
AcDbXrecord
 10
0.0
 20
0.0
 30
0.0
  0
XRECORD
  5
345
102
{ACAD_REACTORS
330
32A
102
}
330
32A
100
AcDbXrecord
 10
0.0
 20
0.0
 30
0.0
  0
XRECORD
  5
342
102
{ACAD_REACTORS
330
32A
102
}
330
32A
100
AcDbXrecord
340
0
  0
XRECORD
  5
343
102
{ACAD_REACTORS
330
32A
102
}
330
32A
100
AcDbXrecord
 70
     0
  0
XRECORD
  5
336
102
{ACAD_REACTORS
330
32A
102
}
330
32A
100
AcDbXrecord
  1
{D274A152-571B-499B-86E0-0244516611D3}
  0
DICTIONARYVAR
  5
20A
102
{ACAD_REACTORS
330
208
102
}
330
208
100
DictionaryVariables
280
     0
  1
2
  0
DICTIONARYVAR
  5
209
102
{ACAD_REACTORS
330
208
102
}
330
208
100
DictionaryVariables
280
     0
  1
1
  0
ENDSEC
  0
EOF
