  0
SECTION
  2
HEADER
  9
$ACADVER
  1
AC1015
  9
$ACADMAINTVER
 70
    20
  9
$DWGCODEPAGE
  3
ANSI_1252
  9
$INSBASE
 10
49.14593710826208
 20
5.515867152721892
 30
0.0
  9
$EXTMIN
 10
33.95942915245267
 20
-4.577106448203082
 30
-0.0015258207003583
  9
$EXTMAX
 10
60.72171612470855
 20
8.771522057133196
 30
0.0000000349246037
  9
$LIMMIN
 10
0.0
 20
0.0
  9
$LIMMAX
 10
36.0
 20
36.0
  9
$ORTHOMODE
 70
     1
  9
$REGENMODE
 70
     1
  9
$FILLMODE
 70
     1
  9
$QTEXTMODE
 70
     0
  9
$MIRRTEXT
 70
     1
  9
$LTSCALE
 40
1.0
  9
$ATTMODE
 70
     1
  9
$TEXTSIZE
 40
0.2
  9
$TRACEWID
 40
0.05
  9
$TEXTSTYLE
  7
STANDARD
  9
$CLAYER
  8
0
  9
$CELTYPE
  6
ByLayer
  9
$CECOLOR
 62
   256
  9
$CELTSCALE
 40
1.0
  9
$DISPSILH
 70
     0
  9
$DIMSCALE
 40
1.0
  9
$DIMASZ
 40
0.125
  9
$DIMEXO
 40
0.0625
  9
$DIMDLI
 40
0.38
  9
$DIMRND
 40
0.0
  9
$DIMDLE
 40
0.0
  9
$DIMEXE
 40
0.18
  9
$DIMTP
 40
0.0
  9
$DIMTM
 40
0.0
  9
$DIMTXT
 40
0.125
  9
$DIMCEN
 40
0.1875
  9
$DIMTSZ
 40
0.125
  9
$DIMTOL
 70
     0
  9
$DIMLIM
 70
     0
  9
$DIMTIH
 70
     0
  9
$DIMTOH
 70
     0
  9
$DIMSE1
 70
     0
  9
$DIMSE2
 70
     0
  9
$DIMTAD
 70
     0
  9
$DIMZIN
 70
     3
  9
$DIMBLK
  1

  9
$DIMASO
 70
     1
  9
$DIMSHO
 70
     1
  9
$DIMPOST
  1

  9
$DIMAPOST
  1

  9
$DIMALT
 70
     0
  9
$DIMALTD
 70
     1
  9
$DIMALTF
 40
25.4
  9
$DIMLFAC
 40
1.0
  9
$DIMTOFL
 70
     0
  9
$DIMTVP
 40
0.0
  9
$DIMTIX
 70
     0
  9
$DIMSOXD
 70
     0
  9
$DIMSAH
 70
     0
  9
$DIMBLK1
  1

  9
$DIMBLK2
  1

  9
$DIMSTYLE
  2
Standard
  9
$DIMCLRD
 70
     0
  9
$DIMCLRE
 70
     0
  9
$DIMCLRT
 70
     0
  9
$DIMTFAC
 40
1.0
  9
$DIMGAP
 40
0.125
  9
$DIMJUST
 70
     0
  9
$DIMSD1
 70
     0
  9
$DIMSD2
 70
     0
  9
$DIMTOLJ
 70
     1
  9
$DIMTZIN
 70
     3
  9
$DIMALTZ
 70
     3
  9
$DIMALTTZ
 70
     3
  9
$DIMUPT
 70
     0
  9
$DIMDEC
 70
     4
  9
$DIMTDEC
 70
     4
  9
$DIMALTU
 70
     5
  9
$DIMALTTD
 70
     1
  9
$DIMTXSTY
  7
STANDARD
  9
$DIMAUNIT
 70
     0
  9
$DIMADEC
 70
     0
  9
$DIMALTRND
 40
0.0
  9
$DIMAZIN
 70
     0
  9
$DIMDSEP
 70
    46
  9
$DIMATFIT
 70
     3
  9
$DIMFRAC
 70
     0
  9
$DIMLDRBLK
  1

  9
$DIMLUNIT
 70
     5
  9
$DIMLWD
 70
    -2
  9
$DIMLWE
 70
    -2
  9
$DIMTMOVE
 70
     2
  9
$LUNITS
 70
     5
  9
$LUPREC
 70
     4
  9
$SKETCHINC
 40
0.1
  9
$FILLETRAD
 40
0.187
  9
$AUNITS
 70
     0
  9
$AUPREC
 70
     0
  9
$MENU
  1
acad
  9
$ELEVATION
 40
0.0
  9
$PELEVATION
 40
0.0
  9
$THICKNESS
 40
0.0
  9
$LIMCHECK
 70
     0
  9
$CHAMFERA
 40
0.0
  9
$CHAMFERB
 40
0.0
  9
$CHAMFERC
 40
0.0
  9
$CHAMFERD
 40
0.0
  9
$SKPOLY
 70
     0
  9
$TDCREATE
 40
2450399.684830440
  9
$TDUCREATE
 40
2450399.851497107
  9
$TDUPDATE
 40
2453984.980639387
  9
$TDUUPDATE
 40
2453985.147306053
  9
$TDINDWG
 40
0.0263691204
  9
$TDUSRTIMER
 40
0.0263691204
  9
$USRTIMER
 70
     1
  9
$ANGBASE
 50
0.0
  9
$ANGDIR
 70
     0
  9
$PDMODE
 70
     0
  9
$PDSIZE
 40
0.0
  9
$PLINEWID
 40
0.0
  9
$SPLFRAME
 70
     0
  9
$SPLINETYPE
 70
     6
  9
$SPLINESEGS
 70
     8
  9
$HANDSEED
  5
4CA
  9
$SURFTAB1
 70
     6
  9
$SURFTAB2
 70
     6
  9
$SURFTYPE
 70
     6
  9
$SURFU
 70
     6
  9
$SURFV
 70
     6
  9
$UCSBASE
  2

  9
$UCSNAME
  2

  9
$UCSORG
 10
0.0
 20
0.0
 30
0.0
  9
$UCSXDIR
 10
1.0
 20
0.0
 30
0.0
  9
$UCSYDIR
 10
0.0
 20
1.0
 30
0.0
  9
$UCSORTHOREF
  2

  9
$UCSORTHOVIEW
 70
     0
  9
$UCSORGTOP
 10
0.0
 20
0.0
 30
0.0
  9
$UCSORGBOTTOM
 10
0.0
 20
0.0
 30
0.0
  9
$UCSORGLEFT
 10
0.0
 20
0.0
 30
0.0
  9
$UCSORGRIGHT
 10
0.0
 20
0.0
 30
0.0
  9
$UCSORGFRONT
 10
0.0
 20
0.0
 30
0.0
  9
$UCSORGBACK
 10
0.0
 20
0.0
 30
0.0
  9
$PUCSBASE
  2

  9
$PUCSNAME
  2

  9
$PUCSORG
 10
0.0
 20
0.0
 30
0.0
  9
$PUCSXDIR
 10
1.0
 20
0.0
 30
0.0
  9
$PUCSYDIR
 10
0.0
 20
1.0
 30
0.0
  9
$PUCSORTHOREF
  2

  9
$PUCSORTHOVIEW
 70
     0
  9
$PUCSORGTOP
 10
0.0
 20
0.0
 30
0.0
  9
$PUCSORGBOTTOM
 10
0.0
 20
0.0
 30
0.0
  9
$PUCSORGLEFT
 10
0.0
 20
0.0
 30
0.0
  9
$PUCSORGRIGHT
 10
0.0
 20
0.0
 30
0.0
  9
$PUCSORGFRONT
 10
0.0
 20
0.0
 30
0.0
  9
$PUCSORGBACK
 10
0.0
 20
0.0
 30
0.0
  9
$USERI1
 70
     0
  9
$USERI2
 70
     0
  9
$USERI3
 70
     0
  9
$USERI4
 70
     0
  9
$USERI5
 70
     0
  9
$USERR1
 40
0.0
  9
$USERR2
 40
0.0
  9
$USERR3
 40
0.0
  9
$USERR4
 40
0.0
  9
$USERR5
 40
0.0
  9
$WORLDVIEW
 70
     1
  9
$SHADEDGE
 70
     3
  9
$SHADEDIF
 70
    70
  9
$TILEMODE
 70
     1
  9
$MAXACTVP
 70
    15
  9
$PINSBASE
 10
0.0004882914945483
 20
0.7501408034022604
 30
0.0
  9
$PLIMCHECK
 70
     0
  9
$PEXTMIN
 10
1.000000000000000E+20
 20
1.000000000000000E+20
 30
1.000000000000000E+20
  9
$PEXTMAX
 10
-1.000000000000000E+20
 20
-1.000000000000000E+20
 30
-1.000000000000000E+20
  9
$PLIMMIN
 10
0.0
 20
0.0
  9
$PLIMMAX
 10
12.0
 20
9.0
  9
$UNITMODE
 70
     0
  9
$VISRETAIN
 70
     0
  9
$PLINEGEN
 70
     0
  9
$PSLTSCALE
 70
     1
  9
$TREEDEPTH
 70
  3020
  9
$CMLSTYLE
  2
Standard
  9
$CMLJUST
 70
     0
  9
$CMLSCALE
 40
1.0
  9
$PROXYGRAPHICS
 70
     1
  9
$MEASUREMENT
 70
     0
  9
$CELWEIGHT
370
    -1
  9
$ENDCAPS
280
     0
  9
$JOINSTYLE
280
     0
  9
$LWDISPLAY
290
     0
  9
$INSUNITS
 70
     0
  9
$HYPERLINKBASE
  1

  9
$STYLESHEET
  1

  9
$XEDIT
290
     1
  9
$CEPSNTYPE
380
     0
  9
$PSTYLEMODE
290
     1
  9
$FINGERPRINTGUID
  2
{C4B1663F-7E50-43B9-A98B-3F48A1B7E971}
  9
$VERSIONGUID
  2
{DA0F20AF-EB2E-4332-BBDB-266BA86C2686}
  9
$EXTNAMES
290
     1
  9
$PSVPSCALE
 40
0.0
  9
$OLESTARTUP
290
     0
  0
ENDSEC
  0
SECTION
  2
CLASSES
  0
CLASS
  1
ACDBDICTIONARYWDFLT
  2
AcDbDictionaryWithDefault
  3
ObjectDBX Classes
 90
        0
280
     0
281
     0
  0
CLASS
  1
ACDBPLACEHOLDER
  2
AcDbPlaceHolder
  3
ObjectDBX Classes
 90
        0
280
     0
281
     0
  0
CLASS
  1
LAYOUT
  2
AcDbLayout
  3
ObjectDBX Classes
 90
        0
280
     0
281
     0
  0
CLASS
  1
DICTIONARYVAR
  2
AcDbDictionaryVar
  3
ObjectDBX Classes
 90
        0
280
     0
281
     0
  0
CLASS
  1
MATERIAL
  2
AcDbMaterial
  3
ObjectDBX Classes
 90
     1024
280
     0
281
     0
  0
CLASS
  1
VISUALSTYLE
  2
AcDbVisualStyle
  3
ObjectDBX Classes
 90
     4095
280
     0
281
     0
  0
CLASS
  1
TABLESTYLE
  2
AcDbTableStyle
  3
ObjectDBX Classes
 90
     4095
280
     0
281
     0
  0
ENDSEC
  0
SECTION
  2
TABLES
  0
TABLE
  2
VPORT
  5
8
330
0
100
AcDbSymbolTable
 70
     1
  0
VPORT
  5
359
330
8
100
AcDbSymbolTableRecord
100
AcDbViewportTableRecord
  2
*Active
 70
     0
 10
0.0
 20
0.0
 11
1.0
 21
1.0
 12
47.34057263858061
 22
2.097207804465056
 13
0.0
 23
0.0
 14
0.5740882589684922
 24
0.5740882589684922
 15
0.5
 25
0.5
 16
0.0
 26
0.0
 36
1.0
 17
0.0
 27
0.0
 37
0.0
 40
15.5982352997146
 41
1.726930320150659
 42
50.0
 43
0.0
 44
0.0
 50
0.0
 51
0.0
 71
     0
 72
   100
 73
     1
 74
     0
 75
     0
 76
     0
 77
     0
 78
     0
281
     0
 65
     1
110
0.0
120
0.0
130
0.0
111
1.0
121
0.0
131
0.0
112
0.0
122
1.0
132
0.0
 79
     0
146
0.0
  0
ENDTAB
  0
TABLE
  2
LTYPE
  5
5
330
0
100
AcDbSymbolTable
 70
     1
  0
LTYPE
  5
13
330
5
100
AcDbSymbolTableRecord
100
AcDbLinetypeTableRecord
  2
ByBlock
 70
     0
  3

 72
    65
 73
     0
 40
0.0
  0
LTYPE
  5
14
330
5
100
AcDbSymbolTableRecord
100
AcDbLinetypeTableRecord
  2
ByLayer
 70
     0
  3

 72
    65
 73
     0
 40
0.0
  0
LTYPE
  5
15
330
5
100
AcDbSymbolTableRecord
100
AcDbLinetypeTableRecord
  2
CONTINUOUS
 70
     0
  3
Solid line
 72
    65
 73
     0
 40
0.0
  0
ENDTAB
  0
TABLE
  2
LAYER
  5
2
330
0
100
AcDbSymbolTable
 70
     4
  0
LAYER
  5
10
330
2
100
AcDbSymbolTableRecord
100
AcDbLayerTableRecord
  2
0
 70
     0
 62
     7
  6
CONTINUOUS
370
    -3
390
F
  0
LAYER
  5
EC
330
2
100
AcDbSymbolTableRecord
100
AcDbLayerTableRecord
  2
ADP1DETAIL
 70
     0
 62
     7
  6
CONTINUOUS
370
    -3
390
F
  0
LAYER
  5
EE
330
2
100
AcDbSymbolTableRecord
100
AcDbLayerTableRecord
  2
DEFPOINTS
 70
     0
 62
     7
  6
CONTINUOUS
290
     0
370
    -3
390
F
  0
LAYER
  5
F1
330
2
100
AcDbSymbolTableRecord
100
AcDbLayerTableRecord
  2
ADPDIM
 70
     0
 62
     3
  6
CONTINUOUS
370
    -3
390
F
  0
ENDTAB
  0
TABLE
  2
STYLE
  5
3
330
0
100
AcDbSymbolTable
 70
     2
  0
STYLE
  5
11
330
3
100
AcDbSymbolTableRecord
100
AcDbTextStyleTableRecord
  2
STANDARD
 70
     0
 40
0.0
 41
1.0
 50
0.0
 71
     0
 42
0.2
  3
txt
  4

  0
STYLE
  5
1C6
330
3
100
AcDbSymbolTableRecord
100
AcDbTextStyleTableRecord
  2
ARIAL_WIDE
 70
     0
 40
0.0
 41
1.25
 50
0.0
 71
     0
 42
0.2
  3
ARIAL.TTF
  4

1001
ACAD
1000
Arial
1071
       34
  0
ENDTAB
  0
TABLE
  2
VIEW
  5
6
330
0
100
AcDbSymbolTable
 70
     0
  0
ENDTAB
  0
TABLE
  2
UCS
  5
7
330
0
100
AcDbSymbolTable
 70
     0
  0
ENDTAB
  0
TABLE
  2
APPID
  5
9
330
0
100
AcDbSymbolTable
 70
     1
  0
APPID
  5
12
330
9
100
AcDbSymbolTableRecord
100
AcDbRegAppTableRecord
  2
ACAD
 70
     0
  0
ENDTAB
  0
TABLE
  2
DIMSTYLE
  5
A
330
0
100
AcDbSymbolTable
 70
     1
100
AcDbDimStyleTable
 71
     0
  0
DIMSTYLE
105
1C4
102
{ACAD_REACTORS
330
3FB
330
3FC
330
41E
102
}
330
A
100
AcDbSymbolTableRecord
100
AcDbDimStyleTableRecord
  2
Standard
 70
     0
340
11
  0
ENDTAB
  0
TABLE
  2
BLOCK_RECORD
  5
1
330
0
100
AcDbSymbolTable
 70
    14
  0
BLOCK_RECORD
  5
1E
102
{ACAD_XDICTIONARY
360
203
102
}
330
1
100
AcDbSymbolTableRecord
100
AcDbBlockTableRecord
  2
*Model_Space
340
21
  0
BLOCK_RECORD
  5
1A
102
{ACAD_XDICTIONARY
360
205
102
}
330
1
100
AcDbSymbolTableRecord
100
AcDbBlockTableRecord
  2
*Paper_Space
340
1D
  0
BLOCK_RECORD
  5
9E
330
1
100
AcDbSymbolTableRecord
100
AcDbBlockTableRecord
  2
6935
340
0
  0
BLOCK_RECORD
  5
E3
330
1
100
AcDbSymbolTableRecord
100
AcDbBlockTableRecord
  2
*D1
340
0
  0
BLOCK_RECORD
  5
E4
330
1
100
AcDbSymbolTableRecord
100
AcDbBlockTableRecord
  2
*D2
340
0
  0
BLOCK_RECORD
  5
E5
330
1
100
AcDbSymbolTableRecord
100
AcDbBlockTableRecord
  2
*D3
340
0
  0
BLOCK_RECORD
  5
E6
330
1
100
AcDbSymbolTableRecord
100
AcDbBlockTableRecord
  2
*D4
340
0
  0
BLOCK_RECORD
  5
E7
330
1
100
AcDbSymbolTableRecord
100
AcDbBlockTableRecord
  2
*D5
340
0
  0
BLOCK_RECORD
  5
E8
330
1
100
AcDbSymbolTableRecord
100
AcDbBlockTableRecord
  2
*D6
340
0
  0
BLOCK_RECORD
  5
3AB
330
1
100
AcDbSymbolTableRecord
100
AcDbBlockTableRecord
  2
*D7
340
0
  0
BLOCK_RECORD
  5
3B8
330
1
100
AcDbSymbolTableRecord
100
AcDbBlockTableRecord
  2
*D8
340
0
  0
BLOCK_RECORD
  5
3C5
330
1
100
AcDbSymbolTableRecord
100
AcDbBlockTableRecord
  2
*D9
340
0
  0
BLOCK_RECORD
  5
41F
330
1
100
AcDbSymbolTableRecord
100
AcDbBlockTableRecord
  2
*D11
340
0
  0
BLOCK_RECORD
  5
42C
330
1
100
AcDbSymbolTableRecord
100
AcDbBlockTableRecord
  2
*D12
340
0
  0
BLOCK_RECORD
  5
439
330
1
100
AcDbSymbolTableRecord
100
AcDbBlockTableRecord
  2
*D13
340
0
  0
ENDTAB
  0
ENDSEC
  0
SECTION
  2
BLOCKS
  0
BLOCK
  5
F4
330
1E
100
AcDbEntity
  8
0
100
AcDbBlockBegin
  2
*Model_Space
 70
     0
 10
0.0
 20
0.0
 30
0.0
  3
*Model_Space
  1

  0
ENDBLK
  5
F5
330
1E
100
AcDbEntity
  8
0
100
AcDbBlockEnd
  0
BLOCK
  5
F2
330
1A
100
AcDbEntity
 67
     1
  8
0
100
AcDbBlockBegin
  2
*Paper_Space
 70
     0
 10
0.0
 20
0.0
 30
0.0
  3
*Paper_Space
  1

  0
ENDBLK
  5
F3
330
1A
100
AcDbEntity
 67
     1
  8
0
100
AcDbBlockEnd
  0
BLOCK
  5
F7
330
9E
100
AcDbEntity
  8
0
100
AcDbBlockBegin
  2
6935
 70
     0
 10
0.0
 20
0.0
 30
0.0
  3
6935
  1

  0
ARC
  5
F8
330
9E
100
AcDbEntity
  8
0
100
AcDbCircle
 10
0.8251505165084598
 20
0.3752574129362634
 30
0.0
 40
0.0999999999999997
100
AcDbArc
 50
359.9999999999995
 51
90.0
  0
ARC
  5
F9
330
9E
100
AcDbEntity
  8
0
100
AcDbCircle
 10
1.08115051650846
 20
-1.805742587063736
 30
0.0
 40
2.593999999999999
100
AcDbArc
 50
89.96200675749017
 51
109.6817833868906
  0
LINE
  5
FA
330
9E
100
AcDbEntity
  8
0
100
AcDbLine
 10
0.3001505165084595
 20
0.1842574129362635
 30
0.0
 11
0.3001505165084595
 21
0.0382574129362636
 31
0.0
  0
ARC
  5
FB
330
9E
100
AcDbEntity
  8
0
100
AcDbCircle
 10
0.3311505165084601
 20
0.3502574129362639
 30
0.0
 40
0.312
100
AcDbArc
 50
113.3476747754214
 51
264.2977414232919
  0
LINE
  5
FC
330
9E
100
AcDbEntity
  8
0
100
AcDbLine
 10
0.4151505165084597
 20
0.1942574129362642
 30
0.0
 11
0.3101505165084593
 21
0.1942574129362633
 31
0.0
  0
ARC
  5
FD
330
9E
100
AcDbEntity
  8
0
100
AcDbCircle
 10
0.3101505165084593
 20
0.1842574129362635
 30
0.0
 40
0.0099999999999998
100
AcDbArc
 50
90.0
 51
180.0
  0
ARC
  5
FE
330
9E
100
AcDbEntity
  8
0
100
AcDbCircle
 10
0.6121505165084589
 20
0.4132574129362637
 30
0.0
 40
0.0620000000000003
100
AcDbArc
 50
90.0
 51
180.0
  0
ARC
  5
FF
330
9E
100
AcDbEntity
  8
0
100
AcDbCircle
 10
0.5401505165084597
 20
0.3602574129362637
 30
0.0
 40
0.0099999999999998
100
AcDbArc
 50
270.0
 51
0.0
  0
LINE
  5
100
330
9E
100
AcDbEntity
  8
0
100
AcDbLine
 10
0.5501505165084595
 20
0.4132574129362637
 30
0.0
 11
0.5501505165084595
 21
0.3602574129362637
 31
0.0
  0
ARC
  5
101
330
9E
100
AcDbEntity
  8
0
100
AcDbCircle
 10
0.4351505165084593
 20
0.3402574129362641
 30
0.0
 40
0.0099999999999998
100
AcDbArc
 50
90.0
 51
180.0
  0
LINE
  5
102
330
9E
100
AcDbEntity
  8
0
100
AcDbLine
 10
0.5401505165084597
 20
0.3502574129362639
 30
0.0
 11
0.4351505165084593
 21
0.3502574129362639
 31
0.0
  0
ARC
  5
103
330
9E
100
AcDbEntity
  8
0
100
AcDbCircle
 10
0.4151505165084597
 20
0.204257412936264
 30
0.0
 40
0.0099999999999998
100
AcDbArc
 50
270.0
 51
0.0
  0
LINE
  5
104
330
9E
100
AcDbEntity
  8
0
100
AcDbLine
 10
0.4251505165084595
 20
0.3402574129362641
 30
0.0
 11
0.4251505165084595
 21
0.204257412936264
 31
0.0
  0
LINE
  5
105
330
9E
100
AcDbEntity
  8
0
100
AcDbLine
 10
0.8251505165084598
 20
0.475257412936263
 30
0.0
 11
0.6121505165084589
 21
0.4752574129362639
 31
0.0
  0
LINE
  5
106
330
9E
100
AcDbEntity
  8
0
100
AcDbLine
 10
1.862150516508458
 20
0.1842574129362644
 30
0.0
 11
1.862150516508458
 21
0.0382574129362636
 31
0.0
  0
ARC
  5
107
330
9E
100
AcDbEntity
  8
0
100
AcDbCircle
 10
1.83115051650846
 20
0.3502574129362639
 30
0.0
 40
0.312
100
AcDbArc
 50
275.7022585767081
 51
66.65232522457856
  0
LINE
  5
108
330
9E
100
AcDbEntity
  8
0
100
AcDbLine
 10
1.337150516508458
 20
0.4752574129362639
 30
0.0
 11
1.550150516508457
 21
0.4752574129362639
 31
0.0
  0
ARC
  5
109
330
9E
100
AcDbEntity
  8
0
100
AcDbCircle
 10
1.08115051650846
 20
-1.805742587063736
 30
0.0
 40
2.593999999999999
100
AcDbArc
 50
70.31821661310944
 51
90.03799324250982
  0
LINE
  5
10A
330
9E
100
AcDbEntity
  8
0
100
AcDbLine
 10
1.08115051650846
 20
0.3502574129362639
 30
0.0
 11
1.227150516508459
 21
0.3502574129362639
 31
0.0
  0
LINE
  5
10B
330
9E
100
AcDbEntity
  8
0
100
AcDbLine
 10
1.08115051650846
 20
0.3502574129362639
 30
0.0
 11
0.9351505165084592
 21
0.3502574129362639
 31
0.0
  0
LINE
  5
10C
330
9E
100
AcDbEntity
  8
0
100
AcDbLine
 10
0.9251505165084594
 20
0.3602574129362637
 30
0.0
 11
0.9251505165084594
 21
0.3752574129362625
 31
0.0
  0
ARC
  5
10D
330
9E
100
AcDbEntity
  8
0
100
AcDbCircle
 10
0.9351505165084592
 20
0.3602574129362637
 30
0.0
 40
0.0099999999999998
100
AcDbArc
 50
180.0
 51
270.0
  0
ARC
  5
10E
330
9E
100
AcDbEntity
  8
0
100
AcDbCircle
 10
1.337150516508458
 20
0.3752574129362642
 30
0.0
 40
0.0999999999999997
100
AcDbArc
 50
90.0
 51
180.0
  0
LINE
  5
10F
330
9E
100
AcDbEntity
  8
0
100
AcDbLine
 10
1.237150516508458
 20
0.3602574129362637
 30
0.0
 11
1.237150516508458
 21
0.3752574129362642
 31
0.0
  0
ARC
  5
110
330
9E
100
AcDbEntity
  8
0
100
AcDbCircle
 10
1.227150516508459
 20
0.3602574129362637
 30
0.0
 40
0.0099999999999998
100
AcDbArc
 50
270.0
 51
0.0
  0
ARC
  5
111
330
9E
100
AcDbEntity
  8
0
100
AcDbCircle
 10
1.727150516508459
 20
0.3402574129362641
 30
0.0
 40
0.0099999999999998
100
AcDbArc
 50
0.0
 51
90.0
  0
LINE
  5
112
330
9E
100
AcDbEntity
  8
0
100
AcDbLine
 10
1.612150516508458
 20
0.4132574129362637
 30
0.0
 11
1.612150516508458
 21
0.3502574129362639
 31
0.0
  0
ARC
  5
113
330
9E
100
AcDbEntity
  8
0
100
AcDbCircle
 10
1.550150516508457
 20
0.4132574129362637
 30
0.0
 40
0.0620000000000003
100
AcDbArc
 50
0.0
 51
90.0
  0
LINE
  5
114
330
9E
100
AcDbEntity
  8
0
100
AcDbLine
 10
1.612150516508458
 20
0.3502574129362639
 30
0.0
 11
1.727150516508459
 21
0.3502574129362639
 31
0.0
  0
ARC
  5
115
330
9E
100
AcDbEntity
  8
0
100
AcDbCircle
 10
1.852150516508457
 20
0.1842574129362635
 30
0.0
 40
0.0100000000000007
100
AcDbArc
 50
0.0000000000050889
 51
90.0
  0
ARC
  5
116
330
9E
100
AcDbEntity
  8
0
100
AcDbCircle
 10
1.74715051650846
 20
0.2042574129362649
 30
0.0
 40
0.0100000000000016
100
AcDbArc
 50
180.000000000005
 51
270.0
  0
LINE
  5
117
330
9E
100
AcDbEntity
  8
0
100
AcDbLine
 10
1.74715051650846
 20
0.1942574129362642
 30
0.0
 11
1.852150516508457
 21
0.1942574129362642
 31
0.0
  0
LINE
  5
118
330
9E
100
AcDbEntity
  8
0
100
AcDbLine
 10
1.737150516508458
 20
0.3402574129362641
 30
0.0
 11
1.737150516508458
 21
0.204257412936264
 31
0.0
  0
ENDBLK
  5
119
330
9E
100
AcDbEntity
  8
0
100
AcDbBlockEnd
  0
BLOCK
  5
11A
330
E3
100
AcDbEntity
  8
0
100
AcDbBlockBegin
  2
*D1
 70
     1
 10
0.0
 20
0.0
 30
0.0
  3
*D1
  1

  0
LINE
  5
11B
330
E3
100
AcDbEntity
  8
0
  6
ByBlock
 62
     0
100
AcDbLine
 10
44.55218710826208
 20
-2.710866821661356
 30
0.0
 11
44.55218710826208
 21
-3.425809078536866
 31
0.0
  0
LINE
  5
11C
330
E3
100
AcDbEntity
  8
0
  6
ByBlock
 62
     0
100
AcDbLine
 10
47.35705823909242
 20
-2.710866821661356
 30
0.0
 11
47.35705823909242
 21
-3.425809078536866
 31
0.0
  0
LINE
  5
11D
330
E3
100
AcDbEntity
  8
0
  6
ByBlock
 62
     0
100
AcDbLine
 10
44.55218710826208
 20
-3.245809078536867
 30
0.0
 11
45.45462267367724
 21
-3.245809078536867
 31
0.0
  0
LINE
  5
11E
330
E3
100
AcDbEntity
  8
0
  6
ByBlock
 62
     0
100
AcDbLine
 10
47.35705823909242
 20
-3.245809078536867
 30
0.0
 11
46.45462267367725
 21
-3.245809078536867
 31
0.0
  0
LINE
  5
11F
330
E3
100
AcDbEntity
  8
0
  6
ByBlock
 62
     0
100
AcDbLine
 10
44.42718710826208
 20
-3.370809078536867
 30
0.0
 11
44.67718710826208
 21
-3.120809078536867
 31
0.0
  0
LINE
  5
120
330
E3
100
AcDbEntity
  8
0
  6
ByBlock
 62
     0
100
AcDbLine
 10
47.23205823909242
 20
-3.370809078536867
 30
0.0
 11
47.48205823909242
 21
-3.120809078536867
 31
0.0
  0
TEXT
  5
121
330
E3
100
AcDbEntity
  8
0
  6
ByBlock
 62
     0
100
AcDbText
 10
45.57962267367725
 20
-3.308309078536867
 30
0.0
 40
0.125
  1
2 13/16
 72
     1
 11
45.95462267367724
 21
-3.245809078536867
 31
0.0
100
AcDbText
 73
     2
  0
POINT
  5
123
330
E3
100
AcDbEntity
  8
DEFPOINTS
  6
ByBlock
 62
     0
100
AcDbPoint
 10
44.55218710826208
 20
-2.648366821661356
 30
0.0
  0
POINT
  5
124
330
E3
100
AcDbEntity
  8
DEFPOINTS
  6
ByBlock
 62
     0
100
AcDbPoint
 10
47.35705823909242
 20
-2.648366821661356
 30
0.0
  0
POINT
  5
125
330
E3
100
AcDbEntity
  8
DEFPOINTS
  6
ByBlock
 62
     0
100
AcDbPoint
 10
47.35705823909242
 20
-3.245809078536867
 30
0.0
  0
ENDBLK
  5
126
330
E3
100
AcDbEntity
  8
0
100
AcDbBlockEnd
  0
BLOCK
  5
127
330
E4
100
AcDbEntity
  8
0
100
AcDbBlockBegin
  2
*D2
 70
     1
 10
0.0
 20
0.0
 30
0.0
  3
*D2
  1

  0
LINE
  5
128
330
E4
100
AcDbEntity
  8
0
  6
ByBlock
 62
     0
100
AcDbLine
 10
47.64593710826208
 20
-2.992116821661356
 30
0.0
 11
47.64593710826208
 21
-3.433738472507195
 31
0.0
  0
LINE
  5
129
330
E4
100
AcDbEntity
  8
0
  6
ByBlock
 62
     0
100
AcDbLine
 10
49.14593710826208
 20
-2.367116821661355
 30
0.0
 11
49.14593710826208
 21
-3.433738472507195
 31
0.0
  0
LINE
  5
12A
330
E4
100
AcDbEntity
  8
0
  6
ByBlock
 62
     0
100
AcDbLine
 10
47.64593710826208
 20
-3.253738472507196
 30
0.0
 11
48.02093710826208
 21
-3.253738472507196
 31
0.0
  0
LINE
  5
12B
330
E4
100
AcDbEntity
  8
0
  6
ByBlock
 62
     0
100
AcDbLine
 10
49.14593710826208
 20
-3.253738472507196
 30
0.0
 11
48.77093710826208
 21
-3.253738472507196
 31
0.0
  0
LINE
  5
12C
330
E4
100
AcDbEntity
  8
0
  6
ByBlock
 62
     0
100
AcDbLine
 10
47.52093710826208
 20
-3.378738472507196
 30
0.0
 11
47.77093710826208
 21
-3.128738472507196
 31
0.0
  0
LINE
  5
12D
330
E4
100
AcDbEntity
  8
0
  6
ByBlock
 62
     0
100
AcDbLine
 10
49.02093710826208
 20
-3.378738472507196
 30
0.0
 11
49.27093710826208
 21
-3.128738472507196
 31
0.0
  0
TEXT
  5
12E
330
E4
100
AcDbEntity
  8
0
  6
ByBlock
 62
     0
100
AcDbText
 10
48.14593710826208
 20
-3.316238472507196
 30
0.0
 40
0.125
  1
1 1/2
 72
     1
 11
48.39593710826208
 21
-3.253738472507196
 31
0.0
100
AcDbText
 73
     2
  0
POINT
  5
12F
330
E4
100
AcDbEntity
  8
DEFPOINTS
  6
ByBlock
 62
     0
100
AcDbPoint
 10
47.64593710826208
 20
-2.929616821661356
 30
0.0
  0
POINT
  5
130
330
E4
100
AcDbEntity
  8
DEFPOINTS
  6
ByBlock
 62
     0
100
AcDbPoint
 10
49.14593710826208
 20
-2.304616821661355
 30
0.0
  0
POINT
  5
131
330
E4
100
AcDbEntity
  8
DEFPOINTS
  6
ByBlock
 62
     0
100
AcDbPoint
 10
49.14593710826208
 20
-3.253738472507196
 30
0.0
  0
ENDBLK
  5
132
330
E4
100
AcDbEntity
  8
0
100
AcDbBlockEnd
  0
BLOCK
  5
133
330
E5
100
AcDbEntity
  8
0
100
AcDbBlockBegin
  2
*D3
 70
     1
 10
0.0
 20
0.0
 30
0.0
  3
*D3
  1

  0
LINE
  5
134
330
E5
100
AcDbEntity
  8
0
  6
ByBlock
 62
     0
100
AcDbLine
 10
51.08793684880819
 20
5.799866327477152
 30
0.0
 11
51.68630901444324
 21
5.799866327477152
 31
0.0
  0
LINE
  5
135
330
E5
100
AcDbEntity
  8
0
  6
ByBlock
 62
     0
100
AcDbLine
 10
51.01648073274668
 20
7.361866327477153
 30
0.0
 11
51.68630901444324
 21
7.361866327477153
 31
0.0
  0
LINE
  5
136
330
E5
100
AcDbEntity
  8
0
  6
ByBlock
 62
     0
100
AcDbLine
 10
51.50630901444325
 20
5.799866327477152
 30
0.0
 11
51.50630901444325
 21
6.143366327477153
 31
0.0
  0
LINE
  5
137
330
E5
100
AcDbEntity
  8
0
  6
ByBlock
 62
     0
100
AcDbLine
 10
51.50630901444325
 20
7.361866327477153
 30
0.0
 11
51.50630901444325
 21
7.018366327477153
 31
0.0
  0
LINE
  5
138
330
E5
100
AcDbEntity
  8
0
  6
ByBlock
 62
     0
100
AcDbLine
 10
51.63130901444325
 20
5.674866327477152
 30
0.0
 11
51.38130901444324
 21
5.924866327477152
 31
0.0
  0
LINE
  5
139
330
E5
100
AcDbEntity
  8
0
  6
ByBlock
 62
     0
100
AcDbLine
 10
51.63130901444325
 20
7.236866327477153
 30
0.0
 11
51.38130901444324
 21
7.486866327477153
 31
0.0
  0
TEXT
  5
13A
330
E5
100
AcDbEntity
  8
0
  6
ByBlock
 62
     0
100
AcDbText
 10
51.56880901444324
 20
6.268366327477153
 30
0.0
 40
0.125
  1
1 9/16
 50
90.0
 72
     1
 11
51.50630901444325
 21
6.580866327477153
 31
0.0
100
AcDbText
 73
     2
  0
POINT
  5
13B
330
E5
100
AcDbEntity
  8
DEFPOINTS
  6
ByBlock
 62
     0
100
AcDbPoint
 10
51.0254368488082
 20
5.799866327477152
 30
0.0
  0
POINT
  5
13C
330
E5
100
AcDbEntity
  8
DEFPOINTS
  6
ByBlock
 62
     0
100
AcDbPoint
 10
50.95398073274669
 20
7.361866327477153
 30
0.0
  0
POINT
  5
13D
330
E5
100
AcDbEntity
  8
DEFPOINTS
  6
ByBlock
 62
     0
100
AcDbPoint
 10
51.50630901444325
 20
7.361866327477153
 30
0.0
  0
ENDBLK
  5
13E
330
E5
100
AcDbEntity
  8
0
100
AcDbBlockEnd
  0
BLOCK
  5
13F
330
E6
100
AcDbEntity
  8
0
100
AcDbBlockBegin
  2
*D4
 70
     1
 10
0.0
 20
0.0
 30
0.0
  3
*D4
  1

  0
LINE
  5
140
330
E6
100
AcDbEntity
  8
0
  6
ByBlock
 62
     0
100
AcDbLine
 10
44.27093710826208
 20
4.828367152721893
 30
0.0
 11
44.27093710826208
 21
4.0935691836158
 31
0.0
  0
LINE
  5
141
330
E6
100
AcDbEntity
  8
0
  6
ByBlock
 62
     0
100
AcDbLine
 10
47.64593710826208
 20
4.828367152721893
 30
0.0
 11
47.64593710826208
 21
4.0935691836158
 31
0.0
  0
LINE
  5
142
330
E6
100
AcDbEntity
  8
0
  6
ByBlock
 62
     0
100
AcDbLine
 10
44.27093710826208
 20
4.2735691836158
 30
0.0
 11
45.54177044159541
 21
4.2735691836158
 31
0.0
  0
LINE
  5
143
330
E6
100
AcDbEntity
  8
0
  6
ByBlock
 62
     0
100
AcDbLine
 10
47.64593710826208
 20
4.2735691836158
 30
0.0
 11
46.37510377492874
 21
4.2735691836158
 31
0.0
  0
LINE
  5
144
330
E6
100
AcDbEntity
  8
0
  6
ByBlock
 62
     0
100
AcDbLine
 10
44.14593710826208
 20
4.1485691836158
 30
0.0
 11
44.39593710826208
 21
4.3985691836158
 31
0.0
  0
LINE
  5
145
330
E6
100
AcDbEntity
  8
0
  6
ByBlock
 62
     0
100
AcDbLine
 10
47.52093710826208
 20
4.1485691836158
 30
0.0
 11
47.77093710826208
 21
4.3985691836158
 31
0.0
  0
TEXT
  5
146
330
E6
100
AcDbEntity
  8
0
  6
ByBlock
 62
     0
100
AcDbText
 10
45.66677044159542
 20
4.2110691836158
 30
0.0
 40
0.125
  1
3 3/8
 72
     1
 11
45.95843710826208
 21
4.2735691836158
 31
0.0
100
AcDbText
 73
     2
  0
POINT
  5
147
330
E6
100
AcDbEntity
  8
DEFPOINTS
  6
ByBlock
 62
     0
100
AcDbPoint
 10
44.27093710826208
 20
4.890867152721893
 30
0.0
  0
POINT
  5
148
330
E6
100
AcDbEntity
  8
DEFPOINTS
  6
ByBlock
 62
     0
100
AcDbPoint
 10
47.64593710826208
 20
4.890867152721893
 30
0.0
  0
POINT
  5
149
330
E6
100
AcDbEntity
  8
DEFPOINTS
  6
ByBlock
 62
     0
100
AcDbPoint
 10
47.64593710826208
 20
4.2735691836158
 30
0.0
  0
ENDBLK
  5
14A
330
E6
100
AcDbEntity
  8
0
100
AcDbBlockEnd
  0
BLOCK
  5
14B
330
E7
100
AcDbEntity
  8
0
100
AcDbBlockBegin
  2
*D5
 70
     1
 10
0.0
 20
0.0
 30
0.0
  3
*D5
  1

  0
LINE
  5
14C
330
E7
100
AcDbEntity
  8
0
  6
ByBlock
 62
     0
100
AcDbLine
 10
47.64593710826208
 20
8.328367152721893
 30
0.0
 11
47.64593710826208
 21
8.769988803567732
 31
0.0
  0
LINE
  5
14D
330
E7
100
AcDbEntity
  8
0
  6
ByBlock
 62
     0
100
AcDbLine
 10
49.14593710826208
 20
7.703367152721892
 30
0.0
 11
49.14593710826208
 21
8.769988803567732
 31
0.0
  0
LINE
  5
14E
330
E7
100
AcDbEntity
  8
0
  6
ByBlock
 62
     0
100
AcDbLine
 10
47.64593710826208
 20
8.589988803567733
 30
0.0
 11
48.02093710826208
 21
8.589988803567733
 31
0.0
  0
LINE
  5
14F
330
E7
100
AcDbEntity
  8
0
  6
ByBlock
 62
     0
100
AcDbLine
 10
49.14593710826208
 20
8.589988803567733
 30
0.0
 11
48.77093710826208
 21
8.589988803567733
 31
0.0
  0
LINE
  5
150
330
E7
100
AcDbEntity
  8
0
  6
ByBlock
 62
     0
100
AcDbLine
 10
47.52093710826208
 20
8.464988803567733
 30
0.0
 11
47.77093710826208
 21
8.714988803567733
 31
0.0
  0
LINE
  5
151
330
E7
100
AcDbEntity
  8
0
  6
ByBlock
 62
     0
100
AcDbLine
 10
49.02093710826208
 20
8.464988803567733
 30
0.0
 11
49.27093710826208
 21
8.714988803567733
 31
0.0
  0
TEXT
  5
152
330
E7
100
AcDbEntity
  8
0
  6
ByBlock
 62
     0
100
AcDbText
 10
48.14593710826208
 20
8.527488803567733
 30
0.0
 40
0.125
  1
1 1/2
 72
     1
 11
48.39593710826208
 21
8.589988803567733
 31
0.0
100
AcDbText
 73
     2
  0
POINT
  5
153
330
E7
100
AcDbEntity
  8
DEFPOINTS
  6
ByBlock
 62
     0
100
AcDbPoint
 10
47.64593710826208
 20
8.265867152721893
 30
0.0
  0
POINT
  5
154
330
E7
100
AcDbEntity
  8
DEFPOINTS
  6
ByBlock
 62
     0
100
AcDbPoint
 10
49.14593710826208
 20
7.640867152721892
 30
0.0
  0
POINT
  5
155
330
E7
100
AcDbEntity
  8
DEFPOINTS
  6
ByBlock
 62
     0
100
AcDbPoint
 10
49.14593710826208
 20
8.589988803567733
 30
0.0
  0
ENDBLK
  5
156
330
E7
100
AcDbEntity
  8
0
100
AcDbBlockEnd
  0
BLOCK
  5
157
330
E8
100
AcDbEntity
  8
0
100
AcDbBlockBegin
  2
*D6
 70
     1
 10
0.0
 20
0.0
 30
0.0
  3
*D6
  1

  0
LINE
  5
158
330
E8
100
AcDbEntity
  8
0
  6
ByBlock
 62
     0
100
AcDbLine
 10
50.50230007294448
 20
5.51586715272189
 30
0.0
 11
49.64923672567667
 21
5.51586715272189
 31
0.0
  0
LINE
  5
159
330
E8
100
AcDbEntity
  8
0
  6
ByBlock
 62
     0
100
AcDbLine
 10
50.50230007294448
 20
7.64086715272189
 30
0.0
 11
49.64923672567667
 21
7.64086715272189
 31
0.0
  0
LINE
  5
15A
330
E8
100
AcDbEntity
  8
0
  6
ByBlock
 62
     0
100
AcDbLine
 10
49.82923672567668
 20
5.51586715272189
 30
0.0
 11
49.82923672567668
 21
6.182533819388557
 31
0.0
  0
LINE
  5
15B
330
E8
100
AcDbEntity
  8
0
  6
ByBlock
 62
     0
100
AcDbLine
 10
49.82923672567668
 20
7.64086715272189
 30
0.0
 11
49.82923672567668
 21
6.974200486055223
 31
0.0
  0
LINE
  5
15C
330
E8
100
AcDbEntity
  8
0
  6
ByBlock
 62
     0
100
AcDbLine
 10
49.95423672567667
 20
5.39086715272189
 30
0.0
 11
49.70423672567668
 21
5.64086715272189
 31
0.0
  0
LINE
  5
15D
330
E8
100
AcDbEntity
  8
0
  6
ByBlock
 62
     0
100
AcDbLine
 10
49.95423672567667
 20
7.51586715272189
 30
0.0
 11
49.70423672567668
 21
7.76586715272189
 31
0.0
  0
TEXT
  5
15E
330
E8
100
AcDbEntity
  8
0
  6
ByBlock
 62
     0
100
AcDbText
 10
49.89173672567668
 20
6.307533819388557
 30
0.0
 40
0.125
  1
2 1/8
 50
90.0
 72
     1
 11
49.82923672567668
 21
6.57836715272189
 31
0.0
100
AcDbText
 73
     2
  0
POINT
  5
15F
330
E8
100
AcDbEntity
  8
DEFPOINTS
  6
ByBlock
 62
     0
100
AcDbPoint
 10
50.56480007294448
 20
5.51586715272189
 30
0.0
  0
POINT
  5
160
330
E8
100
AcDbEntity
  8
DEFPOINTS
  6
ByBlock
 62
     0
100
AcDbPoint
 10
50.56480007294448
 20
7.64086715272189
 30
0.0
  0
POINT
  5
161
330
E8
100
AcDbEntity
  8
DEFPOINTS
  6
ByBlock
 62
     0
100
AcDbPoint
 10
49.82923672567668
 20
7.64086715272189
 30
0.0
  0
ENDBLK
  5
162
330
E8
100
AcDbEntity
  8
0
100
AcDbBlockEnd
  0
BLOCK
  5
3AC
330
3AB
100
AcDbEntity
  8
0
100
AcDbBlockBegin
  2
*D7
 70
     1
 10
0.0
 20
0.0
 30
0.0
  3
*D7
  1

  0
LINE
  5
3AD
330
3AB
100
AcDbEntity
  8
ADPDIM
 62
     0
370
    -2
100
AcDbLine
 10
14.35211516547279
 20
-6.548316702674148
 30
0.0
 11
14.35211516547279
 21
-5.967210988905616
 31
0.0
  0
LINE
  5
3AE
330
3AB
100
AcDbEntity
  8
ADPDIM
 62
     0
370
    -2
100
AcDbLine
 10
16.47711516547279
 20
-6.548316702674148
 30
0.0
 11
16.47711516547279
 21
-5.967210988905616
 31
0.0
  0
LINE
  5
3AF
330
3AB
100
AcDbEntity
  8
ADPDIM
 62
     0
370
    -2
100
AcDbLine
 10
14.35211516547279
 20
-6.147210988905616
 30
0.0
 11
15.01878183213945
 21
-6.147210988905616
 31
0.0
  0
LINE
  5
3B0
330
3AB
100
AcDbEntity
  8
ADPDIM
 62
     0
370
    -2
100
AcDbLine
 10
16.47711516547279
 20
-6.147210988905616
 30
0.0
 11
15.81044849880612
 21
-6.147210988905616
 31
0.0
  0
LINE
  5
3B1
330
3AB
100
AcDbEntity
  8
ADPDIM
 62
     0
370
    -2
100
AcDbLine
 10
16.35211516547279
 20
-6.272210988905616
 30
0.0
 11
16.60211516547279
 21
-6.022210988905616
 31
0.0
  0
LINE
  5
3B2
330
3AB
100
AcDbEntity
  8
ADPDIM
 62
     0
370
    -2
100
AcDbLine
 10
14.22711516547279
 20
-6.272210988905616
 30
0.0
 11
14.47711516547279
 21
-6.022210988905616
 31
0.0
  0
MTEXT
  5
3B3
330
3AB
100
AcDbEntity
  8
ADPDIM
 62
     0
100
AcDbMText
 10
15.41461516547279
 20
-6.147210988905616
 30
0.0
 40
0.125
 41
0.0
 71
     5
 72
     1
  1
\A1;2 1/8
 73
     1
 44
1.0
1001
ACAD
1000
MTEXTBEGIN
1070
    73
1070
     1
1070
    44
1040
1.0
1070
    74
1070
     0
1000
MTEXTEND
  0
POINT
  5
3B4
330
3AB
100
AcDbEntity
  8
DEFPOINTS
 62
     0
100
AcDbPoint
 10
14.35211516547279
 20
-6.610816702674148
 30
0.0
  0
POINT
  5
3B5
330
3AB
100
AcDbEntity
  8
DEFPOINTS
 62
     0
100
AcDbPoint
 10
16.47711516547279
 20
-6.610816702674148
 30
0.0
  0
POINT
  5
3B6
330
3AB
100
AcDbEntity
  8
DEFPOINTS
 62
     0
100
AcDbPoint
 10
16.47711516547279
 20
-6.147210988905616
 30
0.0
  0
ENDBLK
  5
3B7
330
3AB
100
AcDbEntity
  8
0
100
AcDbBlockEnd
  0
BLOCK
  5
3B9
330
3B8
100
AcDbEntity
  8
0
100
AcDbBlockBegin
  2
*D8
 70
     1
 10
0.0
 20
0.0
 30
0.0
  3
*D8
  1

  0
LINE
  5
3BA
330
3B8
100
AcDbEntity
  8
ADPDIM
 62
     0
370
    -2
100
AcDbLine
 10
14.63611434022805
 20
-7.13395347853787
 30
0.0
 11
14.63611434022805
 21
-7.837732172021564
 31
0.0
  0
LINE
  5
3BB
330
3B8
100
AcDbEntity
  8
ADPDIM
 62
     0
370
    -2
100
AcDbLine
 10
16.19811434022805
 20
-7.062497362476356
 30
0.0
 11
16.19811434022805
 21
-7.837732172021564
 31
0.0
  0
LINE
  5
3BC
330
3B8
100
AcDbEntity
  8
ADPDIM
 62
     0
370
    -2
100
AcDbLine
 10
14.63611434022805
 20
-7.657732172021564
 30
0.0
 11
14.97961434022805
 21
-7.657732172021564
 31
0.0
  0
LINE
  5
3BD
330
3B8
100
AcDbEntity
  8
ADPDIM
 62
     0
370
    -2
100
AcDbLine
 10
16.19811434022805
 20
-7.657732172021564
 30
0.0
 11
15.85461434022805
 21
-7.657732172021564
 31
0.0
  0
LINE
  5
3BE
330
3B8
100
AcDbEntity
  8
ADPDIM
 62
     0
370
    -2
100
AcDbLine
 10
16.07311434022805
 20
-7.782732172021564
 30
0.0
 11
16.32311434022805
 21
-7.532732172021564
 31
0.0
  0
LINE
  5
3BF
330
3B8
100
AcDbEntity
  8
ADPDIM
 62
     0
370
    -2
100
AcDbLine
 10
14.51111434022805
 20
-7.782732172021564
 30
0.0
 11
14.76111434022805
 21
-7.532732172021564
 31
0.0
  0
MTEXT
  5
3C0
330
3B8
100
AcDbEntity
  8
ADPDIM
 62
     0
100
AcDbMText
 10
15.41711434022805
 20
-7.657732172021564
 30
0.0
 40
0.125
 41
0.0
 71
     5
 72
     1
  1
\A1;1 9/16
 73
     1
 44
1.0
1001
ACAD
1000
MTEXTBEGIN
1070
    73
1070
     1
1070
    44
1040
1.0
1070
    74
1070
     0
1000
MTEXTEND
  0
POINT
  5
3C1
330
3B8
100
AcDbEntity
  8
DEFPOINTS
 62
     0
100
AcDbPoint
 10
14.63611434022805
 20
-7.07145347853787
 30
0.0
  0
POINT
  5
3C2
330
3B8
100
AcDbEntity
  8
DEFPOINTS
 62
     0
100
AcDbPoint
 10
16.19811434022805
 20
-6.999997362476356
 30
0.0
  0
POINT
  5
3C3
330
3B8
100
AcDbEntity
  8
DEFPOINTS
 62
     0
100
AcDbPoint
 10
16.19811434022805
 20
-7.657732172021564
 30
0.0
  0
ENDBLK
  5
3C4
330
3B8
100
AcDbEntity
  8
0
100
AcDbBlockEnd
  0
BLOCK
  5
3C6
330
3C5
100
AcDbEntity
  8
0
 62
     3
100
AcDbBlockBegin
  2
*D9
 70
     1
 10
0.0
 20
0.0
 30
0.0
  3
*D9
  1

  0
LINE
  5
3C7
330
3C5
100
AcDbEntity
  8
ADPDIM
 62
     0
370
    -2
100
AcDbLine
 10
14.75115263635602
 20
-6.976042852406795
 30
0.0
 11
14.75115263635602
 21
-7.365071377413443
 31
0.0
  0
LINE
  5
3C8
330
3C5
100
AcDbEntity
  8
ADPDIM
 62
     0
370
    -2
100
AcDbLine
 10
16.06365263635602
 20
-6.976042852406795
 30
0.0
 11
16.06365263635602
 21
-7.365071377413443
 31
0.0
  0
LINE
  5
3C9
330
3C5
100
AcDbEntity
  8
ADPDIM
 62
     0
370
    -2
100
AcDbLine
 10
14.75115263635602
 20
-7.185071377413443
 30
0.0
 11
14.96990263635602
 21
-7.185071377413443
 31
0.0
  0
LINE
  5
3CA
330
3C5
100
AcDbEntity
  8
ADPDIM
 62
     0
370
    -2
100
AcDbLine
 10
16.06365263635602
 20
-7.185071377413443
 30
0.0
 11
15.84490263635602
 21
-7.185071377413443
 31
0.0
  0
LINE
  5
3CB
330
3C5
100
AcDbEntity
  8
ADPDIM
 62
     0
370
    -2
100
AcDbLine
 10
15.93865263635602
 20
-7.310071377413443
 30
0.0
 11
16.18865263635601
 21
-7.060071377413443
 31
0.0
  0
LINE
  5
3CC
330
3C5
100
AcDbEntity
  8
ADPDIM
 62
     0
370
    -2
100
AcDbLine
 10
14.62615263635601
 20
-7.310071377413443
 30
0.0
 11
14.87615263635602
 21
-7.060071377413443
 31
0.0
  0
MTEXT
  5
3CD
330
3C5
100
AcDbEntity
  8
ADPDIM
 62
     0
100
AcDbMText
 10
15.40740263635601
 20
-7.185071377413443
 30
0.0
 40
0.125
 41
0.0
 71
     5
 72
     1
  1
\A1;1 5/16
 73
     1
 44
1.0
1001
ACAD
1000
MTEXTBEGIN
1070
    73
1070
     1
1070
    44
1040
1.0
1070
    74
1070
     0
1000
MTEXTEND
  0
POINT
  5
3CE
330
3C5
100
AcDbEntity
  8
DEFPOINTS
 62
     0
100
AcDbPoint
 10
14.75115263635602
 20
-6.913542852406795
 30
0.0
  0
POINT
  5
3CF
330
3C5
100
AcDbEntity
  8
DEFPOINTS
 62
     0
100
AcDbPoint
 10
16.06365263635602
 20
-6.913542852406795
 30
0.0
  0
POINT
  5
3D0
330
3C5
100
AcDbEntity
  8
DEFPOINTS
 62
     0
100
AcDbPoint
 10
16.06365263635602
 20
-7.185071377413443
 30
0.0
  0
ENDBLK
  5
3D1
330
3C5
100
AcDbEntity
  8
0
 62
     3
100
AcDbBlockEnd
  0
BLOCK
  5
42A
330
41F
100
AcDbEntity
  8
0
100
AcDbBlockBegin
  2
*D11
 70
     1
 10
0.0
 20
0.0
 30
0.0
  3
*D11
  1

  0
LINE
  5
482
330
41F
100
AcDbEntity
  8
ADPDIM
 62
     0
370
    -2
100
AcDbLine
 10
50.40881970815056
 20
5.489146439935531
 30
0.0
 11
49.82771399438203
 21
5.489146439935532
 31
0.0
  0
LINE
  5
483
330
41F
100
AcDbEntity
  8
ADPDIM
 62
     0
370
    -2
100
AcDbLine
 10
50.40881970815056
 20
7.614146439935531
 30
0.0
 11
49.82771399438203
 21
7.614146439935532
 31
0.0
  0
LINE
  5
484
330
41F
100
AcDbEntity
  8
ADPDIM
 62
     0
370
    -2
100
AcDbLine
 10
50.00771399438203
 20
5.489146439935531
 30
0.0
 11
50.00771399438203
 21
6.155813106602198
 31
0.0
  0
LINE
  5
485
330
41F
100
AcDbEntity
  8
ADPDIM
 62
     0
370
    -2
100
AcDbLine
 10
50.00771399438203
 20
7.614146439935531
 30
0.0
 11
50.00771399438203
 21
6.947479773268864
 31
0.0
  0
LINE
  5
486
330
41F
100
AcDbEntity
  8
ADPDIM
 62
     0
370
    -2
100
AcDbLine
 10
50.13271399438202
 20
7.489146439935531
 30
0.0
 11
49.88271399438203
 21
7.739146439935532
 31
0.0
  0
LINE
  5
487
330
41F
100
AcDbEntity
  8
ADPDIM
 62
     0
370
    -2
100
AcDbLine
 10
50.13271399438202
 20
5.364146439935531
 30
0.0
 11
49.88271399438203
 21
5.614146439935532
 31
0.0
  0
MTEXT
  5
488
330
41F
100
AcDbEntity
  8
ADPDIM
 62
     0
100
AcDbMText
 10
50.00771399438203
 20
6.55164643993554
 30
0.0
 40
0.125
 41
0.0
 71
     5
 72
     1
  1
\A1;2 1/8
 11
0.0000000000000001
 21
1.0
 31
0.0
 73
     1
 44
1.0
1001
ACAD
1000
MTEXTBEGIN
1070
    73
1070
     1
1070
    44
1040
1.0
1070
    74
1070
     0
1000
MTEXTEND
  0
POINT
  5
489
330
41F
100
AcDbEntity
  8
DEFPOINTS
 62
     0
100
AcDbPoint
 10
50.47131970815056
 20
5.489146439935531
 30
0.0
  0
POINT
  5
48A
330
41F
100
AcDbEntity
  8
DEFPOINTS
 62
     0
100
AcDbPoint
 10
50.47131970815056
 20
7.614146439935531
 30
0.0
  0
POINT
  5
48B
330
41F
100
AcDbEntity
  8
DEFPOINTS
 62
     0
100
AcDbPoint
 10
50.00771399438203
 20
7.614146439935531
 30
0.0
  0
ENDBLK
  5
42B
330
41F
100
AcDbEntity
  8
0
100
AcDbBlockEnd
  0
BLOCK
  5
437
330
42C
100
AcDbEntity
  8
0
100
AcDbBlockBegin
  2
*D12
 70
     1
 10
0.0
 20
0.0
 30
0.0
  3
*D12
  1

  0
LINE
  5
48C
330
42C
100
AcDbEntity
  8
ADPDIM
 62
     0
370
    -2
100
AcDbLine
 10
50.99445648401428
 20
5.773145614690797
 30
0.0
 11
51.69823517749797
 21
5.773145614690797
 31
0.0
  0
LINE
  5
48D
330
42C
100
AcDbEntity
  8
ADPDIM
 62
     0
370
    -2
100
AcDbLine
 10
50.92300036795276
 20
7.335145614690794
 30
0.0
 11
51.69823517749797
 21
7.335145614690794
 31
0.0
  0
LINE
  5
48E
330
42C
100
AcDbEntity
  8
ADPDIM
 62
     0
370
    -2
100
AcDbLine
 10
51.51823517749797
 20
5.773145614690797
 30
0.0
 11
51.51823517749797
 21
6.116645614690796
 31
0.0
  0
LINE
  5
48F
330
42C
100
AcDbEntity
  8
ADPDIM
 62
     0
370
    -2
100
AcDbLine
 10
51.51823517749797
 20
7.335145614690794
 30
0.0
 11
51.51823517749797
 21
6.991645614690796
 31
0.0
  0
LINE
  5
490
330
42C
100
AcDbEntity
  8
ADPDIM
 62
     0
370
    -2
100
AcDbLine
 10
51.64323517749798
 20
7.210145614690794
 30
0.0
 11
51.39323517749797
 21
7.460145614690794
 31
0.0
  0
LINE
  5
491
330
42C
100
AcDbEntity
  8
ADPDIM
 62
     0
370
    -2
100
AcDbLine
 10
51.64323517749798
 20
5.648145614690797
 30
0.0
 11
51.39323517749797
 21
5.898145614690797
 31
0.0
  0
MTEXT
  5
492
330
42C
100
AcDbEntity
  8
ADPDIM
 62
     0
100
AcDbMText
 10
51.51823517749797
 20
6.554145614690804
 30
0.0
 40
0.125
 41
0.0
 71
     5
 72
     1
  1
\A1;1 9/16
 11
0.0000000000000001
 21
1.0
 31
0.0
 73
     1
 44
1.0
1001
ACAD
1000
MTEXTBEGIN
1070
    73
1070
     1
1070
    44
1040
1.0
1070
    74
1070
     0
1000
MTEXTEND
  0
POINT
  5
493
330
42C
100
AcDbEntity
  8
DEFPOINTS
 62
     0
100
AcDbPoint
 10
50.93195648401429
 20
5.773145614690797
 30
0.0
  0
POINT
  5
494
330
42C
100
AcDbEntity
  8
DEFPOINTS
 62
     0
100
AcDbPoint
 10
50.86050036795277
 20
7.335145614690794
 30
0.0
  0
POINT
  5
495
330
42C
100
AcDbEntity
  8
DEFPOINTS
 62
     0
100
AcDbPoint
 10
51.51823517749797
 20
7.335145614690794
 30
0.0
  0
ENDBLK
  5
438
330
42C
100
AcDbEntity
  8
0
100
AcDbBlockEnd
  0
BLOCK
  5
444
330
439
100
AcDbEntity
  8
0
100
AcDbBlockBegin
  2
*D13
 70
     1
 10
0.0
 20
0.0
 30
0.0
  3
*D13
  1

  0
LINE
  5
496
330
439
100
AcDbEntity
  8
ADPDIM
 62
     0
370
    -2
100
AcDbLine
 10
50.83654585788321
 20
5.88818391081876
 30
0.0
 11
51.22557438288986
 21
5.88818391081876
 31
0.0
  0
LINE
  5
497
330
439
100
AcDbEntity
  8
ADPDIM
 62
     0
370
    -2
100
AcDbLine
 10
50.83654585788321
 20
7.20068391081876
 30
0.0
 11
51.22557438288986
 21
7.20068391081876
 31
0.0
  0
LINE
  5
498
330
439
100
AcDbEntity
  8
ADPDIM
 62
     0
370
    -2
100
AcDbLine
 10
51.04557438288985
 20
5.88818391081876
 30
0.0
 11
51.04557438288985
 21
6.10693391081876
 31
0.0
  0
LINE
  5
499
330
439
100
AcDbEntity
  8
ADPDIM
 62
     0
370
    -2
100
AcDbLine
 10
51.04557438288985
 20
7.20068391081876
 30
0.0
 11
51.04557438288985
 21
6.98193391081876
 31
0.0
  0
LINE
  5
49A
330
439
100
AcDbEntity
  8
ADPDIM
 62
     0
370
    -2
100
AcDbLine
 10
51.17057438288985
 20
7.07568391081876
 30
0.0
 11
50.92057438288986
 21
7.32568391081876
 31
0.0
  0
LINE
  5
49B
330
439
100
AcDbEntity
  8
ADPDIM
 62
     0
370
    -2
100
AcDbLine
 10
51.17057438288985
 20
5.76318391081876
 30
0.0
 11
50.92057438288986
 21
6.01318391081876
 31
0.0
  0
MTEXT
  5
49C
330
439
100
AcDbEntity
  8
ADPDIM
 62
     0
100
AcDbMText
 10
51.04557438288985
 20
6.544433910818768
 30
0.0
 40
0.125
 41
0.0
 71
     5
 72
     1
  1
\A1;1 5/16
 11
0.0000000000000001
 21
1.0
 31
0.0
 73
     1
 44
1.0
1001
ACAD
1000
MTEXTBEGIN
1070
    73
1070
     1
1070
    44
1040
1.0
1070
    74
1070
     0
1000
MTEXTEND
  0
POINT
  5
49D
330
439
100
AcDbEntity
  8
DEFPOINTS
 62
     0
100
AcDbPoint
 10
50.77404585788321
 20
5.88818391081876
 30
0.0
  0
POINT
  5
49E
330
439
100
AcDbEntity
  8
DEFPOINTS
 62
     0
100
AcDbPoint
 10
50.77404585788321
 20
7.20068391081876
 30
0.0
  0
POINT
  5
49F
330
439
100
AcDbEntity
  8
DEFPOINTS
 62
     0
100
AcDbPoint
 10
51.04557438288985
 20
7.20068391081876
 30
0.0
  0
ENDBLK
  5
445
330
439
100
AcDbEntity
  8
0
100
AcDbBlockEnd
  0
ENDSEC
  0
SECTION
  2
ENTITIES
  0
LWPOLYLINE
  5
165
330
1E
100
AcDbEntity
  8
ADP1DETAIL
100
AcDbPolyline
 90
        3
 70
     0
 43
0.0
 10
44.27093710826208
 20
5.515867152721895
 10
42.77093710826208
 20
5.515867152721895
 10
42.77093710826208
 20
7.640867152721895
  0
LINE
  5
16A
330
1E
100
AcDbEntity
  8
ADP1DETAIL
100
AcDbLine
 10
45.27093710826208
 20
6.640867152721899
 30
0.0
 11
44.27093710826208
 21
7.640867152721897
 31
0.0
  0
LINE
  5
16B
330
1E
100
AcDbEntity
  8
ADP1DETAIL
100
AcDbLine
 10
45.27093710826208
 20
5.890867152721893
 30
0.0
 11
45.27093710826208
 21
7.265867152721893
 31
0.0
  0
LINE
  5
16C
330
1E
100
AcDbEntity
  8
ADP1DETAIL
100
AcDbLine
 10
46.64593710826208
 20
7.265867152721893
 30
0.0
 11
46.64593710826208
 21
5.890867152721893
 31
0.0
  0
LINE
  5
16D
330
1E
100
AcDbEntity
  8
ADP1DETAIL
100
AcDbLine
 10
46.64593710826208
 20
6.640867152721893
 30
0.0
 11
47.64593710826208
 21
7.640867152721893
 31
0.0
  0
LINE
  5
16F
330
1E
100
AcDbEntity
  8
ADP1DETAIL
100
AcDbLine
 10
49.14593710826208
 20
7.640867152721892
 30
0.0
 11
49.14593710826208
 21
5.515867152721892
 31
0.0
  0
LINE
  5
170
330
1E
100
AcDbEntity
  8
ADP1DETAIL
100
AcDbLine
 10
42.77093710826208
 20
-0.1796168216613569
 30
0.0
 11
42.77093710826208
 21
-2.304616821661356
 31
0.0
  0
LINE
  5
171
330
1E
100
AcDbEntity
  8
ADP1DETAIL
100
AcDbLine
 10
44.79346226661781
 20
-1.773697147378559
 30
0.0
 11
44.7934622666178
 21
-2.273366821661356
 31
0.0
  0
LINE
  5
172
330
1E
100
AcDbEntity
  8
ADP1DETAIL
100
AcDbLine
 10
47.12341194990636
 20
-2.273366821661356
 30
0.0
 11
47.12341194990636
 21
-1.77369714737856
 31
0.0
  0
LINE
  5
173
330
1E
100
AcDbEntity
  8
ADP1DETAIL
100
AcDbLine
 10
49.14593710826208
 20
-2.304616821661355
 30
0.0
 11
49.14593710826208
 21
-0.1796168216613552
 31
0.0
  0
LINE
  5
174
330
1E
100
AcDbEntity
  8
ADP1DETAIL
100
AcDbLine
 10
49.14593710826208
 20
-2.304616821661355
 30
0.0
 11
49.14593710826208
 21
-0.1796168216613552
 31
0.0
  0
DIMENSION
  5
175
330
1E
100
AcDbEntity
  8
ADPDIM
100
AcDbDimension
  2
*D1
 10
47.35705823909242
 20
-3.245809078536867
 30
0.0
 11
45.95462267367724
 21
-3.245809078536867
 31
0.0
 71
     5
 42
-1.0
100
AcDbAlignedDimension
 13
44.55218710826208
 23
-2.648366821661356
 33
0.0
 14
47.35705823909242
 24
-2.648366821661356
 34
0.0
100
AcDbRotatedDimension
  0
LINE
  5
176
330
1E
100
AcDbEntity
  8
ADP1DETAIL
100
AcDbLine
 10
44.55218710826208
 20
-2.648366821661356
 30
0.0
 11
47.36468710826208
 21
-2.648366821661356
 31
0.0
  0
LINE
  5
177
330
1E
100
AcDbEntity
  8
ADP1DETAIL
100
AcDbLine
 10
44.27093710826208
 20
-2.929616821661356
 30
0.0
 11
47.64593710826208
 21
-2.929616821661356
 31
0.0
  0
LINE
  5
178
330
1E
100
AcDbEntity
  8
ADP1DETAIL
100
AcDbLine
 10
44.92718710826208
 20
-2.535771792025771
 30
0.0
 11
46.98968710826208
 21
-2.535771792025771
 31
0.0
  0
LINE
  5
179
330
1E
100
AcDbEntity
  8
ADP1DETAIL
100
AcDbLine
 10
44.92718710826208
 20
-2.407091663305637
 30
0.0
 11
46.98968710826208
 21
-2.407091663305637
 31
0.0
  0
LINE
  5
17A
330
1E
100
AcDbEntity
  8
ADP1DETAIL
100
AcDbLine
 10
42.77093710826208
 20
-2.304616821661356
 30
0.0
 11
44.27093710826208
 21
-2.304616821661358
 31
0.0
  0
LINE
  5
17B
330
1E
100
AcDbEntity
  8
ADP1DETAIL
100
AcDbLine
 10
42.77093710826208
 20
-1.902377276098691
 30
0.0
 11
44.66478213789766
 21
-1.902377276098693
 31
0.0
  0
LINE
  5
17C
330
1E
100
AcDbEntity
  8
ADP1DETAIL
100
AcDbLine
 10
42.77093710826208
 20
-2.014972305734277
 30
0.0
 11
44.55218710826208
 21
-2.014972305734278
 31
0.0
  0
LINE
  5
17D
330
1E
100
AcDbEntity
  8
ADP1DETAIL
100
AcDbLine
 10
44.27093710826208
 20
-2.304616821661358
 30
0.0
 11
44.27093710826208
 21
-2.929616821661356
 31
0.0
  0
LINE
  5
17E
330
1E
100
AcDbEntity
  8
ADP1DETAIL
100
AcDbLine
 10
44.92718710826208
 20
-2.273366821661356
 30
0.0
 11
44.92718710826208
 21
-2.535771792025771
 31
0.0
  0
LINE
  5
17F
330
1E
100
AcDbEntity
  8
ADP1DETAIL
100
AcDbLine
 10
44.55218710826208
 20
-2.014972305734278
 30
0.0
 11
44.55218710826208
 21
-2.648366821661356
 31
0.0
  0
LINE
  5
180
330
1E
100
AcDbEntity
  8
ADP1DETAIL
100
AcDbLine
 10
44.66478213789766
 20
-2.273366821661356
 30
0.0
 11
44.92718710826208
 21
-2.273366821661356
 31
0.0
  0
LINE
  5
181
330
1E
100
AcDbEntity
  8
ADP1DETAIL
100
AcDbLine
 10
44.66478213789766
 20
-1.902377276098693
 30
0.0
 11
44.66478213789766
 21
-2.273366821661356
 31
0.0
  0
LINE
  5
182
330
1E
100
AcDbEntity
  8
ADP1DETAIL
100
AcDbLine
 10
49.14593710826208
 20
-1.902377276098691
 30
0.0
 11
47.2520920786265
 21
-1.902377276098694
 31
0.0
  0
LINE
  5
183
330
1E
100
AcDbEntity
  8
ADP1DETAIL
100
AcDbLine
 10
49.14593710826208
 20
-2.014972305734277
 30
0.0
 11
47.36468710826208
 21
-2.014972305734278
 31
0.0
  0
LINE
  5
184
330
1E
100
AcDbEntity
  8
ADP1DETAIL
100
AcDbLine
 10
46.98968710826208
 20
-2.273366821661356
 30
0.0
 11
47.2520920786265
 21
-2.273366821661356
 31
0.0
  0
LINE
  5
185
330
1E
100
AcDbEntity
  8
ADP1DETAIL
100
AcDbLine
 10
46.98968710826208
 20
-2.535771792025771
 30
0.0
 11
46.98968710826208
 21
-2.273366821661356
 31
0.0
  0
LINE
  5
186
330
1E
100
AcDbEntity
  8
ADP1DETAIL
100
AcDbLine
 10
47.36468710826208
 20
-2.648366821661356
 30
0.0
 11
47.36468710826208
 21
-2.014972305734278
 31
0.0
  0
LINE
  5
187
330
1E
100
AcDbEntity
  8
ADP1DETAIL
100
AcDbLine
 10
47.2520920786265
 20
-2.273366821661356
 30
0.0
 11
47.2520920786265
 21
-1.902377276098694
 31
0.0
  0
DIMENSION
  5
188
330
1E
100
AcDbEntity
  8
ADPDIM
100
AcDbDimension
  2
*D2
 10
49.14593710826208
 20
-3.253738472507196
 30
0.0
 11
48.39593710826208
 21
-3.253738472507196
 31
0.0
 71
     5
 42
-1.0
100
AcDbAlignedDimension
 13
47.64593710826208
 23
-2.929616821661356
 33
0.0
 14
49.14593710826208
 24
-2.304616821661355
 34
0.0
 50
180.0
100
AcDbRotatedDimension
  0
LINE
  5
189
330
1E
100
AcDbEntity
  8
ADP1DETAIL
100
AcDbLine
 10
47.64593710826208
 20
-2.304616821661356
 30
0.0
 11
49.14593710826208
 21
-2.304616821661355
 31
0.0
  0
LINE
  5
18A
330
1E
100
AcDbEntity
  8
ADP1DETAIL
100
AcDbLine
 10
47.64593710826208
 20
-2.929616821661356
 30
0.0
 11
47.64593710826208
 21
-2.304616821661356
 31
0.0
  0
DIMENSION
  5
18B
330
1E
100
AcDbEntity
  8
ADPDIM
100
AcDbDimension
  2
*D4
 10
47.64593710826208
 20
4.2735691836158
 30
0.0
 11
45.95843710826208
 21
4.2735691836158
 31
0.0
 71
     5
 42
-1.0
100
AcDbAlignedDimension
 13
44.27093710826208
 23
4.890867152721893
 33
0.0
 14
47.64593710826208
 24
4.890867152721893
 34
0.0
100
AcDbRotatedDimension
  0
LINE
  5
18C
330
1E
100
AcDbEntity
  8
ADP1DETAIL
100
AcDbLine
 10
46.64593710826208
 20
5.890867152721893
 30
0.0
 11
45.27093710826208
 21
5.890867152721893
 31
0.0
  0
LINE
  5
18D
330
1E
100
AcDbEntity
  8
ADP1DETAIL
100
AcDbLine
 10
46.64671618313066
 20
2.584359074760055
 30
0.0
 11
45.27171618313066
 21
2.584359074760055
 31
0.0
  0
LINE
  5
18E
330
1E
100
AcDbEntity
  8
ADP1DETAIL
100
AcDbLine
 10
42.77171618313066
 20
2.584359074760055
 30
0.0
 11
49.14671618313066
 21
2.584359074760055
 31
0.0
  0
LINE
  5
18F
330
1E
100
AcDbEntity
  8
ADP1DETAIL
100
AcDbLine
 10
49.14671618313066
 20
1.804502479288718
 30
0.0
 11
42.77171618313066
 21
1.804502479288718
 31
0.0
  0
LINE
  5
190
330
1E
100
AcDbEntity
  8
ADP1DETAIL
100
AcDbLine
 10
44.27093710826208
 20
0.4453831783386431
 30
0.0
 11
47.64593710826208
 21
0.4453831783386431
 31
0.0
  0
LINE
  5
191
330
1E
100
AcDbEntity
  8
ADP1DETAIL
100
AcDbLine
 10
47.36468710826208
 20
0.164133178338643
 30
0.0
 11
44.55218710826208
 21
0.1641331783386439
 31
0.0
  0
LINE
  5
192
330
1E
100
AcDbEntity
  8
ADP1DETAIL
100
AcDbLine
 10
46.98968710826208
 20
0.0515381487030577
 30
0.0
 11
44.92718710826208
 21
0.0515381487030577
 31
0.0
  0
LINE
  5
193
330
1E
100
AcDbEntity
  8
ADP1DETAIL
100
AcDbLine
 10
46.98968710826208
 20
-0.0771419800170801
 30
0.0
 11
44.92718710826208
 21
-0.0771419800170765
 31
0.0
  0
LINE
  5
194
330
1E
100
AcDbEntity
  8
ADP1DETAIL
100
AcDbLine
 10
44.27093710826208
 20
4.890867152721895
 30
0.0
 11
47.64593710826208
 21
4.890867152721895
 31
0.0
  0
LINE
  5
195
330
1E
100
AcDbEntity
  8
ADP1DETAIL
100
AcDbLine
 10
42.77093710826208
 20
-0.469261337588435
 30
0.0
 11
44.55218710826208
 21
-0.4692613375884332
 31
0.0
  0
LINE
  5
196
330
1E
100
AcDbEntity
  8
ADP1DETAIL
100
AcDbLine
 10
42.77093710826208
 20
-0.7105364959441545
 30
0.0
 11
44.7934622666178
 21
-0.7105364959441527
 31
0.0
  0
LINE
  5
197
330
1E
100
AcDbEntity
  8
ADP1DETAIL
100
AcDbLine
 10
42.77093710826208
 20
-0.5818563672240203
 30
0.0
 11
44.66478213789766
 21
-0.5818563672240185
 31
0.0
  0
LINE
  5
198
330
1E
100
AcDbEntity
  8
ADP1DETAIL
100
AcDbLine
 10
44.27093710826208
 20
-0.1796168216613569
 30
0.0
 11
42.77093710826208
 21
-0.1796168216613569
 31
0.0
  0
LINE
  5
199
330
1E
100
AcDbEntity
  8
ADP1DETAIL
100
AcDbLine
 10
42.77093710826208
 20
-1.773697147378557
 30
0.0
 11
44.79346226661781
 21
-1.773697147378559
 31
0.0
  0
LINE
  5
19A
330
1E
100
AcDbEntity
  8
ADP1DETAIL
100
AcDbLine
 10
42.77171618313066
 20
1.804502479288718
 30
0.0
 11
42.77171618313066
 21
2.584359074760055
 31
0.0
  0
LINE
  5
19B
330
1E
100
AcDbEntity
  8
ADP1DETAIL
100
AcDbLine
 10
44.27093710826208
 20
0.4453831783386431
 30
0.0
 11
44.27093710826208
 21
-0.1796168216613587
 31
0.0
  0
LINE
  5
19C
330
1E
100
AcDbEntity
  8
ADP1DETAIL
100
AcDbLine
 10
44.55218710826208
 20
0.1641331783386439
 30
0.0
 11
44.55218710826208
 21
-0.469261337588435
 31
0.0
  0
LINE
  5
19D
330
1E
100
AcDbEntity
  8
ADP1DETAIL
100
AcDbLine
 10
44.92718710826208
 20
-0.2108668216613561
 30
0.0
 11
44.66478213789766
 21
-0.2108668216613561
 31
0.0
  0
LINE
  5
19E
330
1E
100
AcDbEntity
  8
ADP1DETAIL
100
AcDbLine
 10
44.66478213789766
 20
-0.2108668216613561
 30
0.0
 11
44.66478213789766
 21
-0.5818563672240194
 31
0.0
  0
LINE
  5
19F
330
1E
100
AcDbEntity
  8
ADP1DETAIL
100
AcDbLine
 10
44.7934622666178
 20
-0.2108668216613552
 30
0.0
 11
44.7934622666178
 21
-0.7105364959441527
 31
0.0
  0
LINE
  5
1A0
330
1E
100
AcDbEntity
  8
ADP1DETAIL
100
AcDbLine
 10
44.92718710826208
 20
0.0515381487030577
 30
0.0
 11
44.92718710826208
 21
-0.2108668216613561
 31
0.0
  0
ARC
  5
1A1
330
1E
100
AcDbEntity
  8
ADP1DETAIL
100
AcDbCircle
 10
44.58507598790918
 20
2.146359645065365
 30
0.0
 40
0.312
100
AcDbArc
 50
113.3476747754214
 51
264.2977414232919
  0
ARC
  5
1A2
330
1E
100
AcDbEntity
  8
ADP1DETAIL
100
AcDbCircle
 10
45.3082061480648
 20
-0.001230311152943
 30
0.0
 40
2.57712957706942
100
AcDbArc
 50
91.76968320857817
 51
109.1822689567544
  0
LINE
  5
1A3
330
1E
100
AcDbEntity
  8
ADP1DETAIL
100
AcDbLine
 10
44.27093710826208
 20
5.515867152721897
 30
0.0
 11
45.27093710826208
 21
6.515867152721899
 31
0.0
  0
LINE
  5
1A4
330
1E
100
AcDbEntity
  8
ADP1DETAIL
100
AcDbLine
 10
45.27093710826208
 20
5.890867152721893
 30
0.0
 11
44.27093710826208
 21
4.890867152721893
 31
0.0
  0
LINE
  5
1A5
330
1E
100
AcDbEntity
  8
ADP1DETAIL
100
AcDbLine
 10
44.27093710826208
 20
4.890867152721895
 30
0.0
 11
44.27093710826208
 21
5.515867152721897
 31
0.0
  0
ARC
  5
1A6
330
1E
100
AcDbEntity
  8
ADP1DETAIL
100
AcDbCircle
 10
46.62213692561556
 20
-0.001230311152943
 30
0.0
 40
2.57712957706942
100
AcDbArc
 50
70.81773104324557
 51
88.23031679142182
  0
LINE
  5
1A7
330
1E
100
AcDbEntity
  8
ADP1DETAIL
100
AcDbLine
 10
49.14593710826208
 20
-1.773697147378557
 30
0.0
 11
47.12341194990636
 21
-1.77369714737856
 31
0.0
  0
LINE
  5
1A8
330
1E
100
AcDbEntity
  8
ADP1DETAIL
100
AcDbLine
 10
49.14593710826208
 20
-0.7105364959441545
 30
0.0
 11
47.12341194990636
 21
-0.7105364959441518
 31
0.0
  0
LINE
  5
1A9
330
1E
100
AcDbEntity
  8
ADP1DETAIL
100
AcDbLine
 10
49.14593710826208
 20
-0.5818563672240203
 30
0.0
 11
47.2520920786265
 21
-0.5818563672240185
 31
0.0
  0
LINE
  5
1AA
330
1E
100
AcDbEntity
  8
ADP1DETAIL
100
AcDbLine
 10
49.14593710826208
 20
-0.469261337588435
 30
0.0
 11
47.36468710826208
 21
-0.4692613375884332
 31
0.0
  0
ARC
  5
1AB
330
1E
100
AcDbEntity
  8
ADP1DETAIL
100
AcDbCircle
 10
47.3452670857712
 20
2.146359645065365
 30
0.0
 40
0.312
100
AcDbArc
 50
275.7022585767081
 51
66.65232522457856
  0
LINE
  5
1AC
330
1E
100
AcDbEntity
  8
ADP1DETAIL
100
AcDbLine
 10
47.36468710826208
 20
-0.4692613375884332
 30
0.0
 11
47.36468710826208
 21
0.164133178338643
 31
0.0
  0
LINE
  5
1AD
330
1E
100
AcDbEntity
  8
ADP1DETAIL
100
AcDbLine
 10
47.2520920786265
 20
-0.2108668216613569
 30
0.0
 11
46.98968710826208
 21
-0.2108668216613569
 31
0.0
  0
LINE
  5
1AE
330
1E
100
AcDbEntity
  8
ADP1DETAIL
100
AcDbLine
 10
47.12341194990636
 20
-0.7105364959441518
 30
0.0
 11
47.12341194990636
 21
-0.2108668216613569
 31
0.0
  0
LINE
  5
1AF
330
1E
100
AcDbEntity
  8
ADP1DETAIL
100
AcDbLine
 10
46.98968710826208
 20
-0.2108668216613569
 30
0.0
 11
46.98968710826208
 21
0.0515381487030577
 31
0.0
  0
LINE
  5
1B0
330
1E
100
AcDbEntity
  8
ADP1DETAIL
100
AcDbLine
 10
47.2520920786265
 20
-0.5818563672240185
 30
0.0
 11
47.2520920786265
 21
-0.2108668216613569
 31
0.0
  0
LINE
  5
1B1
330
1E
100
AcDbEntity
  8
ADP1DETAIL
100
AcDbLine
 10
47.64593710826208
 20
-0.1796168216613569
 30
0.0
 11
47.64593710826208
 21
0.4453831783386431
 31
0.0
  0
LINE
  5
1B2
330
1E
100
AcDbEntity
  8
ADP1DETAIL
100
AcDbLine
 10
49.14593710826208
 20
-0.1796168216613552
 30
0.0
 11
47.64593710826208
 21
-0.1796168216613569
 31
0.0
  0
LINE
  5
1B3
330
1E
100
AcDbEntity
  8
ADP1DETAIL
100
AcDbLine
 10
49.14671618313066
 20
2.584359074760055
 30
0.0
 11
49.14671618313066
 21
1.804502479288718
 31
0.0
  0
LINE
  5
1B4
330
1E
100
AcDbEntity
  8
ADP1DETAIL
100
AcDbLine
 10
47.64593710826208
 20
5.515867152721893
 30
0.0
 11
46.64593710826208
 21
6.515867152721893
 31
0.0
  0
LINE
  5
1B5
330
1E
100
AcDbEntity
  8
ADP1DETAIL
100
AcDbLine
 10
47.64593710826208
 20
4.890867152721893
 30
0.0
 11
46.64593710826208
 21
5.890867152721893
 31
0.0
  0
LINE
  5
1B6
330
1E
100
AcDbEntity
  8
ADP1DETAIL
100
AcDbLine
 10
49.14593710826208
 20
5.515867152721892
 30
0.0
 11
47.64593710826208
 21
5.515867152721893
 31
0.0
  0
LINE
  5
1B7
330
1E
100
AcDbEntity
  8
ADP1DETAIL
100
AcDbLine
 10
47.64593710826208
 20
5.515867152721893
 30
0.0
 11
47.64593710826208
 21
4.890867152721893
 31
0.0
  0
LINE
  5
1B8
330
1E
100
AcDbEntity
  8
ADP1DETAIL
100
AcDbLine
 10
45.27093710826208
 20
7.265867152721893
 30
0.0
 11
46.64593710826208
 21
7.265867152721893
 31
0.0
  0
LINE
  5
1B9
330
1E
100
AcDbEntity
  8
ADP1DETAIL
100
AcDbLine
 10
44.27093710826208
 20
8.265867152721893
 30
0.0
 11
47.64593710826208
 21
8.265867152721893
 31
0.0
  0
LWPOLYLINE
  5
1BA
330
1E
100
AcDbEntity
  8
ADP1DETAIL
100
AcDbPolyline
 90
        2
 70
     0
 43
0.0
 10
42.77093710826208
 20
7.640867152721895
 10
44.27093710826208
 20
7.640867152721897
  0
LINE
  5
1BE
330
1E
100
AcDbEntity
  8
ADP1DETAIL
100
AcDbLine
 10
45.27093710826208
 20
7.265867152721893
 30
0.0
 11
44.27093710826208
 21
8.265867152721893
 31
0.0
  0
LINE
  5
1BF
330
1E
100
AcDbEntity
  8
ADP1DETAIL
100
AcDbLine
 10
44.27093710826208
 20
7.640867152721897
 30
0.0
 11
44.27093710826208
 21
8.265867152721895
 31
0.0
  0
LINE
  5
1C0
330
1E
100
AcDbEntity
  8
ADP1DETAIL
100
AcDbLine
 10
46.64593710826208
 20
7.265867152721893
 30
0.0
 11
47.64593710826208
 21
8.265867152721893
 31
0.0
  0
DIMENSION
  5
1C1
330
1E
100
AcDbEntity
  8
ADPDIM
100
AcDbDimension
  2
*D5
 10
49.14593710826208
 20
8.589988803567733
 30
0.0
 11
48.39593710826208
 21
8.589988803567733
 31
0.0
 71
     5
 42
-1.0
100
AcDbAlignedDimension
 13
47.64593710826208
 23
8.265867152721893
 33
0.0
 14
49.14593710826208
 24
7.640867152721892
 34
0.0
100
AcDbRotatedDimension
  0
LINE
  5
1C2
330
1E
100
AcDbEntity
  8
ADP1DETAIL
100
AcDbLine
 10
47.64593710826208
 20
7.640867152721893
 30
0.0
 11
49.14593710826208
 21
7.640867152721892
 31
0.0
  0
LINE
  5
1C3
330
1E
100
AcDbEntity
  8
ADP1DETAIL
100
AcDbLine
 10
47.64593710826208
 20
8.265867152721893
 30
0.0
 11
47.64593710826208
 21
7.640867152721893
 31
0.0
  0
TEXT
  5
1C7
330
1E
100
AcDbEntity
  8
ADPDIM
100
AcDbText
 10
33.96231691651411
 20
-4.501857351393074
 30
0.0
 40
0.25
  1
J U L I U S  B L U M  &  C O . ,  I N C .      ( 8 0 0 )  5 2 6 - 6 2 9 3        W W W . J U L I U S B L U M . C O M        P A R T  N o .  6 9 3 5 - T
 41
1.25
  7
ARIAL_WIDE
 72
     1
 11
47.34108993834221
 21
-4.251857351393074
 31
0.0
100
AcDbText
 73
     3
  0
DIMENSION
  5
3FB
330
1E
100
AcDbEntity
  8
ADPDIM
100
AcDbDimension
  2
*D11
 10
50.00771399438203
 20
7.614146439935531
 30
0.0
 11
50.00771399438203
 21
6.55164643993554
 31
0.0
 70
    32
 71
     5
 42
2.125
  3
Standard
100
AcDbAlignedDimension
 13
50.47131970815056
 23
5.489146439935531
 33
0.0
 14
50.47131970815056
 24
7.614146439935531
 34
0.0
 50
90.0
100
AcDbRotatedDimension
1001
ACAD
1000
DSTYLE
1002
{
1070
   276
1070
     2
1070
    41
1040
0.125
1070
    73
1070
     0
1070
    74
1070
     0
1070
    78
1070
     3
1070
   140
1040
0.125
1070
   141
1040
0.1875
1070
   142
1040
0.125
1070
   147
1040
0.125
1070
   171
1070
     1
1070
   273
1070
     5
1070
   274
1070
     1
1070
   277
1070
     5
1070
   279
1070
     2
1070
   284
1070
     3
1070
   285
1070
     3
1070
   286
1070
     3
1002
}
  0
DIMENSION
  5
3FC
330
1E
100
AcDbEntity
  8
ADPDIM
100
AcDbDimension
  2
*D12
 10
51.51823517749797
 20
7.335145614690794
 30
0.0
 11
51.51823517749797
 21
6.554145614690804
 31
0.0
 70
    32
 71
     5
 42
1.561999999999997
  3
Standard
100
AcDbAlignedDimension
 13
50.93195648401429
 23
5.773145614690797
 33
0.0
 14
50.86050036795277
 24
7.335145614690794
 34
0.0
 50
90.0
100
AcDbRotatedDimension
1001
ACAD
1000
DSTYLE
1002
{
1070
   276
1070
     2
1070
    41
1040
0.125
1070
    73
1070
     0
1070
    74
1070
     0
1070
    78
1070
     3
1070
   140
1040
0.125
1070
   141
1040
0.1875
1070
   142
1040
0.125
1070
   147
1040
0.125
1070
   171
1070
     1
1070
   273
1070
     5
1070
   274
1070
     1
1070
   277
1070
     5
1070
   279
1070
     2
1070
   284
1070
     3
1070
   285
1070
     3
1070
   286
1070
     3
1002
}
  0
LINE
  5
3FD
330
1E
100
AcDbEntity
  8
ADP1DETAIL
100
AcDbLine
 10
50.62150036795276
 20
6.554145614690796
 30
0.0
 11
50.62150036795276
 21
6.700145614690796
 31
0.0
  0
ARC
  5
3FE
330
1E
100
AcDbEntity
  8
ADP1DETAIL
100
AcDbCircle
 10
50.59650036795277
 20
6.810145614690796
 30
0.0
 40
0.0999999999999997
100
AcDbArc
 50
180.0
 51
270.0
  0
ARC
  5
3FF
330
1E
100
AcDbEntity
  8
ADP1DETAIL
100
AcDbCircle
 10
52.77750036795277
 20
6.554145614690796
 30
0.0
 40
2.593999999999999
100
AcDbArc
 50
160.3182166131093
 51
180.0379932425095
  0
ARC
  5
400
330
1E
100
AcDbEntity
  8
ADP1DETAIL
100
AcDbCircle
 10
50.62150036795276
 20
5.804145614690796
 30
0.0
 40
0.312
100
AcDbArc
 50
203.3476747754214
 51
354.2977414232916
  0
ARC
  5
401
330
1E
100
AcDbEntity
  8
ADP1DETAIL
100
AcDbCircle
 10
52.77750036795277
 20
6.554145614690796
 30
0.0
 40
2.593999999999999
100
AcDbArc
 50
179.9620067574904
 51
199.6817833868906
  0
LINE
  5
402
330
1E
100
AcDbEntity
  8
ADP1DETAIL
100
AcDbLine
 10
50.78750036795277
 20
5.773145614690797
 30
0.0
 11
50.93350036795277
 21
5.773145614690797
 31
0.0
  0
LINE
  5
403
330
1E
100
AcDbEntity
  8
ADP1DETAIL
100
AcDbLine
 10
50.49650036795277
 20
6.298145614690795
 30
0.0
 11
50.49650036795277
 21
6.085145614690794
 31
0.0
  0
ARC
  5
404
330
1E
100
AcDbEntity
  8
ADP1DETAIL
100
AcDbCircle
 10
50.55850036795277
 20
6.085145614690794
 30
0.0
 40
0.0620000000000003
100
AcDbArc
 50
180.0
 51
270.0
  0
ARC
  5
405
330
1E
100
AcDbEntity
  8
ADP1DETAIL
100
AcDbCircle
 10
50.61150036795277
 20
6.013145614690792
 30
0.0
 40
0.0099999999999998
100
AcDbArc
 50
0.0
 51
90.0
  0
LINE
  5
406
330
1E
100
AcDbEntity
  8
ADP1DETAIL
100
AcDbLine
 10
50.55850036795277
 20
6.023145614690797
 30
0.0
 11
50.61150036795277
 21
6.023145614690797
 31
0.0
  0
ARC
  5
407
330
1E
100
AcDbEntity
  8
ADP1DETAIL
100
AcDbCircle
 10
50.63150036795277
 20
5.908145614690795
 30
0.0
 40
0.0099999999999998
100
AcDbArc
 50
180.0
 51
270.0
  0
LINE
  5
408
330
1E
100
AcDbEntity
  8
ADP1DETAIL
100
AcDbLine
 10
50.62150036795276
 20
6.013145614690792
 30
0.0
 11
50.62150036795276
 21
5.908145614690795
 31
0.0
  0
ARC
  5
409
330
1E
100
AcDbEntity
  8
ADP1DETAIL
100
AcDbCircle
 10
50.76750036795277
 20
5.888145614690792
 30
0.0
 40
0.0099999999999998
100
AcDbArc
 50
0.0
 51
90.0
  0
LINE
  5
40A
330
1E
100
AcDbEntity
  8
ADP1DETAIL
100
AcDbLine
 10
50.63150036795277
 20
5.898145614690797
 30
0.0
 11
50.76750036795277
 21
5.898145614690797
 31
0.0
  0
ARC
  5
40B
330
1E
100
AcDbEntity
  8
ADP1DETAIL
100
AcDbCircle
 10
50.78750036795277
 20
5.783145614690795
 30
0.0
 40
0.0099999999999998
100
AcDbArc
 50
180.0
 51
270.0
  0
LINE
  5
40C
330
1E
100
AcDbEntity
  8
ADP1DETAIL
100
AcDbLine
 10
50.77750036795277
 20
5.888145614690792
 30
0.0
 11
50.77750036795277
 21
5.783145614690795
 31
0.0
  0
ARC
  5
40D
330
1E
100
AcDbEntity
  8
ADP1DETAIL
100
AcDbCircle
 10
50.59650036795277
 20
6.298145614690795
 30
0.0
 40
0.0999999999999997
100
AcDbArc
 50
89.99999999999959
 51
180.0
  0
LINE
  5
40E
330
1E
100
AcDbEntity
  8
ADP1DETAIL
100
AcDbLine
 10
50.61150036795277
 20
6.398145614690797
 30
0.0
 11
50.59650036795277
 21
6.398145614690797
 31
0.0
  0
ARC
  5
40F
330
1E
100
AcDbEntity
  8
ADP1DETAIL
100
AcDbCircle
 10
50.61150036795277
 20
6.408145614690795
 30
0.0
 40
0.0099999999999998
100
AcDbArc
 50
270.0
 51
0.0
  0
LINE
  5
410
330
1E
100
AcDbEntity
  8
ADP1DETAIL
100
AcDbLine
 10
50.62150036795276
 20
6.554145614690796
 30
0.0
 11
50.62150036795276
 21
6.408145614690795
 31
0.0
  0
LINE
  5
411
330
1E
100
AcDbEntity
  8
ADP1DETAIL
100
AcDbLine
 10
50.78750036795277
 20
7.335145614690794
 30
0.0
 11
50.93350036795277
 21
7.335145614690794
 31
0.0
  0
ARC
  5
412
330
1E
100
AcDbEntity
  8
ADP1DETAIL
100
AcDbCircle
 10
50.62150036795276
 20
7.304145614690796
 30
0.0
 40
0.312
100
AcDbArc
 50
5.702258576707957
 51
156.6523252245785
  0
LINE
  5
413
330
1E
100
AcDbEntity
  8
ADP1DETAIL
100
AcDbLine
 10
50.62150036795276
 20
7.085145614690794
 30
0.0
 11
50.62150036795276
 21
7.200145614690796
 31
0.0
  0
LINE
  5
414
330
1E
100
AcDbEntity
  8
ADP1DETAIL
100
AcDbLine
 10
50.55850036795277
 20
7.085145614690794
 30
0.0
 11
50.62150036795276
 21
7.085145614690794
 31
0.0
  0
LINE
  5
415
330
1E
100
AcDbEntity
  8
ADP1DETAIL
100
AcDbLine
 10
50.49650036795277
 20
6.810145614690796
 30
0.0
 11
50.49650036795277
 21
7.023145614690797
 31
0.0
  0
LINE
  5
416
330
1E
100
AcDbEntity
  8
ADP1DETAIL
100
AcDbLine
 10
50.61150036795277
 20
6.710145614690794
 30
0.0
 11
50.59650036795277
 21
6.710145614690794
 31
0.0
  0
ARC
  5
417
330
1E
100
AcDbEntity
  8
ADP1DETAIL
100
AcDbCircle
 10
50.61150036795277
 20
6.700145614690796
 30
0.0
 40
0.0099999999999998
100
AcDbArc
 50
0.0
 51
90.0
  0
ARC
  5
418
330
1E
100
AcDbEntity
  8
ADP1DETAIL
100
AcDbCircle
 10
50.55850036795277
 20
7.023145614690797
 30
0.0
 40
0.0620000000000003
100
AcDbArc
 50
90.0
 51
180.0
  0
ARC
  5
419
330
1E
100
AcDbEntity
  8
ADP1DETAIL
100
AcDbCircle
 10
50.63150036795277
 20
7.200145614690796
 30
0.0
 40
0.0099999999999998
100
AcDbArc
 50
90.0
 51
180.0
  0
ARC
  5
41A
330
1E
100
AcDbEntity
  8
ADP1DETAIL
100
AcDbCircle
 10
50.78750036795277
 20
7.325145614690789
 30
0.0
 40
0.0100000000000007
100
AcDbArc
 50
90.00000000000488
 51
180.0
  0
ARC
  5
41B
330
1E
100
AcDbEntity
  8
ADP1DETAIL
100
AcDbCircle
 10
50.76750036795277
 20
7.2201456146908
 30
0.0
 40
0.0100000000000016
100
AcDbArc
 50
270.0000000000049
 51
0.0
  0
LINE
  5
41C
330
1E
100
AcDbEntity
  8
ADP1DETAIL
100
AcDbLine
 10
50.77750036795277
 20
7.2201456146908
 30
0.0
 11
50.77750036795277
 21
7.325145614690789
 31
0.0
  0
LINE
  5
41D
330
1E
100
AcDbEntity
  8
ADP1DETAIL
100
AcDbLine
 10
50.63150036795277
 20
7.210145614690794
 30
0.0
 11
50.76750036795277
 21
7.210145614690794
 31
0.0
  0
DIMENSION
  5
41E
330
1E
100
AcDbEntity
  8
ADPDIM
 62
     3
100
AcDbDimension
  2
*D13
 10
51.04557438288985
 20
7.20068391081876
 30
0.0
 11
51.04557438288985
 21
6.544433910818768
 31
0.0
 70
    32
 71
     5
 42
1.3125
  3
Standard
100
AcDbAlignedDimension
 13
50.77404585788321
 23
5.88818391081876
 33
0.0
 14
50.77404585788321
 24
7.20068391081876
 34
0.0
 50
90.0
100
AcDbRotatedDimension
1001
ACAD
1000
DSTYLE
1002
{
1070
   276
1070
     2
1070
    41
1040
0.125
1070
    73
1070
     0
1070
    74
1070
     0
1070
    78
1070
     3
1070
   140
1040
0.125
1070
   141
1040
0.1875
1070
   142
1040
0.125
1070
   147
1040
0.125
1070
   171
1070
     1
1070
   273
1070
     5
1070
   274
1070
     1
1070
   277
1070
     5
1070
   279
1070
     2
1070
   284
1070
     3
1070
   285
1070
     3
1070
   286
1070
     3
1002
}
  0
ENDSEC
  0
SECTION
  2
OBJECTS
  0
DICTIONARY
  5
C
330
0
100
AcDbDictionary
281
     1
  3
ACAD_COLOR
350
3A5
  3
ACAD_GROUP
350
D
  3
ACAD_LAYOUT
350
19
  3
ACAD_MATERIAL
350
390
  3
ACAD_MLINESTYLE
350
16
  3
ACAD_PLOTSETTINGS
350
18
  3
ACAD_PLOTSTYLENAME
350
E
  3
ACAD_TABLESTYLE
350
3A6
  3
ACAD_VISUALSTYLE
350
394
  3
AcDbVariableDictionary
350
238
  3
DWGPROPS
350
4BD
  0
DICTIONARY
  5
203
330
1E
100
AcDbDictionary
280
     1
281
     1
  3
ACAD_LAYOUTSELFREF
360
38C
  0
DICTIONARY
  5
205
330
1A
100
AcDbDictionary
280
     1
281
     1
  3
ACAD_LAYOUTSELFREF
360
38B
  0
DICTIONARY
  5
3A5
102
{ACAD_REACTORS
330
C
102
}
330
C
100
AcDbDictionary
281
     1
  0
DICTIONARY
  5
D
102
{ACAD_REACTORS
330
C
102
}
330
C
100
AcDbDictionary
281
     1
  0
DICTIONARY
  5
19
102
{ACAD_REACTORS
330
C
102
}
330
C
100
AcDbDictionary
281
     1
  3
Layout1
350
1D
  3
Model
350
21
  0
DICTIONARY
  5
390
102
{ACAD_REACTORS
330
C
102
}
330
C
100
AcDbDictionary
281
     1
  3
ByBlock
350
392
  3
ByLayer
350
391
  3
Global
350
393
  0
DICTIONARY
  5
16
102
{ACAD_REACTORS
330
C
102
}
330
C
100
AcDbDictionary
281
     1
  3
Standard
350
17
  0
DICTIONARY
  5
18
102
{ACAD_REACTORS
330
C
102
}
330
C
100
AcDbDictionary
281
     1
  0
ACDBDICTIONARYWDFLT
  5
E
102
{ACAD_REACTORS
330
C
102
}
330
C
100
AcDbDictionary
281
     1
  3
Normal
350
F
100
AcDbDictionaryWithDefault
340
F
  0
DICTIONARY
  5
3A6
102
{ACAD_REACTORS
330
C
102
}
330
C
100
AcDbDictionary
281
     1
  3
Standard
350
3A7
  0
DICTIONARY
  5
394
102
{ACAD_REACTORS
330
C
102
}
330
C
100
AcDbDictionary
281
     1
  3
2dWireframe
350
39A
  3
3D Hidden
350
39C
  3
3dWireframe
350
39B
  3
Basic
350
399
  3
Brighten
350
3A0
  3
ColorChange
350
3A4
  3
Conceptual
350
39D
  3
Dim
350
39F
  3
Facepattern
350
3A3
  3
Flat
350
395
  3
FlatWithEdges
350
396
  3
Gouraud
350
397
  3
GouraudWithEdges
350
398
  3
Linepattern
350
3A2
  3
Realistic
350
39E
  3
Thicken
350
3A1
  0
DICTIONARY
  5
238
102
{ACAD_REACTORS
330
C
102
}
330
C
100
AcDbDictionary
281
     1
  3
CTABLESTYLE
350
4BA
  3
DIMASSOC
350
23A
  3
HIDETEXT
350
239
  3
INDEXCTL
350
4BC
  3
SORTENTS
350
4BB
  0
XRECORD
  5
4BD
102
{ACAD_REACTORS
330
C
102
}
330
C
100
AcDbXrecord
280
     1
  1
DWGPROPS COOKIE
  2

  3

  4

  6

  7

  8
Yu Hu
  9

300
=
301
=
302
=
303
=
304
=
305
=
306
=
307
=
308
=
309
=
 40
0.0263690046296296
 41
2450399.68483044
 42
2453984.980639387
  1

 90
        0
  0
XRECORD
  5
38C
102
{ACAD_REACTORS
330
203
102
}
330
203
100
AcDbXrecord
280
     1
340
1E
  0
XRECORD
  5
38B
102
{ACAD_REACTORS
330
205
102
}
330
205
100
AcDbXrecord
280
     1
340
1A
  0
LAYOUT
  5
1D
102
{ACAD_XDICTIONARY
360
4BE
102
}
102
{ACAD_REACTORS
330
19
102
}
330
19
100
AcDbPlotSettings
  1

  2
Fax
  4

  6

 40
0.0
 41
0.0
 42
0.0
 43
0.0
 44
0.0
 45
0.0
 46
0.0
 47
0.0
 48
0.0
 49
0.0
140
0.0
141
0.0
142
1.0
143
1.0
 70
   688
 72
     0
 73
     0
 74
     5
  7
Default R14 pen assignments.ctb
 75
    16
147
1.0
148
0.0
149
0.0
100
AcDbLayout
  1
Layout1
 70
     1
 71
     1
 10
0.0
 20
0.0
 11
12.0
 21
9.0
 12
0.0004882914945483
 22
0.7501408034022604
 32
0.0
 14
1.000000000000000E+20
 24
1.000000000000000E+20
 34
1.000000000000000E+20
 15
-1.000000000000000E+20
 25
-1.000000000000000E+20
 35
-1.000000000000000E+20
146
0.0
 13
0.0
 23
0.0
 33
0.0
 16
1.0
 26
0.0
 36
0.0
 17
0.0
 27
1.0
 37
0.0
 76
     0
330
1A
  0
LAYOUT
  5
21
102
{ACAD_XDICTIONARY
360
4C0
102
}
102
{ACAD_REACTORS
330
19
102
}
330
19
100
AcDbPlotSettings
  1

  2
Fax
  4

  6

 40
0.0
 41
0.0
 42
0.0
 43
0.0
 44
0.0
 45
0.0
 46
0.0
 47
0.0
 48
0.0
 49
0.0
140
0.0
141
0.0
142
1.0
143
1.0
 70
  1712
 72
     0
 73
     0
 74
     0
  7
Default R14 pen assignments.ctb
 75
     0
147
1.0
148
0.0
149
0.0
100
AcDbLayout
  1
Model
 70
     1
 71
     0
 10
0.0
 20
0.0
 11
12.0
 21
9.0
 12
0.0
 22
0.0
 32
0.0
 14
0.0
 24
0.0
 34
0.0
 15
0.0
 25
0.0
 35
0.0
146
0.0
 13
0.0
 23
0.0
 33
0.0
 16
1.0
 26
0.0
 36
0.0
 17
0.0
 27
1.0
 37
0.0
 76
     0
330
1E
331
359
  0
MATERIAL
  5
392
102
{ACAD_XDICTIONARY
360
4C4
102
}
102
{ACAD_REACTORS
330
390
102
}
330
390
100
AcDbMaterial
  1
ByBlock
  0
MATERIAL
  5
391
102
{ACAD_XDICTIONARY
360
4C2
102
}
102
{ACAD_REACTORS
330
390
102
}
330
390
100
AcDbMaterial
  1
ByLayer
  0
MATERIAL
  5
393
102
{ACAD_XDICTIONARY
360
4C6
102
}
102
{ACAD_REACTORS
330
390
102
}
330
390
100
AcDbMaterial
  1
Global
  0
MLINESTYLE
  5
17
102
{ACAD_REACTORS
330
16
102
}
330
16
100
AcDbMlineStyle
  2
STANDARD
 70
     0
  3

 62
   256
 51
90.0
 52
90.0
 71
     2
 49
0.5
 62
   256
  6
BYLAYER
 49
-0.5
 62
   256
  6
BYLAYER
  0
ACDBPLACEHOLDER
  5
F
102
{ACAD_REACTORS
330
E
102
}
330
E
  0
TABLESTYLE
  5
3A7
102
{ACAD_XDICTIONARY
360
4C8
102
}
102
{ACAD_REACTORS
330
3A6
102
}
330
3A6
100
AcDbTableStyle
  3
Standard
 70
     0
 71
     0
 40
0.06
 41
0.06
280
     0
281
     0
  7
STANDARD
140
0.18
170
     2
 62
     0
 63
     7
283
     0
274
    -2
284
     1
 64
     0
275
    -2
285
     1
 65
     0
276
    -2
286
     1
 66
     0
277
    -2
287
     1
 67
     0
278
    -2
288
     1
 68
     0
279
    -2
289
     1
 69
     0
  7
STANDARD
140
0.25
170
     5
 62
     0
 63
     7
283
     0
274
    -2
284
     1
 64
     0
275
    -2
285
     1
 65
     0
276
    -2
286
     1
 66
     0
277
    -2
287
     1
 67
     0
278
    -2
288
     1
 68
     0
279
    -2
289
     1
 69
     0
  7
STANDARD
140
0.18
170
     5
 62
     0
 63
     7
283
     0
274
    -2
284
     1
 64
     0
275
    -2
285
     1
 65
     0
276
    -2
286
     1
 66
     0
277
    -2
287
     1
 67
     0
278
    -2
288
     1
 68
     0
279
    -2
289
     1
 69
     0
  0
VISUALSTYLE
  5
39A
102
{ACAD_REACTORS
330
394
102
}
330
394
100
AcDbVisualStyle
  2
2dWireframe
 70
     4
 71
     0
 72
     2
 73
     0
 90
        0
 40
-0.6
 41
-30.0
 62
     5
 63
     7
 74
     1
 91
        4
 64
     7
 65
   257
 75
     1
175
     1
 42
1.0
 92
        0
 66
   257
 43
1.0
 76
     1
 77
     6
 78
     2
 67
     7
 79
     5
170
     0
171
     0
290
     0
174
     0
 93
        1
 44
0.0
173
     0
291
     0
 45
0.0
1001
ACAD
1000
AcDbSavedByObjectVersion
1070
     0
  0
VISUALSTYLE
  5
39C
102
{ACAD_REACTORS
330
394
102
}
330
394
100
AcDbVisualStyle
  2
3D Hidden
 70
     6
 71
     1
 72
     2
 73
     2
 90
        0
 40
-0.6
 41
-30.0
 62
     5
 63
     7
 74
     2
 91
        2
 64
     7
 65
   257
 75
     2
175
     1
 42
40.0
 92
        0
 66
   257
 43
1.0
 76
     1
 77
     6
 78
     2
 67
     7
 79
     3
170
     0
171
     0
290
     0
174
     0
 93
        1
 44
0.0
173
     0
291
     0
 45
0.0
1001
ACAD
1000
AcDbSavedByObjectVersion
1070
     0
  0
VISUALSTYLE
  5
39B
102
{ACAD_REACTORS
330
394
102
}
330
394
100
AcDbVisualStyle
  2
3dWireframe
 70
     5
 71
     0
 72
     2
 73
     0
 90
        0
 40
-0.6
 41
-30.0
 62
     5
 63
     7
 74
     1
 91
        4
 64
     7
 65
   257
 75
     1
175
     1
 42
1.0
 92
        0
 66
   257
 43
1.0
 76
     1
 77
     6
 78
     2
 67
     7
 79
     5
170
     0
171
     0
290
     0
174
     0
 93
        1
 44
0.0
173
     0
291
     0
 45
0.0
1001
ACAD
1000
AcDbSavedByObjectVersion
1070
     0
  0
VISUALSTYLE
  5
399
102
{ACAD_REACTORS
330
394
102
}
330
394
100
AcDbVisualStyle
  2
Basic
 70
     7
 71
     1
 72
     0
 73
     1
 90
        0
 40
-0.6
 41
-30.0
 62
     5
 63
     7
 74
     0
 91
        4
 64
     7
 65
   257
 75
     1
175
     1
 42
1.0
 92
        8
 66
     7
 43
1.0
 76
     1
 77
     6
 78
     2
 67
     7
 79
     5
170
     0
171
     0
290
     0
174
     0
 93
        1
 44
0.0
173
     0
291
     1
 45
0.0
1001
ACAD
1000
AcDbSavedByObjectVersion
1070
     0
  0
VISUALSTYLE
  5
3A0
102
{ACAD_REACTORS
330
394
102
}
330
394
100
AcDbVisualStyle
  2
Brighten
 70
    12
 71
     2
 72
     2
 73
     0
 90
        0
 40
-0.6
 41
-30.0
 62
     5
 63
     7
 74
     1
 91
        4
 64
     7
 65
   257
 75
     1
175
     1
 42
1.0
 92
        8
 66
     7
 43
1.0
 76
     1
 77
     6
 78
     2
 67
     7
 79
     5
170
     0
171
     0
290
     0
174
     0
 93
        1
 44
50.0
173
     0
291
     1
 45
0.0
1001
ACAD
1000
AcDbSavedByObjectVersion
1070
     0
  0
VISUALSTYLE
  5
3A4
102
{ACAD_REACTORS
330
394
102
}
330
394
100
AcDbVisualStyle
  2
ColorChange
 70
    16
 71
     2
 72
     2
 73
     3
 90
        0
 40
-0.6
 41
-30.0
 62
     5
 63
     8
 74
     1
 91
        4
 64
     7
 65
   257
 75
     1
175
     1
 42
1.0
 92
        8
 66
     8
 43
1.0
 76
     1
 77
     6
 78
     2
 67
     7
 79
     5
170
     0
171
     0
290
     0
174
     0
 93
        1
 44
0.0
173
     0
291
     1
 45
0.0
1001
ACAD
1000
AcDbSavedByObjectVersion
1070
     0
  0
VISUALSTYLE
  5
39D
102
{ACAD_REACTORS
330
394
102
}
330
394
100
AcDbVisualStyle
  2
Conceptual
 70
     9
 71
     3
 72
     2
 73
     0
 90
        0
 40
-0.6
 41
-30.0
 62
     5
 63
     7
 74
     2
 91
        2
 64
     7
 65
   257
 75
     1
175
     1
 42
40.0
 92
        8
 66
     7
 43
1.0
 76
     1
 77
     6
 78
     2
 67
     7
 79
     3
170
     0
171
     0
290
     0
174
     0
 93
        1
 44
0.0
173
     0
291
     0
 45
0.0
1001
ACAD
1000
AcDbSavedByObjectVersion
1070
     0
  0
VISUALSTYLE
  5
39F
102
{ACAD_REACTORS
330
394
102
}
330
394
100
AcDbVisualStyle
  2
Dim
 70
    11
 71
     2
 72
     2
 73
     0
 90
        0
 40
-0.6
 41
-30.0
 62
     5
 63
     7
 74
     1
 91
        4
 64
     7
 65
   257
 75
     1
175
     1
 42
1.0
 92
        8
 66
     7
 43
1.0
 76
     1
 77
     6
 78
     2
 67
     7
 79
     5
170
     0
171
     0
290
     0
174
     0
 93
        1
 44
-50.0
173
     0
291
     1
 45
0.0
1001
ACAD
1000
AcDbSavedByObjectVersion
1070
     0
  0
VISUALSTYLE
  5
3A3
102
{ACAD_REACTORS
330
394
102
}
330
394
100
AcDbVisualStyle
  2
Facepattern
 70
    15
 71
     2
 72
     2
 73
     0
 90
        0
 40
-0.6
 41
-30.0
 62
     5
 63
     7
 74
     1
 91
        4
 64
     7
 65
   257
 75
     1
175
     1
 42
1.0
 92
        8
 66
     7
 43
1.0
 76
     1
 77
     6
 78
     2
 67
     7
 79
     5
170
     0
171
     0
290
     0
174
     0
 93
        1
 44
0.0
173
     0
291
     1
 45
0.0
1001
ACAD
1000
AcDbSavedByObjectVersion
1070
     0
  0
VISUALSTYLE
  5
395
102
{ACAD_REACTORS
330
394
102
}
330
394
100
AcDbVisualStyle
  2
Flat
 70
     0
 71
     2
 72
     1
 73
     1
 90
        2
 40
-0.6
 41
30.0
 62
     5
 63
     7
 74
     0
 91
        4
 64
     7
 65
   257
 75
     1
175
     1
 42
1.0
 92
        8
 66
     7
 43
1.0
 76
     1
 77
     6
 78
     2
 67
     7
 79
     5
170
     0
171
     0
290
     0
174
     0
 93
       13
 44
0.0
173
     0
291
     1
 45
0.0
1001
ACAD
1000
AcDbSavedByObjectVersion
1070
     0
  0
VISUALSTYLE
  5
396
102
{ACAD_REACTORS
330
394
102
}
330
394
100
AcDbVisualStyle
  2
FlatWithEdges
 70
     1
 71
     2
 72
     1
 73
     1
 90
        2
 40
-0.6
 41
30.0
 62
     5
 63
     7
 74
     1
 91
        4
 64
     7
 65
   257
 75
     1
175
     1
 42
1.0
 92
        0
 66
   257
 43
1.0
 76
     1
 77
     6
 78
     2
 67
     7
 79
     5
170
     0
171
     0
290
     0
174
     0
 93
       13
 44
0.0
173
     0
291
     1
 45
0.0
1001
ACAD
1000
AcDbSavedByObjectVersion
1070
     0
  0
VISUALSTYLE
  5
397
102
{ACAD_REACTORS
330
394
102
}
330
394
100
AcDbVisualStyle
  2
Gouraud
 70
     2
 71
     2
 72
     2
 73
     1
 90
        2
 40
-0.6
 41
30.0
 62
     5
 63
     7
 74
     0
 91
        4
 64
     7
 65
   257
 75
     1
175
     1
 42
1.0
 92
        0
 66
     7
 43
1.0
 76
     1
 77
     6
 78
     2
 67
     7
 79
     5
170
     0
171
     0
290
     0
174
     0
 93
       13
 44
0.0
173
     0
291
     1
 45
0.0
1001
ACAD
1000
AcDbSavedByObjectVersion
1070
     0
  0
VISUALSTYLE
  5
398
102
{ACAD_REACTORS
330
394
102
}
330
394
100
AcDbVisualStyle
  2
GouraudWithEdges
 70
     3
 71
     2
 72
     2
 73
     1
 90
        2
 40
-0.6
 41
30.0
 62
     5
 63
     7
 74
     1
 91
        4
 64
     7
 65
   257
 75
     1
175
     1
 42
1.0
 92
        0
 66
   257
 43
1.0
 76
     1
 77
     6
 78
     2
 67
     7
 79
     5
170
     0
171
     0
290
     0
174
     0
 93
       13
 44
0.0
173
     0
291
     1
 45
0.0
1001
ACAD
1000
AcDbSavedByObjectVersion
1070
     0
  0
VISUALSTYLE
  5
3A2
102
{ACAD_REACTORS
330
394
102
}
330
394
100
AcDbVisualStyle
  2
Linepattern
 70
    14
 71
     2
 72
     2
 73
     0
 90
        0
 40
-0.6
 41
-30.0
 62
     5
 63
     7
 74
     1
 91
        4
 64
     7
 65
   257
 75
     7
175
     7
 42
1.0
 92
        8
 66
     7
 43
1.0
 76
     1
 77
     6
 78
     2
 67
     7
 79
     5
170
     0
171
     0
290
     0
174
     0
 93
        1
 44
0.0
173
     0
291
     1
 45
0.0
1001
ACAD
1000
AcDbSavedByObjectVersion
1070
     0
  0
VISUALSTYLE
  5
39E
102
{ACAD_REACTORS
330
394
102
}
330
394
100
AcDbVisualStyle
  2
Realistic
 70
     8
 71
     2
 72
     2
 73
     0
 90
        0
 40
-0.6
 41
-30.0
 62
     5
 63
     7
 74
     1
 91
        0
 64
     7
 65
   257
 75
     1
175
     1
 42
1.0
 92
        8
 66
     8
 43
1.0
 76
     1
 77
     6
 78
     2
 67
     7
 79
     5
170
     0
171
     0
290
     0
174
     0
 93
       13
 44
0.0
173
     0
291
     0
 45
0.0
1001
ACAD
1000
AcDbSavedByObjectVersion
1070
     0
  0
VISUALSTYLE
  5
3A1
102
{ACAD_REACTORS
330
394
102
}
330
394
100
AcDbVisualStyle
  2
Thicken
 70
    13
 71
     2
 72
     2
 73
     0
 90
        0
 40
-0.6
 41
-30.0
 62
     5
 63
     7
 74
     1
 91
        4
 64
     7
 65
   257
 75
     1
175
     1
 42
1.0
 92
       12
 66
     7
 43
1.0
 76
     1
 77
     6
 78
     2
 67
     7
 79
     5
170
     0
171
     0
290
     0
174
     0
 93
        1
 44
0.0
173
     0
291
     1
 45
0.0
1001
ACAD
1000
AcDbSavedByObjectVersion
1070
     0
  0
DICTIONARYVAR
  5
4BA
102
{ACAD_REACTORS
330
238
102
}
330
238
100
DictionaryVariables
280
     0
  1
STANDARD
  0
DICTIONARYVAR
  5
23A
102
{ACAD_REACTORS
330
238
102
}
330
238
100
DictionaryVariables
280
     0
  1
2
  0
DICTIONARYVAR
  5
239
102
{ACAD_REACTORS
330
238
102
}
330
238
100
DictionaryVariables
280
     0
  1
1
  0
DICTIONARYVAR
  5
4BC
102
{ACAD_REACTORS
330
238
102
}
330
238
100
DictionaryVariables
280
     0
  1
0
  0
DICTIONARYVAR
  5
4BB
102
{ACAD_REACTORS
330
238
102
}
330
238
100
DictionaryVariables
280
     0
  1
127
  0
DICTIONARY
  5
4BE
330
1D
100
AcDbDictionary
280
     1
281
     1
  3
ACAD_XREC_ROUNDTRIP
360
4BF
  0
DICTIONARY
  5
4C0
330
21
100
AcDbDictionary
280
     1
281
     1
  3
ACAD_XREC_ROUNDTRIP
360
4C1
  0
DICTIONARY
  5
4C4
330
392
100
AcDbDictionary
280
     1
281
     1
  3
ACAD_XREC_ROUNDTRIP
360
4C5
  0
DICTIONARY
  5
4C2
330
391
100
AcDbDictionary
280
     1
281
     1
  3
ACAD_XREC_ROUNDTRIP
360
4C3
  0
DICTIONARY
  5
4C6
330
393
100
AcDbDictionary
280
     1
281
     1
  3
ACAD_XREC_ROUNDTRIP
360
4C7
  0
DICTIONARY
  5
4C8
330
3A7
100
AcDbDictionary
280
     1
281
     1
  3
ACAD_XREC_ROUNDTRIP
360
4C9
  0
XRECORD
  5
4BF
102
{ACAD_REACTORS
330
4BE
102
}
330
4BE
100
AcDbXrecord
280
     1
102
SHADEPLOT
 70
     0
102
SHADEPLOTRESLEVEL
 70
     2
102
SHADEPLOTCUSTOMDPI
 70
   300
  0
XRECORD
  5
4C1
102
{ACAD_REACTORS
330
4C0
102
}
330
4C0
100
AcDbXrecord
280
     1
102
SHADEPLOT
 70
     0
102
SHADEPLOTRESLEVEL
 70
     2
102
SHADEPLOTCUSTOMDPI
 70
   300
  0
XRECORD
  5
4C5
102
{ACAD_REACTORS
330
4C4
102
}
330
4C4
100
AcDbXrecord
280
     1
102
MATERIAL
148
0.0
149
0.0
149
0.0
 93
        0
 94
       63
282
     0
 72
     1
 77
     1
171
     1
175
     1
179
     1
273
     0
  0
XRECORD
  5
4C3
102
{ACAD_REACTORS
330
4C2
102
}
330
4C2
100
AcDbXrecord
280
     1
102
MATERIAL
148
0.0
149
0.0
149
0.0
 93
        0
 94
       63
282
     0
 72
     1
 77
     1
171
     1
175
     1
179
     1
273
     0
  0
XRECORD
  5
4C7
102
{ACAD_REACTORS
330
4C6
102
}
330
4C6
100
AcDbXrecord
280
     1
102
MATERIAL
148
0.0
149
0.0
149
0.0
 93
        0
 94
       63
282
     0
 72
     1
 77
     1
171
     1
175
     1
179
     1
273
     0
  0
XRECORD
  5
4C9
102
{ACAD_REACTORS
330
4C8
102
}
330
4C8
100
AcDbXrecord
280
     1
102
ACAD_ROUNDTRIP_PRE2007_TABLESTYLE
 90
      512
 91
        0
  1

 92
      512
 93
        0
  2

 94
      512
 95
        0
  3

  0
ENDSEC
  0
EOF
