  0
SECTION
  2
HEADER
  9
$ACADVER
  1
AC1015
  9
$ACADMAINTVER
 70
    20
  9
$DWGCODEPAGE
  3
ANSI_1252
  9
$INSBASE
 10
27.72610014723967
 20
6.493812361828158
 30
0.0
  9
$EXTMIN
 10
18.99529114023022
 20
3.108032313999757
 30
-0.0015258207003583
  9
$EXTMAX
 10
39.101494636322
 20
12.55902105262389
 30
0.0000000349246037
  9
$LIMMIN
 10
0.0
 20
0.0
  9
$LIMMAX
 10
36.0
 20
36.0
  9
$ORTHOMODE
 70
     1
  9
$REGENMODE
 70
     1
  9
$FILLMODE
 70
     1
  9
$QTEXTMODE
 70
     0
  9
$MIRRTEXT
 70
     1
  9
$LTSCALE
 40
1.0
  9
$ATTMODE
 70
     1
  9
$TEXTSIZE
 40
0.2
  9
$TRACEWID
 40
0.05
  9
$TEXTSTYLE
  7
STANDARD
  9
$CLAYER
  8
0
  9
$CELTYPE
  6
ByLayer
  9
$CECOLOR
 62
   256
  9
$CELTSCALE
 40
1.0
  9
$DISPSILH
 70
     0
  9
$DIMSCALE
 40
1.0
  9
$DIMASZ
 40
0.125
  9
$DIMEXO
 40
0.0625
  9
$DIMDLI
 40
0.38
  9
$DIMRND
 40
0.0
  9
$DIMDLE
 40
0.0
  9
$DIMEXE
 40
0.18
  9
$DIMTP
 40
0.0
  9
$DIMTM
 40
0.0
  9
$DIMTXT
 40
0.125
  9
$DIMCEN
 40
0.1875
  9
$DIMTSZ
 40
0.125
  9
$DIMTOL
 70
     0
  9
$DIMLIM
 70
     0
  9
$DIMTIH
 70
     0
  9
$DIMTOH
 70
     0
  9
$DIMSE1
 70
     0
  9
$DIMSE2
 70
     0
  9
$DIMTAD
 70
     0
  9
$DIMZIN
 70
     3
  9
$DIMBLK
  1

  9
$DIMASO
 70
     1
  9
$DIMSHO
 70
     1
  9
$DIMPOST
  1

  9
$DIMAPOST
  1

  9
$DIMALT
 70
     0
  9
$DIMALTD
 70
     1
  9
$DIMALTF
 40
25.4
  9
$DIMLFAC
 40
1.0
  9
$DIMTOFL
 70
     0
  9
$DIMTVP
 40
0.0
  9
$DIMTIX
 70
     0
  9
$DIMSOXD
 70
     0
  9
$DIMSAH
 70
     0
  9
$DIMBLK1
  1

  9
$DIMBLK2
  1

  9
$DIMSTYLE
  2
Standard
  9
$DIMCLRD
 70
     0
  9
$DIMCLRE
 70
     0
  9
$DIMCLRT
 70
     0
  9
$DIMTFAC
 40
1.0
  9
$DIMGAP
 40
0.125
  9
$DIMJUST
 70
     0
  9
$DIMSD1
 70
     0
  9
$DIMSD2
 70
     0
  9
$DIMTOLJ
 70
     1
  9
$DIMTZIN
 70
     3
  9
$DIMALTZ
 70
     3
  9
$DIMALTTZ
 70
     3
  9
$DIMUPT
 70
     0
  9
$DIMDEC
 70
     4
  9
$DIMTDEC
 70
     4
  9
$DIMALTU
 70
     5
  9
$DIMALTTD
 70
     1
  9
$DIMTXSTY
  7
STANDARD
  9
$DIMAUNIT
 70
     0
  9
$DIMADEC
 70
     0
  9
$DIMALTRND
 40
0.0
  9
$DIMAZIN
 70
     0
  9
$DIMDSEP
 70
    46
  9
$DIMATFIT
 70
     3
  9
$DIMFRAC
 70
     0
  9
$DIMLDRBLK
  1

  9
$DIMLUNIT
 70
     5
  9
$DIMLWD
 70
    -2
  9
$DIMLWE
 70
    -2
  9
$DIMTMOVE
 70
     2
  9
$LUNITS
 70
     5
  9
$LUPREC
 70
     4
  9
$SKETCHINC
 40
0.1
  9
$FILLETRAD
 40
0.187
  9
$AUNITS
 70
     0
  9
$AUPREC
 70
     0
  9
$MENU
  1
acad
  9
$ELEVATION
 40
0.0
  9
$PELEVATION
 40
0.0
  9
$THICKNESS
 40
0.0
  9
$LIMCHECK
 70
     0
  9
$CHAMFERA
 40
0.0
  9
$CHAMFERB
 40
0.0
  9
$CHAMFERC
 40
0.0
  9
$CHAMFERD
 40
0.0
  9
$SKPOLY
 70
     0
  9
$TDCREATE
 40
2450399.684291088
  9
$TDUCREATE
 40
2450399.850957755
  9
$TDUPDATE
 40
2453984.970757118
  9
$TDUUPDATE
 40
2453985.137423785
  9
$TDINDWG
 40
0.0337281481
  9
$TDUSRTIMER
 40
0.0337281481
  9
$USRTIMER
 70
     1
  9
$ANGBASE
 50
0.0
  9
$ANGDIR
 70
     0
  9
$PDMODE
 70
     0
  9
$PDSIZE
 40
0.0
  9
$PLINEWID
 40
0.0
  9
$SPLFRAME
 70
     0
  9
$SPLINETYPE
 70
     6
  9
$SPLINESEGS
 70
     8
  9
$HANDSEED
  5
3F7
  9
$SURFTAB1
 70
     6
  9
$SURFTAB2
 70
     6
  9
$SURFTYPE
 70
     6
  9
$SURFU
 70
     6
  9
$SURFV
 70
     6
  9
$UCSBASE
  2

  9
$UCSNAME
  2

  9
$UCSORG
 10
0.0
 20
0.0
 30
0.0
  9
$UCSXDIR
 10
1.0
 20
0.0
 30
0.0
  9
$UCSYDIR
 10
0.0
 20
1.0
 30
0.0
  9
$UCSORTHOREF
  2

  9
$UCSORTHOVIEW
 70
     0
  9
$UCSORGTOP
 10
0.0
 20
0.0
 30
0.0
  9
$UCSORGBOTTOM
 10
0.0
 20
0.0
 30
0.0
  9
$UCSORGLEFT
 10
0.0
 20
0.0
 30
0.0
  9
$UCSORGRIGHT
 10
0.0
 20
0.0
 30
0.0
  9
$UCSORGFRONT
 10
0.0
 20
0.0
 30
0.0
  9
$UCSORGBACK
 10
0.0
 20
0.0
 30
0.0
  9
$PUCSBASE
  2

  9
$PUCSNAME
  2

  9
$PUCSORG
 10
0.0
 20
0.0
 30
0.0
  9
$PUCSXDIR
 10
1.0
 20
0.0
 30
0.0
  9
$PUCSYDIR
 10
0.0
 20
1.0
 30
0.0
  9
$PUCSORTHOREF
  2

  9
$PUCSORTHOVIEW
 70
     0
  9
$PUCSORGTOP
 10
0.0
 20
0.0
 30
0.0
  9
$PUCSORGBOTTOM
 10
0.0
 20
0.0
 30
0.0
  9
$PUCSORGLEFT
 10
0.0
 20
0.0
 30
0.0
  9
$PUCSORGRIGHT
 10
0.0
 20
0.0
 30
0.0
  9
$PUCSORGFRONT
 10
0.0
 20
0.0
 30
0.0
  9
$PUCSORGBACK
 10
0.0
 20
0.0
 30
0.0
  9
$USERI1
 70
     0
  9
$USERI2
 70
     0
  9
$USERI3
 70
     0
  9
$USERI4
 70
     0
  9
$USERI5
 70
     0
  9
$USERR1
 40
0.0
  9
$USERR2
 40
0.0
  9
$USERR3
 40
0.0
  9
$USERR4
 40
0.0
  9
$USERR5
 40
0.0
  9
$WORLDVIEW
 70
     1
  9
$SHADEDGE
 70
     3
  9
$SHADEDIF
 70
    70
  9
$TILEMODE
 70
     1
  9
$MAXACTVP
 70
    15
  9
$PINSBASE
 10
0.0004882914945483
 20
0.7501408034022604
 30
0.0
  9
$PLIMCHECK
 70
     0
  9
$PEXTMIN
 10
1.000000000000000E+20
 20
1.000000000000000E+20
 30
1.000000000000000E+20
  9
$PEXTMAX
 10
-1.000000000000000E+20
 20
-1.000000000000000E+20
 30
-1.000000000000000E+20
  9
$PLIMMIN
 10
0.0
 20
0.0
  9
$PLIMMAX
 10
12.0
 20
9.0
  9
$UNITMODE
 70
     0
  9
$VISRETAIN
 70
     0
  9
$PLINEGEN
 70
     0
  9
$PSLTSCALE
 70
     1
  9
$TREEDEPTH
 70
  3020
  9
$CMLSTYLE
  2
Standard
  9
$CMLJUST
 70
     0
  9
$CMLSCALE
 40
1.0
  9
$PROXYGRAPHICS
 70
     1
  9
$MEASUREMENT
 70
     0
  9
$CELWEIGHT
370
    -1
  9
$ENDCAPS
280
     0
  9
$JOINSTYLE
280
     0
  9
$LWDISPLAY
290
     0
  9
$INSUNITS
 70
     0
  9
$HYPERLINKBASE
  1

  9
$STYLESHEET
  1

  9
$XEDIT
290
     1
  9
$CEPSNTYPE
380
     0
  9
$PSTYLEMODE
290
     1
  9
$FINGERPRINTGUID
  2
{16C80542-7157-4BB0-AEC0-D64A0056DD3D}
  9
$VERSIONGUID
  2
{3BA99E6C-3F5C-47EB-9B1E-B5C6DB57048B}
  9
$EXTNAMES
290
     1
  9
$PSVPSCALE
 40
0.0
  9
$OLESTARTUP
290
     0
  0
ENDSEC
  0
SECTION
  2
CLASSES
  0
CLASS
  1
ACDBDICTIONARYWDFLT
  2
AcDbDictionaryWithDefault
  3
ObjectDBX Classes
 90
        0
280
     0
281
     0
  0
CLASS
  1
ACDBPLACEHOLDER
  2
AcDbPlaceHolder
  3
ObjectDBX Classes
 90
        0
280
     0
281
     0
  0
CLASS
  1
LAYOUT
  2
AcDbLayout
  3
ObjectDBX Classes
 90
        0
280
     0
281
     0
  0
CLASS
  1
DICTIONARYVAR
  2
AcDbDictionaryVar
  3
ObjectDBX Classes
 90
        0
280
     0
281
     0
  0
CLASS
  1
MATERIAL
  2
AcDbMaterial
  3
ObjectDBX Classes
 90
     1024
280
     0
281
     0
  0
CLASS
  1
VISUALSTYLE
  2
AcDbVisualStyle
  3
ObjectDBX Classes
 90
     4095
280
     0
281
     0
  0
CLASS
  1
TABLESTYLE
  2
AcDbTableStyle
  3
ObjectDBX Classes
 90
     4095
280
     0
281
     0
  0
ENDSEC
  0
SECTION
  2
TABLES
  0
TABLE
  2
VPORT
  5
8
330
0
100
AcDbSymbolTable
 70
     1
  0
VPORT
  5
2C0
330
8
100
AcDbSymbolTableRecord
100
AcDbViewportTableRecord
  2
*Active
 70
     0
 10
0.0
 20
0.0
 11
1.0
 21
1.0
 12
29.04839288827611
 22
7.833526683311824
 13
0.0
 23
0.0
 14
0.5740882589684922
 24
0.5740882589684922
 15
0.5
 25
0.5
 16
0.0
 26
0.0
 36
1.0
 17
0.0
 27
0.0
 37
0.0
 40
11.71877775023903
 41
1.726930320150659
 42
50.0
 43
0.0
 44
0.0
 50
0.0
 51
0.0
 71
     0
 72
   100
 73
     1
 74
     0
 75
     0
 76
     0
 77
     0
 78
     0
281
     0
 65
     1
110
0.0
120
0.0
130
0.0
111
1.0
121
0.0
131
0.0
112
0.0
122
1.0
132
0.0
 79
     0
146
0.0
  0
ENDTAB
  0
TABLE
  2
LTYPE
  5
5
330
0
100
AcDbSymbolTable
 70
     2
  0
LTYPE
  5
13
330
5
100
AcDbSymbolTableRecord
100
AcDbLinetypeTableRecord
  2
ByBlock
 70
     0
  3

 72
    65
 73
     0
 40
0.0
  0
LTYPE
  5
14
330
5
100
AcDbSymbolTableRecord
100
AcDbLinetypeTableRecord
  2
ByLayer
 70
     0
  3

 72
    65
 73
     0
 40
0.0
  0
LTYPE
  5
15
330
5
100
AcDbSymbolTableRecord
100
AcDbLinetypeTableRecord
  2
CONTINUOUS
 70
     0
  3
Solid line
 72
    65
 73
     0
 40
0.0
  0
LTYPE
  5
F7
330
5
100
AcDbSymbolTableRecord
100
AcDbLinetypeTableRecord
  2
CENTER2
 70
     0
  3
___ _ ___ _ ___ _ ___ _ ___ _ ___ _ ___ _ ___ _
 72
    65
 73
     4
 40
1.125
 49
0.75
 74
     0
 49
-0.125
 74
     0
 49
0.125
 74
     0
 49
-0.125
 74
     0
  0
ENDTAB
  0
TABLE
  2
LAYER
  5
2
330
0
100
AcDbSymbolTable
 70
     5
  0
LAYER
  5
10
330
2
100
AcDbSymbolTableRecord
100
AcDbLayerTableRecord
  2
0
 70
     0
 62
     7
  6
CONTINUOUS
370
    -3
390
F
  0
LAYER
  5
FB
330
2
100
AcDbSymbolTableRecord
100
AcDbLayerTableRecord
  2
ADP1DETAIL
 70
     0
 62
     7
  6
CONTINUOUS
370
    -3
390
F
  0
LAYER
  5
FC
330
2
100
AcDbSymbolTableRecord
100
AcDbLayerTableRecord
  2
ADP3DETAIL
 70
     0
 62
     1
  6
CONTINUOUS
370
    -3
390
F
  0
LAYER
  5
FD
330
2
100
AcDbSymbolTableRecord
100
AcDbLayerTableRecord
  2
DEFPOINTS
 70
     0
 62
     7
  6
CONTINUOUS
290
     0
370
    -3
390
F
  0
LAYER
  5
100
330
2
100
AcDbSymbolTableRecord
100
AcDbLayerTableRecord
  2
ADPDIM
 70
     0
 62
     3
  6
CONTINUOUS
370
    -3
390
F
  0
ENDTAB
  0
TABLE
  2
STYLE
  5
3
330
0
100
AcDbSymbolTable
 70
     2
  0
STYLE
  5
11
330
3
100
AcDbSymbolTableRecord
100
AcDbTextStyleTableRecord
  2
STANDARD
 70
     0
 40
0.0
 41
1.0
 50
0.0
 71
     0
 42
0.2
  3
txt
  4

  0
STYLE
  5
167
330
3
100
AcDbSymbolTableRecord
100
AcDbTextStyleTableRecord
  2
ARIAL_WIDE
 70
     0
 40
0.0
 41
1.25
 50
0.0
 71
     0
 42
0.2
  3
ARIAL.TTF
  4

1001
ACAD
1000
Arial
1071
       34
  0
ENDTAB
  0
TABLE
  2
VIEW
  5
6
330
0
100
AcDbSymbolTable
 70
     0
  0
ENDTAB
  0
TABLE
  2
UCS
  5
7
330
0
100
AcDbSymbolTable
 70
     0
  0
ENDTAB
  0
TABLE
  2
APPID
  5
9
330
0
100
AcDbSymbolTable
 70
     1
  0
APPID
  5
12
330
9
100
AcDbSymbolTableRecord
100
AcDbRegAppTableRecord
  2
ACAD
 70
     0
  0
ENDTAB
  0
TABLE
  2
DIMSTYLE
  5
A
330
0
100
AcDbSymbolTable
 70
     1
100
AcDbDimStyleTable
 71
     0
  0
DIMSTYLE
105
165
102
{ACAD_REACTORS
330
362
330
363
330
385
102
}
330
A
100
AcDbSymbolTableRecord
100
AcDbDimStyleTableRecord
  2
Standard
 70
     0
340
11
  0
ENDTAB
  0
TABLE
  2
BLOCK_RECORD
  5
1
330
0
100
AcDbSymbolTable
 70
    12
  0
BLOCK_RECORD
  5
1E
102
{ACAD_XDICTIONARY
360
1A4
102
}
330
1
100
AcDbSymbolTableRecord
100
AcDbBlockTableRecord
  2
*Model_Space
340
21
  0
BLOCK_RECORD
  5
1A
102
{ACAD_XDICTIONARY
360
1A6
102
}
330
1
100
AcDbSymbolTableRecord
100
AcDbBlockTableRecord
  2
*Paper_Space
340
1D
  0
BLOCK_RECORD
  5
9E
330
1
100
AcDbSymbolTableRecord
100
AcDbBlockTableRecord
  2
6935
340
0
  0
BLOCK_RECORD
  5
EF
330
1
100
AcDbSymbolTableRecord
100
AcDbBlockTableRecord
  2
*D1
340
0
  0
BLOCK_RECORD
  5
F0
330
1
100
AcDbSymbolTableRecord
100
AcDbBlockTableRecord
  2
*D2
340
0
  0
BLOCK_RECORD
  5
F1
330
1
100
AcDbSymbolTableRecord
100
AcDbBlockTableRecord
  2
*D3
340
0
  0
BLOCK_RECORD
  5
F2
330
1
100
AcDbSymbolTableRecord
100
AcDbBlockTableRecord
  2
*D4
340
0
  0
BLOCK_RECORD
  5
312
330
1
100
AcDbSymbolTableRecord
100
AcDbBlockTableRecord
  2
*D5
340
0
  0
BLOCK_RECORD
  5
31F
330
1
100
AcDbSymbolTableRecord
100
AcDbBlockTableRecord
  2
*D6
340
0
  0
BLOCK_RECORD
  5
32C
330
1
100
AcDbSymbolTableRecord
100
AcDbBlockTableRecord
  2
*D7
340
0
  0
BLOCK_RECORD
  5
386
330
1
100
AcDbSymbolTableRecord
100
AcDbBlockTableRecord
  2
*D9
340
0
  0
BLOCK_RECORD
  5
393
330
1
100
AcDbSymbolTableRecord
100
AcDbBlockTableRecord
  2
*D10
340
0
  0
BLOCK_RECORD
  5
3A0
330
1
100
AcDbSymbolTableRecord
100
AcDbBlockTableRecord
  2
*D11
340
0
  0
ENDTAB
  0
ENDSEC
  0
SECTION
  2
BLOCKS
  0
BLOCK
  5
103
330
1E
100
AcDbEntity
  8
0
100
AcDbBlockBegin
  2
*Model_Space
 70
     0
 10
0.0
 20
0.0
 30
0.0
  3
*Model_Space
  1

  0
ENDBLK
  5
104
330
1E
100
AcDbEntity
  8
0
100
AcDbBlockEnd
  0
BLOCK
  5
101
330
1A
100
AcDbEntity
 67
     1
  8
0
100
AcDbBlockBegin
  2
*Paper_Space
 70
     0
 10
0.0
 20
0.0
 30
0.0
  3
*Paper_Space
  1

  0
ENDBLK
  5
102
330
1A
100
AcDbEntity
 67
     1
  8
0
100
AcDbBlockEnd
  0
BLOCK
  5
106
330
9E
100
AcDbEntity
  8
0
100
AcDbBlockBegin
  2
6935
 70
     0
 10
0.0
 20
0.0
 30
0.0
  3
6935
  1

  0
ARC
  5
107
330
9E
100
AcDbEntity
  8
0
100
AcDbCircle
 10
0.8251505165084598
 20
0.3752574129362634
 30
0.0
 40
0.0999999999999997
100
AcDbArc
 50
359.9999999999995
 51
90.0
  0
ARC
  5
108
330
9E
100
AcDbEntity
  8
0
100
AcDbCircle
 10
1.08115051650846
 20
-1.805742587063736
 30
0.0
 40
2.593999999999999
100
AcDbArc
 50
89.96200675749017
 51
109.6817833868906
  0
LINE
  5
109
330
9E
100
AcDbEntity
  8
0
100
AcDbLine
 10
0.3001505165084595
 20
0.1842574129362635
 30
0.0
 11
0.3001505165084595
 21
0.0382574129362636
 31
0.0
  0
ARC
  5
10A
330
9E
100
AcDbEntity
  8
0
100
AcDbCircle
 10
0.3311505165084601
 20
0.3502574129362639
 30
0.0
 40
0.312
100
AcDbArc
 50
113.3476747754214
 51
264.2977414232919
  0
LINE
  5
10B
330
9E
100
AcDbEntity
  8
0
100
AcDbLine
 10
0.4151505165084597
 20
0.1942574129362642
 30
0.0
 11
0.3101505165084593
 21
0.1942574129362633
 31
0.0
  0
ARC
  5
10C
330
9E
100
AcDbEntity
  8
0
100
AcDbCircle
 10
0.3101505165084593
 20
0.1842574129362635
 30
0.0
 40
0.0099999999999998
100
AcDbArc
 50
90.0
 51
180.0
  0
ARC
  5
10D
330
9E
100
AcDbEntity
  8
0
100
AcDbCircle
 10
0.6121505165084589
 20
0.4132574129362637
 30
0.0
 40
0.0620000000000003
100
AcDbArc
 50
90.0
 51
180.0
  0
ARC
  5
10E
330
9E
100
AcDbEntity
  8
0
100
AcDbCircle
 10
0.5401505165084597
 20
0.3602574129362637
 30
0.0
 40
0.0099999999999998
100
AcDbArc
 50
270.0
 51
0.0
  0
LINE
  5
10F
330
9E
100
AcDbEntity
  8
0
100
AcDbLine
 10
0.5501505165084595
 20
0.4132574129362637
 30
0.0
 11
0.5501505165084595
 21
0.3602574129362637
 31
0.0
  0
ARC
  5
110
330
9E
100
AcDbEntity
  8
0
100
AcDbCircle
 10
0.4351505165084593
 20
0.3402574129362641
 30
0.0
 40
0.0099999999999998
100
AcDbArc
 50
90.0
 51
180.0
  0
LINE
  5
111
330
9E
100
AcDbEntity
  8
0
100
AcDbLine
 10
0.5401505165084597
 20
0.3502574129362639
 30
0.0
 11
0.4351505165084593
 21
0.3502574129362639
 31
0.0
  0
ARC
  5
112
330
9E
100
AcDbEntity
  8
0
100
AcDbCircle
 10
0.4151505165084597
 20
0.204257412936264
 30
0.0
 40
0.0099999999999998
100
AcDbArc
 50
270.0
 51
0.0
  0
LINE
  5
113
330
9E
100
AcDbEntity
  8
0
100
AcDbLine
 10
0.4251505165084595
 20
0.3402574129362641
 30
0.0
 11
0.4251505165084595
 21
0.204257412936264
 31
0.0
  0
LINE
  5
114
330
9E
100
AcDbEntity
  8
0
100
AcDbLine
 10
0.8251505165084598
 20
0.475257412936263
 30
0.0
 11
0.6121505165084589
 21
0.4752574129362639
 31
0.0
  0
LINE
  5
115
330
9E
100
AcDbEntity
  8
0
100
AcDbLine
 10
1.862150516508458
 20
0.1842574129362644
 30
0.0
 11
1.862150516508458
 21
0.0382574129362636
 31
0.0
  0
ARC
  5
116
330
9E
100
AcDbEntity
  8
0
100
AcDbCircle
 10
1.83115051650846
 20
0.3502574129362639
 30
0.0
 40
0.312
100
AcDbArc
 50
275.7022585767081
 51
66.65232522457856
  0
LINE
  5
117
330
9E
100
AcDbEntity
  8
0
100
AcDbLine
 10
1.337150516508458
 20
0.4752574129362639
 30
0.0
 11
1.550150516508457
 21
0.4752574129362639
 31
0.0
  0
ARC
  5
118
330
9E
100
AcDbEntity
  8
0
100
AcDbCircle
 10
1.08115051650846
 20
-1.805742587063736
 30
0.0
 40
2.593999999999999
100
AcDbArc
 50
70.31821661310944
 51
90.03799324250982
  0
LINE
  5
119
330
9E
100
AcDbEntity
  8
0
100
AcDbLine
 10
1.08115051650846
 20
0.3502574129362639
 30
0.0
 11
1.227150516508459
 21
0.3502574129362639
 31
0.0
  0
LINE
  5
11A
330
9E
100
AcDbEntity
  8
0
100
AcDbLine
 10
1.08115051650846
 20
0.3502574129362639
 30
0.0
 11
0.9351505165084592
 21
0.3502574129362639
 31
0.0
  0
LINE
  5
11B
330
9E
100
AcDbEntity
  8
0
100
AcDbLine
 10
0.9251505165084594
 20
0.3602574129362637
 30
0.0
 11
0.9251505165084594
 21
0.3752574129362625
 31
0.0
  0
ARC
  5
11C
330
9E
100
AcDbEntity
  8
0
100
AcDbCircle
 10
0.9351505165084592
 20
0.3602574129362637
 30
0.0
 40
0.0099999999999998
100
AcDbArc
 50
180.0
 51
270.0
  0
ARC
  5
11D
330
9E
100
AcDbEntity
  8
0
100
AcDbCircle
 10
1.337150516508458
 20
0.3752574129362642
 30
0.0
 40
0.0999999999999997
100
AcDbArc
 50
90.0
 51
180.0
  0
LINE
  5
11E
330
9E
100
AcDbEntity
  8
0
100
AcDbLine
 10
1.237150516508458
 20
0.3602574129362637
 30
0.0
 11
1.237150516508458
 21
0.3752574129362642
 31
0.0
  0
ARC
  5
11F
330
9E
100
AcDbEntity
  8
0
100
AcDbCircle
 10
1.227150516508459
 20
0.3602574129362637
 30
0.0
 40
0.0099999999999998
100
AcDbArc
 50
270.0
 51
0.0
  0
ARC
  5
120
330
9E
100
AcDbEntity
  8
0
100
AcDbCircle
 10
1.727150516508459
 20
0.3402574129362641
 30
0.0
 40
0.0099999999999998
100
AcDbArc
 50
0.0
 51
90.0
  0
LINE
  5
121
330
9E
100
AcDbEntity
  8
0
100
AcDbLine
 10
1.612150516508458
 20
0.4132574129362637
 30
0.0
 11
1.612150516508458
 21
0.3502574129362639
 31
0.0
  0
ARC
  5
122
330
9E
100
AcDbEntity
  8
0
100
AcDbCircle
 10
1.550150516508457
 20
0.4132574129362637
 30
0.0
 40
0.0620000000000003
100
AcDbArc
 50
0.0
 51
90.0
  0
LINE
  5
123
330
9E
100
AcDbEntity
  8
0
100
AcDbLine
 10
1.612150516508458
 20
0.3502574129362639
 30
0.0
 11
1.727150516508459
 21
0.3502574129362639
 31
0.0
  0
ARC
  5
124
330
9E
100
AcDbEntity
  8
0
100
AcDbCircle
 10
1.852150516508457
 20
0.1842574129362635
 30
0.0
 40
0.0100000000000007
100
AcDbArc
 50
0.0000000000050889
 51
90.0
  0
ARC
  5
125
330
9E
100
AcDbEntity
  8
0
100
AcDbCircle
 10
1.74715051650846
 20
0.2042574129362649
 30
0.0
 40
0.0100000000000016
100
AcDbArc
 50
180.000000000005
 51
270.0
  0
LINE
  5
126
330
9E
100
AcDbEntity
  8
0
100
AcDbLine
 10
1.74715051650846
 20
0.1942574129362642
 30
0.0
 11
1.852150516508457
 21
0.1942574129362642
 31
0.0
  0
LINE
  5
127
330
9E
100
AcDbEntity
  8
0
100
AcDbLine
 10
1.737150516508458
 20
0.3402574129362641
 30
0.0
 11
1.737150516508458
 21
0.204257412936264
 31
0.0
  0
ENDBLK
  5
128
330
9E
100
AcDbEntity
  8
0
100
AcDbBlockEnd
  0
BLOCK
  5
129
330
EF
100
AcDbEntity
  8
0
100
AcDbBlockBegin
  2
*D1
 70
     1
 10
0.0
 20
0.0
 30
0.0
  3
*D1
  1

  0
LINE
  5
12A
330
EF
100
AcDbEntity
  8
0
  6
ByBlock
 62
     0
100
AcDbLine
 10
25.88038004735299
 20
4.221474951207586
 30
0.0
 11
25.88038004735299
 21
3.932422038658697
 31
0.0
  0
LINE
  5
12B
330
EF
100
AcDbEntity
  8
0
  6
ByBlock
 62
     0
100
AcDbLine
 10
27.44238004735298
 20
4.292931067269099
 30
0.0
 11
27.44238004735298
 21
3.932422038658697
 31
0.0
  0
LINE
  5
12C
330
EF
100
AcDbEntity
  8
0
  6
ByBlock
 62
     0
100
AcDbLine
 10
25.88038004735299
 20
4.112422038658698
 30
0.0
 11
26.22388004735299
 21
4.112422038658698
 31
0.0
  0
LINE
  5
12D
330
EF
100
AcDbEntity
  8
0
  6
ByBlock
 62
     0
100
AcDbLine
 10
27.44238004735298
 20
4.112422038658698
 30
0.0
 11
27.09888004735299
 21
4.112422038658698
 31
0.0
  0
LINE
  5
12E
330
EF
100
AcDbEntity
  8
0
  6
ByBlock
 62
     0
100
AcDbLine
 10
25.75538004735299
 20
3.987422038658698
 30
0.0
 11
26.00538004735299
 21
4.237422038658698
 31
0.0
  0
LINE
  5
12F
330
EF
100
AcDbEntity
  8
0
  6
ByBlock
 62
     0
100
AcDbLine
 10
27.31738004735298
 20
3.987422038658698
 30
0.0
 11
27.56738004735299
 21
4.237422038658698
 31
0.0
  0
TEXT
  5
130
330
EF
100
AcDbEntity
  8
0
  6
ByBlock
 62
     0
100
AcDbText
 10
26.34888004735298
 20
4.049922038658698
 30
0.0
 40
0.125
  1
1 9/16
 72
     1
 11
26.66138004735298
 21
4.112422038658698
 31
0.0
100
AcDbText
 73
     2
  0
POINT
  5
132
330
EF
100
AcDbEntity
  8
DEFPOINTS
  6
ByBlock
 62
     0
100
AcDbPoint
 10
25.88038004735299
 20
4.283974951207586
 30
0.0
  0
POINT
  5
133
330
EF
100
AcDbEntity
  8
DEFPOINTS
  6
ByBlock
 62
     0
100
AcDbPoint
 10
27.44238004735298
 20
4.355431067269099
 30
0.0
  0
POINT
  5
134
330
EF
100
AcDbEntity
  8
DEFPOINTS
  6
ByBlock
 62
     0
100
AcDbPoint
 10
27.44238004735298
 20
4.112422038658698
 30
0.0
  0
ENDBLK
  5
135
330
EF
100
AcDbEntity
  8
0
100
AcDbBlockEnd
  0
BLOCK
  5
136
330
F0
100
AcDbEntity
  8
0
100
AcDbBlockBegin
  2
*D2
 70
     1
 10
0.0
 20
0.0
 30
0.0
  3
*D2
  1

  0
LINE
  5
137
330
F0
100
AcDbEntity
  8
0
  6
ByBlock
 62
     0
100
AcDbLine
 10
25.59638087259772
 20
4.807111727071308
 30
0.0
 11
25.59638087259772
 21
5.38821744083984
 31
0.0
  0
LINE
  5
138
330
F0
100
AcDbEntity
  8
0
  6
ByBlock
 62
     0
100
AcDbLine
 10
27.72138087259772
 20
4.807111727071308
 30
0.0
 11
27.72138087259772
 21
5.38821744083984
 31
0.0
  0
LINE
  5
139
330
F0
100
AcDbEntity
  8
0
  6
ByBlock
 62
     0
100
AcDbLine
 10
25.59638087259772
 20
5.20821744083984
 30
0.0
 11
26.26304753926439
 21
5.20821744083984
 31
0.0
  0
LINE
  5
13A
330
F0
100
AcDbEntity
  8
0
  6
ByBlock
 62
     0
100
AcDbLine
 10
27.72138087259772
 20
5.20821744083984
 30
0.0
 11
27.05471420593105
 21
5.20821744083984
 31
0.0
  0
LINE
  5
13B
330
F0
100
AcDbEntity
  8
0
  6
ByBlock
 62
     0
100
AcDbLine
 10
25.47138087259772
 20
5.08321744083984
 30
0.0
 11
25.72138087259772
 21
5.33321744083984
 31
0.0
  0
LINE
  5
13C
330
F0
100
AcDbEntity
  8
0
  6
ByBlock
 62
     0
100
AcDbLine
 10
27.59638087259772
 20
5.08321744083984
 30
0.0
 11
27.84638087259772
 21
5.33321744083984
 31
0.0
  0
TEXT
  5
13D
330
F0
100
AcDbEntity
  8
0
  6
ByBlock
 62
     0
100
AcDbText
 10
26.38804753926439
 20
5.14571744083984
 30
0.0
 40
0.125
  1
2 1/8
 72
     1
 11
26.65888087259772
 21
5.20821744083984
 31
0.0
100
AcDbText
 73
     2
  0
POINT
  5
13E
330
F0
100
AcDbEntity
  8
DEFPOINTS
  6
ByBlock
 62
     0
100
AcDbPoint
 10
25.59638087259772
 20
4.744611727071308
 30
0.0
  0
POINT
  5
13F
330
F0
100
AcDbEntity
  8
DEFPOINTS
  6
ByBlock
 62
     0
100
AcDbPoint
 10
27.72138087259772
 20
4.744611727071308
 30
0.0
  0
POINT
  5
140
330
F0
100
AcDbEntity
  8
DEFPOINTS
  6
ByBlock
 62
     0
100
AcDbPoint
 10
27.72138087259772
 20
5.20821744083984
 30
0.0
  0
ENDBLK
  5
141
330
F0
100
AcDbEntity
  8
0
100
AcDbBlockEnd
  0
BLOCK
  5
142
330
F1
100
AcDbEntity
  8
0
100
AcDbBlockBegin
  2
*D3
 70
     1
 10
0.0
 20
0.0
 30
0.0
  3
*D3
  1

  0
LINE
  5
143
330
F1
100
AcDbEntity
  8
0
  6
ByBlock
 62
     0
100
AcDbLine
 10
29.10199174654581
 20
8.992427060263203
 30
0.0
 11
28.33674620155492
 21
8.992427060263203
 31
0.0
  0
LINE
  5
144
330
F1
100
AcDbEntity
  8
0
  6
ByBlock
 62
     0
100
AcDbLine
 10
27.78860014723967
 20
6.493812361828158
 30
0.0
 11
28.69674620155492
 21
6.493812361828158
 31
0.0
  0
LINE
  5
145
330
F1
100
AcDbEntity
  8
0
  6
ByBlock
 62
     0
100
AcDbLine
 10
28.51674620155492
 20
8.992427060263203
 30
0.0
 11
28.51674620155492
 21
8.138953044379015
 31
0.0
  0
LINE
  5
146
330
F1
100
AcDbEntity
  8
0
  6
ByBlock
 62
     0
100
AcDbLine
 10
28.51674620155492
 20
6.493812361828158
 30
0.0
 11
28.51674620155492
 21
7.347286377712348
 31
0.0
  0
LINE
  5
147
330
F1
100
AcDbEntity
  8
0
  6
ByBlock
 62
     0
100
AcDbLine
 10
28.64174620155491
 20
8.867427060263203
 30
0.0
 11
28.39174620155492
 21
9.117427060263203
 31
0.0
  0
LINE
  5
148
330
F1
100
AcDbEntity
  8
0
  6
ByBlock
 62
     0
100
AcDbLine
 10
28.64174620155491
 20
6.368812361828158
 30
0.0
 11
28.39174620155492
 21
6.618812361828158
 31
0.0
  0
TEXT
  5
149
330
F1
100
AcDbEntity
  8
0
  6
ByBlock
 62
     0
100
AcDbText
 10
28.57924620155492
 20
7.472286377712348
 30
0.0
 40
0.125
  1
2 1/2
 50
90.0
 72
     1
 11
28.51674620155492
 21
7.743119711045681
 31
0.0
100
AcDbText
 73
     2
  0
POINT
  5
14A
330
F1
100
AcDbEntity
  8
DEFPOINTS
  6
ByBlock
 62
     0
100
AcDbPoint
 10
29.16449174654581
 20
8.992427060263203
 30
0.0
  0
POINT
  5
14B
330
F1
100
AcDbEntity
  8
DEFPOINTS
  6
ByBlock
 62
     0
100
AcDbPoint
 10
27.72610014723967
 20
6.493812361828158
 30
0.0
  0
POINT
  5
14C
330
F1
100
AcDbEntity
  8
DEFPOINTS
  6
ByBlock
 62
     0
100
AcDbPoint
 10
28.51674620155492
 20
6.493812361828158
 30
0.0
  0
ENDBLK
  5
14D
330
F1
100
AcDbEntity
  8
0
100
AcDbBlockEnd
  0
BLOCK
  5
14E
330
F2
100
AcDbEntity
  8
0
100
AcDbBlockBegin
  2
*D4
 70
     1
 10
0.0
 20
0.0
 30
0.0
  3
*D4
  1

  0
LINE
  5
14F
330
F2
100
AcDbEntity
  8
0
  6
ByBlock
 62
     0
100
AcDbLine
 10
27.39132862714844
 20
10.75756565540229
 30
0.0
 11
29.16449174654581
 21
8.992427060263201
 31
0.0
  0
LINE
  5
150
330
F2
100
AcDbEntity
  8
0
  6
ByBlock
 62
     0
100
AcDbLine
 10
27.21455238646517
 20
10.75716474407643
 30
0.0
 11
27.56810486783171
 21
10.75796656672814
 31
0.0
  0
TEXT
  5
151
330
F2
100
AcDbEntity
  8
0
  6
ByBlock
 62
     0
100
AcDbText
 10
29.20898649021101
 20
8.859945107582213
 30
0.0
 40
0.125
  1
R2 1/2
 50
315.1299410342688
 72
     1
 11
29.4893165252292
 21
8.669072289774609
 31
0.0
100
AcDbText
 73
     2
  0
POINT
  5
152
330
F2
100
AcDbEntity
  8
DEFPOINTS
  6
ByBlock
 62
     0
100
AcDbPoint
 10
27.39132862714844
 20
10.75756565540229
 30
0.0
  0
POINT
  5
153
330
F2
100
AcDbEntity
  8
DEFPOINTS
  6
ByBlock
 62
     0
100
AcDbPoint
 10
29.16310014723967
 20
8.993812361828156
 30
0.0
  0
ENDBLK
  5
154
330
F2
100
AcDbEntity
  8
0
100
AcDbBlockEnd
  0
BLOCK
  5
313
330
312
100
AcDbEntity
  8
0
100
AcDbBlockBegin
  2
*D5
 70
     1
 10
0.0
 20
0.0
 30
0.0
  3
*D5
  1

  0
LINE
  5
314
330
312
100
AcDbEntity
  8
ADPDIM
 62
     0
370
    -2
100
AcDbLine
 10
14.35211516547279
 20
-6.548316702674148
 30
0.0
 11
14.35211516547279
 21
-5.967210988905616
 31
0.0
  0
LINE
  5
315
330
312
100
AcDbEntity
  8
ADPDIM
 62
     0
370
    -2
100
AcDbLine
 10
16.47711516547279
 20
-6.548316702674148
 30
0.0
 11
16.47711516547279
 21
-5.967210988905616
 31
0.0
  0
LINE
  5
316
330
312
100
AcDbEntity
  8
ADPDIM
 62
     0
370
    -2
100
AcDbLine
 10
14.35211516547279
 20
-6.147210988905616
 30
0.0
 11
15.01878183213945
 21
-6.147210988905616
 31
0.0
  0
LINE
  5
317
330
312
100
AcDbEntity
  8
ADPDIM
 62
     0
370
    -2
100
AcDbLine
 10
16.47711516547279
 20
-6.147210988905616
 30
0.0
 11
15.81044849880612
 21
-6.147210988905616
 31
0.0
  0
LINE
  5
318
330
312
100
AcDbEntity
  8
ADPDIM
 62
     0
370
    -2
100
AcDbLine
 10
16.35211516547279
 20
-6.272210988905616
 30
0.0
 11
16.60211516547279
 21
-6.022210988905616
 31
0.0
  0
LINE
  5
319
330
312
100
AcDbEntity
  8
ADPDIM
 62
     0
370
    -2
100
AcDbLine
 10
14.22711516547279
 20
-6.272210988905616
 30
0.0
 11
14.47711516547279
 21
-6.022210988905616
 31
0.0
  0
MTEXT
  5
31A
330
312
100
AcDbEntity
  8
ADPDIM
 62
     0
100
AcDbMText
 10
15.41461516547279
 20
-6.147210988905616
 30
0.0
 40
0.125
 41
0.0
 71
     5
 72
     1
  1
\A1;2 1/8
 73
     1
 44
1.0
1001
ACAD
1000
MTEXTBEGIN
1070
    73
1070
     1
1070
    44
1040
1.0
1070
    74
1070
     0
1000
MTEXTEND
  0
POINT
  5
31B
330
312
100
AcDbEntity
  8
DEFPOINTS
 62
     0
100
AcDbPoint
 10
14.35211516547279
 20
-6.610816702674148
 30
0.0
  0
POINT
  5
31C
330
312
100
AcDbEntity
  8
DEFPOINTS
 62
     0
100
AcDbPoint
 10
16.47711516547279
 20
-6.610816702674148
 30
0.0
  0
POINT
  5
31D
330
312
100
AcDbEntity
  8
DEFPOINTS
 62
     0
100
AcDbPoint
 10
16.47711516547279
 20
-6.147210988905616
 30
0.0
  0
ENDBLK
  5
31E
330
312
100
AcDbEntity
  8
0
100
AcDbBlockEnd
  0
BLOCK
  5
320
330
31F
100
AcDbEntity
  8
0
100
AcDbBlockBegin
  2
*D6
 70
     1
 10
0.0
 20
0.0
 30
0.0
  3
*D6
  1

  0
LINE
  5
321
330
31F
100
AcDbEntity
  8
ADPDIM
 62
     0
370
    -2
100
AcDbLine
 10
14.63611434022805
 20
-7.13395347853787
 30
0.0
 11
14.63611434022805
 21
-7.837732172021564
 31
0.0
  0
LINE
  5
322
330
31F
100
AcDbEntity
  8
ADPDIM
 62
     0
370
    -2
100
AcDbLine
 10
16.19811434022805
 20
-7.062497362476356
 30
0.0
 11
16.19811434022805
 21
-7.837732172021564
 31
0.0
  0
LINE
  5
323
330
31F
100
AcDbEntity
  8
ADPDIM
 62
     0
370
    -2
100
AcDbLine
 10
14.63611434022805
 20
-7.657732172021564
 30
0.0
 11
14.97961434022805
 21
-7.657732172021564
 31
0.0
  0
LINE
  5
324
330
31F
100
AcDbEntity
  8
ADPDIM
 62
     0
370
    -2
100
AcDbLine
 10
16.19811434022805
 20
-7.657732172021564
 30
0.0
 11
15.85461434022805
 21
-7.657732172021564
 31
0.0
  0
LINE
  5
325
330
31F
100
AcDbEntity
  8
ADPDIM
 62
     0
370
    -2
100
AcDbLine
 10
16.07311434022805
 20
-7.782732172021564
 30
0.0
 11
16.32311434022805
 21
-7.532732172021564
 31
0.0
  0
LINE
  5
326
330
31F
100
AcDbEntity
  8
ADPDIM
 62
     0
370
    -2
100
AcDbLine
 10
14.51111434022805
 20
-7.782732172021564
 30
0.0
 11
14.76111434022805
 21
-7.532732172021564
 31
0.0
  0
MTEXT
  5
327
330
31F
100
AcDbEntity
  8
ADPDIM
 62
     0
100
AcDbMText
 10
15.41711434022805
 20
-7.657732172021564
 30
0.0
 40
0.125
 41
0.0
 71
     5
 72
     1
  1
\A1;1 9/16
 73
     1
 44
1.0
1001
ACAD
1000
MTEXTBEGIN
1070
    73
1070
     1
1070
    44
1040
1.0
1070
    74
1070
     0
1000
MTEXTEND
  0
POINT
  5
328
330
31F
100
AcDbEntity
  8
DEFPOINTS
 62
     0
100
AcDbPoint
 10
14.63611434022805
 20
-7.07145347853787
 30
0.0
  0
POINT
  5
329
330
31F
100
AcDbEntity
  8
DEFPOINTS
 62
     0
100
AcDbPoint
 10
16.19811434022805
 20
-6.999997362476356
 30
0.0
  0
POINT
  5
32A
330
31F
100
AcDbEntity
  8
DEFPOINTS
 62
     0
100
AcDbPoint
 10
16.19811434022805
 20
-7.657732172021564
 30
0.0
  0
ENDBLK
  5
32B
330
31F
100
AcDbEntity
  8
0
100
AcDbBlockEnd
  0
BLOCK
  5
32D
330
32C
100
AcDbEntity
  8
0
 62
     3
100
AcDbBlockBegin
  2
*D7
 70
     1
 10
0.0
 20
0.0
 30
0.0
  3
*D7
  1

  0
LINE
  5
32E
330
32C
100
AcDbEntity
  8
ADPDIM
 62
     0
370
    -2
100
AcDbLine
 10
14.75115263635602
 20
-6.976042852406795
 30
0.0
 11
14.75115263635602
 21
-7.365071377413443
 31
0.0
  0
LINE
  5
32F
330
32C
100
AcDbEntity
  8
ADPDIM
 62
     0
370
    -2
100
AcDbLine
 10
16.06365263635602
 20
-6.976042852406795
 30
0.0
 11
16.06365263635602
 21
-7.365071377413443
 31
0.0
  0
LINE
  5
330
330
32C
100
AcDbEntity
  8
ADPDIM
 62
     0
370
    -2
100
AcDbLine
 10
14.75115263635602
 20
-7.185071377413443
 30
0.0
 11
14.96990263635602
 21
-7.185071377413443
 31
0.0
  0
LINE
  5
331
330
32C
100
AcDbEntity
  8
ADPDIM
 62
     0
370
    -2
100
AcDbLine
 10
16.06365263635602
 20
-7.185071377413443
 30
0.0
 11
15.84490263635602
 21
-7.185071377413443
 31
0.0
  0
LINE
  5
332
330
32C
100
AcDbEntity
  8
ADPDIM
 62
     0
370
    -2
100
AcDbLine
 10
15.93865263635602
 20
-7.310071377413443
 30
0.0
 11
16.18865263635601
 21
-7.060071377413443
 31
0.0
  0
LINE
  5
333
330
32C
100
AcDbEntity
  8
ADPDIM
 62
     0
370
    -2
100
AcDbLine
 10
14.62615263635601
 20
-7.310071377413443
 30
0.0
 11
14.87615263635602
 21
-7.060071377413443
 31
0.0
  0
MTEXT
  5
334
330
32C
100
AcDbEntity
  8
ADPDIM
 62
     0
100
AcDbMText
 10
15.40740263635601
 20
-7.185071377413443
 30
0.0
 40
0.125
 41
0.0
 71
     5
 72
     1
  1
\A1;1 5/16
 73
     1
 44
1.0
1001
ACAD
1000
MTEXTBEGIN
1070
    73
1070
     1
1070
    44
1040
1.0
1070
    74
1070
     0
1000
MTEXTEND
  0
POINT
  5
335
330
32C
100
AcDbEntity
  8
DEFPOINTS
 62
     0
100
AcDbPoint
 10
14.75115263635602
 20
-6.913542852406795
 30
0.0
  0
POINT
  5
336
330
32C
100
AcDbEntity
  8
DEFPOINTS
 62
     0
100
AcDbPoint
 10
16.06365263635602
 20
-6.913542852406795
 30
0.0
  0
POINT
  5
337
330
32C
100
AcDbEntity
  8
DEFPOINTS
 62
     0
100
AcDbPoint
 10
16.06365263635602
 20
-7.185071377413443
 30
0.0
  0
ENDBLK
  5
338
330
32C
100
AcDbEntity
  8
0
 62
     3
100
AcDbBlockEnd
  0
BLOCK
  5
391
330
386
100
AcDbEntity
  8
0
100
AcDbBlockBegin
  2
*D9
 70
     1
 10
0.0
 20
0.0
 30
0.0
  3
*D9
  1

  0
LINE
  5
3AD
330
386
100
AcDbEntity
  8
ADPDIM
 62
     0
370
    -2
100
AcDbLine
 10
25.61184263547265
 20
5.302560320409041
 30
0.0
 11
25.61184263547265
 21
5.883666034177572
 31
0.0
  0
LINE
  5
3AE
330
386
100
AcDbEntity
  8
ADPDIM
 62
     0
370
    -2
100
AcDbLine
 10
27.73684263547265
 20
5.302560320409041
 30
0.0
 11
27.73684263547265
 21
5.883666034177572
 31
0.0
  0
LINE
  5
3AF
330
386
100
AcDbEntity
  8
ADPDIM
 62
     0
370
    -2
100
AcDbLine
 10
25.61184263547265
 20
5.703666034177572
 30
0.0
 11
26.27850930213932
 21
5.703666034177572
 31
0.0
  0
LINE
  5
3B0
330
386
100
AcDbEntity
  8
ADPDIM
 62
     0
370
    -2
100
AcDbLine
 10
27.73684263547265
 20
5.703666034177572
 30
0.0
 11
27.07017596880599
 21
5.703666034177572
 31
0.0
  0
LINE
  5
3B1
330
386
100
AcDbEntity
  8
ADPDIM
 62
     0
370
    -2
100
AcDbLine
 10
27.61184263547265
 20
5.578666034177572
 30
0.0
 11
27.86184263547265
 21
5.828666034177572
 31
0.0
  0
LINE
  5
3B2
330
386
100
AcDbEntity
  8
ADPDIM
 62
     0
370
    -2
100
AcDbLine
 10
25.48684263547265
 20
5.578666034177572
 30
0.0
 11
25.73684263547265
 21
5.828666034177572
 31
0.0
  0
MTEXT
  5
3B3
330
386
100
AcDbEntity
  8
ADPDIM
 62
     0
100
AcDbMText
 10
26.67434263547265
 20
5.703666034177572
 30
0.0
 40
0.125
 41
0.0
 71
     5
 72
     1
  1
\A1;2 1/8
 73
     1
 44
1.0
1001
ACAD
1000
MTEXTBEGIN
1070
    73
1070
     1
1070
    44
1040
1.0
1070
    74
1070
     0
1000
MTEXTEND
  0
POINT
  5
3B4
330
386
100
AcDbEntity
  8
DEFPOINTS
 62
     0
100
AcDbPoint
 10
25.61184263547265
 20
5.240060320409041
 30
0.0
  0
POINT
  5
3B5
330
386
100
AcDbEntity
  8
DEFPOINTS
 62
     0
100
AcDbPoint
 10
27.73684263547265
 20
5.240060320409041
 30
0.0
  0
POINT
  5
3B6
330
386
100
AcDbEntity
  8
DEFPOINTS
 62
     0
100
AcDbPoint
 10
27.73684263547265
 20
5.703666034177572
 30
0.0
  0
ENDBLK
  5
392
330
386
100
AcDbEntity
  8
0
100
AcDbBlockEnd
  0
BLOCK
  5
39E
330
393
100
AcDbEntity
  8
0
100
AcDbBlockBegin
  2
*D10
 70
     1
 10
0.0
 20
0.0
 30
0.0
  3
*D10
  1

  0
LINE
  5
3B7
330
393
100
AcDbEntity
  8
ADPDIM
 62
     0
370
    -2
100
AcDbLine
 10
25.89584181022792
 20
4.716923544545318
 30
0.0
 11
25.89584181022792
 21
4.013144851061625
 31
0.0
  0
LINE
  5
3B8
330
393
100
AcDbEntity
  8
ADPDIM
 62
     0
370
    -2
100
AcDbLine
 10
27.45784181022792
 20
4.788379660606832
 30
0.0
 11
27.45784181022792
 21
4.013144851061625
 31
0.0
  0
LINE
  5
3B9
330
393
100
AcDbEntity
  8
ADPDIM
 62
     0
370
    -2
100
AcDbLine
 10
25.89584181022792
 20
4.193144851061624
 30
0.0
 11
26.23934181022792
 21
4.193144851061624
 31
0.0
  0
LINE
  5
3BA
330
393
100
AcDbEntity
  8
ADPDIM
 62
     0
370
    -2
100
AcDbLine
 10
27.45784181022792
 20
4.193144851061624
 30
0.0
 11
27.11434181022791
 21
4.193144851061624
 31
0.0
  0
LINE
  5
3BB
330
393
100
AcDbEntity
  8
ADPDIM
 62
     0
370
    -2
100
AcDbLine
 10
27.33284181022792
 20
4.068144851061624
 30
0.0
 11
27.58284181022792
 21
4.318144851061624
 31
0.0
  0
LINE
  5
3BC
330
393
100
AcDbEntity
  8
ADPDIM
 62
     0
370
    -2
100
AcDbLine
 10
25.77084181022792
 20
4.068144851061624
 30
0.0
 11
26.02084181022791
 21
4.318144851061624
 31
0.0
  0
MTEXT
  5
3BD
330
393
100
AcDbEntity
  8
ADPDIM
 62
     0
100
AcDbMText
 10
26.67684181022791
 20
4.193144851061624
 30
0.0
 40
0.125
 41
0.0
 71
     5
 72
     1
  1
\A1;1 9/16
 73
     1
 44
1.0
1001
ACAD
1000
MTEXTBEGIN
1070
    73
1070
     1
1070
    44
1040
1.0
1070
    74
1070
     0
1000
MTEXTEND
  0
POINT
  5
3BE
330
393
100
AcDbEntity
  8
DEFPOINTS
 62
     0
100
AcDbPoint
 10
25.89584181022792
 20
4.779423544545318
 30
0.0
  0
POINT
  5
3BF
330
393
100
AcDbEntity
  8
DEFPOINTS
 62
     0
100
AcDbPoint
 10
27.45784181022792
 20
4.850879660606832
 30
0.0
  0
POINT
  5
3C0
330
393
100
AcDbEntity
  8
DEFPOINTS
 62
     0
100
AcDbPoint
 10
27.45784181022792
 20
4.193144851061624
 30
0.0
  0
ENDBLK
  5
39F
330
393
100
AcDbEntity
  8
0
100
AcDbBlockEnd
  0
BLOCK
  5
3AB
330
3A0
100
AcDbEntity
  8
0
100
AcDbBlockBegin
  2
*D11
 70
     1
 10
0.0
 20
0.0
 30
0.0
  3
*D11
  1

  0
LINE
  5
3C1
330
3A0
100
AcDbEntity
  8
ADPDIM
 62
     0
370
    -2
100
AcDbLine
 10
26.01088010635588
 20
4.874834170676393
 30
0.0
 11
26.01088010635588
 21
4.485805645669746
 31
0.0
  0
LINE
  5
3C2
330
3A0
100
AcDbEntity
  8
ADPDIM
 62
     0
370
    -2
100
AcDbLine
 10
27.32338010635588
 20
4.874834170676393
 30
0.0
 11
27.32338010635588
 21
4.485805645669746
 31
0.0
  0
LINE
  5
3C3
330
3A0
100
AcDbEntity
  8
ADPDIM
 62
     0
370
    -2
100
AcDbLine
 10
26.01088010635588
 20
4.665805645669745
 30
0.0
 11
26.22963010635588
 21
4.665805645669745
 31
0.0
  0
LINE
  5
3C4
330
3A0
100
AcDbEntity
  8
ADPDIM
 62
     0
370
    -2
100
AcDbLine
 10
27.32338010635588
 20
4.665805645669745
 30
0.0
 11
27.10463010635588
 21
4.665805645669745
 31
0.0
  0
LINE
  5
3C5
330
3A0
100
AcDbEntity
  8
ADPDIM
 62
     0
370
    -2
100
AcDbLine
 10
27.19838010635588
 20
4.540805645669745
 30
0.0
 11
27.44838010635588
 21
4.790805645669745
 31
0.0
  0
LINE
  5
3C6
330
3A0
100
AcDbEntity
  8
ADPDIM
 62
     0
370
    -2
100
AcDbLine
 10
25.88588010635588
 20
4.540805645669745
 30
0.0
 11
26.13588010635588
 21
4.790805645669745
 31
0.0
  0
MTEXT
  5
3C7
330
3A0
100
AcDbEntity
  8
ADPDIM
 62
     0
100
AcDbMText
 10
26.66713010635588
 20
4.665805645669745
 30
0.0
 40
0.125
 41
0.0
 71
     5
 72
     1
  1
\A1;1 5/16
 73
     1
 44
1.0
1001
ACAD
1000
MTEXTBEGIN
1070
    73
1070
     1
1070
    44
1040
1.0
1070
    74
1070
     0
1000
MTEXTEND
  0
POINT
  5
3C8
330
3A0
100
AcDbEntity
  8
DEFPOINTS
 62
     0
100
AcDbPoint
 10
26.01088010635588
 20
4.937334170676393
 30
0.0
  0
POINT
  5
3C9
330
3A0
100
AcDbEntity
  8
DEFPOINTS
 62
     0
100
AcDbPoint
 10
27.32338010635588
 20
4.937334170676393
 30
0.0
  0
POINT
  5
3CA
330
3A0
100
AcDbEntity
  8
DEFPOINTS
 62
     0
100
AcDbPoint
 10
27.32338010635588
 20
4.665805645669745
 30
0.0
  0
ENDBLK
  5
3AC
330
3A0
100
AcDbEntity
  8
0
100
AcDbBlockEnd
  0
ENDSEC
  0
SECTION
  2
ENTITIES
  0
ARC
  5
156
330
1E
100
AcDbEntity
  8
ADP1DETAIL
100
AcDbCircle
 10
29.16310014723967
 20
8.993812361828156
 30
0.0
 40
3.563
100
AcDbArc
 50
90.0
 51
180.0
  0
LINE
  5
157
330
1E
100
AcDbEntity
  8
ADP3DETAIL
  6
CENTER2
100
AcDbLine
 10
26.66310014723967
 20
6.03243049696379
 30
0.0
 11
26.66310014723967
 21
8.993812361828156
 31
0.0
  0
DIMENSION
  5
158
330
1E
100
AcDbEntity
  8
ADPDIM
100
AcDbDimension
  2
*D3
 10
28.51674620155492
 20
6.493812361828158
 30
0.0
 11
28.51674620155492
 21
7.743119711045681
 31
0.0
 71
     5
 42
-1.0
100
AcDbAlignedDimension
 13
29.16449174654581
 23
8.992427060263203
 33
0.0
 14
27.72610014723967
 24
6.493812361828158
 34
0.0
 50
90.0
100
AcDbRotatedDimension
  0
LINE
  5
159
330
1E
100
AcDbEntity
  8
ADP1DETAIL
100
AcDbLine
 10
25.60010014723967
 20
6.493812361828158
 30
0.0
 11
25.60010014723967
 21
8.993812361828156
 31
0.0
  0
LINE
  5
15A
330
1E
100
AcDbEntity
  8
ADP1DETAIL
100
AcDbLine
 10
27.72610014723967
 20
8.993812361828156
 30
0.0
 11
27.72610014723967
 21
6.493812361828158
 31
0.0
  0
LINE
  5
15D
330
1E
100
AcDbEntity
  8
ADP1DETAIL
100
AcDbLine
 10
27.72610014723967
 20
6.493812361828158
 30
0.0
 11
25.60010014723967
 21
6.493812361828158
 31
0.0
  0
LINE
  5
15E
330
1E
100
AcDbEntity
  8
ADP3DETAIL
  6
CENTER2
100
AcDbLine
 10
32.37372184773388
 20
11.49381236182815
 30
0.0
 11
29.16310014723967
 21
11.49381236182815
 31
0.0
  0
DIMENSION
  5
15F
330
1E
100
AcDbEntity
  8
ADPDIM
100
AcDbDimension
  2
*D4
 10
29.16310014723967
 20
8.993812361828156
 30
0.0
 11
29.4893165252292
 21
8.669072289774609
 31
0.0
 70
     4
 71
     5
 42
-1.0
100
AcDbRadialDimension
 15
27.39132862714844
 25
10.75756565540229
 35
0.0
 40
-2.501963570486308
  0
LINE
  5
160
330
1E
100
AcDbEntity
  8
ADP1DETAIL
100
AcDbLine
 10
29.16310014723967
 20
12.55681236182815
 30
0.0
 11
31.66310014723967
 21
12.55681236182815
 31
0.0
  0
LINE
  5
161
330
1E
100
AcDbEntity
  8
ADP1DETAIL
100
AcDbLine
 10
31.66310014723967
 20
10.43081236182815
 30
0.0
 11
29.16310014723967
 21
10.43081236182815
 31
0.0
  0
ARC
  5
162
330
1E
100
AcDbEntity
  8
ADP3DETAIL
  6
CENTER2
100
AcDbCircle
 10
29.16310014723967
 20
8.993812361828156
 30
0.0
 40
2.5
100
AcDbArc
 50
90.0
 51
180.0
  0
ARC
  5
163
330
1E
100
AcDbEntity
  8
ADP1DETAIL
100
AcDbCircle
 10
29.16310014723967
 20
8.993812361828156
 30
0.0
 40
1.437
100
AcDbArc
 50
90.0
 51
180.0
  0
LINE
  5
164
330
1E
100
AcDbEntity
  8
ADP1DETAIL
100
AcDbLine
 10
31.66310014723967
 20
12.55681236182815
 30
0.0
 11
31.66310014723967
 21
10.43081236182815
 31
0.0
  0
TEXT
  5
168
330
1E
100
AcDbEntity
  8
ADPDIM
100
AcDbText
 10
18.99569053821054
 20
3.164618304174704
 30
0.0
 40
0.1875
  1
J U L I U S  B L U M  &  C O . ,  I N C .      ( 8 0 0 )  5 2 6 - 6 2 9 3        W W W . J U L I U S B L U M . C O M        P A R T  N o .  6 9 3 5 - C
 41
1.25
  7
ARIAL_WIDE
 72
     1
 11
29.04799591849704
 21
3.352118304174704
 31
0.0
100
AcDbText
 73
     3
  0
DIMENSION
  5
362
330
1E
100
AcDbEntity
  8
ADPDIM
100
AcDbDimension
  2
*D9
 10
27.73684263547265
 20
5.703666034177572
 30
0.0
 11
26.67434263547265
 21
5.703666034177572
 31
0.0
 70
    32
 71
     5
 42
2.125
  3
Standard
100
AcDbAlignedDimension
 13
25.61184263547265
 23
5.240060320409041
 33
0.0
 14
27.73684263547265
 24
5.240060320409041
 34
0.0
100
AcDbRotatedDimension
1001
ACAD
1000
DSTYLE
1002
{
1070
   276
1070
     2
1070
    41
1040
0.125
1070
    73
1070
     0
1070
    74
1070
     0
1070
    78
1070
     3
1070
   140
1040
0.125
1070
   141
1040
0.1875
1070
   142
1040
0.125
1070
   147
1040
0.125
1070
   171
1070
     1
1070
   273
1070
     5
1070
   274
1070
     1
1070
   277
1070
     5
1070
   279
1070
     2
1070
   284
1070
     3
1070
   285
1070
     3
1070
   286
1070
     3
1002
}
  0
DIMENSION
  5
363
330
1E
100
AcDbEntity
  8
ADPDIM
100
AcDbDimension
  2
*D10
 10
27.45784181022792
 20
4.193144851061624
 30
0.0
 11
26.67684181022791
 21
4.193144851061624
 31
0.0
 70
    32
 71
     5
 42
1.562000000000001
  3
Standard
100
AcDbAlignedDimension
 13
25.89584181022792
 23
4.779423544545318
 33
0.0
 14
27.45784181022792
 24
4.850879660606832
 34
0.0
100
AcDbRotatedDimension
1001
ACAD
1000
DSTYLE
1002
{
1070
   276
1070
     2
1070
    41
1040
0.125
1070
    73
1070
     0
1070
    74
1070
     0
1070
    78
1070
     3
1070
   140
1040
0.125
1070
   141
1040
0.1875
1070
   142
1040
0.125
1070
   147
1040
0.125
1070
   171
1070
     1
1070
   273
1070
     5
1070
   274
1070
     1
1070
   277
1070
     5
1070
   279
1070
     2
1070
   284
1070
     3
1070
   285
1070
     3
1070
   286
1070
     3
1002
}
  0
LINE
  5
364
330
1E
100
AcDbEntity
  8
ADP1DETAIL
100
AcDbLine
 10
26.67684181022792
 20
5.089879660606833
 30
0.0
 11
26.82284181022791
 21
5.089879660606833
 31
0.0
  0
ARC
  5
365
330
1E
100
AcDbEntity
  8
ADP1DETAIL
100
AcDbCircle
 10
26.93284181022792
 20
5.114879660606833
 30
0.0
 40
0.0999999999999997
100
AcDbArc
 50
90.0
 51
180.0
  0
ARC
  5
366
330
1E
100
AcDbEntity
  8
ADP1DETAIL
100
AcDbCircle
 10
26.67684181022792
 20
2.933879660606832
 30
0.0
 40
2.593999999999999
100
AcDbArc
 50
70.31821661310934
 51
90.03799324250977
  0
ARC
  5
367
330
1E
100
AcDbEntity
  8
ADP1DETAIL
100
AcDbCircle
 10
25.92684181022792
 20
5.089879660606833
 30
0.0
 40
0.312
100
AcDbArc
 50
113.3476747754214
 51
264.2977414232918
  0
ARC
  5
368
330
1E
100
AcDbEntity
  8
ADP1DETAIL
100
AcDbCircle
 10
26.67684181022792
 20
2.933879660606832
 30
0.0
 40
2.593999999999999
100
AcDbArc
 50
89.96200675749021
 51
109.6817833868906
  0
LINE
  5
369
330
1E
100
AcDbEntity
  8
ADP1DETAIL
100
AcDbLine
 10
25.89584181022792
 20
4.923879660606832
 30
0.0
 11
25.89584181022792
 21
4.777879660606832
 31
0.0
  0
LINE
  5
36A
330
1E
100
AcDbEntity
  8
ADP1DETAIL
100
AcDbLine
 10
26.42084181022792
 20
5.214879660606832
 30
0.0
 11
26.20784181022792
 21
5.214879660606833
 31
0.0
  0
ARC
  5
36B
330
1E
100
AcDbEntity
  8
ADP1DETAIL
100
AcDbCircle
 10
26.20784181022792
 20
5.152879660606832
 30
0.0
 40
0.0620000000000003
100
AcDbArc
 50
90.0
 51
180.0
  0
ARC
  5
36C
330
1E
100
AcDbEntity
  8
ADP1DETAIL
100
AcDbCircle
 10
26.13584181022792
 20
5.099879660606832
 30
0.0
 40
0.0099999999999998
100
AcDbArc
 50
270.0
 51
0.0
  0
LINE
  5
36D
330
1E
100
AcDbEntity
  8
ADP1DETAIL
100
AcDbLine
 10
26.14584181022792
 20
5.152879660606832
 30
0.0
 11
26.14584181022792
 21
5.099879660606832
 31
0.0
  0
ARC
  5
36E
330
1E
100
AcDbEntity
  8
ADP1DETAIL
100
AcDbCircle
 10
26.03084181022792
 20
5.079879660606833
 30
0.0
 40
0.0099999999999998
100
AcDbArc
 50
90.0
 51
180.0
  0
LINE
  5
36F
330
1E
100
AcDbEntity
  8
ADP1DETAIL
100
AcDbLine
 10
26.13584181022792
 20
5.089879660606833
 30
0.0
 11
26.03084181022792
 21
5.089879660606833
 31
0.0
  0
ARC
  5
370
330
1E
100
AcDbEntity
  8
ADP1DETAIL
100
AcDbCircle
 10
26.01084181022792
 20
4.943879660606833
 30
0.0
 40
0.0099999999999998
100
AcDbArc
 50
270.0
 51
0.0
  0
LINE
  5
371
330
1E
100
AcDbEntity
  8
ADP1DETAIL
100
AcDbLine
 10
26.02084181022791
 20
5.079879660606833
 30
0.0
 11
26.02084181022791
 21
4.943879660606833
 31
0.0
  0
ARC
  5
372
330
1E
100
AcDbEntity
  8
ADP1DETAIL
100
AcDbCircle
 10
25.90584181022792
 20
4.923879660606832
 30
0.0
 40
0.0099999999999998
100
AcDbArc
 50
90.0
 51
180.0
  0
LINE
  5
373
330
1E
100
AcDbEntity
  8
ADP1DETAIL
100
AcDbLine
 10
26.01084181022792
 20
4.933879660606833
 30
0.0
 11
25.90584181022792
 21
4.933879660606832
 31
0.0
  0
ARC
  5
374
330
1E
100
AcDbEntity
  8
ADP1DETAIL
100
AcDbCircle
 10
26.42084181022792
 20
5.114879660606832
 30
0.0
 40
0.0999999999999997
100
AcDbArc
 50
359.9999999999995
 51
90.0
  0
LINE
  5
375
330
1E
100
AcDbEntity
  8
ADP1DETAIL
100
AcDbLine
 10
26.52084181022792
 20
5.099879660606832
 30
0.0
 11
26.52084181022792
 21
5.114879660606831
 31
0.0
  0
ARC
  5
376
330
1E
100
AcDbEntity
  8
ADP1DETAIL
100
AcDbCircle
 10
26.53084181022792
 20
5.099879660606832
 30
0.0
 40
0.0099999999999998
100
AcDbArc
 50
180.0
 51
270.0
  0
LINE
  5
377
330
1E
100
AcDbEntity
  8
ADP1DETAIL
100
AcDbLine
 10
26.67684181022792
 20
5.089879660606833
 30
0.0
 11
26.53084181022792
 21
5.089879660606833
 31
0.0
  0
LINE
  5
378
330
1E
100
AcDbEntity
  8
ADP1DETAIL
100
AcDbLine
 10
27.45784181022792
 20
4.923879660606833
 30
0.0
 11
27.45784181022792
 21
4.777879660606832
 31
0.0
  0
ARC
  5
379
330
1E
100
AcDbEntity
  8
ADP1DETAIL
100
AcDbCircle
 10
27.42684181022792
 20
5.089879660606833
 30
0.0
 40
0.312
100
AcDbArc
 50
275.7022585767079
 51
66.6523252245785
  0
LINE
  5
37A
330
1E
100
AcDbEntity
  8
ADP1DETAIL
100
AcDbLine
 10
27.20784181022791
 20
5.089879660606833
 30
0.0
 11
27.32284181022792
 21
5.089879660606833
 31
0.0
  0
LINE
  5
37B
330
1E
100
AcDbEntity
  8
ADP1DETAIL
100
AcDbLine
 10
27.20784181022791
 20
5.152879660606832
 30
0.0
 11
27.20784181022791
 21
5.089879660606833
 31
0.0
  0
LINE
  5
37C
330
1E
100
AcDbEntity
  8
ADP1DETAIL
100
AcDbLine
 10
26.93284181022792
 20
5.214879660606833
 30
0.0
 11
27.14584181022792
 21
5.214879660606833
 31
0.0
  0
LINE
  5
37D
330
1E
100
AcDbEntity
  8
ADP1DETAIL
100
AcDbLine
 10
26.83284181022792
 20
5.099879660606832
 30
0.0
 11
26.83284181022792
 21
5.114879660606833
 31
0.0
  0
ARC
  5
37E
330
1E
100
AcDbEntity
  8
ADP1DETAIL
100
AcDbCircle
 10
26.82284181022791
 20
5.099879660606832
 30
0.0
 40
0.0099999999999998
100
AcDbArc
 50
270.0
 51
0.0
  0
ARC
  5
37F
330
1E
100
AcDbEntity
  8
ADP1DETAIL
100
AcDbCircle
 10
27.14584181022792
 20
5.152879660606832
 30
0.0
 40
0.0620000000000003
100
AcDbArc
 50
0.0
 51
90.0
  0
ARC
  5
380
330
1E
100
AcDbEntity
  8
ADP1DETAIL
100
AcDbCircle
 10
27.32284181022792
 20
5.079879660606833
 30
0.0
 40
0.0099999999999998
100
AcDbArc
 50
0.0
 51
90.0
  0
ARC
  5
381
330
1E
100
AcDbEntity
  8
ADP1DETAIL
100
AcDbCircle
 10
27.44784181022791
 20
4.923879660606832
 30
0.0
 40
0.0100000000000007
100
AcDbArc
 50
0.0000000000050889
 51
90.0
  0
ARC
  5
382
330
1E
100
AcDbEntity
  8
ADP1DETAIL
100
AcDbCircle
 10
27.34284181022792
 20
4.943879660606834
 30
0.0
 40
0.0100000000000016
100
AcDbArc
 50
180.000000000005
 51
270.0
  0
LINE
  5
383
330
1E
100
AcDbEntity
  8
ADP1DETAIL
100
AcDbLine
 10
27.34284181022792
 20
4.933879660606833
 30
0.0
 11
27.44784181022791
 21
4.933879660606833
 31
0.0
  0
LINE
  5
384
330
1E
100
AcDbEntity
  8
ADP1DETAIL
100
AcDbLine
 10
27.33284181022792
 20
5.079879660606833
 30
0.0
 11
27.33284181022792
 21
4.943879660606833
 31
0.0
  0
DIMENSION
  5
385
330
1E
100
AcDbEntity
  8
ADPDIM
 62
     3
100
AcDbDimension
  2
*D11
 10
27.32338010635588
 20
4.665805645669745
 30
0.0
 11
26.66713010635588
 21
4.665805645669745
 31
0.0
 70
    32
 71
     5
 42
1.3125
  3
Standard
100
AcDbAlignedDimension
 13
26.01088010635588
 23
4.937334170676393
 33
0.0
 14
27.32338010635588
 24
4.937334170676393
 34
0.0
100
AcDbRotatedDimension
1001
ACAD
1000
DSTYLE
1002
{
1070
   276
1070
     2
1070
    41
1040
0.125
1070
    73
1070
     0
1070
    74
1070
     0
1070
    78
1070
     3
1070
   140
1040
0.125
1070
   141
1040
0.1875
1070
   142
1040
0.125
1070
   147
1040
0.125
1070
   171
1070
     1
1070
   273
1070
     5
1070
   274
1070
     1
1070
   277
1070
     5
1070
   279
1070
     2
1070
   284
1070
     3
1070
   285
1070
     3
1070
   286
1070
     3
1002
}
  0
ENDSEC
  0
SECTION
  2
OBJECTS
  0
DICTIONARY
  5
C
330
0
100
AcDbDictionary
281
     1
  3
ACAD_COLOR
350
30C
  3
ACAD_GROUP
350
D
  3
ACAD_LAYOUT
350
19
  3
ACAD_MATERIAL
350
2F7
  3
ACAD_MLINESTYLE
350
16
  3
ACAD_PLOTSETTINGS
350
18
  3
ACAD_PLOTSTYLENAME
350
E
  3
ACAD_TABLESTYLE
350
30D
  3
ACAD_VISUALSTYLE
350
2FB
  3
AcDbVariableDictionary
350
1D9
  3
DWGPROPS
350
3EA
  0
DICTIONARY
  5
1A4
330
1E
100
AcDbDictionary
280
     1
281
     1
  3
ACAD_LAYOUTSELFREF
360
2F3
  0
DICTIONARY
  5
1A6
330
1A
100
AcDbDictionary
280
     1
281
     1
  3
ACAD_LAYOUTSELFREF
360
2F2
  0
DICTIONARY
  5
30C
102
{ACAD_REACTORS
330
C
102
}
330
C
100
AcDbDictionary
281
     1
  0
DICTIONARY
  5
D
102
{ACAD_REACTORS
330
C
102
}
330
C
100
AcDbDictionary
281
     1
  0
DICTIONARY
  5
19
102
{ACAD_REACTORS
330
C
102
}
330
C
100
AcDbDictionary
281
     1
  3
Layout1
350
1D
  3
Model
350
21
  0
DICTIONARY
  5
2F7
102
{ACAD_REACTORS
330
C
102
}
330
C
100
AcDbDictionary
281
     1
  3
ByBlock
350
2F9
  3
ByLayer
350
2F8
  3
Global
350
2FA
  0
DICTIONARY
  5
16
102
{ACAD_REACTORS
330
C
102
}
330
C
100
AcDbDictionary
281
     1
  3
Standard
350
17
  0
DICTIONARY
  5
18
102
{ACAD_REACTORS
330
C
102
}
330
C
100
AcDbDictionary
281
     1
  0
ACDBDICTIONARYWDFLT
  5
E
102
{ACAD_REACTORS
330
C
102
}
330
C
100
AcDbDictionary
281
     1
  3
Normal
350
F
100
AcDbDictionaryWithDefault
340
F
  0
DICTIONARY
  5
30D
102
{ACAD_REACTORS
330
C
102
}
330
C
100
AcDbDictionary
281
     1
  3
Standard
350
30E
  0
DICTIONARY
  5
2FB
102
{ACAD_REACTORS
330
C
102
}
330
C
100
AcDbDictionary
281
     1
  3
2dWireframe
350
301
  3
3D Hidden
350
303
  3
3dWireframe
350
302
  3
Basic
350
300
  3
Brighten
350
307
  3
ColorChange
350
30B
  3
Conceptual
350
304
  3
Dim
350
306
  3
Facepattern
350
30A
  3
Flat
350
2FC
  3
FlatWithEdges
350
2FD
  3
Gouraud
350
2FE
  3
GouraudWithEdges
350
2FF
  3
Linepattern
350
309
  3
Realistic
350
305
  3
Thicken
350
308
  0
DICTIONARY
  5
1D9
102
{ACAD_REACTORS
330
C
102
}
330
C
100
AcDbDictionary
281
     1
  3
CTABLESTYLE
350
3E7
  3
DIMASSOC
350
1DB
  3
HIDETEXT
350
1DA
  3
INDEXCTL
350
3E9
  3
SORTENTS
350
3E8
  0
XRECORD
  5
3EA
102
{ACAD_REACTORS
330
C
102
}
330
C
100
AcDbXrecord
280
     1
  1
DWGPROPS COOKIE
  2

  3

  4

  6

  7

  8
Yu Hu
  9

300
=
301
=
302
=
303
=
304
=
305
=
306
=
307
=
308
=
309
=
 40
0.0337280324074074
 41
2450399.684291088
 42
2453984.970757118
  1

 90
        0
  0
XRECORD
  5
2F3
102
{ACAD_REACTORS
330
1A4
102
}
330
1A4
100
AcDbXrecord
280
     1
340
1E
  0
XRECORD
  5
2F2
102
{ACAD_REACTORS
330
1A6
102
}
330
1A6
100
AcDbXrecord
280
     1
340
1A
  0
LAYOUT
  5
1D
102
{ACAD_XDICTIONARY
360
3EB
102
}
102
{ACAD_REACTORS
330
19
102
}
330
19
100
AcDbPlotSettings
  1

  2
Fax
  4

  6

 40
0.0
 41
0.0
 42
0.0
 43
0.0
 44
0.0
 45
0.0
 46
0.0
 47
0.0
 48
0.0
 49
0.0
140
0.0
141
0.0
142
1.0
143
1.0
 70
   688
 72
     0
 73
     0
 74
     5
  7
Default R14 pen assignments.ctb
 75
    16
147
1.0
148
0.0
149
0.0
100
AcDbLayout
  1
Layout1
 70
     1
 71
     1
 10
0.0
 20
0.0
 11
12.0
 21
9.0
 12
0.0004882914945483
 22
0.7501408034022604
 32
0.0
 14
1.000000000000000E+20
 24
1.000000000000000E+20
 34
1.000000000000000E+20
 15
-1.000000000000000E+20
 25
-1.000000000000000E+20
 35
-1.000000000000000E+20
146
0.0
 13
0.0
 23
0.0
 33
0.0
 16
1.0
 26
0.0
 36
0.0
 17
0.0
 27
1.0
 37
0.0
 76
     0
330
1A
  0
LAYOUT
  5
21
102
{ACAD_XDICTIONARY
360
3ED
102
}
102
{ACAD_REACTORS
330
19
102
}
330
19
100
AcDbPlotSettings
  1

  2
Fax
  4

  6

 40
0.0
 41
0.0
 42
0.0
 43
0.0
 44
0.0
 45
0.0
 46
0.0
 47
0.0
 48
0.0
 49
0.0
140
0.0
141
0.0
142
1.0
143
1.0
 70
  1712
 72
     0
 73
     0
 74
     0
  7
Default R14 pen assignments.ctb
 75
     0
147
1.0
148
0.0
149
0.0
100
AcDbLayout
  1
Model
 70
     1
 71
     0
 10
0.0
 20
0.0
 11
12.0
 21
9.0
 12
0.0
 22
0.0
 32
0.0
 14
0.0
 24
0.0
 34
0.0
 15
0.0
 25
0.0
 35
0.0
146
0.0
 13
0.0
 23
0.0
 33
0.0
 16
1.0
 26
0.0
 36
0.0
 17
0.0
 27
1.0
 37
0.0
 76
     0
330
1E
331
2C0
  0
MATERIAL
  5
2F9
102
{ACAD_XDICTIONARY
360
3F1
102
}
102
{ACAD_REACTORS
330
2F7
102
}
330
2F7
100
AcDbMaterial
  1
ByBlock
  0
MATERIAL
  5
2F8
102
{ACAD_XDICTIONARY
360
3EF
102
}
102
{ACAD_REACTORS
330
2F7
102
}
330
2F7
100
AcDbMaterial
  1
ByLayer
  0
MATERIAL
  5
2FA
102
{ACAD_XDICTIONARY
360
3F3
102
}
102
{ACAD_REACTORS
330
2F7
102
}
330
2F7
100
AcDbMaterial
  1
Global
  0
MLINESTYLE
  5
17
102
{ACAD_REACTORS
330
16
102
}
330
16
100
AcDbMlineStyle
  2
STANDARD
 70
     0
  3

 62
   256
 51
90.0
 52
90.0
 71
     2
 49
0.5
 62
   256
  6
BYLAYER
 49
-0.5
 62
   256
  6
BYLAYER
  0
ACDBPLACEHOLDER
  5
F
102
{ACAD_REACTORS
330
E
102
}
330
E
  0
TABLESTYLE
  5
30E
102
{ACAD_XDICTIONARY
360
3F5
102
}
102
{ACAD_REACTORS
330
30D
102
}
330
30D
100
AcDbTableStyle
  3
Standard
 70
     0
 71
     0
 40
0.06
 41
0.06
280
     0
281
     0
  7
STANDARD
140
0.18
170
     2
 62
     0
 63
     7
283
     0
274
    -2
284
     1
 64
     0
275
    -2
285
     1
 65
     0
276
    -2
286
     1
 66
     0
277
    -2
287
     1
 67
     0
278
    -2
288
     1
 68
     0
279
    -2
289
     1
 69
     0
  7
STANDARD
140
0.25
170
     5
 62
     0
 63
     7
283
     0
274
    -2
284
     1
 64
     0
275
    -2
285
     1
 65
     0
276
    -2
286
     1
 66
     0
277
    -2
287
     1
 67
     0
278
    -2
288
     1
 68
     0
279
    -2
289
     1
 69
     0
  7
STANDARD
140
0.18
170
     5
 62
     0
 63
     7
283
     0
274
    -2
284
     1
 64
     0
275
    -2
285
     1
 65
     0
276
    -2
286
     1
 66
     0
277
    -2
287
     1
 67
     0
278
    -2
288
     1
 68
     0
279
    -2
289
     1
 69
     0
  0
VISUALSTYLE
  5
301
102
{ACAD_REACTORS
330
2FB
102
}
330
2FB
100
AcDbVisualStyle
  2
2dWireframe
 70
     4
 71
     0
 72
     2
 73
     0
 90
        0
 40
-0.6
 41
-30.0
 62
     5
 63
     7
 74
     1
 91
        4
 64
     7
 65
   257
 75
     1
175
     1
 42
1.0
 92
        0
 66
   257
 43
1.0
 76
     1
 77
     6
 78
     2
 67
     7
 79
     5
170
     0
171
     0
290
     0
174
     0
 93
        1
 44
0.0
173
     0
291
     0
 45
0.0
1001
ACAD
1000
AcDbSavedByObjectVersion
1070
     0
  0
VISUALSTYLE
  5
303
102
{ACAD_REACTORS
330
2FB
102
}
330
2FB
100
AcDbVisualStyle
  2
3D Hidden
 70
     6
 71
     1
 72
     2
 73
     2
 90
        0
 40
-0.6
 41
-30.0
 62
     5
 63
     7
 74
     2
 91
        2
 64
     7
 65
   257
 75
     2
175
     1
 42
40.0
 92
        0
 66
   257
 43
1.0
 76
     1
 77
     6
 78
     2
 67
     7
 79
     3
170
     0
171
     0
290
     0
174
     0
 93
        1
 44
0.0
173
     0
291
     0
 45
0.0
1001
ACAD
1000
AcDbSavedByObjectVersion
1070
     0
  0
VISUALSTYLE
  5
302
102
{ACAD_REACTORS
330
2FB
102
}
330
2FB
100
AcDbVisualStyle
  2
3dWireframe
 70
     5
 71
     0
 72
     2
 73
     0
 90
        0
 40
-0.6
 41
-30.0
 62
     5
 63
     7
 74
     1
 91
        4
 64
     7
 65
   257
 75
     1
175
     1
 42
1.0
 92
        0
 66
   257
 43
1.0
 76
     1
 77
     6
 78
     2
 67
     7
 79
     5
170
     0
171
     0
290
     0
174
     0
 93
        1
 44
0.0
173
     0
291
     0
 45
0.0
1001
ACAD
1000
AcDbSavedByObjectVersion
1070
     0
  0
VISUALSTYLE
  5
300
102
{ACAD_REACTORS
330
2FB
102
}
330
2FB
100
AcDbVisualStyle
  2
Basic
 70
     7
 71
     1
 72
     0
 73
     1
 90
        0
 40
-0.6
 41
-30.0
 62
     5
 63
     7
 74
     0
 91
        4
 64
     7
 65
   257
 75
     1
175
     1
 42
1.0
 92
        8
 66
     7
 43
1.0
 76
     1
 77
     6
 78
     2
 67
     7
 79
     5
170
     0
171
     0
290
     0
174
     0
 93
        1
 44
0.0
173
     0
291
     1
 45
0.0
1001
ACAD
1000
AcDbSavedByObjectVersion
1070
     0
  0
VISUALSTYLE
  5
307
102
{ACAD_REACTORS
330
2FB
102
}
330
2FB
100
AcDbVisualStyle
  2
Brighten
 70
    12
 71
     2
 72
     2
 73
     0
 90
        0
 40
-0.6
 41
-30.0
 62
     5
 63
     7
 74
     1
 91
        4
 64
     7
 65
   257
 75
     1
175
     1
 42
1.0
 92
        8
 66
     7
 43
1.0
 76
     1
 77
     6
 78
     2
 67
     7
 79
     5
170
     0
171
     0
290
     0
174
     0
 93
        1
 44
50.0
173
     0
291
     1
 45
0.0
1001
ACAD
1000
AcDbSavedByObjectVersion
1070
     0
  0
VISUALSTYLE
  5
30B
102
{ACAD_REACTORS
330
2FB
102
}
330
2FB
100
AcDbVisualStyle
  2
ColorChange
 70
    16
 71
     2
 72
     2
 73
     3
 90
        0
 40
-0.6
 41
-30.0
 62
     5
 63
     8
 74
     1
 91
        4
 64
     7
 65
   257
 75
     1
175
     1
 42
1.0
 92
        8
 66
     8
 43
1.0
 76
     1
 77
     6
 78
     2
 67
     7
 79
     5
170
     0
171
     0
290
     0
174
     0
 93
        1
 44
0.0
173
     0
291
     1
 45
0.0
1001
ACAD
1000
AcDbSavedByObjectVersion
1070
     0
  0
VISUALSTYLE
  5
304
102
{ACAD_REACTORS
330
2FB
102
}
330
2FB
100
AcDbVisualStyle
  2
Conceptual
 70
     9
 71
     3
 72
     2
 73
     0
 90
        0
 40
-0.6
 41
-30.0
 62
     5
 63
     7
 74
     2
 91
        2
 64
     7
 65
   257
 75
     1
175
     1
 42
40.0
 92
        8
 66
     7
 43
1.0
 76
     1
 77
     6
 78
     2
 67
     7
 79
     3
170
     0
171
     0
290
     0
174
     0
 93
        1
 44
0.0
173
     0
291
     0
 45
0.0
1001
ACAD
1000
AcDbSavedByObjectVersion
1070
     0
  0
VISUALSTYLE
  5
306
102
{ACAD_REACTORS
330
2FB
102
}
330
2FB
100
AcDbVisualStyle
  2
Dim
 70
    11
 71
     2
 72
     2
 73
     0
 90
        0
 40
-0.6
 41
-30.0
 62
     5
 63
     7
 74
     1
 91
        4
 64
     7
 65
   257
 75
     1
175
     1
 42
1.0
 92
        8
 66
     7
 43
1.0
 76
     1
 77
     6
 78
     2
 67
     7
 79
     5
170
     0
171
     0
290
     0
174
     0
 93
        1
 44
-50.0
173
     0
291
     1
 45
0.0
1001
ACAD
1000
AcDbSavedByObjectVersion
1070
     0
  0
VISUALSTYLE
  5
30A
102
{ACAD_REACTORS
330
2FB
102
}
330
2FB
100
AcDbVisualStyle
  2
Facepattern
 70
    15
 71
     2
 72
     2
 73
     0
 90
        0
 40
-0.6
 41
-30.0
 62
     5
 63
     7
 74
     1
 91
        4
 64
     7
 65
   257
 75
     1
175
     1
 42
1.0
 92
        8
 66
     7
 43
1.0
 76
     1
 77
     6
 78
     2
 67
     7
 79
     5
170
     0
171
     0
290
     0
174
     0
 93
        1
 44
0.0
173
     0
291
     1
 45
0.0
1001
ACAD
1000
AcDbSavedByObjectVersion
1070
     0
  0
VISUALSTYLE
  5
2FC
102
{ACAD_REACTORS
330
2FB
102
}
330
2FB
100
AcDbVisualStyle
  2
Flat
 70
     0
 71
     2
 72
     1
 73
     1
 90
        2
 40
-0.6
 41
30.0
 62
     5
 63
     7
 74
     0
 91
        4
 64
     7
 65
   257
 75
     1
175
     1
 42
1.0
 92
        8
 66
     7
 43
1.0
 76
     1
 77
     6
 78
     2
 67
     7
 79
     5
170
     0
171
     0
290
     0
174
     0
 93
       13
 44
0.0
173
     0
291
     1
 45
0.0
1001
ACAD
1000
AcDbSavedByObjectVersion
1070
     0
  0
VISUALSTYLE
  5
2FD
102
{ACAD_REACTORS
330
2FB
102
}
330
2FB
100
AcDbVisualStyle
  2
FlatWithEdges
 70
     1
 71
     2
 72
     1
 73
     1
 90
        2
 40
-0.6
 41
30.0
 62
     5
 63
     7
 74
     1
 91
        4
 64
     7
 65
   257
 75
     1
175
     1
 42
1.0
 92
        0
 66
   257
 43
1.0
 76
     1
 77
     6
 78
     2
 67
     7
 79
     5
170
     0
171
     0
290
     0
174
     0
 93
       13
 44
0.0
173
     0
291
     1
 45
0.0
1001
ACAD
1000
AcDbSavedByObjectVersion
1070
     0
  0
VISUALSTYLE
  5
2FE
102
{ACAD_REACTORS
330
2FB
102
}
330
2FB
100
AcDbVisualStyle
  2
Gouraud
 70
     2
 71
     2
 72
     2
 73
     1
 90
        2
 40
-0.6
 41
30.0
 62
     5
 63
     7
 74
     0
 91
        4
 64
     7
 65
   257
 75
     1
175
     1
 42
1.0
 92
        0
 66
     7
 43
1.0
 76
     1
 77
     6
 78
     2
 67
     7
 79
     5
170
     0
171
     0
290
     0
174
     0
 93
       13
 44
0.0
173
     0
291
     1
 45
0.0
1001
ACAD
1000
AcDbSavedByObjectVersion
1070
     0
  0
VISUALSTYLE
  5
2FF
102
{ACAD_REACTORS
330
2FB
102
}
330
2FB
100
AcDbVisualStyle
  2
GouraudWithEdges
 70
     3
 71
     2
 72
     2
 73
     1
 90
        2
 40
-0.6
 41
30.0
 62
     5
 63
     7
 74
     1
 91
        4
 64
     7
 65
   257
 75
     1
175
     1
 42
1.0
 92
        0
 66
   257
 43
1.0
 76
     1
 77
     6
 78
     2
 67
     7
 79
     5
170
     0
171
     0
290
     0
174
     0
 93
       13
 44
0.0
173
     0
291
     1
 45
0.0
1001
ACAD
1000
AcDbSavedByObjectVersion
1070
     0
  0
VISUALSTYLE
  5
309
102
{ACAD_REACTORS
330
2FB
102
}
330
2FB
100
AcDbVisualStyle
  2
Linepattern
 70
    14
 71
     2
 72
     2
 73
     0
 90
        0
 40
-0.6
 41
-30.0
 62
     5
 63
     7
 74
     1
 91
        4
 64
     7
 65
   257
 75
     7
175
     7
 42
1.0
 92
        8
 66
     7
 43
1.0
 76
     1
 77
     6
 78
     2
 67
     7
 79
     5
170
     0
171
     0
290
     0
174
     0
 93
        1
 44
0.0
173
     0
291
     1
 45
0.0
1001
ACAD
1000
AcDbSavedByObjectVersion
1070
     0
  0
VISUALSTYLE
  5
305
102
{ACAD_REACTORS
330
2FB
102
}
330
2FB
100
AcDbVisualStyle
  2
Realistic
 70
     8
 71
     2
 72
     2
 73
     0
 90
        0
 40
-0.6
 41
-30.0
 62
     5
 63
     7
 74
     1
 91
        0
 64
     7
 65
   257
 75
     1
175
     1
 42
1.0
 92
        8
 66
     8
 43
1.0
 76
     1
 77
     6
 78
     2
 67
     7
 79
     5
170
     0
171
     0
290
     0
174
     0
 93
       13
 44
0.0
173
     0
291
     0
 45
0.0
1001
ACAD
1000
AcDbSavedByObjectVersion
1070
     0
  0
VISUALSTYLE
  5
308
102
{ACAD_REACTORS
330
2FB
102
}
330
2FB
100
AcDbVisualStyle
  2
Thicken
 70
    13
 71
     2
 72
     2
 73
     0
 90
        0
 40
-0.6
 41
-30.0
 62
     5
 63
     7
 74
     1
 91
        4
 64
     7
 65
   257
 75
     1
175
     1
 42
1.0
 92
       12
 66
     7
 43
1.0
 76
     1
 77
     6
 78
     2
 67
     7
 79
     5
170
     0
171
     0
290
     0
174
     0
 93
        1
 44
0.0
173
     0
291
     1
 45
0.0
1001
ACAD
1000
AcDbSavedByObjectVersion
1070
     0
  0
DICTIONARYVAR
  5
3E7
102
{ACAD_REACTORS
330
1D9
102
}
330
1D9
100
DictionaryVariables
280
     0
  1
STANDARD
  0
DICTIONARYVAR
  5
1DB
102
{ACAD_REACTORS
330
1D9
102
}
330
1D9
100
DictionaryVariables
280
     0
  1
2
  0
DICTIONARYVAR
  5
1DA
102
{ACAD_REACTORS
330
1D9
102
}
330
1D9
100
DictionaryVariables
280
     0
  1
1
  0
DICTIONARYVAR
  5
3E9
102
{ACAD_REACTORS
330
1D9
102
}
330
1D9
100
DictionaryVariables
280
     0
  1
0
  0
DICTIONARYVAR
  5
3E8
102
{ACAD_REACTORS
330
1D9
102
}
330
1D9
100
DictionaryVariables
280
     0
  1
127
  0
DICTIONARY
  5
3EB
330
1D
100
AcDbDictionary
280
     1
281
     1
  3
ACAD_XREC_ROUNDTRIP
360
3EC
  0
DICTIONARY
  5
3ED
330
21
100
AcDbDictionary
280
     1
281
     1
  3
ACAD_XREC_ROUNDTRIP
360
3EE
  0
DICTIONARY
  5
3F1
330
2F9
100
AcDbDictionary
280
     1
281
     1
  3
ACAD_XREC_ROUNDTRIP
360
3F2
  0
DICTIONARY
  5
3EF
330
2F8
100
AcDbDictionary
280
     1
281
     1
  3
ACAD_XREC_ROUNDTRIP
360
3F0
  0
DICTIONARY
  5
3F3
330
2FA
100
AcDbDictionary
280
     1
281
     1
  3
ACAD_XREC_ROUNDTRIP
360
3F4
  0
DICTIONARY
  5
3F5
330
30E
100
AcDbDictionary
280
     1
281
     1
  3
ACAD_XREC_ROUNDTRIP
360
3F6
  0
XRECORD
  5
3EC
102
{ACAD_REACTORS
330
3EB
102
}
330
3EB
100
AcDbXrecord
280
     1
102
SHADEPLOT
 70
     0
102
SHADEPLOTRESLEVEL
 70
     2
102
SHADEPLOTCUSTOMDPI
 70
   300
  0
XRECORD
  5
3EE
102
{ACAD_REACTORS
330
3ED
102
}
330
3ED
100
AcDbXrecord
280
     1
102
SHADEPLOT
 70
     0
102
SHADEPLOTRESLEVEL
 70
     2
102
SHADEPLOTCUSTOMDPI
 70
   300
  0
XRECORD
  5
3F2
102
{ACAD_REACTORS
330
3F1
102
}
330
3F1
100
AcDbXrecord
280
     1
102
MATERIAL
148
0.0
149
0.0
149
0.0
 93
        0
 94
       63
282
     0
 72
     1
 77
     1
171
     1
175
     1
179
     1
273
     0
  0
XRECORD
  5
3F0
102
{ACAD_REACTORS
330
3EF
102
}
330
3EF
100
AcDbXrecord
280
     1
102
MATERIAL
148
0.0
149
0.0
149
0.0
 93
        0
 94
       63
282
     0
 72
     1
 77
     1
171
     1
175
     1
179
     1
273
     0
  0
XRECORD
  5
3F4
102
{ACAD_REACTORS
330
3F3
102
}
330
3F3
100
AcDbXrecord
280
     1
102
MATERIAL
148
0.0
149
0.0
149
0.0
 93
        0
 94
       63
282
     0
 72
     1
 77
     1
171
     1
175
     1
179
     1
273
     0
  0
XRECORD
  5
3F6
102
{ACAD_REACTORS
330
3F5
102
}
330
3F5
100
AcDbXrecord
280
     1
102
ACAD_ROUNDTRIP_PRE2007_TABLESTYLE
 90
      512
 91
        0
  1

 92
      512
 93
        0
  2

 94
      512
 95
        0
  3

  0
ENDSEC
  0
EOF
