  0
SECTION
  2
HEADER
  9
$ACADVER
  1
AC1015
  9
$ACADMAINTVER
 70
    20
  9
$DWGCODEPAGE
  3
ANSI_1252
  9
$INSBASE
 10
4.983465951759281
 20
20.04977263903564
 30
0.0
  9
$EXTMIN
 10
-0.9421293402309487
 20
17.32748174276463
 30
-0.0000000000112498
  9
$EXTMAX
 10
12.45055607205735
 20
21.1159338676728
 30
0.0000000000002956
  9
$LIMMIN
 10
-23.61579290080726
 20
-21.96805058542325
  9
$LIMMAX
 10
-4.61579290080726
 20
2.031949414576754
  9
$ORTHOMODE
 70
     1
  9
$REGENMODE
 70
     1
  9
$FILLMODE
 70
     1
  9
$QTEXTMODE
 70
     0
  9
$MIRRTEXT
 70
     1
  9
$LTSCALE
 40
1.0
  9
$ATTMODE
 70
     1
  9
$TEXTSIZE
 40
0.2
  9
$TRACEWID
 40
0.125
  9
$TEXTSTYLE
  7
STANDARD
  9
$CLAYER
  8
ADP1DETAIL
  9
$CELTYPE
  6
ByLayer
  9
$CECOLOR
 62
   256
  9
$CELTSCALE
 40
1.0
  9
$DISPSILH
 70
     0
  9
$DIMSCALE
 40
1.0
  9
$DIMASZ
 40
0.18
  9
$DIMEXO
 40
0.0625
  9
$DIMDLI
 40
0.38
  9
$DIMRND
 40
0.0
  9
$DIMDLE
 40
0.0
  9
$DIMEXE
 40
0.18
  9
$DIMTP
 40
0.0
  9
$DIMTM
 40
0.0
  9
$DIMTXT
 40
0.18
  9
$DIMCEN
 40
0.09
  9
$DIMTSZ
 40
0.0
  9
$DIMTOL
 70
     0
  9
$DIMLIM
 70
     0
  9
$DIMTIH
 70
     1
  9
$DIMTOH
 70
     1
  9
$DIMSE1
 70
     0
  9
$DIMSE2
 70
     0
  9
$DIMTAD
 70
     0
  9
$DIMZIN
 70
     0
  9
$DIMBLK
  1

  9
$DIMASO
 70
     1
  9
$DIMSHO
 70
     1
  9
$DIMPOST
  1

  9
$DIMAPOST
  1

  9
$DIMALT
 70
     0
  9
$DIMALTD
 70
     2
  9
$DIMALTF
 40
25.4
  9
$DIMLFAC
 40
1.0
  9
$DIMTOFL
 70
     0
  9
$DIMTVP
 40
0.0
  9
$DIMTIX
 70
     0
  9
$DIMSOXD
 70
     0
  9
$DIMSAH
 70
     0
  9
$DIMBLK1
  1

  9
$DIMBLK2
  1

  9
$DIMSTYLE
  2
Standard
  9
$DIMCLRD
 70
     0
  9
$DIMCLRE
 70
     0
  9
$DIMCLRT
 70
     0
  9
$DIMTFAC
 40
1.0
  9
$DIMGAP
 40
0.09
  9
$DIMJUST
 70
     0
  9
$DIMSD1
 70
     0
  9
$DIMSD2
 70
     0
  9
$DIMTOLJ
 70
     1
  9
$DIMTZIN
 70
     0
  9
$DIMALTZ
 70
     0
  9
$DIMALTTZ
 70
     0
  9
$DIMUPT
 70
     0
  9
$DIMDEC
 70
     5
  9
$DIMTDEC
 70
     5
  9
$DIMALTU
 70
     5
  9
$DIMALTTD
 70
     2
  9
$DIMTXSTY
  7
STANDARD
  9
$DIMAUNIT
 70
     0
  9
$DIMADEC
 70
     0
  9
$DIMALTRND
 40
0.0
  9
$DIMAZIN
 70
     0
  9
$DIMDSEP
 70
    46
  9
$DIMATFIT
 70
     3
  9
$DIMFRAC
 70
     0
  9
$DIMLDRBLK
  1

  9
$DIMLUNIT
 70
     5
  9
$DIMLWD
 70
    -2
  9
$DIMLWE
 70
    -2
  9
$DIMTMOVE
 70
     2
  9
$LUNITS
 70
     5
  9
$LUPREC
 70
     5
  9
$SKETCHINC
 40
0.1
  9
$FILLETRAD
 40
0.038
  9
$AUNITS
 70
     0
  9
$AUPREC
 70
     0
  9
$MENU
  1
acad
  9
$ELEVATION
 40
0.0
  9
$PELEVATION
 40
0.0
  9
$THICKNESS
 40
0.0
  9
$LIMCHECK
 70
     0
  9
$CHAMFERA
 40
0.0
  9
$CHAMFERB
 40
0.0
  9
$CHAMFERC
 40
0.0
  9
$CHAMFERD
 40
0.0
  9
$SKPOLY
 70
     0
  9
$TDCREATE
 40
2450359.946486493
  9
$TDUCREATE
 40
2450360.113153160
  9
$TDUPDATE
 40
2453984.947777894
  9
$TDUUPDATE
 40
2453985.114444561
  9
$TDINDWG
 40
0.0332117014
  9
$TDUSRTIMER
 40
0.0332117014
  9
$USRTIMER
 70
     1
  9
$ANGBASE
 50
0.0
  9
$ANGDIR
 70
     0
  9
$PDMODE
 70
    34
  9
$PDSIZE
 40
0.0
  9
$PLINEWID
 40
0.0
  9
$SPLFRAME
 70
     0
  9
$SPLINETYPE
 70
     6
  9
$SPLINESEGS
 70
     8
  9
$HANDSEED
  5
386
  9
$SURFTAB1
 70
     6
  9
$SURFTAB2
 70
     6
  9
$SURFTYPE
 70
     6
  9
$SURFU
 70
     6
  9
$SURFV
 70
     6
  9
$UCSBASE
  2

  9
$UCSNAME
  2

  9
$UCSORG
 10
0.0
 20
0.0
 30
0.0
  9
$UCSXDIR
 10
1.0
 20
0.0
 30
0.0
  9
$UCSYDIR
 10
0.0
 20
1.0
 30
0.0
  9
$UCSORTHOREF
  2

  9
$UCSORTHOVIEW
 70
     0
  9
$UCSORGTOP
 10
0.0
 20
0.0
 30
0.0
  9
$UCSORGBOTTOM
 10
0.0
 20
0.0
 30
0.0
  9
$UCSORGLEFT
 10
0.0
 20
0.0
 30
0.0
  9
$UCSORGRIGHT
 10
0.0
 20
0.0
 30
0.0
  9
$UCSORGFRONT
 10
0.0
 20
0.0
 30
0.0
  9
$UCSORGBACK
 10
0.0
 20
0.0
 30
0.0
  9
$PUCSBASE
  2

  9
$PUCSNAME
  2

  9
$PUCSORG
 10
0.0
 20
0.0
 30
0.0
  9
$PUCSXDIR
 10
1.0
 20
0.0
 30
0.0
  9
$PUCSYDIR
 10
0.0
 20
1.0
 30
0.0
  9
$PUCSORTHOREF
  2

  9
$PUCSORTHOVIEW
 70
     0
  9
$PUCSORGTOP
 10
0.0
 20
0.0
 30
0.0
  9
$PUCSORGBOTTOM
 10
0.0
 20
0.0
 30
0.0
  9
$PUCSORGLEFT
 10
0.0
 20
0.0
 30
0.0
  9
$PUCSORGRIGHT
 10
0.0
 20
0.0
 30
0.0
  9
$PUCSORGFRONT
 10
0.0
 20
0.0
 30
0.0
  9
$PUCSORGBACK
 10
0.0
 20
0.0
 30
0.0
  9
$USERI1
 70
     0
  9
$USERI2
 70
     0
  9
$USERI3
 70
     0
  9
$USERI4
 70
     0
  9
$USERI5
 70
     0
  9
$USERR1
 40
0.0
  9
$USERR2
 40
0.0
  9
$USERR3
 40
0.0
  9
$USERR4
 40
0.0
  9
$USERR5
 40
0.0
  9
$WORLDVIEW
 70
     1
  9
$SHADEDGE
 70
     3
  9
$SHADEDIF
 70
    70
  9
$TILEMODE
 70
     1
  9
$MAXACTVP
 70
    15
  9
$PINSBASE
 10
0.0
 20
-0.0000000000727757
 30
0.0
  9
$PLIMCHECK
 70
     0
  9
$PEXTMIN
 10
1.000000000000000E+20
 20
1.000000000000000E+20
 30
1.000000000000000E+20
  9
$PEXTMAX
 10
-1.000000000000000E+20
 20
-1.000000000000000E+20
 30
-1.000000000000000E+20
  9
$PLIMMIN
 10
-21.61579290080726
 20
-19.96805058542324
  9
$PLIMMAX
 10
-9.61579290080726
 20
-10.96805058542324
  9
$UNITMODE
 70
     0
  9
$VISRETAIN
 70
     0
  9
$PLINEGEN
 70
     0
  9
$PSLTSCALE
 70
     1
  9
$TREEDEPTH
 70
  3020
  9
$CMLSTYLE
  2
Standard
  9
$CMLJUST
 70
     0
  9
$CMLSCALE
 40
1.0
  9
$PROXYGRAPHICS
 70
     1
  9
$MEASUREMENT
 70
     0
  9
$CELWEIGHT
370
    -1
  9
$ENDCAPS
280
     0
  9
$JOINSTYLE
280
     0
  9
$LWDISPLAY
290
     0
  9
$INSUNITS
 70
     0
  9
$HYPERLINKBASE
  1

  9
$STYLESHEET
  1

  9
$XEDIT
290
     1
  9
$CEPSNTYPE
380
     0
  9
$PSTYLEMODE
290
     1
  9
$FINGERPRINTGUID
  2
{3B89DE50-CEE0-409D-A12F-770F00A3F58E}
  9
$VERSIONGUID
  2
{86E8DEF1-81B8-4443-882B-10DA120A63F4}
  9
$EXTNAMES
290
     1
  9
$PSVPSCALE
 40
0.0
  9
$OLESTARTUP
290
     0
  0
ENDSEC
  0
SECTION
  2
CLASSES
  0
CLASS
  1
ACDBDICTIONARYWDFLT
  2
AcDbDictionaryWithDefault
  3
ObjectDBX Classes
 90
        0
280
     0
281
     0
  0
CLASS
  1
ACDBPLACEHOLDER
  2
AcDbPlaceHolder
  3
ObjectDBX Classes
 90
        0
280
     0
281
     0
  0
CLASS
  1
LAYOUT
  2
AcDbLayout
  3
ObjectDBX Classes
 90
        0
280
     0
281
     0
  0
CLASS
  1
DICTIONARYVAR
  2
AcDbDictionaryVar
  3
ObjectDBX Classes
 90
        0
280
     0
281
     0
  0
CLASS
  1
MATERIAL
  2
AcDbMaterial
  3
ObjectDBX Classes
 90
     1024
280
     0
281
     0
  0
CLASS
  1
VISUALSTYLE
  2
AcDbVisualStyle
  3
ObjectDBX Classes
 90
     4095
280
     0
281
     0
  0
CLASS
  1
TABLESTYLE
  2
AcDbTableStyle
  3
ObjectDBX Classes
 90
     4095
280
     0
281
     0
  0
CLASS
  1
ACAD_EVALUATION_GRAPH
  2
AcDbEvalGraph
  3
ObjectDBX Classes
 90
     1153
280
     0
281
     0
  0
CLASS
  1
ACAECUSTOBJ
  2
AcAeEditorObj
  3
AcAeEditorObj
 90
     1024
280
     0
281
     0
  0
CLASS
  1
ACDB_DYNAMICBLOCKPURGEPREVENTER_VERSION
  2
AcDbDynamicBlockPurgePreventer
  3
ObjectDBX Classes
 90
     1153
280
     0
281
     0
  0
ENDSEC
  0
SECTION
  2
TABLES
  0
TABLE
  2
VPORT
  5
8
330
0
100
AcDbSymbolTable
 70
     1
  0
VPORT
  5
1E2
330
8
100
AcDbSymbolTableRecord
100
AcDbViewportTableRecord
  2
*Active
 70
     0
 10
0.0
 20
0.0
 11
1.0
 21
1.0
 12
27.37000626672047
 22
39.18975839064195
 13
0.0
 23
0.0
 14
1.0
 24
1.0
 15
1.0
 25
1.0
 16
0.0
 26
0.0
 36
1.0
 17
-21.61579290080726
 27
-19.96805058542324
 37
0.0
 40
7.805844790936389
 41
1.726930320150659
 42
50.0
 43
0.0
 44
0.0
 50
0.0
 51
0.0
 71
     0
 72
   100
 73
     1
 74
     3
 75
     0
 76
     0
 77
     0
 78
     0
281
     0
 65
     1
110
0.0
120
0.0
130
0.0
111
1.0
121
0.0
131
0.0
112
0.0
122
1.0
132
0.0
 79
     0
146
0.0
  0
ENDTAB
  0
TABLE
  2
LTYPE
  5
5
330
0
100
AcDbSymbolTable
 70
     2
  0
LTYPE
  5
13
330
5
100
AcDbSymbolTableRecord
100
AcDbLinetypeTableRecord
  2
ByBlock
 70
     0
  3

 72
    65
 73
     0
 40
0.0
  0
LTYPE
  5
14
330
5
100
AcDbSymbolTableRecord
100
AcDbLinetypeTableRecord
  2
ByLayer
 70
     0
  3

 72
    65
 73
     0
 40
0.0
  0
LTYPE
  5
15
330
5
100
AcDbSymbolTableRecord
100
AcDbLinetypeTableRecord
  2
CONTINUOUS
 70
     0
  3
Solid line
 72
    65
 73
     0
 40
0.0
  0
ENDTAB
  0
TABLE
  2
LAYER
  5
2
330
0
100
AcDbSymbolTable
 70
     4
  0
LAYER
  5
10
330
2
100
AcDbSymbolTableRecord
100
AcDbLayerTableRecord
  2
0
 70
     0
 62
     7
  6
CONTINUOUS
370
    -3
390
F
  0
LAYER
  5
26
330
2
100
AcDbSymbolTableRecord
100
AcDbLayerTableRecord
  2
DEFPOINTS
 70
     0
 62
    -7
  6
CONTINUOUS
290
     0
370
    -3
390
F
  0
LAYER
  5
27
330
2
100
AcDbSymbolTableRecord
100
AcDbLayerTableRecord
  2
ADPDIM
 70
     0
 62
     3
  6
CONTINUOUS
370
    -3
390
F
  0
LAYER
  5
28
330
2
100
AcDbSymbolTableRecord
100
AcDbLayerTableRecord
  2
ADP1DETAIL
 70
     0
 62
     7
  6
CONTINUOUS
370
    -3
390
F
  0
ENDTAB
  0
TABLE
  2
STYLE
  5
3
330
0
100
AcDbSymbolTable
 70
     2
  0
STYLE
  5
11
330
3
100
AcDbSymbolTableRecord
100
AcDbTextStyleTableRecord
  2
STANDARD
 70
     0
 40
0.0
 41
1.0
 50
0.0
 71
     0
 42
0.2
  3
txt
  4

  0
STYLE
  5
89
330
3
100
AcDbSymbolTableRecord
100
AcDbTextStyleTableRecord
  2
ARIAL_WIDE
 70
     0
 40
0.0
 41
1.25
 50
0.0
 71
     0
 42
0.2
  3
ARIAL.TTF
  4

1001
ACAD
1000
Arial
1071
       34
  0
ENDTAB
  0
TABLE
  2
VIEW
  5
6
330
0
100
AcDbSymbolTable
 70
     0
  0
ENDTAB
  0
TABLE
  2
UCS
  5
7
330
0
100
AcDbSymbolTable
 70
     0
  0
ENDTAB
  0
TABLE
  2
APPID
  5
9
330
0
100
AcDbSymbolTable
 70
     5
  0
APPID
  5
12
330
9
100
AcDbSymbolTableRecord
100
AcDbRegAppTableRecord
  2
ACAD
 70
     0
  0
APPID
  5
318
330
9
100
AcDbSymbolTableRecord
100
AcDbRegAppTableRecord
  2
ACAUTHENVIRON
 70
     0
  0
APPID
  5
358
330
9
100
AcDbSymbolTableRecord
100
AcDbRegAppTableRecord
  2
AcDbDynamicBlockTrueName
 70
     0
  0
APPID
  5
359
330
9
100
AcDbSymbolTableRecord
100
AcDbRegAppTableRecord
  2
AcDbDynamicBlockGUID
 70
     0
  0
APPID
  5
35B
330
9
100
AcDbSymbolTableRecord
100
AcDbRegAppTableRecord
  2
AcDbBlockRepETag
 70
     0
  0
ENDTAB
  0
TABLE
  2
DIMSTYLE
  5
A
330
0
100
AcDbSymbolTable
 70
     2
100
AcDbDimStyleTable
 71
     1
340
87
  0
DIMSTYLE
105
87
102
{ACAD_REACTORS
330
283
330
286
330
2A5
330
330
102
}
330
A
100
AcDbSymbolTableRecord
100
AcDbDimStyleTableRecord
  2
Standard
 70
     0
340
11
  0
ENDTAB
  0
TABLE
  2
BLOCK_RECORD
  5
1
330
0
100
AcDbSymbolTable
 70
    14
  0
BLOCK_RECORD
  5
1E
102
{ACAD_XDICTIONARY
360
C6
102
}
330
1
100
AcDbSymbolTableRecord
100
AcDbBlockTableRecord
  2
*Model_Space
340
21
  0
BLOCK_RECORD
  5
1A
102
{ACAD_XDICTIONARY
360
C8
102
}
330
1
100
AcDbSymbolTableRecord
100
AcDbBlockTableRecord
  2
*Paper_Space
340
1D
  0
BLOCK_RECORD
  5
22
330
1
100
AcDbSymbolTableRecord
100
AcDbBlockTableRecord
  2
*D0
340
0
  0
BLOCK_RECORD
  5
24
102
{ACAD_XDICTIONARY
360
319
102
}
330
1
100
AcDbSymbolTableRecord
100
AcDbBlockTableRecord
  2
4534-VX
340
0
102
{BLKREFS
331
66
102
}
1001
AcDbDynamicBlockGUID
1000
{4E3325A4-C5BC-41B8-82A1-2BBEC43AD811}
1001
AcDbBlockRepETag
1070
     1
1071
       29
  0
BLOCK_RECORD
  5
25
330
1
100
AcDbSymbolTableRecord
100
AcDbBlockTableRecord
  2
*D2
340
0
  0
BLOCK_RECORD
  5
234
330
1
100
AcDbSymbolTableRecord
100
AcDbBlockTableRecord
  2
*D3
340
0
  0
BLOCK_RECORD
  5
241
330
1
100
AcDbSymbolTableRecord
100
AcDbBlockTableRecord
  2
*D4
340
0
  0
BLOCK_RECORD
  5
24E
330
1
100
AcDbSymbolTableRecord
100
AcDbBlockTableRecord
  2
*D5
340
0
  0
BLOCK_RECORD
  5
2A6
330
1
100
AcDbSymbolTableRecord
100
AcDbBlockTableRecord
  2
*D7
340
0
  0
BLOCK_RECORD
  5
2B3
330
1
100
AcDbSymbolTableRecord
100
AcDbBlockTableRecord
  2
*D8
340
0
  0
BLOCK_RECORD
  5
2C0
330
1
100
AcDbSymbolTableRecord
100
AcDbBlockTableRecord
  2
*D9
340
0
  0
BLOCK_RECORD
  5
30B
330
1
100
AcDbSymbolTableRecord
100
AcDbBlockTableRecord
  2
*D11
340
0
  0
BLOCK_RECORD
  5
331
330
1
100
AcDbSymbolTableRecord
100
AcDbBlockTableRecord
  2
*D12
340
0
  0
ENDTAB
  0
ENDSEC
  0
SECTION
  2
BLOCKS
  0
BLOCK
  5
2B
330
1E
100
AcDbEntity
  8
0
100
AcDbBlockBegin
  2
*Model_Space
 70
     0
 10
0.0
 20
0.0
 30
0.0
  3
*Model_Space
  1

  0
ENDBLK
  5
2C
330
1E
100
AcDbEntity
  8
0
100
AcDbBlockEnd
  0
BLOCK
  5
29
330
1A
100
AcDbEntity
 67
     1
  8
0
100
AcDbBlockBegin
  2
*Paper_Space
 70
     0
 10
0.0
 20
0.0
 30
0.0
  3
*Paper_Space
  1

  0
ENDBLK
  5
2A
330
1A
100
AcDbEntity
 67
     1
  8
0
100
AcDbBlockEnd
  0
BLOCK
  5
2E
330
22
100
AcDbEntity
  8
0
100
AcDbBlockBegin
  2
*D0
 70
     1
 10
0.0
 20
0.0
 30
0.0
  3
*D0
  1

  0
LINE
  5
2F
330
22
100
AcDbEntity
  8
0
  6
ByBlock
 62
     0
100
AcDbLine
 10
9.819639271290983
 20
20.92657591983663
 30
0.0
 11
9.819639271290983
 21
21.58400661649438
 31
0.0
  0
LINE
  5
30
330
22
100
AcDbEntity
  8
0
  6
ByBlock
 62
     0
100
AcDbLine
 10
11.75168229410927
 20
20.92657591983663
 30
0.0
 11
11.75168229410927
 21
21.58400661649438
 31
0.0
  0
LINE
  5
31
330
22
100
AcDbEntity
  8
0
  6
ByBlock
 62
     0
100
AcDbLine
 10
9.999639271290982
 20
21.40400661649438
 30
0.0
 11
10.18566078270013
 21
21.40400661649438
 31
0.0
  0
LINE
  5
32
330
22
100
AcDbEntity
  8
0
  6
ByBlock
 62
     0
100
AcDbLine
 10
11.57168229410927
 20
21.40400661649438
 30
0.0
 11
11.38566078270013
 21
21.40400661649438
 31
0.0
  0
SOLID
  5
33
330
22
100
AcDbEntity
  8
0
  6
ByBlock
 62
     0
100
AcDbTrace
 10
9.999639271290982
 20
21.43400661649438
 30
0.0
 11
9.999639271290982
 21
21.37400661649438
 31
0.0
 12
9.819639271290983
 22
21.40400661649438
 32
0.0
 13
9.819639271290983
 23
21.40400661649438
 33
0.0
  0
SOLID
  5
34
330
22
100
AcDbEntity
  8
0
  6
ByBlock
 62
     0
100
AcDbTrace
 10
11.57168229410927
 20
21.43400661649438
 30
0.0
 11
11.57168229410927
 21
21.37400661649438
 31
0.0
 12
11.75168229410927
 22
21.40400661649438
 32
0.0
 13
11.75168229410927
 23
21.40400661649438
 33
0.0
  0
TEXT
  5
35
330
22
100
AcDbEntity
  8
0
  6
ByBlock
 62
     0
100
AcDbText
 10
10.27566078270013
 20
21.31400661649438
 30
0.0
 40
0.18
  1
1 15/16
 72
     1
 11
10.78566078270013
 21
21.40400661649438
 31
0.0
100
AcDbText
 73
     2
  0
POINT
  5
37
330
22
100
AcDbEntity
  8
DEFPOINTS
  6
ByBlock
 62
     0
100
AcDbPoint
 10
9.819639271290983
 20
20.86407591983663
 30
0.0
  0
POINT
  5
38
330
22
100
AcDbEntity
  8
DEFPOINTS
  6
ByBlock
 62
     0
100
AcDbPoint
 10
11.75168229410927
 20
20.86407591983663
 30
0.0
  0
POINT
  5
39
330
22
100
AcDbEntity
  8
DEFPOINTS
  6
ByBlock
 62
     0
100
AcDbPoint
 10
11.75168229410927
 20
21.40400661649438
 30
0.0
  0
ENDBLK
  5
3A
330
22
100
AcDbEntity
  8
0
100
AcDbBlockEnd
  0
BLOCK
  5
3B
330
24
100
AcDbEntity
  8
0
100
AcDbBlockBegin
  2
4534-VX
 70
     0
 10
0.0
 20
0.0
 30
0.0
  3
4534-VX
  1

  0
ARC
  5
2EE
330
24
100
AcDbEntity
  8
ADP1DETAIL
100
AcDbCircle
 10
2.984369519272243
 20
-0.6466189486712225
 30
0.0
 40
0.3912896229210079
100
AcDbArc
 50
82.44919070684273
 51
157.2380208550085
1001
AcDbBlockRepETag
1070
     1
1071
        0
1005
2EE
  0
LINE
  5
2EF
330
24
100
AcDbEntity
  8
ADP1DETAIL
100
AcDbLine
 10
-1.008306405838713
 20
0.2682732471766744
 30
0.0
 11
3.07948398667329
 21
0.2682732471766731
 31
0.0
1001
AcDbBlockRepETag
1070
     1
1071
        1
1005
2EF
  0
LINE
  5
2F0
330
24
100
AcDbEntity
  8
ADP1DETAIL
100
AcDbLine
 10
-1.012019313835704
 20
0.3841333946138237
 30
0.0
 11
3.087164806886546
 21
0.3841333946138228
 31
0.0
1001
AcDbBlockRepETag
1070
     1
1071
        2
1005
2F0
  0
LINE
  5
2F1
330
24
100
AcDbEntity
  8
ADP1DETAIL
100
AcDbLine
 10
-1.012019313835704
 20
0.4792436112262531
 30
0.0
 11
3.09310629266149
 21
0.4792436112262531
 31
0.0
1001
AcDbBlockRepETag
1070
     1
1071
        3
1005
2F1
  0
ARC
  5
2F2
330
24
100
AcDbEntity
  8
ADP1DETAIL
100
AcDbCircle
 10
3.131301715677908
 20
-0.6553123697077322
 30
0.0
 40
1.04229025383034
100
AcDbArc
 50
190.5823549113867
 51
311.8776290055511
1001
AcDbBlockRepETag
1070
     1
1071
        4
1005
2F2
  0
LINE
  5
2F3
330
24
100
AcDbEntity
  8
ADP1DETAIL
100
AcDbLine
 10
-1.012019313835704
 20
0.7392065906574135
 30
0.0
 11
3.108027710718667
 21
0.7392065906574135
 31
0.0
1001
AcDbBlockRepETag
1070
     1
1071
        5
1005
2F3
  0
LINE
  5
2F4
330
24
100
AcDbEntity
  8
ADP1DETAIL
100
AcDbLine
 10
3.03746708161046
 20
0.0
 30
0.0
 11
-1.012019313835704
 21
0.0
 31
0.0
1001
AcDbBlockRepETag
1070
     1
1071
        6
1005
2F4
  0
ARC
  5
2F5
330
24
100
AcDbEntity
  8
ADP1DETAIL
100
AcDbCircle
 10
3.131301715677908
 20
-0.655312369707734
 30
0.0
 40
0.7823272743991796
100
AcDbArc
 50
190.478886453533
 51
311.7154694145282
1001
AcDbBlockRepETag
1070
     1
1071
        7
1005
2F5
  0
ARC
  5
2F6
330
24
100
AcDbEntity
  8
ADP1DETAIL
100
AcDbCircle
 10
3.131301715677908
 20
-0.6553123697077331
 30
0.0
 40
0.6872170577867501
100
AcDbArc
 50
190.4191079442777
 51
311.6273613151874
1001
AcDbBlockRepETag
1070
     1
1071
        8
1005
2F6
  0
ARC
  5
2F7
330
24
100
AcDbEntity
  8
ADP1DETAIL
100
AcDbCircle
 10
3.131301715677908
 20
-0.6553123697077346
 30
0.0
 40
0.5713569103496001
100
AcDbArc
 50
190.3151017276877
 51
311.483185074061
1001
AcDbBlockRepETag
1070
     1
1071
        9
1005
2F7
  0
ARC
  5
2F8
330
24
100
AcDbEntity
  8
ADP1DETAIL
100
AcDbCircle
 10
2.939179462173212
 20
-0.5540432195845052
 30
0.0
 40
0.4954190100972865
100
AcDbArc
 50
34.67874676907758
 51
114.7580377615327
1001
AcDbBlockRepETag
1070
     1
1071
       10
1005
2F8
  0
ARC
  5
2F9
330
24
100
AcDbEntity
  8
ADP1DETAIL
100
AcDbCircle
 10
2.989895915835885
 20
-0.6235057136837588
 30
0.0
 40
0.5006722074412647
100
AcDbArc
 50
44.56702423403871
 51
157.1115962654142
1001
AcDbBlockRepETag
1070
     1
1071
       11
1005
2F9
  0
CIRCLE
  5
2FA
330
24
100
AcDbEntity
  8
ADP1DETAIL
100
AcDbCircle
 10
3.101809904962921
 20
-0.6139404549463706
 30
0.0
 40
0.1932530045301785
1001
AcDbBlockRepETag
1070
     1
1071
       12
1005
2FA
  0
LINE
  5
2FC
330
24
100
AcDbEntity
  8
ADP1DETAIL
100
AcDbLine
 10
-1.012019313835704
 20
0.0
 30
0.0
 11
-1.012019313835704
 21
0.7392065906574135
 31
0.0
1001
AcDbBlockRepETag
1070
     1
1071
       13
1005
2FC
  0
LINE
  5
2FD
330
24
100
AcDbEntity
  8
ADP1DETAIL
100
AcDbLine
 10
2.219299786951006
 20
-0.2486422168574927
 30
0.0
 11
1.747856368448266
 21
-0.2486422168574927
 31
0.0
1001
AcDbBlockRepETag
1070
     1
1071
       14
1005
2FD
  0
ARC
  5
2FE
330
24
100
AcDbEntity
  8
ADP1DETAIL
100
AcDbCircle
 10
2.901132934403287
 20
-0.6895792058344725
 30
0.0
 40
0.809788657023313
100
AcDbArc
 50
145.0015973469563
 51
191.1898712220605
1001
AcDbBlockRepETag
1070
     1
1071
       15
1005
2FE
  0
LINE
  5
2FF
330
24
100
AcDbEntity
  8
ADP1DETAIL
100
AcDbLine
 10
1.747856368448266
 20
-0.2486422168574927
 30
0.0
 11
1.747856368448266
 21
0.0
 31
0.0
1001
AcDbBlockRepETag
1070
     1
1071
       16
1005
2FF
  0
ARC
  5
300
330
24
100
AcDbEntity
  8
ADP1DETAIL
100
AcDbCircle
 10
2.901132934403287
 20
-0.6895792058344719
 30
0.0
 40
0.5498256775921539
100
AcDbArc
 50
145.0015973469565
 51
191.3298938569174
1001
AcDbBlockRepETag
1070
     1
1071
       17
1005
300
  0
ARC
  5
301
330
24
100
AcDbEntity
  8
ADP1DETAIL
100
AcDbCircle
 10
2.901132934403287
 20
-0.6895792058344698
 30
0.0
 40
0.4547154609797227
100
AcDbArc
 50
145.0015973469567
 51
191.4175543551538
1001
AcDbBlockRepETag
1070
     1
1071
       18
1005
301
  0
ARC
  5
302
330
24
100
AcDbEntity
  8
ADP1DETAIL
100
AcDbCircle
 10
2.901132934403287
 20
-0.6895792058344716
 30
0.0
 40
0.3388553135425742
100
AcDbArc
 50
145.0015973469565
 51
191.5835830246702
1001
AcDbBlockRepETag
1070
     1
1071
       19
1005
302
  0
ARC
  5
303
330
24
100
AcDbEntity
  8
ADP1DETAIL
100
AcDbCircle
 10
2.96575465013783
 20
-0.6288552811570219
 30
0.0
 40
0.5745291149710093
100
AcDbArc
 50
114.0402061374981
 51
153.691848780566
1001
AcDbBlockRepETag
1070
     1
1071
       20
1005
303
  0
ARC
  5
304
330
24
100
AcDbEntity
  8
ADP1DETAIL
100
AcDbCircle
 10
2.304251487764121
 20
-0.5613270801815134
 30
0.0
 40
0.3240194673518897
100
AcDbArc
 50
55.06888034338729
 51
105.1995057704438
1001
AcDbBlockRepETag
1070
     1
1071
       21
1005
304
  0
ARC
  5
305
330
24
100
AcDbEntity
  8
ADP1DETAIL
100
AcDbCircle
 10
2.97206831904411
 20
-0.5102212834370559
 30
0.0
 40
1.256803472603708
100
AcDbArc
 50
312.8672398426568
 51
83.78966258560543
1001
AcDbBlockRepETag
1070
     1
1071
       22
1005
305
  0
ARC
  5
306
330
24
100
AcDbEntity
  8
ADP1DETAIL
100
AcDbCircle
 10
2.972068319044106
 20
-0.5102212834370626
 30
0.0
 40
0.996840493172548
100
AcDbArc
 50
312.9980630047573
 51
83.02584540120161
1001
AcDbBlockRepETag
1070
     1
1071
       23
1005
306
  0
ARC
  5
307
330
24
100
AcDbEntity
  8
ADP1DETAIL
100
AcDbCircle
 10
2.972068319044096
 20
-0.5102212834370717
 30
0.0
 40
0.9017302765601174
100
AcDbArc
 50
313.0662035893412
 51
82.66678522213396
1001
AcDbBlockRepETag
1070
     1
1071
       24
1005
307
  0
ARC
  5
308
330
24
100
AcDbEntity
  8
ADP1DETAIL
100
AcDbCircle
 10
2.972068319044092
 20
-0.5102212834370774
 30
0.0
 40
0.7858701291229683
100
AcDbArc
 50
313.1735235830392
 51
82.14400635682402
1001
AcDbBlockRepETag
1070
     1
1071
       25
1005
308
  0
ARC
  5
309
330
24
100
AcDbEntity
  8
ADP1DETAIL
100
AcDbCircle
 10
2.980467407322175
 20
-0.3763727788949915
 30
0.0
 40
0.3806644605976618
100
AcDbArc
 50
15.88807705287161
 51
81.38829610285792
1001
AcDbBlockRepETag
1070
     1
1071
       26
1005
309
  0
ARC
  5
30A
330
24
100
AcDbEntity
  8
ADP1DETAIL
100
AcDbCircle
 10
2.945937685769903
 20
-0.6066326909390448
 30
0.0
 40
0.3593251267051409
100
AcDbArc
 50
3.508179988478755
 51
75.51950716151314
1001
AcDbBlockRepETag
1070
     1
1071
       27
1005
30A
  0
DIMENSION
  5
330
330
24
100
AcDbEntity
  8
ADPDIM
 62
     3
100
AcDbDimension
  2
*D12
 10
-1.003703910851843
 20
-1.002800666221968
 30
0.0
 11
0.3712960891481565
 21
-1.002800666221968
 31
0.0
 70
    32
 71
     5
 42
2.75
  3
Standard
100
AcDbAlignedDimension
 13
1.746296089148156
 23
-0.2407541441127989
 33
0.0
 14
-1.003703910851843
 24
-0.2407541441127989
 34
0.0
100
AcDbRotatedDimension
1001
ACAD
1000
DSTYLE
1002
{
1070
   140
1040
0.125
1070
   276
1070
     2
1070
   271
1070
     5
1070
   272
1070
     5
1070
   273
1070
     5
1070
   277
1070
     5
1070
   279
1070
     2
1002
}
1001
AcDbBlockRepETag
1070
     1
1071
       28
1005
330
  0
ENDBLK
  5
59
330
24
100
AcDbEntity
  8
0
100
AcDbBlockEnd
  0
BLOCK
  5
5A
330
25
100
AcDbEntity
  8
0
100
AcDbBlockBegin
  2
*D2
 70
     1
 10
0.0
 20
0.0
 30
0.0
  3
*D2
  1
*U
  0
LINE
  5
5B
330
25
100
AcDbEntity
  8
0
  6
ByBlock
 62
     0
100
AcDbLine
 10
15.08056303245388
 20
2.197599767724089
 30
0.0
 11
15.08056303245388
 21
0.2238186735167047
 31
0.0
  0
LINE
  5
5C
330
25
100
AcDbEntity
  8
0
  6
ByBlock
 62
     0
100
AcDbLine
 10
16.82841940090214
 20
1.948957550866596
 30
0.0
 11
16.82841940090214
 21
0.2238186735167049
 31
0.0
  0
LINE
  5
5D
330
25
100
AcDbEntity
  8
0
  6
ByBlock
 62
     0
100
AcDbLine
 10
15.08056303245388
 20
0.4038186735167049
 30
0.0
 11
15.55865788334467
 21
0.4038186735167049
 31
0.0
  0
LINE
  5
5E
330
25
100
AcDbEntity
  8
0
  6
ByBlock
 62
     0
100
AcDbLine
 10
16.82841940090214
 20
0.4038186735167049
 30
0.0
 11
16.35032455001134
 21
0.4038186735167049
 31
0.0
  0
LINE
  5
5F
330
25
100
AcDbEntity
  8
0
  6
ByBlock
 62
     0
100
AcDbLine
 10
14.95556303245388
 20
0.2788186735167049
 30
0.0
 11
15.20556303245388
 21
0.5288186735167049
 31
0.0
  0
LINE
  5
60
330
25
100
AcDbEntity
  8
0
  6
ByBlock
 62
     0
100
AcDbLine
 10
16.70341940090214
 20
0.2788186735167049
 30
0.0
 11
16.95341940090214
 21
0.5288186735167049
 31
0.0
  0
TEXT
  5
61
330
25
100
AcDbEntity
  8
0
  6
ByBlock
 62
     0
100
AcDbText
 10
15.68365788334468
 20
0.3413186735167049
 30
0.0
 40
0.125
  1
1 3/4
 72
     1
 11
15.95449121667801
 21
0.4038186735167049
 31
0.0
100
AcDbText
 73
     2
  0
POINT
  5
62
330
25
100
AcDbEntity
  8
DEFPOINTS
  6
ByBlock
 62
     0
100
AcDbPoint
 10
15.08056303245388
 20
2.260099767724089
 30
0.0
  0
POINT
  5
63
330
25
100
AcDbEntity
  8
DEFPOINTS
  6
ByBlock
 62
     0
100
AcDbPoint
 10
16.82841940090214
 20
2.011457550866596
 30
0.0
  0
POINT
  5
64
330
25
100
AcDbEntity
  8
DEFPOINTS
  6
ByBlock
 62
     0
100
AcDbPoint
 10
16.82841940090214
 20
0.4038186735167049
 30
0.0
  0
ENDBLK
  5
65
330
25
100
AcDbEntity
  8
0
100
AcDbBlockEnd
  0
BLOCK
  5
235
330
234
100
AcDbEntity
  8
0
 62
     3
100
AcDbBlockBegin
  2
*D3
 70
     1
 10
0.0
 20
0.0
 30
0.0
  3
*D3
  1

  0
LINE
  5
236
330
234
100
AcDbEntity
  8
ADPDIM
 62
     0
370
    -2
100
AcDbLine
 10
8.856792694658739
 20
4.818128313001169
 30
0.0
 11
8.856792694658739
 21
4.507341758440906
 31
0.0
  0
LINE
  5
237
330
234
100
AcDbEntity
  8
ADPDIM
 62
     0
370
    -2
100
AcDbLine
 10
9.919292694658739
 20
4.818128313001169
 30
0.0
 11
9.919292694658739
 21
4.507341758440906
 31
0.0
  0
LINE
  5
238
330
234
100
AcDbEntity
  8
ADPDIM
 62
     0
370
    -2
100
AcDbLine
 10
8.856792694658739
 20
4.687341758440906
 30
0.0
 11
8.606792694658739
 21
4.687341758440906
 31
0.0
  0
LINE
  5
239
330
234
100
AcDbEntity
  8
ADPDIM
 62
     0
370
    -2
100
AcDbLine
 10
9.919292694658739
 20
4.687341758440906
 30
0.0
 11
10.16929269465874
 21
4.687341758440906
 31
0.0
  0
LINE
  5
23A
330
234
100
AcDbEntity
  8
ADPDIM
 62
     0
370
    -2
100
AcDbLine
 10
9.794292694658739
 20
4.562341758440906
 30
0.0
 11
10.04429269465874
 21
4.812341758440906
 31
0.0
  0
LINE
  5
23B
330
234
100
AcDbEntity
  8
ADPDIM
 62
     0
370
    -2
100
AcDbLine
 10
8.731792694658739
 20
4.562341758440906
 30
0.0
 11
8.981792694658739
 21
4.812341758440906
 31
0.0
  0
MTEXT
  5
23C
330
234
100
AcDbEntity
  8
ADPDIM
 62
     0
100
AcDbMText
 10
9.388042694658739
 20
4.687341758440906
 30
0.0
 40
0.125
 41
0.0
 71
     5
 72
     1
  1
\A1;1 1/16
 73
     1
 44
1.0
1001
ACAD
1000
MTEXTBEGIN
1070
    73
1070
     1
1070
    44
1040
1.0
1070
    74
1070
     0
1000
MTEXTEND
  0
POINT
  5
23D
330
234
100
AcDbEntity
  8
DEFPOINTS
 62
     0
100
AcDbPoint
 10
8.856792694658739
 20
4.880628313001169
 30
0.0
  0
POINT
  5
23E
330
234
100
AcDbEntity
  8
DEFPOINTS
 62
     0
100
AcDbPoint
 10
9.919292694658739
 20
4.880628313001169
 30
0.0
  0
POINT
  5
23F
330
234
100
AcDbEntity
  8
DEFPOINTS
 62
     0
100
AcDbPoint
 10
9.919292694658739
 20
4.687341758440906
 30
0.0
  0
ENDBLK
  5
240
330
234
100
AcDbEntity
  8
0
 62
     3
100
AcDbBlockEnd
  0
BLOCK
  5
242
330
241
100
AcDbEntity
  8
0
100
AcDbBlockBegin
  2
*D4
 70
     1
 10
0.0
 20
0.0
 30
0.0
  3
*D4
  1

  0
LINE
  5
243
330
241
100
AcDbEntity
  8
ADPDIM
 62
     0
370
    -2
100
AcDbLine
 10
8.727959494558838
 20
4.647717422344203
 30
0.0
 11
8.727959494558838
 21
4.024125386649526
 31
0.0
  0
LINE
  5
244
330
241
100
AcDbEntity
  8
ADPDIM
 62
     0
370
    -2
100
AcDbLine
 10
10.04095949455883
 20
4.647717422344203
 30
0.0
 11
10.04095949455883
 21
4.024125386649526
 31
0.0
  0
LINE
  5
245
330
241
100
AcDbEntity
  8
ADPDIM
 62
     0
370
    -2
100
AcDbLine
 10
8.727959494558838
 20
4.204125386649526
 30
0.0
 11
8.946959494558836
 21
4.204125386649526
 31
0.0
  0
LINE
  5
246
330
241
100
AcDbEntity
  8
ADPDIM
 62
     0
370
    -2
100
AcDbLine
 10
10.04095949455883
 20
4.204125386649526
 30
0.0
 11
9.821959494558836
 21
4.204125386649526
 31
0.0
  0
LINE
  5
247
330
241
100
AcDbEntity
  8
ADPDIM
 62
     0
370
    -2
100
AcDbLine
 10
9.915959494558833
 20
4.079125386649526
 30
0.0
 11
10.16595949455883
 21
4.329125386649526
 31
0.0
  0
LINE
  5
248
330
241
100
AcDbEntity
  8
ADPDIM
 62
     0
370
    -2
100
AcDbLine
 10
8.602959494558838
 20
4.079125386649526
 30
0.0
 11
8.852959494558838
 21
4.329125386649526
 31
0.0
  0
MTEXT
  5
249
330
241
100
AcDbEntity
  8
ADPDIM
 62
     0
100
AcDbMText
 10
9.384459494558836
 20
4.204125386649526
 30
0.0
 40
0.125
 41
0.0
 71
     5
 72
     1
  1
\A1;1 5/16
 73
     1
 44
1.0
1001
ACAD
1000
MTEXTBEGIN
1070
    73
1070
     1
1070
    44
1040
1.0
1070
    74
1070
     0
1000
MTEXTEND
  0
POINT
  5
24A
330
241
100
AcDbEntity
  8
DEFPOINTS
 62
     0
100
AcDbPoint
 10
8.727959494558838
 20
4.710217422344203
 30
0.0
  0
POINT
  5
24B
330
241
100
AcDbEntity
  8
DEFPOINTS
 62
     0
100
AcDbPoint
 10
10.04095949455883
 20
4.710217422344203
 30
0.0
  0
POINT
  5
24C
330
241
100
AcDbEntity
  8
DEFPOINTS
 62
     0
100
AcDbPoint
 10
10.04095949455883
 20
4.204125386649526
 30
0.0
  0
ENDBLK
  5
24D
330
241
100
AcDbEntity
  8
0
100
AcDbBlockEnd
  0
BLOCK
  5
24F
330
24E
100
AcDbEntity
  8
0
100
AcDbBlockBegin
  2
*D5
 70
     1
 10
0.0
 20
0.0
 30
0.0
  3
*D5
  1

  0
LINE
  5
250
330
24E
100
AcDbEntity
  8
ADPDIM
 62
     0
370
    -2
100
AcDbLine
 10
8.423031963697219
 20
5.151402111866393
 30
0.0
 11
8.423031963697219
 21
5.79190616544941
 31
0.0
  0
LINE
  5
251
330
24E
100
AcDbEntity
  8
ADPDIM
 62
     0
370
    -2
100
AcDbLine
 10
10.36053196369722
 20
5.151402111866393
 30
0.0
 11
10.36053196369722
 21
5.79190616544941
 31
0.0
  0
LINE
  5
252
330
24E
100
AcDbEntity
  8
ADPDIM
 62
     0
370
    -2
100
AcDbLine
 10
8.423031963697219
 20
5.61190616544941
 30
0.0
 11
8.912615297030553
 21
5.61190616544941
 31
0.0
  0
LINE
  5
253
330
24E
100
AcDbEntity
  8
ADPDIM
 62
     0
370
    -2
100
AcDbLine
 10
10.36053196369722
 20
5.61190616544941
 30
0.0
 11
9.870948630363885
 21
5.61190616544941
 31
0.0
  0
MTEXT
  5
254
330
24E
100
AcDbEntity
  8
ADPDIM
 62
     0
100
AcDbMText
 10
9.391781963697219
 20
5.622442651374126
 30
0.0
 40
0.125
 41
0.0
 71
     5
 72
     1
  1
\A1;1 15/16
 73
     1
 44
1.0
1001
ACAD
1000
MTEXTBEGIN
1070
    73
1070
     1
1070
    44
1040
1.0
1070
    74
1070
     0
1000
MTEXTEND
  0
LINE
  5
255
330
24E
100
AcDbEntity
  8
ADPDIM
 62
     0
370
    -2
100
AcDbLine
 10
10.23553196369722
 20
5.48690616544941
 30
0.0
 11
10.48553196369722
 21
5.73690616544941
 31
0.0
  0
LINE
  5
256
330
24E
100
AcDbEntity
  8
ADPDIM
 62
     0
370
    -2
100
AcDbLine
 10
8.298031963697219
 20
5.48690616544941
 30
0.0
 11
8.548031963697219
 21
5.73690616544941
 31
0.0
  0
POINT
  5
257
330
24E
100
AcDbEntity
  8
DEFPOINTS
 62
     0
100
AcDbPoint
 10
8.423031963697219
 20
5.088902111866393
 30
0.0
  0
POINT
  5
258
330
24E
100
AcDbEntity
  8
DEFPOINTS
 62
     0
100
AcDbPoint
 10
10.36053196369722
 20
5.088902111866393
 30
0.0
  0
POINT
  5
259
330
24E
100
AcDbEntity
  8
DEFPOINTS
 62
     0
100
AcDbPoint
 10
10.36053196369722
 20
5.61190616544941
 30
0.0
  0
ENDBLK
  5
25A
330
24E
100
AcDbEntity
  8
0
100
AcDbBlockEnd
  0
BLOCK
  5
2B1
330
2A6
100
AcDbEntity
  8
0
100
AcDbBlockBegin
  2
*D7
 70
     1
 10
0.0
 20
0.0
 30
0.0
  3
*D7
  1

  0
LINE
  5
2CD
330
2A6
100
AcDbEntity
  8
ADPDIM
 62
     0
370
    -2
100
AcDbLine
 10
2.519284017608978
 20
19.97082896118419
 30
0.0
 11
2.519284017608978
 21
19.34723692548951
 31
0.0
  0
LINE
  5
2CE
330
2A6
100
AcDbEntity
  8
ADPDIM
 62
     0
370
    -2
100
AcDbLine
 10
3.832284017608973
 20
19.97082896118419
 30
0.0
 11
3.832284017608973
 21
19.34723692548951
 31
0.0
  0
LINE
  5
2CF
330
2A6
100
AcDbEntity
  8
ADPDIM
 62
     0
370
    -2
100
AcDbLine
 10
2.519284017608978
 20
19.52723692548951
 30
0.0
 11
2.738284017608975
 21
19.52723692548951
 31
0.0
  0
LINE
  5
2D0
330
2A6
100
AcDbEntity
  8
ADPDIM
 62
     0
370
    -2
100
AcDbLine
 10
3.832284017608973
 20
19.52723692548951
 30
0.0
 11
3.613284017608975
 21
19.52723692548951
 31
0.0
  0
LINE
  5
2D1
330
2A6
100
AcDbEntity
  8
ADPDIM
 62
     0
370
    -2
100
AcDbLine
 10
3.707284017608973
 20
19.40223692548951
 30
0.0
 11
3.957284017608973
 21
19.65223692548951
 31
0.0
  0
LINE
  5
2D2
330
2A6
100
AcDbEntity
  8
ADPDIM
 62
     0
370
    -2
100
AcDbLine
 10
2.394284017608978
 20
19.40223692548951
 30
0.0
 11
2.644284017608978
 21
19.65223692548951
 31
0.0
  0
MTEXT
  5
2D3
330
2A6
100
AcDbEntity
  8
ADPDIM
 62
     0
100
AcDbMText
 10
3.175784017608975
 20
19.52723692548951
 30
0.0
 40
0.125
 41
0.0
 71
     5
 72
     1
  1
\A1;1 5/16
 73
     1
 44
1.0
1001
ACAD
1000
MTEXTBEGIN
1070
    73
1070
     1
1070
    44
1040
1.0
1070
    74
1070
     0
1000
MTEXTEND
  0
POINT
  5
2D4
330
2A6
100
AcDbEntity
  8
DEFPOINTS
 62
     0
100
AcDbPoint
 10
2.519284017608978
 20
20.03332896118419
 30
0.0
  0
POINT
  5
2D5
330
2A6
100
AcDbEntity
  8
DEFPOINTS
 62
     0
100
AcDbPoint
 10
3.832284017608973
 20
20.03332896118419
 30
0.0
  0
POINT
  5
2D6
330
2A6
100
AcDbEntity
  8
DEFPOINTS
 62
     0
100
AcDbPoint
 10
3.832284017608973
 20
19.52723692548951
 30
0.0
  0
ENDBLK
  5
2B2
330
2A6
100
AcDbEntity
  8
0
100
AcDbBlockEnd
  0
BLOCK
  5
2BE
330
2B3
100
AcDbEntity
  8
0
100
AcDbBlockBegin
  2
*D8
 70
     1
 10
0.0
 20
0.0
 30
0.0
  3
*D8
  1

  0
LINE
  5
2D7
330
2B3
100
AcDbEntity
  8
ADPDIM
 62
     0
370
    -2
100
AcDbLine
 10
2.214356486747359
 20
20.47451365070638
 30
0.0
 11
2.214356486747359
 21
21.1150177042894
 31
0.0
  0
LINE
  5
2D8
330
2B3
100
AcDbEntity
  8
ADPDIM
 62
     0
370
    -2
100
AcDbLine
 10
4.151856486747359
 20
20.47451365070638
 30
0.0
 11
4.151856486747359
 21
21.1150177042894
 31
0.0
  0
LINE
  5
2D9
330
2B3
100
AcDbEntity
  8
ADPDIM
 62
     0
370
    -2
100
AcDbLine
 10
2.214356486747359
 20
20.9350177042894
 30
0.0
 11
2.703939820080692
 21
20.9350177042894
 31
0.0
  0
LINE
  5
2DA
330
2B3
100
AcDbEntity
  8
ADPDIM
 62
     0
370
    -2
100
AcDbLine
 10
4.151856486747359
 20
20.9350177042894
 30
0.0
 11
3.662273153414025
 21
20.9350177042894
 31
0.0
  0
MTEXT
  5
2DB
330
2B3
100
AcDbEntity
  8
ADPDIM
 62
     0
100
AcDbMText
 10
3.183106486747359
 20
20.94555419021411
 30
0.0
 40
0.125
 41
0.0
 71
     5
 72
     1
  1
\A1;1 15/16
 73
     1
 44
1.0
1001
ACAD
1000
MTEXTBEGIN
1070
    73
1070
     1
1070
    44
1040
1.0
1070
    74
1070
     0
1000
MTEXTEND
  0
LINE
  5
2DC
330
2B3
100
AcDbEntity
  8
ADPDIM
 62
     0
370
    -2
100
AcDbLine
 10
4.026856486747359
 20
20.8100177042894
 30
0.0
 11
4.276856486747359
 21
21.0600177042894
 31
0.0
  0
LINE
  5
2DD
330
2B3
100
AcDbEntity
  8
ADPDIM
 62
     0
370
    -2
100
AcDbLine
 10
2.089356486747359
 20
20.8100177042894
 30
0.0
 11
2.339356486747359
 21
21.0600177042894
 31
0.0
  0
POINT
  5
2DE
330
2B3
100
AcDbEntity
  8
DEFPOINTS
 62
     0
100
AcDbPoint
 10
2.214356486747359
 20
20.41201365070638
 30
0.0
  0
POINT
  5
2DF
330
2B3
100
AcDbEntity
  8
DEFPOINTS
 62
     0
100
AcDbPoint
 10
4.151856486747359
 20
20.41201365070638
 30
0.0
  0
POINT
  5
2E0
330
2B3
100
AcDbEntity
  8
DEFPOINTS
 62
     0
100
AcDbPoint
 10
4.151856486747359
 20
20.9350177042894
 30
0.0
  0
ENDBLK
  5
2BF
330
2B3
100
AcDbEntity
  8
0
100
AcDbBlockEnd
  0
BLOCK
  5
2CB
330
2C0
100
AcDbEntity
  8
0
100
AcDbBlockBegin
  2
*D9
 70
     1
 10
0.0
 20
0.0
 30
0.0
  3
*D9
  1

  0
LINE
  5
2E1
330
2C0
100
AcDbEntity
  8
ADPDIM
 62
     0
370
    -2
100
AcDbLine
 10
2.648117217708879
 20
20.14123985184116
 30
0.0
 11
2.648117217708879
 21
19.8304532972809
 31
0.0
  0
LINE
  5
2E2
330
2C0
100
AcDbEntity
  8
ADPDIM
 62
     0
370
    -2
100
AcDbLine
 10
3.710617217708879
 20
20.14123985184116
 30
0.0
 11
3.710617217708879
 21
19.8304532972809
 31
0.0
  0
LINE
  5
2E3
330
2C0
100
AcDbEntity
  8
ADPDIM
 62
     0
370
    -2
100
AcDbLine
 10
2.648117217708879
 20
20.0104532972809
 30
0.0
 11
2.398117217708879
 21
20.0104532972809
 31
0.0
  0
LINE
  5
2E4
330
2C0
100
AcDbEntity
  8
ADPDIM
 62
     0
370
    -2
100
AcDbLine
 10
3.710617217708879
 20
20.0104532972809
 30
0.0
 11
3.960617217708879
 21
20.0104532972809
 31
0.0
  0
LINE
  5
2E5
330
2C0
100
AcDbEntity
  8
ADPDIM
 62
     0
370
    -2
100
AcDbLine
 10
3.585617217708879
 20
19.8854532972809
 30
0.0
 11
3.835617217708879
 21
20.1354532972809
 31
0.0
  0
LINE
  5
2E6
330
2C0
100
AcDbEntity
  8
ADPDIM
 62
     0
370
    -2
100
AcDbLine
 10
2.523117217708879
 20
19.8854532972809
 30
0.0
 11
2.773117217708879
 21
20.1354532972809
 31
0.0
  0
MTEXT
  5
2E7
330
2C0
100
AcDbEntity
  8
ADPDIM
 62
     0
100
AcDbMText
 10
3.179367217708879
 20
20.0104532972809
 30
0.0
 40
0.125
 41
0.0
 71
     5
 72
     1
  1
\A1;1 1/16
 73
     1
 44
1.0
1001
ACAD
1000
MTEXTBEGIN
1070
    73
1070
     1
1070
    44
1040
1.0
1070
    74
1070
     0
1000
MTEXTEND
  0
POINT
  5
2E8
330
2C0
100
AcDbEntity
  8
DEFPOINTS
 62
     0
100
AcDbPoint
 10
2.648117217708879
 20
20.20373985184116
 30
0.0
  0
POINT
  5
2E9
330
2C0
100
AcDbEntity
  8
DEFPOINTS
 62
     0
100
AcDbPoint
 10
3.710617217708879
 20
20.20373985184116
 30
0.0
  0
POINT
  5
2EA
330
2C0
100
AcDbEntity
  8
DEFPOINTS
 62
     0
100
AcDbPoint
 10
3.710617217708879
 20
20.0104532972809
 30
0.0
  0
ENDBLK
  5
2CC
330
2C0
100
AcDbEntity
  8
0
100
AcDbBlockEnd
  0
BLOCK
  5
316
330
30B
100
AcDbEntity
  8
0
100
AcDbBlockBegin
  2
*D11
 70
     1
 10
0.0
 20
0.0
 30
0.0
  3
*D11
  1

  0
LINE
  5
326
330
30B
100
AcDbEntity
  8
ADPDIM
 62
     0
370
    -2
100
AcDbLine
 10
0.0
 20
-0.0625
 30
0.0
 11
-0.0000000000000001
 21
-2.036281094207384
 31
0.0
  0
LINE
  5
327
330
30B
100
AcDbEntity
  8
ADPDIM
 62
     0
370
    -2
100
AcDbLine
 10
1.747856368448266
 20
-0.3111422168574927
 30
0.0
 11
1.747856368448266
 21
-2.036281094207384
 31
0.0
  0
LINE
  5
328
330
30B
100
AcDbEntity
  8
ADPDIM
 62
     0
370
    -2
100
AcDbLine
 10
0.1799999999999999
 20
-1.856281094207384
 30
0.0
 11
0.3639281842241332
 21
-1.856281094207384
 31
0.0
  0
LINE
  5
329
330
30B
100
AcDbEntity
  8
ADPDIM
 62
     0
370
    -2
100
AcDbLine
 10
1.567856368448266
 20
-1.856281094207384
 30
0.0
 11
1.383928184224132
 21
-1.856281094207384
 31
0.0
  0
SOLID
  5
32A
330
30B
100
AcDbEntity
  8
ADPDIM
 62
     0
100
AcDbTrace
 10
0.1799999999999999
 20
-1.826281094207384
 30
0.0
 11
0.1799999999999999
 21
-1.886281094207384
 31
0.0
 12
-0.0000000000000001
 22
-1.856281094207384
 32
0.0
 13
-0.0000000000000001
 23
-1.856281094207384
 33
0.0
  0
SOLID
  5
32B
330
30B
100
AcDbEntity
  8
ADPDIM
 62
     0
100
AcDbTrace
 10
1.567856368448266
 20
-1.826281094207384
 30
0.0
 11
1.567856368448266
 21
-1.886281094207384
 31
0.0
 12
1.747856368448266
 22
-1.856281094207384
 32
0.0
 13
1.747856368448266
 23
-1.856281094207384
 33
0.0
  0
MTEXT
  5
32C
330
30B
100
AcDbEntity
  8
ADPDIM
 62
     0
100
AcDbMText
 10
0.873928184224133
 20
-1.856281094207384
 30
0.0
 40
0.18
 41
0.0
 71
     5
 72
     1
  1
\A1;1.7479
 73
     1
 44
1.0
1001
ACAD
1000
MTEXTBEGIN
1070
    73
1070
     1
1070
    44
1040
1.0
1070
    74
1070
     0
1000
MTEXTEND
  0
POINT
  5
32D
330
30B
100
AcDbEntity
  8
DEFPOINTS
 62
     0
100
AcDbPoint
 10
0.0
 20
0.0
 30
0.0
  0
POINT
  5
32E
330
30B
100
AcDbEntity
  8
DEFPOINTS
 62
     0
100
AcDbPoint
 10
1.747856368448266
 20
-0.2486422168574927
 30
0.0
  0
POINT
  5
32F
330
30B
100
AcDbEntity
  8
DEFPOINTS
 62
     0
100
AcDbPoint
 10
1.747856368448266
 20
-1.856281094207384
 30
0.0
  0
ENDBLK
  5
317
330
30B
100
AcDbEntity
  8
0
100
AcDbBlockEnd
  0
BLOCK
  5
33C
330
331
100
AcDbEntity
  8
0
 62
     3
100
AcDbBlockBegin
  2
*D12
 70
     1
 10
0.0
 20
0.0
 30
0.0
  3
*D12
  1

  0
LINE
  5
34E
330
331
100
AcDbEntity
  8
ADPDIM
 62
     0
370
    -2
100
AcDbLine
 10
1.746296089148156
 20
-0.3032541441127989
 30
0.0
 11
1.746296089148156
 21
-1.182800666221968
 31
0.0
  0
LINE
  5
34F
330
331
100
AcDbEntity
  8
ADPDIM
 62
     0
370
    -2
100
AcDbLine
 10
-1.003703910851843
 20
-0.3032541441127989
 30
0.0
 11
-1.003703910851843
 21
-1.182800666221968
 31
0.0
  0
LINE
  5
350
330
331
100
AcDbEntity
  8
ADPDIM
 62
     0
370
    -2
100
AcDbLine
 10
1.566296089148156
 20
-1.002800666221968
 30
0.0
 11
0.7529627558148233
 21
-1.002800666221968
 31
0.0
  0
LINE
  5
351
330
331
100
AcDbEntity
  8
ADPDIM
 62
     0
370
    -2
100
AcDbLine
 10
-0.8237039108518436
 20
-1.002800666221968
 30
0.0
 11
-0.0103705775185102
 21
-1.002800666221968
 31
0.0
  0
SOLID
  5
352
330
331
100
AcDbEntity
  8
ADPDIM
 62
     0
100
AcDbTrace
 10
1.566296089148156
 20
-0.9728006662219687
 30
0.0
 11
1.566296089148156
 21
-1.032800666221968
 31
0.0
 12
1.746296089148156
 22
-1.002800666221968
 32
0.0
 13
1.746296089148156
 23
-1.002800666221968
 33
0.0
  0
SOLID
  5
353
330
331
100
AcDbEntity
  8
ADPDIM
 62
     0
100
AcDbTrace
 10
-0.8237039108518436
 20
-0.9728006662219687
 30
0.0
 11
-0.8237039108518436
 21
-1.032800666221968
 31
0.0
 12
-1.003703910851843
 22
-1.002800666221968
 32
0.0
 13
-1.003703910851843
 23
-1.002800666221968
 33
0.0
  0
MTEXT
  5
354
330
331
100
AcDbEntity
  8
ADPDIM
 62
     0
100
AcDbMText
 10
0.3712960891481565
 20
-1.002800666221968
 30
0.0
 40
0.125
 41
0.0
 71
     5
 72
     1
  1
\A1;2 3/4
 73
     1
 44
1.0
1001
ACAD
1000
MTEXTBEGIN
1070
    73
1070
     1
1070
    44
1040
1.0
1070
    74
1070
     0
1000
MTEXTEND
  0
POINT
  5
355
330
331
100
AcDbEntity
  8
DEFPOINTS
 62
     0
100
AcDbPoint
 10
1.746296089148156
 20
-0.2407541441127989
 30
0.0
  0
POINT
  5
356
330
331
100
AcDbEntity
  8
DEFPOINTS
 62
     0
100
AcDbPoint
 10
-1.003703910851843
 20
-0.2407541441127989
 30
0.0
  0
POINT
  5
357
330
331
100
AcDbEntity
  8
DEFPOINTS
 62
     0
100
AcDbPoint
 10
-1.003703910851843
 20
-1.002800666221968
 30
0.0
  0
ENDBLK
  5
33D
330
331
100
AcDbEntity
  8
0
 62
     3
100
AcDbBlockEnd
  0
ENDSEC
  0
SECTION
  2
ENTITIES
  0
INSERT
  5
66
330
1E
100
AcDbEntity
  8
ADP1DETAIL
100
AcDbBlockReference
  2
4534-VX
 10
6.349053472118832
 20
20.04977263903564
 30
0.0
  0
TEXT
  5
8A
330
1E
100
AcDbEntity
  8
ADPDIM
100
AcDbText
 10
-0.9410939794961699
 20
17.36592144807175
 30
0.0
 40
0.125
  1
J U L I U S  B L U M  &  C O . ,  I N C .      ( 8 0 0 )  5 2 6 - 6 2 9 3        W W W . J U L I U S B L U M . C O M        P A R T  N o .  6 9 3 4 - V
 41
1.25
  7
ARIAL_WIDE
 72
     1
 11
5.754421027325111
 21
17.49092144807175
 31
0.0
100
AcDbText
 73
     3
  0
DIMENSION
  5
283
330
1E
100
AcDbEntity
  8
ADPDIM
100
AcDbDimension
  2
*D7
 10
3.832284017608973
 20
19.52723692548951
 30
0.0
 11
3.175784017608975
 21
19.52723692548951
 31
0.0
 70
    32
 71
     5
 42
1.312999999999995
  3
Standard
100
AcDbAlignedDimension
 13
2.519284017608978
 23
20.03332896118419
 33
0.0
 14
3.832284017608973
 24
20.03332896118419
 34
0.0
100
AcDbRotatedDimension
1001
ACAD
1000
DSTYLE
1002
{
1070
   276
1070
     2
1070
    41
1040
0.125
1070
    73
1070
     0
1070
    74
1070
     0
1070
    78
1070
     3
1070
   140
1040
0.125
1070
   141
1040
0.1875
1070
   142
1040
0.125
1070
   147
1040
0.125
1070
   171
1070
     1
1070
   273
1070
     5
1070
   274
1070
     1
1070
   277
1070
     5
1070
   279
1070
     2
1070
   284
1070
     3
1070
   285
1070
     3
1070
   286
1070
     3
1002
}
  0
LINE
  5
284
330
1E
100
AcDbEntity
  8
ADP1DETAIL
100
AcDbLine
 10
3.706784017608974
 20
20.39004362731246
 30
0.0
 11
3.174625312544456
 21
20.39004362731246
 31
0.0
  0
ARC
  5
285
330
1E
100
AcDbEntity
  8
ADP1DETAIL
100
AcDbCircle
 10
3.174625312544453
 20
20.00472484148325
 30
0.0
 40
0.7500000000000019
100
AcDbArc
 50
65.35881699432438
 51
89.91148141825664
  0
DIMENSION
  5
286
330
1E
100
AcDbEntity
  8
ADPDIM
100
AcDbDimension
  2
*D8
 10
4.151856486747359
 20
20.9350177042894
 30
0.0
 11
3.183106486747359
 21
20.94555419021411
 31
0.0
 70
   160
 71
     5
 42
1.9375
  3
Standard
100
AcDbAlignedDimension
 13
2.214356486747359
 23
20.41201365070638
 33
0.0
 14
4.151856486747359
 24
20.41201365070638
 34
0.0
100
AcDbRotatedDimension
1001
ACAD
1000
DSTYLE
1002
{
1070
   276
1070
     2
1070
    41
1040
0.125
1070
    73
1070
     0
1070
    74
1070
     0
1070
    78
1070
     3
1070
   140
1040
0.125
1070
   141
1040
0.1875
1070
   142
1040
0.125
1070
   147
1040
0.125
1070
   171
1070
     1
1070
   273
1070
     5
1070
   274
1070
     1
1070
   277
1070
     5
1070
   279
1070
     2
1070
   284
1070
     3
1070
   285
1070
     3
1070
   286
1070
     3
1002
}
  0
ARC
  5
287
330
1E
100
AcDbEntity
  8
ADP1DETAIL
100
AcDbCircle
 10
2.457942722673497
 20
21.31684057667737
 30
0.0
 40
0.7499999999999969
100
AcDbArc
 50
271.1235186577002
 51
302.801651737942
  0
ARC
  5
288
330
1E
100
AcDbEntity
  8
ADP1DETAIL
100
AcDbCircle
 10
2.629784017608976
 20
20.21704362731246
 30
0.0
 40
0.015
100
AcDbArc
 50
270.0
 51
0.0
  0
ARC
  5
289
330
1E
100
AcDbEntity
  8
ADP1DETAIL
100
AcDbCircle
 10
2.356320771274933
 20
20.34734416857939
 30
0.0
 40
0.1559999999999998
100
AcDbArc
 50
80.65678061822477
 51
230.3615138867188
  0
ARC
  5
28A
330
1E
100
AcDbEntity
  8
ADP1DETAIL
100
AcDbCircle
 10
2.170048504270726
 20
20.02536785551289
 30
0.0
 40
0.2196970135271751
100
AcDbArc
 50
358.1639806528343
 51
66.74166570965843
  0
LINE
  5
28B
330
1E
100
AcDbEntity
  8
ADP1DETAIL
100
AcDbLine
 10
2.442942722673496
 20
20.50127459997403
 30
0.0
 11
2.381647087443298
 21
20.50127459997403
 31
0.0
  0
LINE
  5
28C
330
1E
100
AcDbEntity
  8
ADP1DETAIL
100
AcDbLine
 10
2.534284017608975
 20
20.20204362731246
 30
0.0
 11
2.629784017608976
 21
20.20204362731246
 31
0.0
  0
ARC
  5
28D
330
1E
100
AcDbEntity
  8
ADP1DETAIL
100
AcDbCircle
 10
2.534284017608975
 20
20.18704362731246
 30
0.0
 40
0.015
100
AcDbArc
 50
90.0
 51
180.0
  0
LINE
  5
28E
330
1E
100
AcDbEntity
  8
ADP1DETAIL
100
AcDbLine
 10
2.519284017608976
 20
20.03332896118419
 30
0.0
 11
2.519284017608974
 21
20.18704362731246
 31
0.0
  0
LINE
  5
28F
330
1E
100
AcDbEntity
  8
ADP1DETAIL
100
AcDbLine
 10
2.457942722673495
 20
20.51627459997403
 30
0.0
 11
2.457942722673495
 21
20.55198764963845
 31
0.0
  0
ARC
  5
290
330
1E
100
AcDbEntity
  8
ADP1DETAIL
100
AcDbCircle
 10
2.472942722673494
 20
20.55198764963845
 30
0.0
 40
0.015
100
AcDbArc
 50
91.12351865770264
 51
180.0
  0
ARC
  5
291
330
1E
100
AcDbEntity
  8
ADP1DETAIL
100
AcDbCircle
 10
2.442942722673496
 20
20.51627459997403
 30
0.0
 40
0.015
100
AcDbArc
 50
270.0
 51
0.0
  0
LINE
  5
292
330
1E
100
AcDbEntity
  8
ADP1DETAIL
100
AcDbLine
 10
2.389632728930397
 20
20.01832896118419
 30
0.0
 11
2.504284017608977
 21
20.01832896118419
 31
0.0
  0
ARC
  5
293
330
1E
100
AcDbEntity
  8
ADP1DETAIL
100
AcDbCircle
 10
2.504284017608977
 20
20.03332896118419
 30
0.0
 40
0.015
100
AcDbArc
 50
270.0
 51
0.0000000000002036
  0
LINE
  5
294
330
1E
100
AcDbEntity
  8
ADP1DETAIL
100
AcDbLine
 10
2.644784017608976
 20
20.39004362731246
 30
0.0
 11
3.176942722673494
 21
20.39004362731246
 31
0.0
  0
LINE
  5
295
330
1E
100
AcDbEntity
  8
ADP1DETAIL
100
AcDbLine
 10
2.644784017608975
 20
20.21704362731246
 30
0.0
 11
2.644784017608976
 21
20.39004362731246
 31
0.0
  0
ARC
  5
296
330
1E
100
AcDbEntity
  8
ADP1DETAIL
100
AcDbCircle
 10
3.176942722673498
 20
20.00472484148325
 30
0.0
 40
0.7499999999999986
100
AcDbArc
 50
90.08851858174336
 51
114.6411830056756
  0
ARC
  5
297
330
1E
100
AcDbEntity
  8
ADP1DETAIL
100
AcDbCircle
 10
3.995247263943019
 20
20.34734416857939
 30
0.0
 40
0.1559999999999996
100
AcDbArc
 50
309.6384861132801
 51
99.34321938177587
  0
ARC
  5
298
330
1E
100
AcDbEntity
  8
ADP1DETAIL
100
AcDbCircle
 10
4.18151953094723
 20
20.02536785551289
 30
0.0
 40
0.2196970135271803
100
AcDbArc
 50
113.258334290342
 51
181.8360193471645
  0
ARC
  5
299
330
1E
100
AcDbEntity
  8
ADP1DETAIL
100
AcDbCircle
 10
3.893625312544456
 20
21.31684057667737
 30
0.0
 40
0.75
100
AcDbArc
 50
237.198348262058
 51
268.8764813422997
  0
ARC
  5
29A
330
1E
100
AcDbEntity
  8
ADP1DETAIL
100
AcDbCircle
 10
3.908625312544454
 20
20.51627459997403
 30
0.0
 40
0.015
100
AcDbArc
 50
180.0
 51
270.0
  0
ARC
  5
29B
330
1E
100
AcDbEntity
  8
ADP1DETAIL
100
AcDbCircle
 10
3.878625312544457
 20
20.55198764963845
 30
0.0
 40
0.015
100
AcDbArc
 50
0.0
 51
88.87648134229735
  0
LINE
  5
29C
330
1E
100
AcDbEntity
  8
ADP1DETAIL
100
AcDbLine
 10
3.706784017608976
 20
20.21704362731246
 30
0.0
 11
3.706784017608974
 21
20.39004362731246
 31
0.0
  0
ARC
  5
29D
330
1E
100
AcDbEntity
  8
ADP1DETAIL
100
AcDbCircle
 10
3.721784017608975
 20
20.21704362731246
 30
0.0
 40
0.015
100
AcDbArc
 50
180.0
 51
270.0
  0
LINE
  5
29E
330
1E
100
AcDbEntity
  8
ADP1DETAIL
100
AcDbLine
 10
3.832284017608975
 20
20.03332896118419
 30
0.0
 11
3.832284017608976
 21
20.18704362731246
 31
0.0
  0
LINE
  5
29F
330
1E
100
AcDbEntity
  8
ADP1DETAIL
100
AcDbLine
 10
3.817284017608976
 20
20.20204362731246
 30
0.0
 11
3.721784017608975
 21
20.20204362731246
 31
0.0
  0
ARC
  5
2A0
330
1E
100
AcDbEntity
  8
ADP1DETAIL
100
AcDbCircle
 10
3.817284017608976
 20
20.18704362731246
 30
0.0
 40
0.015
100
AcDbArc
 50
0.0
 51
90.0
  0
LINE
  5
2A1
330
1E
100
AcDbEntity
  8
ADP1DETAIL
100
AcDbLine
 10
3.908625312544454
 20
20.50127459997403
 30
0.0
 11
3.969920947774653
 21
20.50127459997403
 31
0.0
  0
LINE
  5
2A2
330
1E
100
AcDbEntity
  8
ADP1DETAIL
100
AcDbLine
 10
3.893625312544456
 20
20.51627459997403
 30
0.0
 11
3.893625312544456
 21
20.55198764963845
 31
0.0
  0
LINE
  5
2A3
330
1E
100
AcDbEntity
  8
ADP1DETAIL
100
AcDbLine
 10
3.961935306287553
 20
20.01832896118419
 30
0.0
 11
3.847284017608973
 21
20.01832896118419
 31
0.0
  0
ARC
  5
2A4
330
1E
100
AcDbEntity
  8
ADP1DETAIL
100
AcDbCircle
 10
3.847284017608973
 20
20.03332896118419
 30
0.0
 40
0.015
100
AcDbArc
 50
179.9999999999996
 51
270.0
  0
DIMENSION
  5
2A5
330
1E
100
AcDbEntity
  8
ADPDIM
 62
     3
100
AcDbDimension
  2
*D9
 10
3.710617217708879
 20
20.0104532972809
 30
0.0
 11
3.179367217708879
 21
20.0104532972809
 31
0.0
 70
    32
 71
     5
 42
1.0625
  3
Standard
100
AcDbAlignedDimension
 13
2.648117217708879
 23
20.20373985184116
 33
0.0
 14
3.710617217708879
 24
20.20373985184116
 34
0.0
100
AcDbRotatedDimension
1001
ACAD
1000
DSTYLE
1002
{
1070
   276
1070
     2
1070
    41
1040
0.125
1070
    73
1070
     0
1070
    74
1070
     0
1070
    78
1070
     3
1070
   140
1040
0.125
1070
   141
1040
0.1875
1070
   142
1040
0.125
1070
   147
1040
0.125
1070
   171
1070
     1
1070
   273
1070
     5
1070
   274
1070
     1
1070
   277
1070
     5
1070
   279
1070
     2
1070
   284
1070
     3
1070
   285
1070
     3
1070
   286
1070
     3
1002
}
  0
ENDSEC
  0
SECTION
  2
OBJECTS
  0
DICTIONARY
  5
C
330
0
100
AcDbDictionary
281
     1
  3
ACAD_COLOR
350
22E
  3
ACAD_GROUP
350
D
  3
ACAD_LAYOUT
350
19
  3
ACAD_MATERIAL
350
219
  3
ACAD_MLINESTYLE
350
16
  3
ACAD_PLOTSETTINGS
350
18
  3
ACAD_PLOTSTYLENAME
350
E
  3
ACAD_TABLESTYLE
350
22F
  3
ACAD_VISUALSTYLE
350
21D
  3
AcDbVariableDictionary
350
FB
  3
DWGPROPS
350
379
  0
DICTIONARY
  5
C6
330
1E
100
AcDbDictionary
280
     1
281
     1
  3
ACAD_LAYOUTSELFREF
360
215
  0
DICTIONARY
  5
C8
330
1A
100
AcDbDictionary
280
     1
281
     1
  3
ACAD_LAYOUTSELFREF
360
214
  0
DICTIONARY
  5
319
330
24
100
AcDbDictionary
280
     1
281
     1
  0
DICTIONARY
  5
22E
102
{ACAD_REACTORS
330
C
102
}
330
C
100
AcDbDictionary
281
     1
  0
DICTIONARY
  5
D
102
{ACAD_REACTORS
330
C
102
}
330
C
100
AcDbDictionary
281
     1
  0
DICTIONARY
  5
19
102
{ACAD_REACTORS
330
C
102
}
330
C
100
AcDbDictionary
281
     1
  3
Layout1
350
1D
  3
Model
350
21
  0
DICTIONARY
  5
219
102
{ACAD_REACTORS
330
C
102
}
330
C
100
AcDbDictionary
281
     1
  3
ByBlock
350
21B
  3
ByLayer
350
21A
  3
Global
350
21C
  0
DICTIONARY
  5
16
102
{ACAD_REACTORS
330
C
102
}
330
C
100
AcDbDictionary
281
     1
  3
Standard
350
17
  0
DICTIONARY
  5
18
102
{ACAD_REACTORS
330
C
102
}
330
C
100
AcDbDictionary
281
     1
  0
ACDBDICTIONARYWDFLT
  5
E
102
{ACAD_REACTORS
330
C
102
}
330
C
100
AcDbDictionary
281
     1
  3
Normal
350
F
100
AcDbDictionaryWithDefault
340
F
  0
DICTIONARY
  5
22F
102
{ACAD_REACTORS
330
C
102
}
330
C
100
AcDbDictionary
281
     1
  3
Standard
350
230
  0
DICTIONARY
  5
21D
102
{ACAD_REACTORS
330
C
102
}
330
C
100
AcDbDictionary
281
     1
  3
2dWireframe
350
223
  3
3D Hidden
350
225
  3
3dWireframe
350
224
  3
Basic
350
222
  3
Brighten
350
229
  3
ColorChange
350
22D
  3
Conceptual
350
226
  3
Dim
350
228
  3
Facepattern
350
22C
  3
Flat
350
21E
  3
FlatWithEdges
350
21F
  3
Gouraud
350
220
  3
GouraudWithEdges
350
221
  3
Linepattern
350
22B
  3
Realistic
350
227
  3
Thicken
350
22A
  0
DICTIONARY
  5
FB
102
{ACAD_REACTORS
330
C
102
}
330
C
100
AcDbDictionary
281
     1
  3
CTABLESTYLE
350
376
  3
DIMASSOC
350
FD
  3
HIDETEXT
350
FC
  3
INDEXCTL
350
378
  3
SORTENTS
350
377
  0
XRECORD
  5
379
102
{ACAD_REACTORS
330
C
102
}
330
C
100
AcDbXrecord
280
     1
  1
DWGPROPS COOKIE
  2

  3

  4

  6

  7

  8
Yu Hu
  9

300
=
301
=
302
=
303
=
304
=
305
=
306
=
307
=
308
=
309
=
 40
0.0332115856481482
 41
2450359.946486493
 42
2453984.947777894
  1

 90
        0
  0
XRECORD
  5
215
102
{ACAD_REACTORS
330
C6
102
}
330
C6
100
AcDbXrecord
280
     1
340
1E
  0
XRECORD
  5
214
102
{ACAD_REACTORS
330
C8
102
}
330
C8
100
AcDbXrecord
280
     1
340
1A
  0
LAYOUT
  5
1D
102
{ACAD_XDICTIONARY
360
37A
102
}
102
{ACAD_REACTORS
330
19
102
}
330
19
100
AcDbPlotSettings
  1

  2
Fax
  4

  6

 40
0.0
 41
0.0
 42
0.0
 43
0.0
 44
0.0
 45
0.0
 46
0.0
 47
0.0
 48
0.0
 49
0.0
140
0.0
141
0.0
142
1.0
143
1.0
 70
   688
 72
     0
 73
     0
 74
     5
  7
Default R14 pen assignments.ctb
 75
    16
147
1.0
148
0.0
149
0.0
100
AcDbLayout
  1
Layout1
 70
     1
 71
     1
 10
-21.61579290080726
 20
-19.96805058542324
 11
-9.61579290080726
 21
-10.96805058542324
 12
0.0
 22
-0.0000000000727757
 32
0.0
 14
1.000000000000000E+20
 24
1.000000000000000E+20
 34
1.000000000000000E+20
 15
-1.000000000000000E+20
 25
-1.000000000000000E+20
 35
-1.000000000000000E+20
146
0.0
 13
0.0
 23
0.0
 33
0.0
 16
1.0
 26
0.0
 36
0.0
 17
0.0
 27
1.0
 37
0.0
 76
     0
330
1A
  0
LAYOUT
  5
21
102
{ACAD_XDICTIONARY
360
37C
102
}
102
{ACAD_REACTORS
330
19
102
}
330
19
100
AcDbPlotSettings
  1

  2
Fax
  4

  6

 40
0.0
 41
0.0
 42
0.0
 43
0.0
 44
0.0
 45
0.0
 46
0.0
 47
0.0
 48
0.0
 49
0.0
140
0.0
141
0.0
142
1.0
143
1.0
 70
  1712
 72
     0
 73
     0
 74
     0
  7
Default R14 pen assignments.ctb
 75
     0
147
1.0
148
0.0
149
0.0
100
AcDbLayout
  1
Model
 70
     1
 71
     0
 10
0.0
 20
0.0
 11
12.0
 21
9.0
 12
0.0
 22
0.0
 32
0.0
 14
0.0
 24
0.0
 34
0.0
 15
0.0
 25
0.0
 35
0.0
146
0.0
 13
0.0
 23
0.0
 33
0.0
 16
1.0
 26
0.0
 36
0.0
 17
0.0
 27
1.0
 37
0.0
 76
     0
330
1E
331
1E2
  0
MATERIAL
  5
21B
102
{ACAD_XDICTIONARY
360
380
102
}
102
{ACAD_REACTORS
330
219
102
}
330
219
100
AcDbMaterial
  1
ByBlock
  0
MATERIAL
  5
21A
102
{ACAD_XDICTIONARY
360
37E
102
}
102
{ACAD_REACTORS
330
219
102
}
330
219
100
AcDbMaterial
  1
ByLayer
  0
MATERIAL
  5
21C
102
{ACAD_XDICTIONARY
360
382
102
}
102
{ACAD_REACTORS
330
219
102
}
330
219
100
AcDbMaterial
  1
Global
  0
MLINESTYLE
  5
17
102
{ACAD_REACTORS
330
16
102
}
330
16
100
AcDbMlineStyle
  2
STANDARD
 70
     0
  3

 62
   256
 51
90.0
 52
90.0
 71
     2
 49
0.5
 62
   256
  6
BYLAYER
 49
-0.5
 62
   256
  6
BYLAYER
  0
ACDBPLACEHOLDER
  5
F
102
{ACAD_REACTORS
330
E
102
}
330
E
  0
TABLESTYLE
  5
230
102
{ACAD_XDICTIONARY
360
384
102
}
102
{ACAD_REACTORS
330
22F
102
}
330
22F
100
AcDbTableStyle
  3
Standard
 70
     0
 71
     0
 40
0.06
 41
0.06
280
     0
281
     0
  7
STANDARD
140
0.18
170
     2
 62
     0
 63
     7
283
     0
274
    -2
284
     1
 64
     0
275
    -2
285
     1
 65
     0
276
    -2
286
     1
 66
     0
277
    -2
287
     1
 67
     0
278
    -2
288
     1
 68
     0
279
    -2
289
     1
 69
     0
  7
STANDARD
140
0.25
170
     5
 62
     0
 63
     7
283
     0
274
    -2
284
     1
 64
     0
275
    -2
285
     1
 65
     0
276
    -2
286
     1
 66
     0
277
    -2
287
     1
 67
     0
278
    -2
288
     1
 68
     0
279
    -2
289
     1
 69
     0
  7
STANDARD
140
0.18
170
     5
 62
     0
 63
     7
283
     0
274
    -2
284
     1
 64
     0
275
    -2
285
     1
 65
     0
276
    -2
286
     1
 66
     0
277
    -2
287
     1
 67
     0
278
    -2
288
     1
 68
     0
279
    -2
289
     1
 69
     0
  0
VISUALSTYLE
  5
223
102
{ACAD_REACTORS
330
21D
102
}
330
21D
100
AcDbVisualStyle
  2
2dWireframe
 70
     4
 71
     0
 72
     2
 73
     0
 90
        0
 40
-0.6
 41
-30.0
 62
     5
 63
     7
 74
     1
 91
        4
 64
     7
 65
   257
 75
     1
175
     1
 42
1.0
 92
        0
 66
   257
 43
1.0
 76
     1
 77
     6
 78
     2
 67
     7
 79
     5
170
     0
171
     0
290
     0
174
     0
 93
        1
 44
0.0
173
     0
291
     0
 45
0.0
1001
ACAD
1000
AcDbSavedByObjectVersion
1070
     0
  0
VISUALSTYLE
  5
225
102
{ACAD_REACTORS
330
21D
102
}
330
21D
100
AcDbVisualStyle
  2
3D Hidden
 70
     6
 71
     1
 72
     2
 73
     2
 90
        0
 40
-0.6
 41
-30.0
 62
     5
 63
     7
 74
     2
 91
        2
 64
     7
 65
   257
 75
     2
175
     1
 42
40.0
 92
        0
 66
   257
 43
1.0
 76
     1
 77
     6
 78
     2
 67
     7
 79
     3
170
     0
171
     0
290
     0
174
     0
 93
        1
 44
0.0
173
     0
291
     0
 45
0.0
1001
ACAD
1000
AcDbSavedByObjectVersion
1070
     0
  0
VISUALSTYLE
  5
224
102
{ACAD_REACTORS
330
21D
102
}
330
21D
100
AcDbVisualStyle
  2
3dWireframe
 70
     5
 71
     0
 72
     2
 73
     0
 90
        0
 40
-0.6
 41
-30.0
 62
     5
 63
     7
 74
     1
 91
        4
 64
     7
 65
   257
 75
     1
175
     1
 42
1.0
 92
        0
 66
   257
 43
1.0
 76
     1
 77
     6
 78
     2
 67
     7
 79
     5
170
     0
171
     0
290
     0
174
     0
 93
        1
 44
0.0
173
     0
291
     0
 45
0.0
1001
ACAD
1000
AcDbSavedByObjectVersion
1070
     0
  0
VISUALSTYLE
  5
222
102
{ACAD_REACTORS
330
21D
102
}
330
21D
100
AcDbVisualStyle
  2
Basic
 70
     7
 71
     1
 72
     0
 73
     1
 90
        0
 40
-0.6
 41
-30.0
 62
     5
 63
     7
 74
     0
 91
        4
 64
     7
 65
   257
 75
     1
175
     1
 42
1.0
 92
        8
 66
     7
 43
1.0
 76
     1
 77
     6
 78
     2
 67
     7
 79
     5
170
     0
171
     0
290
     0
174
     0
 93
        1
 44
0.0
173
     0
291
     1
 45
0.0
1001
ACAD
1000
AcDbSavedByObjectVersion
1070
     0
  0
VISUALSTYLE
  5
229
102
{ACAD_REACTORS
330
21D
102
}
330
21D
100
AcDbVisualStyle
  2
Brighten
 70
    12
 71
     2
 72
     2
 73
     0
 90
        0
 40
-0.6
 41
-30.0
 62
     5
 63
     7
 74
     1
 91
        4
 64
     7
 65
   257
 75
     1
175
     1
 42
1.0
 92
        8
 66
     7
 43
1.0
 76
     1
 77
     6
 78
     2
 67
     7
 79
     5
170
     0
171
     0
290
     0
174
     0
 93
        1
 44
50.0
173
     0
291
     1
 45
0.0
1001
ACAD
1000
AcDbSavedByObjectVersion
1070
     0
  0
VISUALSTYLE
  5
22D
102
{ACAD_REACTORS
330
21D
102
}
330
21D
100
AcDbVisualStyle
  2
ColorChange
 70
    16
 71
     2
 72
     2
 73
     3
 90
        0
 40
-0.6
 41
-30.0
 62
     5
 63
     8
 74
     1
 91
        4
 64
     7
 65
   257
 75
     1
175
     1
 42
1.0
 92
        8
 66
     8
 43
1.0
 76
     1
 77
     6
 78
     2
 67
     7
 79
     5
170
     0
171
     0
290
     0
174
     0
 93
        1
 44
0.0
173
     0
291
     1
 45
0.0
1001
ACAD
1000
AcDbSavedByObjectVersion
1070
     0
  0
VISUALSTYLE
  5
226
102
{ACAD_REACTORS
330
21D
102
}
330
21D
100
AcDbVisualStyle
  2
Conceptual
 70
     9
 71
     3
 72
     2
 73
     0
 90
        0
 40
-0.6
 41
-30.0
 62
     5
 63
     7
 74
     2
 91
        2
 64
     7
 65
   257
 75
     1
175
     1
 42
40.0
 92
        8
 66
     7
 43
1.0
 76
     1
 77
     6
 78
     2
 67
     7
 79
     3
170
     0
171
     0
290
     0
174
     0
 93
        1
 44
0.0
173
     0
291
     0
 45
0.0
1001
ACAD
1000
AcDbSavedByObjectVersion
1070
     0
  0
VISUALSTYLE
  5
228
102
{ACAD_REACTORS
330
21D
102
}
330
21D
100
AcDbVisualStyle
  2
Dim
 70
    11
 71
     2
 72
     2
 73
     0
 90
        0
 40
-0.6
 41
-30.0
 62
     5
 63
     7
 74
     1
 91
        4
 64
     7
 65
   257
 75
     1
175
     1
 42
1.0
 92
        8
 66
     7
 43
1.0
 76
     1
 77
     6
 78
     2
 67
     7
 79
     5
170
     0
171
     0
290
     0
174
     0
 93
        1
 44
-50.0
173
     0
291
     1
 45
0.0
1001
ACAD
1000
AcDbSavedByObjectVersion
1070
     0
  0
VISUALSTYLE
  5
22C
102
{ACAD_REACTORS
330
21D
102
}
330
21D
100
AcDbVisualStyle
  2
Facepattern
 70
    15
 71
     2
 72
     2
 73
     0
 90
        0
 40
-0.6
 41
-30.0
 62
     5
 63
     7
 74
     1
 91
        4
 64
     7
 65
   257
 75
     1
175
     1
 42
1.0
 92
        8
 66
     7
 43
1.0
 76
     1
 77
     6
 78
     2
 67
     7
 79
     5
170
     0
171
     0
290
     0
174
     0
 93
        1
 44
0.0
173
     0
291
     1
 45
0.0
1001
ACAD
1000
AcDbSavedByObjectVersion
1070
     0
  0
VISUALSTYLE
  5
21E
102
{ACAD_REACTORS
330
21D
102
}
330
21D
100
AcDbVisualStyle
  2
Flat
 70
     0
 71
     2
 72
     1
 73
     1
 90
        2
 40
-0.6
 41
30.0
 62
     5
 63
     7
 74
     0
 91
        4
 64
     7
 65
   257
 75
     1
175
     1
 42
1.0
 92
        8
 66
     7
 43
1.0
 76
     1
 77
     6
 78
     2
 67
     7
 79
     5
170
     0
171
     0
290
     0
174
     0
 93
       13
 44
0.0
173
     0
291
     1
 45
0.0
1001
ACAD
1000
AcDbSavedByObjectVersion
1070
     0
  0
VISUALSTYLE
  5
21F
102
{ACAD_REACTORS
330
21D
102
}
330
21D
100
AcDbVisualStyle
  2
FlatWithEdges
 70
     1
 71
     2
 72
     1
 73
     1
 90
        2
 40
-0.6
 41
30.0
 62
     5
 63
     7
 74
     1
 91
        4
 64
     7
 65
   257
 75
     1
175
     1
 42
1.0
 92
        0
 66
   257
 43
1.0
 76
     1
 77
     6
 78
     2
 67
     7
 79
     5
170
     0
171
     0
290
     0
174
     0
 93
       13
 44
0.0
173
     0
291
     1
 45
0.0
1001
ACAD
1000
AcDbSavedByObjectVersion
1070
     0
  0
VISUALSTYLE
  5
220
102
{ACAD_REACTORS
330
21D
102
}
330
21D
100
AcDbVisualStyle
  2
Gouraud
 70
     2
 71
     2
 72
     2
 73
     1
 90
        2
 40
-0.6
 41
30.0
 62
     5
 63
     7
 74
     0
 91
        4
 64
     7
 65
   257
 75
     1
175
     1
 42
1.0
 92
        0
 66
     7
 43
1.0
 76
     1
 77
     6
 78
     2
 67
     7
 79
     5
170
     0
171
     0
290
     0
174
     0
 93
       13
 44
0.0
173
     0
291
     1
 45
0.0
1001
ACAD
1000
AcDbSavedByObjectVersion
1070
     0
  0
VISUALSTYLE
  5
221
102
{ACAD_REACTORS
330
21D
102
}
330
21D
100
AcDbVisualStyle
  2
GouraudWithEdges
 70
     3
 71
     2
 72
     2
 73
     1
 90
        2
 40
-0.6
 41
30.0
 62
     5
 63
     7
 74
     1
 91
        4
 64
     7
 65
   257
 75
     1
175
     1
 42
1.0
 92
        0
 66
   257
 43
1.0
 76
     1
 77
     6
 78
     2
 67
     7
 79
     5
170
     0
171
     0
290
     0
174
     0
 93
       13
 44
0.0
173
     0
291
     1
 45
0.0
1001
ACAD
1000
AcDbSavedByObjectVersion
1070
     0
  0
VISUALSTYLE
  5
22B
102
{ACAD_REACTORS
330
21D
102
}
330
21D
100
AcDbVisualStyle
  2
Linepattern
 70
    14
 71
     2
 72
     2
 73
     0
 90
        0
 40
-0.6
 41
-30.0
 62
     5
 63
     7
 74
     1
 91
        4
 64
     7
 65
   257
 75
     7
175
     7
 42
1.0
 92
        8
 66
     7
 43
1.0
 76
     1
 77
     6
 78
     2
 67
     7
 79
     5
170
     0
171
     0
290
     0
174
     0
 93
        1
 44
0.0
173
     0
291
     1
 45
0.0
1001
ACAD
1000
AcDbSavedByObjectVersion
1070
     0
  0
VISUALSTYLE
  5
227
102
{ACAD_REACTORS
330
21D
102
}
330
21D
100
AcDbVisualStyle
  2
Realistic
 70
     8
 71
     2
 72
     2
 73
     0
 90
        0
 40
-0.6
 41
-30.0
 62
     5
 63
     7
 74
     1
 91
        0
 64
     7
 65
   257
 75
     1
175
     1
 42
1.0
 92
        8
 66
     8
 43
1.0
 76
     1
 77
     6
 78
     2
 67
     7
 79
     5
170
     0
171
     0
290
     0
174
     0
 93
       13
 44
0.0
173
     0
291
     0
 45
0.0
1001
ACAD
1000
AcDbSavedByObjectVersion
1070
     0
  0
VISUALSTYLE
  5
22A
102
{ACAD_REACTORS
330
21D
102
}
330
21D
100
AcDbVisualStyle
  2
Thicken
 70
    13
 71
     2
 72
     2
 73
     0
 90
        0
 40
-0.6
 41
-30.0
 62
     5
 63
     7
 74
     1
 91
        4
 64
     7
 65
   257
 75
     1
175
     1
 42
1.0
 92
       12
 66
     7
 43
1.0
 76
     1
 77
     6
 78
     2
 67
     7
 79
     5
170
     0
171
     0
290
     0
174
     0
 93
        1
 44
0.0
173
     0
291
     1
 45
0.0
1001
ACAD
1000
AcDbSavedByObjectVersion
1070
     0
  0
DICTIONARYVAR
  5
376
102
{ACAD_REACTORS
330
FB
102
}
330
FB
100
DictionaryVariables
280
     0
  1
STANDARD
  0
DICTIONARYVAR
  5
FD
102
{ACAD_REACTORS
330
FB
102
}
330
FB
100
DictionaryVariables
280
     0
  1
2
  0
DICTIONARYVAR
  5
FC
102
{ACAD_REACTORS
330
FB
102
}
330
FB
100
DictionaryVariables
280
     0
  1
1
  0
DICTIONARYVAR
  5
378
102
{ACAD_REACTORS
330
FB
102
}
330
FB
100
DictionaryVariables
280
     0
  1
0
  0
DICTIONARYVAR
  5
377
102
{ACAD_REACTORS
330
FB
102
}
330
FB
100
DictionaryVariables
280
     0
  1
127
  0
DICTIONARY
  5
37A
330
1D
100
AcDbDictionary
280
     1
281
     1
  3
ACAD_XREC_ROUNDTRIP
360
37B
  0
DICTIONARY
  5
37C
330
21
100
AcDbDictionary
280
     1
281
     1
  3
ACAD_XREC_ROUNDTRIP
360
37D
  0
DICTIONARY
  5
380
330
21B
100
AcDbDictionary
280
     1
281
     1
  3
ACAD_XREC_ROUNDTRIP
360
381
  0
DICTIONARY
  5
37E
330
21A
100
AcDbDictionary
280
     1
281
     1
  3
ACAD_XREC_ROUNDTRIP
360
37F
  0
DICTIONARY
  5
382
330
21C
100
AcDbDictionary
280
     1
281
     1
  3
ACAD_XREC_ROUNDTRIP
360
383
  0
DICTIONARY
  5
384
330
230
100
AcDbDictionary
280
     1
281
     1
  3
ACAD_XREC_ROUNDTRIP
360
385
  0
XRECORD
  5
37B
102
{ACAD_REACTORS
330
37A
102
}
330
37A
100
AcDbXrecord
280
     1
102
SHADEPLOT
 70
     0
102
SHADEPLOTRESLEVEL
 70
     2
102
SHADEPLOTCUSTOMDPI
 70
   300
  0
XRECORD
  5
37D
102
{ACAD_REACTORS
330
37C
102
}
330
37C
100
AcDbXrecord
280
     1
102
SHADEPLOT
 70
     0
102
SHADEPLOTRESLEVEL
 70
     2
102
SHADEPLOTCUSTOMDPI
 70
   300
  0
XRECORD
  5
381
102
{ACAD_REACTORS
330
380
102
}
330
380
100
AcDbXrecord
280
     1
102
MATERIAL
148
0.0
149
0.0
149
0.0
 93
        0
 94
       63
282
     0
 72
     1
 77
     1
171
     1
175
     1
179
     1
273
     0
  0
XRECORD
  5
37F
102
{ACAD_REACTORS
330
37E
102
}
330
37E
100
AcDbXrecord
280
     1
102
MATERIAL
148
0.0
149
0.0
149
0.0
 93
        0
 94
       63
282
     0
 72
     1
 77
     1
171
     1
175
     1
179
     1
273
     0
  0
XRECORD
  5
383
102
{ACAD_REACTORS
330
382
102
}
330
382
100
AcDbXrecord
280
     1
102
MATERIAL
148
0.0
149
0.0
149
0.0
 93
        0
 94
       63
282
     0
 72
     1
 77
     1
171
     1
175
     1
179
     1
273
     0
  0
XRECORD
  5
385
102
{ACAD_REACTORS
330
384
102
}
330
384
100
AcDbXrecord
280
     1
102
ACAD_ROUNDTRIP_PRE2007_TABLESTYLE
 90
      512
 91
        0
  1

 92
      512
 93
        0
  2

 94
      512
 95
        0
  3

  0
ENDSEC
  0
EOF
