  0
SECTION
  2
HEADER
  9
$ACADVER
  1
AC1015
  9
$ACADMAINTVER
 70
    20
  9
$DWGCODEPAGE
  3
ANSI_1252
  9
$INSBASE
 10
14.83247237062566
 20
1.032587704827295
 30
0.0
  9
$EXTMIN
 10
8.33477792555324
 20
0.0455933455908593
 30
-0.0015258207003583
  9
$EXTMAX
 10
21.74084479378169
 20
4.783447313103181
 30
0.0000000349246037
  9
$LIMMIN
 10
0.0
 20
0.0
  9
$LIMMAX
 10
36.0
 20
36.0
  9
$ORTHOMODE
 70
     1
  9
$REGENMODE
 70
     1
  9
$FILLMODE
 70
     1
  9
$QTEXTMODE
 70
     0
  9
$MIRRTEXT
 70
     1
  9
$LTSCALE
 40
1.0
  9
$ATTMODE
 70
     1
  9
$TEXTSIZE
 40
0.2
  9
$TRACEWID
 40
0.05
  9
$TEXTSTYLE
  7
STANDARD
  9
$CLAYER
  8
ADP1DETAIL
  9
$CELTYPE
  6
BYLAYER
  9
$CECOLOR
 62
   256
  9
$CELTSCALE
 40
1.0
  9
$DISPSILH
 70
     0
  9
$DIMSCALE
 40
1.0
  9
$DIMASZ
 40
0.125
  9
$DIMEXO
 40
0.0625
  9
$DIMDLI
 40
0.38
  9
$DIMRND
 40
0.0
  9
$DIMDLE
 40
0.0
  9
$DIMEXE
 40
0.18
  9
$DIMTP
 40
0.0
  9
$DIMTM
 40
0.0
  9
$DIMTXT
 40
0.125
  9
$DIMCEN
 40
0.1875
  9
$DIMTSZ
 40
0.125
  9
$DIMTOL
 70
     0
  9
$DIMLIM
 70
     0
  9
$DIMTIH
 70
     0
  9
$DIMTOH
 70
     0
  9
$DIMSE1
 70
     0
  9
$DIMSE2
 70
     0
  9
$DIMTAD
 70
     0
  9
$DIMZIN
 70
     3
  9
$DIMBLK
  1

  9
$DIMASO
 70
     1
  9
$DIMSHO
 70
     1
  9
$DIMPOST
  1

  9
$DIMAPOST
  1

  9
$DIMALT
 70
     0
  9
$DIMALTD
 70
     1
  9
$DIMALTF
 40
25.4
  9
$DIMLFAC
 40
1.0
  9
$DIMTOFL
 70
     0
  9
$DIMTVP
 40
0.0
  9
$DIMTIX
 70
     0
  9
$DIMSOXD
 70
     0
  9
$DIMSAH
 70
     0
  9
$DIMBLK1
  1

  9
$DIMBLK2
  1

  9
$DIMSTYLE
  2
STANDARD
  9
$DIMCLRD
 70
     0
  9
$DIMCLRE
 70
     0
  9
$DIMCLRT
 70
     0
  9
$DIMTFAC
 40
1.0
  9
$DIMGAP
 40
0.125
  9
$DIMJUST
 70
     0
  9
$DIMSD1
 70
     0
  9
$DIMSD2
 70
     0
  9
$DIMTOLJ
 70
     1
  9
$DIMTZIN
 70
     0
  9
$DIMALTZ
 70
     0
  9
$DIMALTTZ
 70
     0
  9
$DIMUPT
 70
     0
  9
$DIMDEC
 70
     4
  9
$DIMTDEC
 70
     4
  9
$DIMALTU
 70
     2
  9
$DIMALTTD
 70
     2
  9
$DIMTXSTY
  7
STANDARD
  9
$DIMAUNIT
 70
     0
  9
$DIMADEC
 70
     0
  9
$DIMALTRND
 40
0.0
  9
$DIMAZIN
 70
     0
  9
$DIMDSEP
 70
    46
  9
$DIMATFIT
 70
     3
  9
$DIMFRAC
 70
     2
  9
$DIMLDRBLK
  1

  9
$DIMLUNIT
 70
     5
  9
$DIMLWD
 70
    -2
  9
$DIMLWE
 70
    -2
  9
$DIMTMOVE
 70
     0
  9
$LUNITS
 70
     5
  9
$LUPREC
 70
     4
  9
$SKETCHINC
 40
0.1
  9
$FILLETRAD
 40
0.06
  9
$AUNITS
 70
     0
  9
$AUPREC
 70
     0
  9
$MENU
  1
acad
  9
$ELEVATION
 40
0.0
  9
$PELEVATION
 40
0.0
  9
$THICKNESS
 40
0.0
  9
$LIMCHECK
 70
     0
  9
$CHAMFERA
 40
0.0
  9
$CHAMFERB
 40
0.0
  9
$CHAMFERC
 40
0.0
  9
$CHAMFERD
 40
0.0
  9
$SKPOLY
 70
     0
  9
$TDCREATE
 40
2450364.055622871
  9
$TDUCREATE
 40
2450364.222289537
  9
$TDUPDATE
 40
2453984.934401598
  9
$TDUUPDATE
 40
2453985.101068264
  9
$TDINDWG
 40
0.0563545139
  9
$TDUSRTIMER
 40
0.0563545139
  9
$USRTIMER
 70
     1
  9
$ANGBASE
 50
0.0
  9
$ANGDIR
 70
     0
  9
$PDMODE
 70
     0
  9
$PDSIZE
 40
0.0
  9
$PLINEWID
 40
0.0
  9
$SPLFRAME
 70
     0
  9
$SPLINETYPE
 70
     6
  9
$SPLINESEGS
 70
     8
  9
$HANDSEED
  5
378
  9
$SURFTAB1
 70
     6
  9
$SURFTAB2
 70
     6
  9
$SURFTYPE
 70
     6
  9
$SURFU
 70
     6
  9
$SURFV
 70
     6
  9
$UCSBASE
  2

  9
$UCSNAME
  2

  9
$UCSORG
 10
0.0
 20
0.0
 30
0.0
  9
$UCSXDIR
 10
1.0
 20
0.0
 30
0.0
  9
$UCSYDIR
 10
0.0
 20
1.0
 30
0.0
  9
$UCSORTHOREF
  2

  9
$UCSORTHOVIEW
 70
     0
  9
$UCSORGTOP
 10
0.0
 20
0.0
 30
0.0
  9
$UCSORGBOTTOM
 10
0.0
 20
0.0
 30
0.0
  9
$UCSORGLEFT
 10
0.0
 20
0.0
 30
0.0
  9
$UCSORGRIGHT
 10
0.0
 20
0.0
 30
0.0
  9
$UCSORGFRONT
 10
0.0
 20
0.0
 30
0.0
  9
$UCSORGBACK
 10
0.0
 20
0.0
 30
0.0
  9
$PUCSBASE
  2

  9
$PUCSNAME
  2

  9
$PUCSORG
 10
0.0
 20
0.0
 30
0.0
  9
$PUCSXDIR
 10
1.0
 20
0.0
 30
0.0
  9
$PUCSYDIR
 10
0.0
 20
1.0
 30
0.0
  9
$PUCSORTHOREF
  2

  9
$PUCSORTHOVIEW
 70
     0
  9
$PUCSORGTOP
 10
0.0
 20
0.0
 30
0.0
  9
$PUCSORGBOTTOM
 10
0.0
 20
0.0
 30
0.0
  9
$PUCSORGLEFT
 10
0.0
 20
0.0
 30
0.0
  9
$PUCSORGRIGHT
 10
0.0
 20
0.0
 30
0.0
  9
$PUCSORGFRONT
 10
0.0
 20
0.0
 30
0.0
  9
$PUCSORGBACK
 10
0.0
 20
0.0
 30
0.0
  9
$USERI1
 70
     0
  9
$USERI2
 70
     0
  9
$USERI3
 70
     0
  9
$USERI4
 70
     0
  9
$USERI5
 70
     0
  9
$USERR1
 40
0.0
  9
$USERR2
 40
0.0
  9
$USERR3
 40
0.0
  9
$USERR4
 40
0.0
  9
$USERR5
 40
0.0
  9
$WORLDVIEW
 70
     1
  9
$SHADEDGE
 70
     3
  9
$SHADEDIF
 70
    70
  9
$TILEMODE
 70
     1
  9
$MAXACTVP
 70
    15
  9
$PINSBASE
 10
-1.038494034028074E+34
 20
0.0
 30
0.0
  9
$PLIMCHECK
 70
     0
  9
$PEXTMIN
 10
1.000000000000000E+20
 20
1.000000000000000E+20
 30
1.000000000000000E+20
  9
$PEXTMAX
 10
-1.000000000000000E+20
 20
-1.000000000000000E+20
 30
-1.000000000000000E+20
  9
$PLIMMIN
 10
0.0
 20
0.0
  9
$PLIMMAX
 10
12.0
 20
9.0
  9
$UNITMODE
 70
     0
  9
$VISRETAIN
 70
     0
  9
$PLINEGEN
 70
     0
  9
$PSLTSCALE
 70
     1
  9
$TREEDEPTH
 70
  3020
  9
$CMLSTYLE
  2
STANDARD
  9
$CMLJUST
 70
     0
  9
$CMLSCALE
 40
1.0
  9
$PROXYGRAPHICS
 70
     1
  9
$MEASUREMENT
 70
     0
  9
$CELWEIGHT
370
    -1
  9
$ENDCAPS
280
     0
  9
$JOINSTYLE
280
     0
  9
$LWDISPLAY
290
     0
  9
$INSUNITS
 70
     0
  9
$HYPERLINKBASE
  1

  9
$STYLESHEET
  1

  9
$XEDIT
290
     1
  9
$CEPSNTYPE
380
     0
  9
$PSTYLEMODE
290
     1
  9
$FINGERPRINTGUID
  2
{DB799E09-E72F-48D4-B88A-41B10780D1A0}
  9
$VERSIONGUID
  2
{2E8AEB44-8A76-40FE-972A-309609150FB5}
  9
$EXTNAMES
290
     1
  9
$PSVPSCALE
 40
0.0
  9
$OLESTARTUP
290
     0
  0
ENDSEC
  0
SECTION
  2
CLASSES
  0
CLASS
  1
ACDBDICTIONARYWDFLT
  2
AcDbDictionaryWithDefault
  3
ObjectDBX Classes
 90
        0
280
     0
281
     0
  0
CLASS
  1
ACDBPLACEHOLDER
  2
AcDbPlaceHolder
  3
ObjectDBX Classes
 90
        0
280
     0
281
     0
  0
CLASS
  1
LAYOUT
  2
AcDbLayout
  3
ObjectDBX Classes
 90
        0
280
     0
281
     0
  0
CLASS
  1
DICTIONARYVAR
  2
AcDbDictionaryVar
  3
ObjectDBX Classes
 90
        0
280
     0
281
     0
  0
CLASS
  1
MATERIAL
  2
AcDbMaterial
  3
ObjectDBX Classes
 90
     1024
280
     0
281
     0
  0
CLASS
  1
VISUALSTYLE
  2
AcDbVisualStyle
  3
ObjectDBX Classes
 90
     4095
280
     0
281
     0
  0
CLASS
  1
TABLESTYLE
  2
AcDbTableStyle
  3
ObjectDBX Classes
 90
     4095
280
     0
281
     0
  0
ENDSEC
  0
SECTION
  2
TABLES
  0
TABLE
  2
VPORT
  5
13
330
0
100
AcDbSymbolTable
 70
     1
  0
VPORT
  5
21B
330
13
100
AcDbSymbolTableRecord
100
AcDbViewportTableRecord
  2
*Active
 70
     0
 10
0.0
 20
0.0
 11
1.0
 21
1.0
 12
15.03781135966746
 22
2.41452032934702
 13
0.0
 23
0.0
 14
0.5740882589684922
 24
0.5740882589684922
 15
0.5
 25
0.5
 16
0.0
 26
0.0
 36
1.0
 17
0.0
 27
0.0
 37
0.0
 40
7.813644090698159
 41
1.726930320150659
 42
50.0
 43
0.0
 44
0.0
 50
0.0
 51
0.0
 71
     0
 72
   100
 73
     1
 74
     0
 75
     0
 76
     0
 77
     0
 78
     0
281
     0
 65
     1
110
0.0
120
0.0
130
0.0
111
1.0
121
0.0
131
0.0
112
0.0
122
1.0
132
0.0
 79
     0
146
0.0
  0
ENDTAB
  0
TABLE
  2
LTYPE
  5
F
330
0
100
AcDbSymbolTable
 70
     2
  0
LTYPE
  5
10
330
F
100
AcDbSymbolTableRecord
100
AcDbLinetypeTableRecord
  2
BYBLOCK
 70
     0
  3

 72
    65
 73
     0
 40
0.0
  0
LTYPE
  5
6
330
F
100
AcDbSymbolTableRecord
100
AcDbLinetypeTableRecord
  2
BYLAYER
 70
     0
  3

 72
    65
 73
     0
 40
0.0
  0
LTYPE
  5
5
330
F
100
AcDbSymbolTableRecord
100
AcDbLinetypeTableRecord
  2
CONTINUOUS
 70
     0
  3
Solid line
 72
    65
 73
     0
 40
0.0
  0
LTYPE
  5
76
330
F
100
AcDbSymbolTableRecord
100
AcDbLinetypeTableRecord
  2
HIDDEN2
 70
     0
  3
_ _ _ _ _ _ _ _ _ _ _ _ _ _ _ _ _ _ _ _ _ _ _ _
 72
    65
 73
     2
 40
0.1875
 49
0.125
 74
     0
 49
-0.0625
 74
     0
  0
ENDTAB
  0
TABLE
  2
LAYER
  5
B
330
0
100
AcDbSymbolTable
 70
     5
  0
LAYER
  5
C
330
B
100
AcDbSymbolTableRecord
100
AcDbLayerTableRecord
  2
0
 70
     0
 62
     7
  6
CONTINUOUS
370
    -3
390
B7
  0
LAYER
  5
21
330
B
100
AcDbSymbolTableRecord
100
AcDbLayerTableRecord
  2
ADPDIM
 70
     0
 62
     3
  6
CONTINUOUS
370
    -3
390
B7
  0
LAYER
  5
4
330
B
100
AcDbSymbolTableRecord
100
AcDbLayerTableRecord
  2
ADP1DETAIL
 70
     0
 62
     7
  6
CONTINUOUS
370
    -3
390
B7
  0
LAYER
  5
2B
330
B
100
AcDbSymbolTableRecord
100
AcDbLayerTableRecord
  2
DEFPOINTS
 70
     0
 62
     7
  6
CONTINUOUS
290
     0
370
    -3
390
B7
  0
LAYER
  5
75
330
B
100
AcDbSymbolTableRecord
100
AcDbLayerTableRecord
  2
ADP2DETAIL
 70
     0
 62
     5
  6
CONTINUOUS
370
    -3
390
B7
  0
ENDTAB
  0
TABLE
  2
STYLE
  5
D
330
0
100
AcDbSymbolTable
 70
     2
  0
STYLE
  5
E
330
D
100
AcDbSymbolTableRecord
100
AcDbTextStyleTableRecord
  2
STANDARD
 70
     0
 40
0.0
 41
1.0
 50
0.0
 71
     0
 42
0.2
  3
txt
  4

  0
STYLE
  5
BE
330
D
100
AcDbSymbolTableRecord
100
AcDbTextStyleTableRecord
  2
ARIAL_WIDE
 70
     0
 40
0.0
 41
1.25
 50
0.0
 71
     0
 42
0.2
  3
ARIAL.TTF
  4

1001
ACAD
1000
Arial
1071
       34
  0
ENDTAB
  0
TABLE
  2
VIEW
  5
11
330
0
100
AcDbSymbolTable
 70
     0
  0
ENDTAB
  0
TABLE
  2
UCS
  5
12
330
0
100
AcDbSymbolTable
 70
     0
  0
ENDTAB
  0
TABLE
  2
APPID
  5
15
330
0
100
AcDbSymbolTable
 70
     1
  0
APPID
  5
16
330
15
100
AcDbSymbolTableRecord
100
AcDbRegAppTableRecord
  2
ACAD
 70
     0
  0
ENDTAB
  0
TABLE
  2
DIMSTYLE
  5
17
330
0
100
AcDbSymbolTable
 70
     1
100
AcDbDimStyleTable
 71
     0
  0
DIMSTYLE
105
1D
102
{ACAD_REACTORS
330
62
330
2BC
330
2BF
330
2DE
102
}
330
17
100
AcDbSymbolTableRecord
100
AcDbDimStyleTableRecord
  2
STANDARD
 70
     0
340
E
  0
ENDTAB
  0
TABLE
  2
BLOCK_RECORD
  5
1
330
0
100
AcDbSymbolTable
 70
    11
  0
BLOCK_RECORD
  5
2
102
{ACAD_XDICTIONARY
360
120
102
}
330
1
100
AcDbSymbolTableRecord
100
AcDbBlockTableRecord
  2
*MODEL_SPACE
340
BA
  0
BLOCK_RECORD
  5
8
102
{ACAD_XDICTIONARY
360
122
102
}
330
1
100
AcDbSymbolTableRecord
100
AcDbBlockTableRecord
  2
*PAPER_SPACE
340
BB
  0
BLOCK_RECORD
  5
22
330
1
100
AcDbSymbolTableRecord
100
AcDbBlockTableRecord
  2
*D0
340
0
  0
BLOCK_RECORD
  5
33
330
1
100
AcDbSymbolTableRecord
100
AcDbBlockTableRecord
  2
*D1
340
0
  0
BLOCK_RECORD
  5
1F
330
1
100
AcDbSymbolTableRecord
100
AcDbBlockTableRecord
  2
6934
340
0
  0
BLOCK_RECORD
  5
126
330
1
100
AcDbSymbolTableRecord
100
AcDbBlockTableRecord
  2
*D3
340
0
  0
BLOCK_RECORD
  5
26D
330
1
100
AcDbSymbolTableRecord
100
AcDbBlockTableRecord
  2
*D4
340
0
  0
BLOCK_RECORD
  5
27A
330
1
100
AcDbSymbolTableRecord
100
AcDbBlockTableRecord
  2
*D5
340
0
  0
BLOCK_RECORD
  5
287
330
1
100
AcDbSymbolTableRecord
100
AcDbBlockTableRecord
  2
*D6
340
0
  0
BLOCK_RECORD
  5
2DF
330
1
100
AcDbSymbolTableRecord
100
AcDbBlockTableRecord
  2
*D8
340
0
  0
BLOCK_RECORD
  5
2EC
330
1
100
AcDbSymbolTableRecord
100
AcDbBlockTableRecord
  2
*D9
340
0
  0
BLOCK_RECORD
  5
2F9
330
1
100
AcDbSymbolTableRecord
100
AcDbBlockTableRecord
  2
*D10
340
0
  0
ENDTAB
  0
ENDSEC
  0
SECTION
  2
BLOCKS
  0
BLOCK
  5
3
330
2
100
AcDbEntity
  8
0
100
AcDbBlockBegin
  2
*MODEL_SPACE
 70
     0
 10
0.0
 20
0.0
 30
0.0
  3
*MODEL_SPACE
  1

  0
ENDBLK
  5
7
330
2
100
AcDbEntity
  8
0
100
AcDbBlockEnd
  0
BLOCK
  5
9
330
8
100
AcDbEntity
 67
     1
  8
0
100
AcDbBlockBegin
  2
*PAPER_SPACE
 70
     0
 10
0.0
 20
0.0
 30
0.0
  3
*PAPER_SPACE
  1

  0
ENDBLK
  5
A
330
8
100
AcDbEntity
 67
     1
  8
0
100
AcDbBlockEnd
  0
BLOCK
  5
2E
330
22
100
AcDbEntity
  8
0
100
AcDbBlockBegin
  2
*D0
 70
     1
 10
0.0
 20
0.0
 30
0.0
  3
*D0
  1

  0
LINE
  5
23
330
22
100
AcDbEntity
  8
0
  6
ByBlock
 62
     0
100
AcDbLine
 10
8.73869535346974
 20
4.336311309910285
 30
0.0
 11
8.73869535346974
 21
4.014168164909636
 31
0.0
  0
LINE
  5
24
330
22
100
AcDbEntity
  8
0
  6
ByBlock
 62
     0
100
AcDbLine
 10
10.05169535346973
 20
4.336311309910285
 30
0.0
 11
10.05169535346973
 21
4.014168164909636
 31
0.0
  0
LINE
  5
25
330
22
100
AcDbEntity
  8
0
  6
ByBlock
 62
     0
100
AcDbLine
 10
8.73869535346974
 20
4.194168164909636
 30
0.0
 11
8.48869535346974
 21
4.194168164909636
 31
0.0
  0
LINE
  5
26
330
22
100
AcDbEntity
  8
0
  6
ByBlock
 62
     0
100
AcDbLine
 10
10.05169535346973
 20
4.194168164909636
 30
0.0
 11
10.30169535346973
 21
4.194168164909636
 31
0.0
  0
LINE
  5
27
330
22
100
AcDbEntity
  8
0
  6
ByBlock
 62
     0
100
AcDbLine
 10
8.61369535346974
 20
4.069168164909636
 30
0.0
 11
8.86369535346974
 21
4.319168164909636
 31
0.0
  0
LINE
  5
28
330
22
100
AcDbEntity
  8
0
  6
ByBlock
 62
     0
100
AcDbLine
 10
9.926695353469735
 20
4.069168164909636
 30
0.0
 11
10.17669535346973
 21
4.319168164909636
 31
0.0
  0
TEXT
  5
29
330
22
100
AcDbEntity
  8
0
  6
ByBlock
 62
     0
100
AcDbText
 10
10.42669535346973
 20
4.131668164909636
 30
0.0
 40
0.125
  1
1 5/16
 72
     1
 11
10.73919535346973
 21
4.194168164909636
 31
0.0
100
AcDbText
 73
     2
  0
POINT
  5
2A
330
22
100
AcDbEntity
  8
DEFPOINTS
  6
ByBlock
 62
     0
100
AcDbPoint
 10
8.73869535346974
 20
4.398811309910285
 30
0.0
  0
POINT
  5
2C
330
22
100
AcDbEntity
  8
DEFPOINTS
  6
ByBlock
 62
     0
100
AcDbPoint
 10
10.05169535346973
 20
4.398811309910285
 30
0.0
  0
POINT
  5
2D
330
22
100
AcDbEntity
  8
DEFPOINTS
  6
ByBlock
 62
     0
100
AcDbPoint
 10
10.05169535346973
 20
4.194168164909636
 30
0.0
  0
ENDBLK
  5
2F
330
22
100
AcDbEntity
  8
0
100
AcDbBlockEnd
  0
BLOCK
  5
3E
330
33
100
AcDbEntity
  8
0
100
AcDbBlockBegin
  2
*D1
 70
     1
 10
0.0
 20
0.0
 30
0.0
  3
*D1
  1

  0
LINE
  5
34
330
33
100
AcDbEntity
  8
0
  6
ByBlock
 62
     0
100
AcDbLine
 10
8.433767822608121
 20
4.839995999432475
 30
0.0
 11
8.433767822608121
 21
5.480500053015492
 31
0.0
  0
LINE
  5
35
330
33
100
AcDbEntity
  8
0
  6
ByBlock
 62
     0
100
AcDbLine
 10
10.37126782260812
 20
4.839995999432475
 30
0.0
 11
10.37126782260812
 21
5.480500053015492
 31
0.0
  0
LINE
  5
36
330
33
100
AcDbEntity
  8
0
  6
ByBlock
 62
     0
100
AcDbLine
 10
8.433767822608121
 20
5.300500053015492
 30
0.0
 11
8.923351155941455
 21
5.300500053015492
 31
0.0
  0
LINE
  5
37
330
33
100
AcDbEntity
  8
0
  6
ByBlock
 62
     0
100
AcDbLine
 10
10.37126782260812
 20
5.300500053015492
 30
0.0
 11
9.881684489274787
 21
5.300500053015492
 31
0.0
  0
LINE
  5
38
330
33
100
AcDbEntity
  8
0
  6
ByBlock
 62
     0
100
AcDbLine
 10
8.308767822608121
 20
5.175500053015492
 30
0.0
 11
8.558767822608121
 21
5.425500053015492
 31
0.0
  0
LINE
  5
39
330
33
100
AcDbEntity
  8
0
  6
ByBlock
 62
     0
100
AcDbLine
 10
10.24626782260812
 20
5.175500053015492
 30
0.0
 11
10.49626782260812
 21
5.425500053015492
 31
0.0
  0
TEXT
  5
3A
330
33
100
AcDbEntity
  8
0
  6
ByBlock
 62
     0
100
AcDbText
 10
9.048351155941455
 20
5.248536538940208
 30
0.0
 40
0.125
  1
1 15/16
 72
     1
 11
9.402517822608121
 21
5.311036538940208
 31
0.0
100
AcDbText
 73
     2
  0
POINT
  5
3B
330
33
100
AcDbEntity
  8
DEFPOINTS
  6
ByBlock
 62
     0
100
AcDbPoint
 10
8.433767822608121
 20
4.777495999432475
 30
0.0
  0
POINT
  5
3C
330
33
100
AcDbEntity
  8
DEFPOINTS
  6
ByBlock
 62
     0
100
AcDbPoint
 10
10.37126782260812
 20
4.777495999432475
 30
0.0
  0
POINT
  5
3D
330
33
100
AcDbEntity
  8
DEFPOINTS
  6
ByBlock
 62
     0
100
AcDbPoint
 10
10.37126782260812
 20
5.300500053015492
 30
0.0
  0
ENDBLK
  5
3F
330
33
100
AcDbEntity
  8
0
100
AcDbBlockEnd
  0
BLOCK
  5
5E
330
1F
100
AcDbEntity
  8
0
100
AcDbBlockBegin
  2
6934
 70
     0
 10
0.0
 20
0.0
 30
0.0
  3
6934
  1

  0
DIMENSION
  5
20
330
1F
100
AcDbEntity
  8
ADPDIM
100
AcDbDimension
  2
*D0
 10
-0.1296512886785806
 20
-0.1896431450006464
 30
0.0
 11
0.5578487113214195
 21
-0.1896431450006464
 31
0.0
 12
-10.18134664214831
 22
-4.383811309910282
 32
0.0
 71
     5
 42
-1.0
100
AcDbAlignedDimension
 13
-1.442651288678575
 23
0.0150000000000024
 33
0.0
 14
-0.1296512886785806
 24
0.0150000000000024
 34
0.0
100
AcDbRotatedDimension
  0
LINE
  5
30
330
1F
100
AcDbEntity
  8
ADP1DETAIL
100
AcDbLine
 10
-0.2551512886785794
 20
0.3717146661282733
 30
0.0
 11
-0.7873099937430972
 21
0.3717146661282733
 31
0.0
  0
ARC
  5
31
330
1F
100
AcDbEntity
  8
ADP1DETAIL
100
AcDbCircle
 10
-0.7873099937431008
 20
-0.0136041197009433
 30
0.0
 40
0.7500000000000019
100
AcDbArc
 50
65.35881699432443
 51
89.91148141825666
  0
DIMENSION
  5
32
330
1F
100
AcDbEntity
  8
ADPDIM
100
AcDbDimension
  2
*D1
 10
0.1899211804598053
 20
0.9166887431052099
 30
0.0
 11
-0.7788288195401947
 21
0.9272252290299256
 31
0.0
 12
-10.18134664214831
 22
-4.383811309910282
 32
0.0
 70
   128
 71
     5
 42
-1.0
100
AcDbAlignedDimension
 13
-1.747578819540194
 23
0.3936846895221926
 33
0.0
 14
0.1899211804598053
 24
0.3936846895221926
 34
0.0
100
AcDbRotatedDimension
  0
ARC
  5
40
330
1F
100
AcDbEntity
  8
ADP1DETAIL
100
AcDbCircle
 10
-1.503992583614056
 20
1.298511615493183
 30
0.0
 40
0.7499999999999969
100
AcDbArc
 50
271.1235186577002
 51
302.801651737942
  0
ARC
  5
41
330
1F
100
AcDbEntity
  8
ADP1DETAIL
100
AcDbCircle
 10
-1.332151288678577
 20
0.198714666128275
 30
0.0
 40
0.015
100
AcDbArc
 50
270.0
 51
0.0
  0
ARC
  5
42
330
1F
100
AcDbEntity
  8
ADP1DETAIL
100
AcDbCircle
 10
-1.60561453501262
 20
0.329015207395198
 30
0.0
 40
0.1559999999999998
100
AcDbArc
 50
80.65678061822479
 51
230.3615138867189
  0
ARC
  5
43
330
1F
100
AcDbEntity
  8
ADP1DETAIL
100
AcDbCircle
 10
-1.791886802016827
 20
0.007038894328705
 30
0.0
 40
0.2196970135271751
100
AcDbArc
 50
358.1639806528344
 51
66.74166570965842
  0
LINE
  5
44
330
1F
100
AcDbEntity
  8
ADP1DETAIL
100
AcDbLine
 10
-1.518992583614057
 20
0.4829456387898361
 30
0.0
 11
-1.580288218844255
 21
0.4829456387898361
 31
0.0
  0
LINE
  5
45
330
1F
100
AcDbEntity
  8
ADP1DETAIL
100
AcDbLine
 10
-1.427651288678578
 20
0.1837146661282745
 30
0.0
 11
-1.332151288678577
 21
0.1837146661282745
 31
0.0
  0
ARC
  5
46
330
1F
100
AcDbEntity
  8
ADP1DETAIL
100
AcDbCircle
 10
-1.427651288678578
 20
0.1687146661282739
 30
0.0
 40
0.015
100
AcDbArc
 50
90.0
 51
180.0
  0
LINE
  5
47
330
1F
100
AcDbEntity
  8
ADP1DETAIL
100
AcDbLine
 10
-1.442651288678577
 20
0.0150000000000006
 30
0.0
 11
-1.442651288678579
 21
0.1687146661282739
 31
0.0
  0
LINE
  5
48
330
1F
100
AcDbEntity
  8
ADP1DETAIL
100
AcDbLine
 10
-1.503992583614058
 20
0.4979456387898367
 30
0.0
 11
-1.503992583614058
 21
0.5336586884542669
 31
0.0
  0
ARC
  5
49
330
1F
100
AcDbEntity
  8
ADP1DETAIL
100
AcDbCircle
 10
-1.488992583614059
 20
0.5336586884542669
 30
0.0
 40
0.015
100
AcDbArc
 50
91.1235186577027
 51
180.0
  0
ARC
  5
4A
330
1F
100
AcDbEntity
  8
ADP1DETAIL
100
AcDbCircle
 10
-1.518992583614057
 20
0.4979456387898367
 30
0.0
 40
0.015
100
AcDbArc
 50
270.0
 51
0.0
  0
LINE
  5
4B
330
1F
100
AcDbEntity
  8
ADP1DETAIL
100
AcDbLine
 10
-1.572302577357156
 20
0.0
 30
0.0
 11
-1.457651288678576
 21
0.0
 31
0.0
  0
ARC
  5
4C
330
1F
100
AcDbEntity
  8
ADP1DETAIL
100
AcDbCircle
 10
-1.457651288678576
 20
0.0150000000000006
 30
0.0
 40
0.015
100
AcDbArc
 50
270.0
 51
0.0000000000002926
  0
LINE
  5
4D
330
1F
100
AcDbEntity
  8
ADP1DETAIL
100
AcDbLine
 10
-1.317151288678577
 20
0.3717146661282733
 30
0.0
 11
-0.7849925836140593
 21
0.3717146661282733
 31
0.0
  0
LINE
  5
4E
330
1F
100
AcDbEntity
  8
ADP1DETAIL
100
AcDbLine
 10
-1.317151288678578
 20
0.198714666128275
 30
0.0
 11
-1.317151288678577
 21
0.3717146661282733
 31
0.0
  0
ARC
  5
4F
330
1F
100
AcDbEntity
  8
ADP1DETAIL
100
AcDbCircle
 10
-0.7849925836140557
 20
-0.0136041197009398
 30
0.0
 40
0.7499999999999986
100
AcDbArc
 50
90.08851858174335
 51
114.6411830056756
  0
ARC
  5
50
330
1F
100
AcDbEntity
  8
ADP1DETAIL
100
AcDbCircle
 10
0.0333119576554655
 20
0.329015207395198
 30
0.0
 40
0.1559999999999996
100
AcDbArc
 50
309.6384861132802
 51
99.34321938177591
  0
ARC
  5
51
330
1F
100
AcDbEntity
  8
ADP1DETAIL
100
AcDbCircle
 10
0.2195842246596769
 20
0.0070388943287014
 30
0.0
 40
0.2196970135271803
100
AcDbArc
 50
113.2583342903419
 51
181.8360193471644
  0
ARC
  5
52
330
1F
100
AcDbEntity
  8
ADP1DETAIL
100
AcDbCircle
 10
-0.0683099937430978
 20
1.298511615493183
 30
0.0
 40
0.75
100
AcDbArc
 50
237.1983482620581
 51
268.8764813422996
  0
ARC
  5
53
330
1F
100
AcDbEntity
  8
ADP1DETAIL
100
AcDbCircle
 10
-0.053309993743099
 20
0.4979456387898367
 30
0.0
 40
0.015
100
AcDbArc
 50
180.0
 51
270.0
  0
ARC
  5
54
330
1F
100
AcDbEntity
  8
ADP1DETAIL
100
AcDbCircle
 10
-0.0833099937430966
 20
0.5336586884542669
 30
0.0
 40
0.015
100
AcDbArc
 50
0.000000000000007
 51
88.87648134229731
  0
LINE
  5
55
330
1F
100
AcDbEntity
  8
ADP1DETAIL
100
AcDbLine
 10
-0.2551512886785776
 20
0.198714666128275
 30
0.0
 11
-0.2551512886785794
 21
0.3717146661282733
 31
0.0
  0
ARC
  5
56
330
1F
100
AcDbEntity
  8
ADP1DETAIL
100
AcDbCircle
 10
-0.2401512886785788
 20
0.198714666128275
 30
0.0
 40
0.015
100
AcDbArc
 50
180.0
 51
270.0
  0
LINE
  5
57
330
1F
100
AcDbEntity
  8
ADP1DETAIL
100
AcDbLine
 10
-0.1296512886785788
 20
0.0150000000000006
 30
0.0
 11
-0.129651288678577
 21
0.1687146661282739
 31
0.0
  0
LINE
  5
58
330
1F
100
AcDbEntity
  8
ADP1DETAIL
100
AcDbLine
 10
-0.1446512886785776
 20
0.1837146661282745
 30
0.0
 11
-0.2401512886785788
 21
0.1837146661282745
 31
0.0
  0
ARC
  5
59
330
1F
100
AcDbEntity
  8
ADP1DETAIL
100
AcDbCircle
 10
-0.1446512886785776
 20
0.1687146661282739
 30
0.0
 40
0.015
100
AcDbArc
 50
0.000000000000007
 51
90.0
  0
LINE
  5
5A
330
1F
100
AcDbEntity
  8
ADP1DETAIL
100
AcDbLine
 10
-0.053309993743099
 20
0.4829456387898361
 30
0.0
 11
0.0079856414870996
 21
0.4829456387898361
 31
0.0
  0
LINE
  5
5B
330
1F
100
AcDbEntity
  8
ADP1DETAIL
100
AcDbLine
 10
-0.0683099937430978
 20
0.4979456387898367
 30
0.0
 11
-0.0683099937430978
 21
0.5336586884542669
 31
0.0
  0
LINE
  5
5C
330
1F
100
AcDbEntity
  8
ADP1DETAIL
100
AcDbLine
 10
0.0
 20
0.0
 30
0.0
 11
-0.11465128867858
 21
0.0
 31
0.0
  0
ARC
  5
5D
330
1F
100
AcDbEntity
  8
ADP1DETAIL
100
AcDbCircle
 10
-0.11465128867858
 20
0.0150000000000006
 30
0.0
 40
0.015
100
AcDbArc
 50
179.9999999999997
 51
270.0
  0
ENDBLK
  5
5F
330
1F
100
AcDbEntity
  8
0
100
AcDbBlockEnd
  0
BLOCK
  5
131
330
126
100
AcDbEntity
  8
0
100
AcDbBlockBegin
  2
*D3
 70
     1
 10
0.0
 20
0.0
 30
0.0
  3
*D3
  1

  0
LINE
  5
324
330
126
100
AcDbEntity
  8
ADPDIM
 62
     0
370
    -2
100
AcDbLine
 10
14.78837557368498
 20
1.440081342686641
 30
0.0
 11
14.78837557368498
 21
1.109512008344274
 31
0.0
  0
LINE
  5
325
330
126
100
AcDbEntity
  8
ADPDIM
 62
     0
370
    -2
100
AcDbLine
 10
17.78837557368498
 20
1.637620511348487
 30
0.0
 11
17.78837557368498
 21
1.109512008344274
 31
0.0
  0
LINE
  5
326
330
126
100
AcDbEntity
  8
ADPDIM
 62
     0
370
    -2
100
AcDbLine
 10
14.78837557368498
 20
1.289512008344274
 30
0.0
 11
16.12170890701831
 21
1.289512008344274
 31
0.0
  0
LINE
  5
327
330
126
100
AcDbEntity
  8
ADPDIM
 62
     0
370
    -2
100
AcDbLine
 10
17.78837557368498
 20
1.289512008344274
 30
0.0
 11
16.45504224035165
 21
1.289512008344274
 31
0.0
  0
LINE
  5
328
330
126
100
AcDbEntity
  8
ADPDIM
 62
     0
370
    -2
100
AcDbLine
 10
17.66337557368498
 20
1.164512008344274
 30
0.0
 11
17.91337557368498
 21
1.414512008344274
 31
0.0
  0
LINE
  5
329
330
126
100
AcDbEntity
  8
ADPDIM
 62
     0
370
    -2
100
AcDbLine
 10
14.66337557368498
 20
1.164512008344274
 30
0.0
 11
14.91337557368498
 21
1.414512008344274
 31
0.0
  0
MTEXT
  5
32A
330
126
100
AcDbEntity
  8
ADPDIM
 62
     0
100
AcDbMText
 10
16.28837557368498
 20
1.289512008344274
 30
0.0
 40
0.125
 41
0.0
 71
     5
 72
     1
  1
\A1;3
 73
     1
 44
1.0
1001
ACAD
1000
MTEXTBEGIN
1070
    73
1070
     1
1070
    44
1040
1.0
1070
    74
1070
     0
1000
MTEXTEND
  0
POINT
  5
32B
330
126
100
AcDbEntity
  8
DEFPOINTS
 62
     0
100
AcDbPoint
 10
14.78837557368498
 20
1.502581342686641
 30
0.0
  0
POINT
  5
32C
330
126
100
AcDbEntity
  8
DEFPOINTS
 62
     0
100
AcDbPoint
 10
17.78837557368498
 20
1.700120511348487
 30
0.0
  0
POINT
  5
32D
330
126
100
AcDbEntity
  8
DEFPOINTS
 62
     0
100
AcDbPoint
 10
17.78837557368498
 20
1.289512008344274
 30
0.0
  0
ENDBLK
  5
132
330
126
100
AcDbEntity
  8
0
100
AcDbBlockEnd
  0
BLOCK
  5
26E
330
26D
100
AcDbEntity
  8
0
 62
     3
100
AcDbBlockBegin
  2
*D4
 70
     1
 10
0.0
 20
0.0
 30
0.0
  3
*D4
  1

  0
LINE
  5
26F
330
26D
100
AcDbEntity
  8
ADPDIM
 62
     0
370
    -2
100
AcDbLine
 10
8.856792694658739
 20
4.818128313001169
 30
0.0
 11
8.856792694658739
 21
4.507341758440906
 31
0.0
  0
LINE
  5
270
330
26D
100
AcDbEntity
  8
ADPDIM
 62
     0
370
    -2
100
AcDbLine
 10
9.919292694658739
 20
4.818128313001169
 30
0.0
 11
9.919292694658739
 21
4.507341758440906
 31
0.0
  0
LINE
  5
271
330
26D
100
AcDbEntity
  8
ADPDIM
 62
     0
370
    -2
100
AcDbLine
 10
8.856792694658739
 20
4.687341758440906
 30
0.0
 11
8.606792694658739
 21
4.687341758440906
 31
0.0
  0
LINE
  5
272
330
26D
100
AcDbEntity
  8
ADPDIM
 62
     0
370
    -2
100
AcDbLine
 10
9.919292694658739
 20
4.687341758440906
 30
0.0
 11
10.16929269465874
 21
4.687341758440906
 31
0.0
  0
LINE
  5
273
330
26D
100
AcDbEntity
  8
ADPDIM
 62
     0
370
    -2
100
AcDbLine
 10
9.794292694658739
 20
4.562341758440906
 30
0.0
 11
10.04429269465874
 21
4.812341758440906
 31
0.0
  0
LINE
  5
274
330
26D
100
AcDbEntity
  8
ADPDIM
 62
     0
370
    -2
100
AcDbLine
 10
8.731792694658739
 20
4.562341758440906
 30
0.0
 11
8.981792694658739
 21
4.812341758440906
 31
0.0
  0
MTEXT
  5
275
330
26D
100
AcDbEntity
  8
ADPDIM
 62
     0
100
AcDbMText
 10
9.388042694658739
 20
4.687341758440906
 30
0.0
 40
0.125
 41
0.0
 71
     5
 72
     1
  1
\A1;1 1/16
 73
     1
 44
1.0
1001
ACAD
1000
MTEXTBEGIN
1070
    73
1070
     1
1070
    44
1040
1.0
1070
    74
1070
     0
1000
MTEXTEND
  0
POINT
  5
276
330
26D
100
AcDbEntity
  8
DEFPOINTS
 62
     0
100
AcDbPoint
 10
8.856792694658739
 20
4.880628313001169
 30
0.0
  0
POINT
  5
277
330
26D
100
AcDbEntity
  8
DEFPOINTS
 62
     0
100
AcDbPoint
 10
9.919292694658739
 20
4.880628313001169
 30
0.0
  0
POINT
  5
278
330
26D
100
AcDbEntity
  8
DEFPOINTS
 62
     0
100
AcDbPoint
 10
9.919292694658739
 20
4.687341758440906
 30
0.0
  0
ENDBLK
  5
279
330
26D
100
AcDbEntity
  8
0
 62
     3
100
AcDbBlockEnd
  0
BLOCK
  5
27B
330
27A
100
AcDbEntity
  8
0
100
AcDbBlockBegin
  2
*D5
 70
     1
 10
0.0
 20
0.0
 30
0.0
  3
*D5
  1

  0
LINE
  5
27C
330
27A
100
AcDbEntity
  8
ADPDIM
 62
     0
370
    -2
100
AcDbLine
 10
8.727959494558838
 20
4.647717422344203
 30
0.0
 11
8.727959494558838
 21
4.024125386649526
 31
0.0
  0
LINE
  5
27D
330
27A
100
AcDbEntity
  8
ADPDIM
 62
     0
370
    -2
100
AcDbLine
 10
10.04095949455883
 20
4.647717422344203
 30
0.0
 11
10.04095949455883
 21
4.024125386649526
 31
0.0
  0
LINE
  5
27E
330
27A
100
AcDbEntity
  8
ADPDIM
 62
     0
370
    -2
100
AcDbLine
 10
8.727959494558838
 20
4.204125386649526
 30
0.0
 11
8.946959494558836
 21
4.204125386649526
 31
0.0
  0
LINE
  5
27F
330
27A
100
AcDbEntity
  8
ADPDIM
 62
     0
370
    -2
100
AcDbLine
 10
10.04095949455883
 20
4.204125386649526
 30
0.0
 11
9.821959494558836
 21
4.204125386649526
 31
0.0
  0
LINE
  5
280
330
27A
100
AcDbEntity
  8
ADPDIM
 62
     0
370
    -2
100
AcDbLine
 10
9.915959494558833
 20
4.079125386649526
 30
0.0
 11
10.16595949455883
 21
4.329125386649526
 31
0.0
  0
LINE
  5
281
330
27A
100
AcDbEntity
  8
ADPDIM
 62
     0
370
    -2
100
AcDbLine
 10
8.602959494558838
 20
4.079125386649526
 30
0.0
 11
8.852959494558838
 21
4.329125386649526
 31
0.0
  0
MTEXT
  5
282
330
27A
100
AcDbEntity
  8
ADPDIM
 62
     0
100
AcDbMText
 10
9.384459494558836
 20
4.204125386649526
 30
0.0
 40
0.125
 41
0.0
 71
     5
 72
     1
  1
\A1;1 5/16
 73
     1
 44
1.0
1001
ACAD
1000
MTEXTBEGIN
1070
    73
1070
     1
1070
    44
1040
1.0
1070
    74
1070
     0
1000
MTEXTEND
  0
POINT
  5
283
330
27A
100
AcDbEntity
  8
DEFPOINTS
 62
     0
100
AcDbPoint
 10
8.727959494558838
 20
4.710217422344203
 30
0.0
  0
POINT
  5
284
330
27A
100
AcDbEntity
  8
DEFPOINTS
 62
     0
100
AcDbPoint
 10
10.04095949455883
 20
4.710217422344203
 30
0.0
  0
POINT
  5
285
330
27A
100
AcDbEntity
  8
DEFPOINTS
 62
     0
100
AcDbPoint
 10
10.04095949455883
 20
4.204125386649526
 30
0.0
  0
ENDBLK
  5
286
330
27A
100
AcDbEntity
  8
0
100
AcDbBlockEnd
  0
BLOCK
  5
288
330
287
100
AcDbEntity
  8
0
100
AcDbBlockBegin
  2
*D6
 70
     1
 10
0.0
 20
0.0
 30
0.0
  3
*D6
  1

  0
LINE
  5
289
330
287
100
AcDbEntity
  8
ADPDIM
 62
     0
370
    -2
100
AcDbLine
 10
8.423031963697219
 20
5.151402111866393
 30
0.0
 11
8.423031963697219
 21
5.79190616544941
 31
0.0
  0
LINE
  5
28A
330
287
100
AcDbEntity
  8
ADPDIM
 62
     0
370
    -2
100
AcDbLine
 10
10.36053196369722
 20
5.151402111866393
 30
0.0
 11
10.36053196369722
 21
5.79190616544941
 31
0.0
  0
LINE
  5
28B
330
287
100
AcDbEntity
  8
ADPDIM
 62
     0
370
    -2
100
AcDbLine
 10
8.423031963697219
 20
5.61190616544941
 30
0.0
 11
8.912615297030553
 21
5.61190616544941
 31
0.0
  0
LINE
  5
28C
330
287
100
AcDbEntity
  8
ADPDIM
 62
     0
370
    -2
100
AcDbLine
 10
10.36053196369722
 20
5.61190616544941
 30
0.0
 11
9.870948630363885
 21
5.61190616544941
 31
0.0
  0
MTEXT
  5
28D
330
287
100
AcDbEntity
  8
ADPDIM
 62
     0
100
AcDbMText
 10
9.391781963697219
 20
5.622442651374126
 30
0.0
 40
0.125
 41
0.0
 71
     5
 72
     1
  1
\A1;1 15/16
 73
     1
 44
1.0
1001
ACAD
1000
MTEXTBEGIN
1070
    73
1070
     1
1070
    44
1040
1.0
1070
    74
1070
     0
1000
MTEXTEND
  0
LINE
  5
28E
330
287
100
AcDbEntity
  8
ADPDIM
 62
     0
370
    -2
100
AcDbLine
 10
10.23553196369722
 20
5.48690616544941
 30
0.0
 11
10.48553196369722
 21
5.73690616544941
 31
0.0
  0
LINE
  5
28F
330
287
100
AcDbEntity
  8
ADPDIM
 62
     0
370
    -2
100
AcDbLine
 10
8.298031963697219
 20
5.48690616544941
 30
0.0
 11
8.548031963697219
 21
5.73690616544941
 31
0.0
  0
POINT
  5
290
330
287
100
AcDbEntity
  8
DEFPOINTS
 62
     0
100
AcDbPoint
 10
8.423031963697219
 20
5.088902111866393
 30
0.0
  0
POINT
  5
291
330
287
100
AcDbEntity
  8
DEFPOINTS
 62
     0
100
AcDbPoint
 10
10.36053196369722
 20
5.088902111866393
 30
0.0
  0
POINT
  5
292
330
287
100
AcDbEntity
  8
DEFPOINTS
 62
     0
100
AcDbPoint
 10
10.36053196369722
 20
5.61190616544941
 30
0.0
  0
ENDBLK
  5
293
330
287
100
AcDbEntity
  8
0
100
AcDbBlockEnd
  0
BLOCK
  5
2EA
330
2DF
100
AcDbEntity
  8
0
100
AcDbBlockBegin
  2
*D8
 70
     1
 10
0.0
 20
0.0
 30
0.0
  3
*D8
  1

  0
LINE
  5
32E
330
2DF
100
AcDbEntity
  8
ADPDIM
 62
     0
370
    -2
100
AcDbLine
 10
12.28542026769793
 20
1.385955068884121
 30
0.0
 11
12.28542026769793
 21
0.7623630331894445
 31
0.0
  0
LINE
  5
32F
330
2DF
100
AcDbEntity
  8
ADPDIM
 62
     0
370
    -2
100
AcDbLine
 10
13.59842026769793
 20
1.385955068884121
 30
0.0
 11
13.59842026769793
 21
0.7623630331894445
 31
0.0
  0
LINE
  5
330
330
2DF
100
AcDbEntity
  8
ADPDIM
 62
     0
370
    -2
100
AcDbLine
 10
12.28542026769793
 20
0.9423630331894443
 30
0.0
 11
12.50442026769793
 21
0.9423630331894443
 31
0.0
  0
LINE
  5
331
330
2DF
100
AcDbEntity
  8
ADPDIM
 62
     0
370
    -2
100
AcDbLine
 10
13.59842026769793
 20
0.9423630331894443
 30
0.0
 11
13.37942026769793
 21
0.9423630331894443
 31
0.0
  0
LINE
  5
332
330
2DF
100
AcDbEntity
  8
ADPDIM
 62
     0
370
    -2
100
AcDbLine
 10
13.47342026769793
 20
0.8173630331894443
 30
0.0
 11
13.72342026769793
 21
1.067363033189444
 31
0.0
  0
LINE
  5
333
330
2DF
100
AcDbEntity
  8
ADPDIM
 62
     0
370
    -2
100
AcDbLine
 10
12.16042026769793
 20
0.8173630331894443
 30
0.0
 11
12.41042026769793
 21
1.067363033189444
 31
0.0
  0
MTEXT
  5
334
330
2DF
100
AcDbEntity
  8
ADPDIM
 62
     0
100
AcDbMText
 10
12.94192026769793
 20
0.9423630331894443
 30
0.0
 40
0.125
 41
0.0
 71
     5
 72
     1
  1
\A1;1 5/16
 73
     1
 44
1.0
1001
ACAD
1000
MTEXTBEGIN
1070
    73
1070
     1
1070
    44
1040
1.0
1070
    74
1070
     0
1000
MTEXTEND
  0
POINT
  5
335
330
2DF
100
AcDbEntity
  8
DEFPOINTS
 62
     0
100
AcDbPoint
 10
12.28542026769793
 20
1.448455068884121
 30
0.0
  0
POINT
  5
336
330
2DF
100
AcDbEntity
  8
DEFPOINTS
 62
     0
100
AcDbPoint
 10
13.59842026769793
 20
1.448455068884121
 30
0.0
  0
POINT
  5
337
330
2DF
100
AcDbEntity
  8
DEFPOINTS
 62
     0
100
AcDbPoint
 10
13.59842026769793
 20
0.9423630331894443
 30
0.0
  0
ENDBLK
  5
2EB
330
2DF
100
AcDbEntity
  8
0
100
AcDbBlockEnd
  0
BLOCK
  5
2F7
330
2EC
100
AcDbEntity
  8
0
100
AcDbBlockBegin
  2
*D9
 70
     1
 10
0.0
 20
0.0
 30
0.0
  3
*D9
  1

  0
LINE
  5
338
330
2EC
100
AcDbEntity
  8
ADPDIM
 62
     0
370
    -2
100
AcDbLine
 10
11.98049273683631
 20
1.889639758406311
 30
0.0
 11
11.98049273683631
 21
2.530143811989328
 31
0.0
  0
LINE
  5
339
330
2EC
100
AcDbEntity
  8
ADPDIM
 62
     0
370
    -2
100
AcDbLine
 10
13.91799273683631
 20
1.889639758406311
 30
0.0
 11
13.91799273683631
 21
2.530143811989328
 31
0.0
  0
LINE
  5
33A
330
2EC
100
AcDbEntity
  8
ADPDIM
 62
     0
370
    -2
100
AcDbLine
 10
11.98049273683631
 20
2.350143811989329
 30
0.0
 11
12.47007607016965
 21
2.350143811989329
 31
0.0
  0
LINE
  5
33B
330
2EC
100
AcDbEntity
  8
ADPDIM
 62
     0
370
    -2
100
AcDbLine
 10
13.91799273683631
 20
2.350143811989329
 30
0.0
 11
13.42840940350298
 21
2.350143811989329
 31
0.0
  0
MTEXT
  5
33C
330
2EC
100
AcDbEntity
  8
ADPDIM
 62
     0
100
AcDbMText
 10
12.94924273683631
 20
2.360680297914044
 30
0.0
 40
0.125
 41
0.0
 71
     5
 72
     1
  1
\A1;1 15/16
 73
     1
 44
1.0
1001
ACAD
1000
MTEXTBEGIN
1070
    73
1070
     1
1070
    44
1040
1.0
1070
    74
1070
     0
1000
MTEXTEND
  0
LINE
  5
33D
330
2EC
100
AcDbEntity
  8
ADPDIM
 62
     0
370
    -2
100
AcDbLine
 10
13.79299273683631
 20
2.225143811989329
 30
0.0
 11
14.04299273683631
 21
2.475143811989329
 31
0.0
  0
LINE
  5
33E
330
2EC
100
AcDbEntity
  8
ADPDIM
 62
     0
370
    -2
100
AcDbLine
 10
11.85549273683631
 20
2.225143811989329
 30
0.0
 11
12.10549273683631
 21
2.475143811989329
 31
0.0
  0
POINT
  5
33F
330
2EC
100
AcDbEntity
  8
DEFPOINTS
 62
     0
100
AcDbPoint
 10
11.98049273683631
 20
1.827139758406311
 30
0.0
  0
POINT
  5
340
330
2EC
100
AcDbEntity
  8
DEFPOINTS
 62
     0
100
AcDbPoint
 10
13.91799273683631
 20
1.827139758406311
 30
0.0
  0
POINT
  5
341
330
2EC
100
AcDbEntity
  8
DEFPOINTS
 62
     0
100
AcDbPoint
 10
13.91799273683631
 20
2.350143811989329
 30
0.0
  0
ENDBLK
  5
2F8
330
2EC
100
AcDbEntity
  8
0
100
AcDbBlockEnd
  0
BLOCK
  5
304
330
2F9
100
AcDbEntity
  8
0
100
AcDbBlockBegin
  2
*D10
 70
     1
 10
0.0
 20
0.0
 30
0.0
  3
*D10
  1

  0
LINE
  5
342
330
2F9
100
AcDbEntity
  8
ADPDIM
 62
     0
370
    -2
100
AcDbLine
 10
12.41425346779783
 20
1.556365959541087
 30
0.0
 11
12.41425346779783
 21
1.245579404980824
 31
0.0
  0
LINE
  5
343
330
2F9
100
AcDbEntity
  8
ADPDIM
 62
     0
370
    -2
100
AcDbLine
 10
13.47675346779783
 20
1.556365959541087
 30
0.0
 11
13.47675346779783
 21
1.245579404980824
 31
0.0
  0
LINE
  5
344
330
2F9
100
AcDbEntity
  8
ADPDIM
 62
     0
370
    -2
100
AcDbLine
 10
12.41425346779783
 20
1.425579404980824
 30
0.0
 11
12.16425346779783
 21
1.425579404980824
 31
0.0
  0
LINE
  5
345
330
2F9
100
AcDbEntity
  8
ADPDIM
 62
     0
370
    -2
100
AcDbLine
 10
13.47675346779783
 20
1.425579404980824
 30
0.0
 11
13.72675346779783
 21
1.425579404980824
 31
0.0
  0
LINE
  5
346
330
2F9
100
AcDbEntity
  8
ADPDIM
 62
     0
370
    -2
100
AcDbLine
 10
13.35175346779783
 20
1.300579404980824
 30
0.0
 11
13.60175346779783
 21
1.550579404980824
 31
0.0
  0
LINE
  5
347
330
2F9
100
AcDbEntity
  8
ADPDIM
 62
     0
370
    -2
100
AcDbLine
 10
12.28925346779783
 20
1.300579404980824
 30
0.0
 11
12.53925346779783
 21
1.550579404980824
 31
0.0
  0
MTEXT
  5
348
330
2F9
100
AcDbEntity
  8
ADPDIM
 62
     0
100
AcDbMText
 10
12.94550346779783
 20
1.425579404980824
 30
0.0
 40
0.125
 41
0.0
 71
     5
 72
     1
  1
\A1;1 1/16
 73
     1
 44
1.0
1001
ACAD
1000
MTEXTBEGIN
1070
    73
1070
     1
1070
    44
1040
1.0
1070
    74
1070
     0
1000
MTEXTEND
  0
POINT
  5
349
330
2F9
100
AcDbEntity
  8
DEFPOINTS
 62
     0
100
AcDbPoint
 10
12.41425346779783
 20
1.618865959541087
 30
0.0
  0
POINT
  5
34A
330
2F9
100
AcDbEntity
  8
DEFPOINTS
 62
     0
100
AcDbPoint
 10
13.47675346779783
 20
1.618865959541087
 30
0.0
  0
POINT
  5
34B
330
2F9
100
AcDbEntity
  8
DEFPOINTS
 62
     0
100
AcDbPoint
 10
13.47675346779783
 20
1.425579404980824
 30
0.0
  0
ENDBLK
  5
305
330
2F9
100
AcDbEntity
  8
0
100
AcDbBlockEnd
  0
ENDSEC
  0
SECTION
  2
ENTITIES
  0
LINE
  5
60
330
2
100
AcDbEntity
  8
ADP1DETAIL
100
AcDbLine
 10
17.74594953882519
 20
1.642751915851903
 30
0.0
 11
16.95431882366763
 21
1.503488762743407
 31
0.0
  0
LINE
  5
61
330
2
100
AcDbEntity
  8
ADP1DETAIL
100
AcDbLine
 10
14.78837557368498
 20
1.502581342686641
 30
0.0
 11
14.78837557368498
 21
2.229020769467993
 31
0.0
  0
DIMENSION
  5
62
330
2
100
AcDbEntity
  8
ADPDIM
100
AcDbDimension
  2
*D3
 10
17.78837557368498
 20
1.289512008344274
 30
0.0
 11
16.28837557368498
 21
1.289512008344274
 31
0.0
 70
    32
 71
     5
 42
3.0
  3
STANDARD
100
AcDbAlignedDimension
 13
14.78837557368498
 23
1.502581342686641
 33
0.0
 14
17.78837557368498
 24
1.700120511348487
 34
0.0
100
AcDbRotatedDimension
1001
ACAD
1000
DSTYLE
1002
{
1070
   270
1070
     7
1070
   270
1070
     7
1070
   270
1070
     7
1070
   270
1070
     7
1070
    41
1040
0.125
1070
    73
1070
     0
1070
    74
1070
     0
1070
    78
1070
     3
1070
   140
1040
0.125
1070
   141
1040
0.1875
1070
   142
1040
0.125
1070
   147
1040
0.125
1070
   171
1070
     1
1070
   276
1070
     2
1070
   277
1070
     5
1002
}
  0
LINE
  5
70
330
2
100
AcDbEntity
  8
ADP1DETAIL
100
AcDbLine
 10
16.94392329599211
 20
1.502581342686641
 30
0.0
 11
14.78837557368498
 21
1.502581342686641
 31
0.0
  0
ARC
  5
71
330
2
100
AcDbEntity
  8
ADP1DETAIL
100
AcDbCircle
 10
16.94392329599211
 20
1.562581342686641
 30
0.0
 40
0.06
100
AcDbArc
 50
270.0
 51
279.9773466144304
  0
LINE
  5
72
330
2
100
AcDbEntity
  8
ADP1DETAIL
100
AcDbLine
 10
14.78837557368498
 20
2.043768806901951
 30
0.0
 11
17.69837557368498
 21
2.043768806901951
 31
0.0
  0
LINE
  5
73
330
2
100
AcDbEntity
  8
ADP1DETAIL
100
AcDbLine
 10
14.78837557368498
 20
1.989282915836867
 30
0.0
 11
17.78837557368498
 21
1.989282915836867
 31
0.0
  0
LINE
  5
74
330
2
100
AcDbEntity
  8
ADP2DETAIL
  6
HIDDEN2
100
AcDbLine
 10
14.78837557368498
 20
1.869414072840328
 30
0.0
 11
17.78837557368498
 21
1.869414072840328
 31
0.0
  0
LINE
  5
77
330
2
100
AcDbEntity
  8
ADP1DETAIL
100
AcDbLine
 10
14.78837557368498
 20
2.229020769467993
 30
0.0
 11
17.03837557368498
 21
2.229020769467993
 31
0.0
  0
LINE
  5
78
330
2
100
AcDbEntity
  8
ADP2DETAIL
  6
HIDDEN2
100
AcDbLine
 10
14.78837557368498
 20
1.684162110274272
 30
0.0
 11
17.78837557368498
 21
1.684162110274272
 31
0.0
  0
LINE
  5
79
330
2
100
AcDbEntity
  8
ADP1DETAIL
100
AcDbLine
 10
17.66337557368498
 20
2.837993528089879
 30
0.0
 11
14.78837557368498
 21
2.837993528089882
 31
0.0
  0
LINE
  5
7A
330
2
100
AcDbEntity
  8
ADP1DETAIL
100
AcDbLine
 10
14.78837557368498
 20
4.782215125645105
 30
0.0
 11
17.66337557368498
 21
4.782215125645104
 31
0.0
  0
LINE
  5
7B
330
2
100
AcDbEntity
  8
ADP2DETAIL
  6
HIDDEN2
100
AcDbLine
 10
14.78837557368498
 20
3.271015300296259
 30
0.0
 11
17.78837557368498
 21
3.271015300296259
 31
0.0
  0
LINE
  5
7C
330
2
100
AcDbEntity
  8
ADP2DETAIL
  6
HIDDEN2
100
AcDbLine
 10
14.78837557368498
 20
3.142756654176626
 30
0.0
 11
17.78837557368498
 21
3.142756654176626
 31
0.0
  0
LINE
  5
7D
330
2
100
AcDbEntity
  8
ADP1DETAIL
100
AcDbLine
 10
17.78837557368498
 20
3.087788761769221
 30
0.0
 11
14.78837557368498
 21
3.087788761769221
 31
0.0
  0
LINE
  5
7E
330
2
100
AcDbEntity
  8
ADP1DETAIL
100
AcDbLine
 10
17.78837557368498
 20
4.525698294410542
 30
0.0
 11
14.78837557368498
 21
4.525698294410542
 31
0.0
  0
LINE
  5
7F
330
2
100
AcDbEntity
  8
ADP2DETAIL
  6
HIDDEN2
100
AcDbLine
 10
14.78837557368498
 20
4.470730402003137
 30
0.0
 11
17.78837557368498
 21
4.470730402003137
 31
0.0
  0
LINE
  5
80
330
2
100
AcDbEntity
  8
ADP2DETAIL
  6
HIDDEN2
100
AcDbLine
 10
14.78837557368498
 20
4.342471755883504
 30
0.0
 11
17.78837557368498
 21
4.342471755883504
 31
0.0
  0
LINE
  5
81
330
2
100
AcDbEntity
  8
ADP1DETAIL
100
AcDbLine
 10
14.78837557368498
 20
2.837993528089882
 30
0.0
 11
14.78837557368498
 21
4.775493528089882
 31
0.0
  0
LINE
  5
82
330
2
100
AcDbEntity
  8
ADP1DETAIL
100
AcDbLine
 10
17.78837557368498
 20
4.657215125645104
 30
0.0
 11
17.78837557368498
 21
2.962993528089879
 31
0.0
  0
LINE
  5
83
330
2
100
AcDbEntity
  8
ADP1DETAIL
100
AcDbLine
 10
17.03837557368498
 20
2.229020769467993
 30
0.0
 11
17.69837557368498
 21
2.043768806901951
 31
0.0
  0
ARC
  5
84
330
2
100
AcDbEntity
  8
ADP1DETAIL
100
AcDbCircle
 10
17.84643059513101
 20
1.836722513055569
 30
0.0
 40
0.1632331523064208
100
AcDbArc
 50
110.8337188370296
 51
249.1662811629702
  0
ARC
  5
85
330
2
100
AcDbEntity
  8
ADP1DETAIL
100
AcDbCircle
 10
17.69837557368498
 20
1.953768806901951
 30
0.0
 40
0.09
100
AcDbArc
 50
0.0
 51
90.0
  0
LINE
  5
86
330
2
100
AcDbEntity
  8
ADP1DETAIL
100
AcDbLine
 10
17.78837557368498
 20
1.953768806901951
 30
0.0
 11
17.78837557368498
 21
1.700120511348487
 31
0.0
  0
ARC
  5
87
330
2
100
AcDbEntity
  8
ADP1DETAIL
100
AcDbCircle
 10
17.72837557368498
 20
1.700120511348487
 30
0.0
 40
0.06
100
AcDbArc
 50
287.0316199970769
 51
0.0
  0
ARC
  5
88
330
2
100
AcDbEntity
  8
ADP1DETAIL
100
AcDbCircle
 10
17.66337557368498
 20
2.962993528089879
 30
0.0
 40
0.125
100
AcDbArc
 50
270.0
 51
0.0
  0
ARC
  5
89
330
2
100
AcDbEntity
  8
ADP1DETAIL
100
AcDbCircle
 10
17.66337557368498
 20
4.657215125645104
 30
0.0
 40
0.125
100
AcDbArc
 50
0.0
 51
90.0
  0
LWPOLYLINE
  5
A5
330
2
100
AcDbEntity
  8
ADP1DETAIL
100
AcDbPolyline
 90
        5
 70
     0
 43
0.0
 10
17.58766838666286
 20
4.525698294410542
 10
17.58766838666286
 20
4.405717877193962
 42
-0.358810472812414
 10
17.44438248909699
 20
4.234261082537543
 10
17.28676798061037
 20
4.10566848868302
 42
0.3648542901511699
 10
17.03096688126959
 20
3.806743528089881
 42
0.215162686839721
  0
LWPOLYLINE
  5
AC
330
2
100
AcDbEntity
  8
ADP1DETAIL
100
AcDbPolyline
 90
        5
 70
     0
 43
0.0
 10
17.5998834295712
 20
3.087788761769219
 10
17.5998834295712
 20
3.207769178985799
 42
0.358810472812414
 10
17.45659753200533
 20
3.379225973642219
 10
17.29898302351871
 20
3.507818567496741
 42
-0.3648542901511699
 10
17.04318192417793
 20
3.806743528089881
 42
-0.215162686839721
  0
TEXT
  5
BF
330
2
100
AcDbEntity
  8
ADPDIM
100
AcDbText
 10
8.337092345001607
 20
0.0846208326737923
 30
0.0
 40
0.125
  1
J U L I U S  B L U M  &  C O . ,  I N C .      ( 8 0 0 )  5 2 6 - 6 2 9 3        W W W . J U L I U S B L U M . C O M        P A R T  N o .  6 9 3 4 - N
 41
1.25
  7
ARIAL_WIDE
 72
     1
 11
15.0386292651926
 21
0.2096208326737923
 31
0.0
100
AcDbText
 73
     3
  0
DIMENSION
  5
2BC
330
2
100
AcDbEntity
  8
ADPDIM
100
AcDbDimension
  2
*D8
 10
13.59842026769793
 20
0.9423630331894443
 30
0.0
 11
12.94192026769793
 21
0.9423630331894443
 31
0.0
 70
    32
 71
     5
 42
1.312999999999995
  3
STANDARD
100
AcDbAlignedDimension
 13
12.28542026769793
 23
1.448455068884121
 33
0.0
 14
13.59842026769793
 24
1.448455068884121
 34
0.0
100
AcDbRotatedDimension
1001
ACAD
1000
DSTYLE
1002
{
1070
   276
1070
     2
1070
    41
1040
0.125
1070
    73
1070
     0
1070
    74
1070
     0
1070
    78
1070
     3
1070
   140
1040
0.125
1070
   141
1040
0.1875
1070
   142
1040
0.125
1070
   147
1040
0.125
1070
   171
1070
     1
1070
   273
1070
     5
1070
   274
1070
     1
1070
   277
1070
     5
1070
   279
1070
     2
1070
   284
1070
     3
1070
   285
1070
     3
1070
   286
1070
     3
1002
}
  0
LINE
  5
2BD
330
2
100
AcDbEntity
  8
ADP1DETAIL
100
AcDbLine
 10
13.47292026769793
 20
1.805169735012392
 30
0.0
 11
12.94076156263341
 21
1.805169735012392
 31
0.0
  0
ARC
  5
2BE
330
2
100
AcDbEntity
  8
ADP1DETAIL
100
AcDbCircle
 10
12.94076156263341
 20
1.419850949183175
 30
0.0
 40
0.7500000000000019
100
AcDbArc
 50
65.35881699432437
 51
89.91148141825664
  0
DIMENSION
  5
2BF
330
2
100
AcDbEntity
  8
ADPDIM
100
AcDbDimension
  2
*D9
 10
13.91799273683631
 20
2.350143811989329
 30
0.0
 11
12.94924273683631
 21
2.360680297914044
 31
0.0
 70
   160
 71
     5
 42
1.9375
  3
STANDARD
100
AcDbAlignedDimension
 13
11.98049273683631
 23
1.827139758406311
 33
0.0
 14
13.91799273683631
 24
1.827139758406311
 34
0.0
100
AcDbRotatedDimension
1001
ACAD
1000
DSTYLE
1002
{
1070
   276
1070
     2
1070
    41
1040
0.125
1070
    73
1070
     0
1070
    74
1070
     0
1070
    78
1070
     3
1070
   140
1040
0.125
1070
   141
1040
0.1875
1070
   142
1040
0.125
1070
   147
1040
0.125
1070
   171
1070
     1
1070
   273
1070
     5
1070
   274
1070
     1
1070
   277
1070
     5
1070
   279
1070
     2
1070
   284
1070
     3
1070
   285
1070
     3
1070
   286
1070
     3
1002
}
  0
ARC
  5
2C0
330
2
100
AcDbEntity
  8
ADP1DETAIL
100
AcDbCircle
 10
12.22407897276245
 20
2.731966684377302
 30
0.0
 40
0.7499999999999969
100
AcDbArc
 50
271.1235186577002
 51
302.8016517379419
  0
ARC
  5
2C1
330
2
100
AcDbEntity
  8
ADP1DETAIL
100
AcDbCircle
 10
12.39592026769793
 20
1.632169735012394
 30
0.0
 40
0.015
100
AcDbArc
 50
270.0
 51
0.0
  0
ARC
  5
2C2
330
2
100
AcDbEntity
  8
ADP1DETAIL
100
AcDbCircle
 10
12.12245702136389
 20
1.762470276279317
 30
0.0
 40
0.1559999999999998
100
AcDbArc
 50
80.65678061822477
 51
230.3615138867189
  0
ARC
  5
2C3
330
2
100
AcDbEntity
  8
ADP1DETAIL
100
AcDbCircle
 10
11.93618475435968
 20
1.440493963212824
 30
0.0
 40
0.2196970135271751
100
AcDbArc
 50
358.1639806528343
 51
66.74166570965843
  0
LINE
  5
2C4
330
2
100
AcDbEntity
  8
ADP1DETAIL
100
AcDbLine
 10
12.20907897276245
 20
1.916400707673955
 30
0.0
 11
12.14778333753225
 21
1.916400707673955
 31
0.0
  0
LINE
  5
2C5
330
2
100
AcDbEntity
  8
ADP1DETAIL
100
AcDbLine
 10
12.30042026769793
 20
1.617169735012393
 30
0.0
 11
12.39592026769793
 21
1.617169735012393
 31
0.0
  0
ARC
  5
2C6
330
2
100
AcDbEntity
  8
ADP1DETAIL
100
AcDbCircle
 10
12.30042026769793
 20
1.602169735012393
 30
0.0
 40
0.015
100
AcDbArc
 50
90.0
 51
180.0
  0
LINE
  5
2C7
330
2
100
AcDbEntity
  8
ADP1DETAIL
100
AcDbLine
 10
12.28542026769793
 20
1.448455068884119
 30
0.0
 11
12.28542026769793
 21
1.602169735012393
 31
0.0
  0
LINE
  5
2C8
330
2
100
AcDbEntity
  8
ADP1DETAIL
100
AcDbLine
 10
12.22407897276245
 20
1.931400707673955
 30
0.0
 11
12.22407897276245
 21
1.967113757338386
 31
0.0
  0
ARC
  5
2C9
330
2
100
AcDbEntity
  8
ADP1DETAIL
100
AcDbCircle
 10
12.23907897276245
 20
1.967113757338386
 30
0.0
 40
0.015
100
AcDbArc
 50
91.12351865770264
 51
180.0
  0
ARC
  5
2CA
330
2
100
AcDbEntity
  8
ADP1DETAIL
100
AcDbCircle
 10
12.20907897276245
 20
1.931400707673955
 30
0.0
 40
0.015
100
AcDbArc
 50
270.0
 51
0.0
  0
LINE
  5
2CB
330
2
100
AcDbEntity
  8
ADP1DETAIL
100
AcDbLine
 10
12.15576897901935
 20
1.433455068884119
 30
0.0
 11
12.27042026769793
 21
1.433455068884119
 31
0.0
  0
ARC
  5
2CC
330
2
100
AcDbEntity
  8
ADP1DETAIL
100
AcDbCircle
 10
12.27042026769793
 20
1.448455068884119
 30
0.0
 40
0.015
100
AcDbArc
 50
270.0
 51
0.0000000000003053
  0
LINE
  5
2CD
330
2
100
AcDbEntity
  8
ADP1DETAIL
100
AcDbLine
 10
12.41092026769793
 20
1.805169735012392
 30
0.0
 11
12.94307897276245
 21
1.805169735012392
 31
0.0
  0
LINE
  5
2CE
330
2
100
AcDbEntity
  8
ADP1DETAIL
100
AcDbLine
 10
12.41092026769793
 20
1.632169735012394
 30
0.0
 11
12.41092026769793
 21
1.805169735012392
 31
0.0
  0
ARC
  5
2CF
330
2
100
AcDbEntity
  8
ADP1DETAIL
100
AcDbCircle
 10
12.94307897276245
 20
1.419850949183179
 30
0.0
 40
0.7499999999999986
100
AcDbArc
 50
90.08851858174335
 51
114.6411830056756
  0
ARC
  5
2D0
330
2
100
AcDbEntity
  8
ADP1DETAIL
100
AcDbCircle
 10
13.76138351403197
 20
1.762470276279317
 30
0.0
 40
0.1559999999999996
100
AcDbArc
 50
309.6384861132802
 51
99.34321938177587
  0
ARC
  5
2D1
330
2
100
AcDbEntity
  8
ADP1DETAIL
100
AcDbCircle
 10
13.94765578103618
 20
1.44049396321282
 30
0.0
 40
0.2196970135271803
100
AcDbArc
 50
113.258334290342
 51
181.8360193471644
  0
ARC
  5
2D2
330
2
100
AcDbEntity
  8
ADP1DETAIL
100
AcDbCircle
 10
13.65976156263341
 20
2.731966684377302
 30
0.0
 40
0.75
100
AcDbArc
 50
237.1983482620581
 51
268.8764813422997
  0
ARC
  5
2D3
330
2
100
AcDbEntity
  8
ADP1DETAIL
100
AcDbCircle
 10
13.67476156263341
 20
1.931400707673955
 30
0.0
 40
0.015
100
AcDbArc
 50
180.0
 51
270.0
  0
ARC
  5
2D4
330
2
100
AcDbEntity
  8
ADP1DETAIL
100
AcDbCircle
 10
13.64476156263341
 20
1.967113757338386
 30
0.0
 40
0.015
100
AcDbArc
 50
0.0
 51
88.87648134229735
  0
LINE
  5
2D5
330
2
100
AcDbEntity
  8
ADP1DETAIL
100
AcDbLine
 10
13.47292026769793
 20
1.632169735012394
 30
0.0
 11
13.47292026769793
 21
1.805169735012392
 31
0.0
  0
ARC
  5
2D6
330
2
100
AcDbEntity
  8
ADP1DETAIL
100
AcDbCircle
 10
13.48792026769793
 20
1.632169735012394
 30
0.0
 40
0.015
100
AcDbArc
 50
180.0
 51
270.0
  0
LINE
  5
2D7
330
2
100
AcDbEntity
  8
ADP1DETAIL
100
AcDbLine
 10
13.59842026769793
 20
1.448455068884119
 30
0.0
 11
13.59842026769793
 21
1.602169735012393
 31
0.0
  0
LINE
  5
2D8
330
2
100
AcDbEntity
  8
ADP1DETAIL
100
AcDbLine
 10
13.58342026769793
 20
1.617169735012393
 30
0.0
 11
13.48792026769793
 21
1.617169735012393
 31
0.0
  0
ARC
  5
2D9
330
2
100
AcDbEntity
  8
ADP1DETAIL
100
AcDbCircle
 10
13.58342026769793
 20
1.602169735012393
 30
0.0
 40
0.015
100
AcDbArc
 50
0.0
 51
90.0
  0
LINE
  5
2DA
330
2
100
AcDbEntity
  8
ADP1DETAIL
100
AcDbLine
 10
13.67476156263341
 20
1.916400707673955
 30
0.0
 11
13.73605719786361
 21
1.916400707673955
 31
0.0
  0
LINE
  5
2DB
330
2
100
AcDbEntity
  8
ADP1DETAIL
100
AcDbLine
 10
13.65976156263341
 20
1.931400707673955
 30
0.0
 11
13.65976156263341
 21
1.967113757338386
 31
0.0
  0
LINE
  5
2DC
330
2
100
AcDbEntity
  8
ADP1DETAIL
100
AcDbLine
 10
13.72807155637651
 20
1.433455068884119
 30
0.0
 11
13.61342026769793
 21
1.433455068884119
 31
0.0
  0
ARC
  5
2DD
330
2
100
AcDbEntity
  8
ADP1DETAIL
100
AcDbCircle
 10
13.61342026769793
 20
1.448455068884119
 30
0.0
 40
0.015
100
AcDbArc
 50
179.9999999999997
 51
270.0
  0
DIMENSION
  5
2DE
330
2
100
AcDbEntity
  8
ADPDIM
 62
     3
100
AcDbDimension
  2
*D10
 10
13.47675346779783
 20
1.425579404980824
 30
0.0
 11
12.94550346779783
 21
1.425579404980824
 31
0.0
 70
    32
 71
     5
 42
1.0625
  3
STANDARD
100
AcDbAlignedDimension
 13
12.41425346779783
 23
1.618865959541087
 33
0.0
 14
13.47675346779783
 24
1.618865959541087
 34
0.0
100
AcDbRotatedDimension
1001
ACAD
1000
DSTYLE
1002
{
1070
   276
1070
     2
1070
    41
1040
0.125
1070
    73
1070
     0
1070
    74
1070
     0
1070
    78
1070
     3
1070
   140
1040
0.125
1070
   141
1040
0.1875
1070
   142
1040
0.125
1070
   147
1040
0.125
1070
   171
1070
     1
1070
   273
1070
     5
1070
   274
1070
     1
1070
   277
1070
     5
1070
   279
1070
     2
1070
   284
1070
     3
1070
   285
1070
     3
1070
   286
1070
     3
1002
}
  0
ENDSEC
  0
SECTION
  2
OBJECTS
  0
DICTIONARY
  5
1B
330
0
100
AcDbDictionary
281
     1
  3
ACAD_COLOR
350
267
  3
ACAD_GROUP
350
19
  3
ACAD_LAYOUT
350
B8
  3
ACAD_MATERIAL
350
252
  3
ACAD_MLINESTYLE
350
1A
  3
ACAD_PLOTSETTINGS
350
B9
  3
ACAD_PLOTSTYLENAME
350
B6
  3
ACAD_TABLESTYLE
350
268
  3
ACAD_VISUALSTYLE
350
256
  3
AcDbVariableDictionary
350
135
  3
DWGPROPS
350
36B
  0
DICTIONARY
  5
120
330
2
100
AcDbDictionary
280
     1
281
     1
  3
ACAD_LAYOUTSELFREF
360
23F
  0
DICTIONARY
  5
122
330
8
100
AcDbDictionary
280
     1
281
     1
  3
ACAD_LAYOUTSELFREF
360
240
  0
DICTIONARY
  5
267
102
{ACAD_REACTORS
330
1B
102
}
330
1B
100
AcDbDictionary
281
     1
  0
DICTIONARY
  5
19
102
{ACAD_REACTORS
330
1B
102
}
330
1B
100
AcDbDictionary
281
     1
  0
DICTIONARY
  5
B8
102
{ACAD_REACTORS
330
1B
102
}
330
1B
100
AcDbDictionary
281
     1
  3
Layout1
350
BB
  3
Model
350
BA
  0
DICTIONARY
  5
252
102
{ACAD_REACTORS
330
1B
102
}
330
1B
100
AcDbDictionary
281
     1
  3
ByBlock
350
254
  3
ByLayer
350
253
  3
Global
350
255
  0
DICTIONARY
  5
1A
102
{ACAD_REACTORS
330
1B
102
}
330
1B
100
AcDbDictionary
281
     1
  3
STANDARD
350
1C
  0
DICTIONARY
  5
B9
102
{ACAD_REACTORS
330
1B
102
}
330
1B
100
AcDbDictionary
281
     1
  0
ACDBDICTIONARYWDFLT
  5
B6
102
{ACAD_REACTORS
330
1B
102
}
330
1B
100
AcDbDictionary
281
     1
  3
Normal
350
B7
100
AcDbDictionaryWithDefault
340
B7
  0
DICTIONARY
  5
268
102
{ACAD_REACTORS
330
1B
102
}
330
1B
100
AcDbDictionary
281
     1
  3
Standard
350
269
  0
DICTIONARY
  5
256
102
{ACAD_REACTORS
330
1B
102
}
330
1B
100
AcDbDictionary
281
     1
  3
2dWireframe
350
25C
  3
3D Hidden
350
25E
  3
3dWireframe
350
25D
  3
Basic
350
25B
  3
Brighten
350
262
  3
ColorChange
350
266
  3
Conceptual
350
25F
  3
Dim
350
261
  3
Facepattern
350
265
  3
Flat
350
257
  3
FlatWithEdges
350
258
  3
Gouraud
350
259
  3
GouraudWithEdges
350
25A
  3
Linepattern
350
264
  3
Realistic
350
260
  3
Thicken
350
263
  0
DICTIONARY
  5
135
102
{ACAD_REACTORS
330
1B
102
}
330
1B
100
AcDbDictionary
281
     1
  3
CTABLESTYLE
350
368
  3
DIMASSOC
350
136
  3
INDEXCTL
350
36A
  3
SORTENTS
350
369
  0
XRECORD
  5
36B
102
{ACAD_REACTORS
330
1B
102
}
330
1B
100
AcDbXrecord
280
     1
  1
DWGPROPS COOKIE
  2

  3

  4

  6

  7

  8
Yu Hu
  9

300
=
301
=
302
=
303
=
304
=
305
=
306
=
307
=
308
=
309
=
 40
0.0563543981481482
 41
2450364.055622871
 42
2453984.934401598
  1

 90
        0
  0
XRECORD
  5
23F
102
{ACAD_REACTORS
330
120
102
}
330
120
100
AcDbXrecord
280
     1
340
2
  0
XRECORD
  5
240
102
{ACAD_REACTORS
330
122
102
}
330
122
100
AcDbXrecord
280
     1
340
8
  0
LAYOUT
  5
BB
102
{ACAD_XDICTIONARY
360
36E
102
}
102
{ACAD_REACTORS
330
B8
102
}
330
B8
100
AcDbPlotSettings
  1

  2
Fax
  4

  6

 40
0.0
 41
0.0
 42
0.0
 43
0.0
 44
0.0
 45
0.0
 46
0.0
 47
0.0
 48
0.0
 49
0.0
140
0.0
141
0.0
142
1.0
143
1.0
 70
   688
 72
     0
 73
     0
 74
     5
  7
Default R14 pen assignments.ctb
 75
    16
147
1.0
148
0.0
149
0.0
100
AcDbLayout
  1
Layout1
 70
     1
 71
     1
 10
0.0
 20
0.0
 11
12.0
 21
9.0
 12
-1.038494034028074E+34
 22
0.0
 32
0.0
 14
1.000000000000000E+20
 24
1.000000000000000E+20
 34
1.000000000000000E+20
 15
-1.000000000000000E+20
 25
-1.000000000000000E+20
 35
-1.000000000000000E+20
146
0.0
 13
0.0
 23
0.0
 33
0.0
 16
1.0
 26
0.0
 36
0.0
 17
0.0
 27
1.0
 37
0.0
 76
     0
330
8
  0
LAYOUT
  5
BA
102
{ACAD_XDICTIONARY
360
36C
102
}
102
{ACAD_REACTORS
330
B8
102
}
330
B8
100
AcDbPlotSettings
  1

  2
Fax
  4

  6

 40
0.0
 41
0.0
 42
0.0
 43
0.0
 44
0.0
 45
0.0
 46
0.0
 47
0.0
 48
0.0
 49
0.0
140
0.0
141
0.0
142
1.0
143
1.0
 70
  1712
 72
     0
 73
     0
 74
     0
  7
Default R14 pen assignments.ctb
 75
     0
147
1.0
148
0.0
149
0.0
100
AcDbLayout
  1
Model
 70
     1
 71
     0
 10
0.0
 20
0.0
 11
12.0
 21
9.0
 12
0.0
 22
0.0
 32
0.0
 14
0.0
 24
0.0
 34
0.0
 15
0.0
 25
0.0
 35
0.0
146
0.0
 13
0.0
 23
0.0
 33
0.0
 16
1.0
 26
0.0
 36
0.0
 17
0.0
 27
1.0
 37
0.0
 76
     0
330
2
331
21B
  0
MATERIAL
  5
254
102
{ACAD_XDICTIONARY
360
372
102
}
102
{ACAD_REACTORS
330
252
102
}
330
252
100
AcDbMaterial
  1
ByBlock
  0
MATERIAL
  5
253
102
{ACAD_XDICTIONARY
360
370
102
}
102
{ACAD_REACTORS
330
252
102
}
330
252
100
AcDbMaterial
  1
ByLayer
  0
MATERIAL
  5
255
102
{ACAD_XDICTIONARY
360
374
102
}
102
{ACAD_REACTORS
330
252
102
}
330
252
100
AcDbMaterial
  1
Global
  0
MLINESTYLE
  5
1C
102
{ACAD_REACTORS
330
1A
102
}
330
1A
100
AcDbMlineStyle
  2
STANDARD
 70
     0
  3

 62
     0
 51
90.0
 52
90.0
 71
     2
 49
0.5
 62
   256
  6
BYLAYER
 49
-0.5
 62
   256
  6
BYLAYER
  0
ACDBPLACEHOLDER
  5
B7
102
{ACAD_REACTORS
330
B6
102
}
330
B6
  0
TABLESTYLE
  5
269
102
{ACAD_XDICTIONARY
360
376
102
}
102
{ACAD_REACTORS
330
268
102
}
330
268
100
AcDbTableStyle
  3
Standard
 70
     0
 71
     0
 40
0.06
 41
0.06
280
     0
281
     0
  7
STANDARD
140
0.18
170
     2
 62
     0
 63
     7
283
     0
274
    -2
284
     1
 64
     0
275
    -2
285
     1
 65
     0
276
    -2
286
     1
 66
     0
277
    -2
287
     1
 67
     0
278
    -2
288
     1
 68
     0
279
    -2
289
     1
 69
     0
  7
STANDARD
140
0.25
170
     5
 62
     0
 63
     7
283
     0
274
    -2
284
     1
 64
     0
275
    -2
285
     1
 65
     0
276
    -2
286
     1
 66
     0
277
    -2
287
     1
 67
     0
278
    -2
288
     1
 68
     0
279
    -2
289
     1
 69
     0
  7
STANDARD
140
0.18
170
     5
 62
     0
 63
     7
283
     0
274
    -2
284
     1
 64
     0
275
    -2
285
     1
 65
     0
276
    -2
286
     1
 66
     0
277
    -2
287
     1
 67
     0
278
    -2
288
     1
 68
     0
279
    -2
289
     1
 69
     0
  0
VISUALSTYLE
  5
25C
102
{ACAD_REACTORS
330
256
102
}
330
256
100
AcDbVisualStyle
  2
2dWireframe
 70
     4
 71
     0
 72
     2
 73
     0
 90
        0
 40
-0.6
 41
-30.0
 62
     5
 63
     7
 74
     1
 91
        4
 64
     7
 65
   257
 75
     1
175
     1
 42
1.0
 92
        0
 66
   257
 43
1.0
 76
     1
 77
     6
 78
     2
 67
     7
 79
     5
170
     0
171
     0
290
     0
174
     0
 93
        1
 44
0.0
173
     0
291
     0
 45
0.0
1001
ACAD
1000
AcDbSavedByObjectVersion
1070
     0
  0
VISUALSTYLE
  5
25E
102
{ACAD_REACTORS
330
256
102
}
330
256
100
AcDbVisualStyle
  2
3D Hidden
 70
     6
 71
     1
 72
     2
 73
     2
 90
        0
 40
-0.6
 41
-30.0
 62
     5
 63
     7
 74
     2
 91
        2
 64
     7
 65
   257
 75
     2
175
     1
 42
40.0
 92
        0
 66
   257
 43
1.0
 76
     1
 77
     6
 78
     2
 67
     7
 79
     3
170
     0
171
     0
290
     0
174
     0
 93
        1
 44
0.0
173
     0
291
     0
 45
0.0
1001
ACAD
1000
AcDbSavedByObjectVersion
1070
     0
  0
VISUALSTYLE
  5
25D
102
{ACAD_REACTORS
330
256
102
}
330
256
100
AcDbVisualStyle
  2
3dWireframe
 70
     5
 71
     0
 72
     2
 73
     0
 90
        0
 40
-0.6
 41
-30.0
 62
     5
 63
     7
 74
     1
 91
        4
 64
     7
 65
   257
 75
     1
175
     1
 42
1.0
 92
        0
 66
   257
 43
1.0
 76
     1
 77
     6
 78
     2
 67
     7
 79
     5
170
     0
171
     0
290
     0
174
     0
 93
        1
 44
0.0
173
     0
291
     0
 45
0.0
1001
ACAD
1000
AcDbSavedByObjectVersion
1070
     0
  0
VISUALSTYLE
  5
25B
102
{ACAD_REACTORS
330
256
102
}
330
256
100
AcDbVisualStyle
  2
Basic
 70
     7
 71
     1
 72
     0
 73
     1
 90
        0
 40
-0.6
 41
-30.0
 62
     5
 63
     7
 74
     0
 91
        4
 64
     7
 65
   257
 75
     1
175
     1
 42
1.0
 92
        8
 66
     7
 43
1.0
 76
     1
 77
     6
 78
     2
 67
     7
 79
     5
170
     0
171
     0
290
     0
174
     0
 93
        1
 44
0.0
173
     0
291
     1
 45
0.0
1001
ACAD
1000
AcDbSavedByObjectVersion
1070
     0
  0
VISUALSTYLE
  5
262
102
{ACAD_REACTORS
330
256
102
}
330
256
100
AcDbVisualStyle
  2
Brighten
 70
    12
 71
     2
 72
     2
 73
     0
 90
        0
 40
-0.6
 41
-30.0
 62
     5
 63
     7
 74
     1
 91
        4
 64
     7
 65
   257
 75
     1
175
     1
 42
1.0
 92
        8
 66
     7
 43
1.0
 76
     1
 77
     6
 78
     2
 67
     7
 79
     5
170
     0
171
     0
290
     0
174
     0
 93
        1
 44
50.0
173
     0
291
     1
 45
0.0
1001
ACAD
1000
AcDbSavedByObjectVersion
1070
     0
  0
VISUALSTYLE
  5
266
102
{ACAD_REACTORS
330
256
102
}
330
256
100
AcDbVisualStyle
  2
ColorChange
 70
    16
 71
     2
 72
     2
 73
     3
 90
        0
 40
-0.6
 41
-30.0
 62
     5
 63
     8
 74
     1
 91
        4
 64
     7
 65
   257
 75
     1
175
     1
 42
1.0
 92
        8
 66
     8
 43
1.0
 76
     1
 77
     6
 78
     2
 67
     7
 79
     5
170
     0
171
     0
290
     0
174
     0
 93
        1
 44
0.0
173
     0
291
     1
 45
0.0
1001
ACAD
1000
AcDbSavedByObjectVersion
1070
     0
  0
VISUALSTYLE
  5
25F
102
{ACAD_REACTORS
330
256
102
}
330
256
100
AcDbVisualStyle
  2
Conceptual
 70
     9
 71
     3
 72
     2
 73
     0
 90
        0
 40
-0.6
 41
-30.0
 62
     5
 63
     7
 74
     2
 91
        2
 64
     7
 65
   257
 75
     1
175
     1
 42
40.0
 92
        8
 66
     7
 43
1.0
 76
     1
 77
     6
 78
     2
 67
     7
 79
     3
170
     0
171
     0
290
     0
174
     0
 93
        1
 44
0.0
173
     0
291
     0
 45
0.0
1001
ACAD
1000
AcDbSavedByObjectVersion
1070
     0
  0
VISUALSTYLE
  5
261
102
{ACAD_REACTORS
330
256
102
}
330
256
100
AcDbVisualStyle
  2
Dim
 70
    11
 71
     2
 72
     2
 73
     0
 90
        0
 40
-0.6
 41
-30.0
 62
     5
 63
     7
 74
     1
 91
        4
 64
     7
 65
   257
 75
     1
175
     1
 42
1.0
 92
        8
 66
     7
 43
1.0
 76
     1
 77
     6
 78
     2
 67
     7
 79
     5
170
     0
171
     0
290
     0
174
     0
 93
        1
 44
-50.0
173
     0
291
     1
 45
0.0
1001
ACAD
1000
AcDbSavedByObjectVersion
1070
     0
  0
VISUALSTYLE
  5
265
102
{ACAD_REACTORS
330
256
102
}
330
256
100
AcDbVisualStyle
  2
Facepattern
 70
    15
 71
     2
 72
     2
 73
     0
 90
        0
 40
-0.6
 41
-30.0
 62
     5
 63
     7
 74
     1
 91
        4
 64
     7
 65
   257
 75
     1
175
     1
 42
1.0
 92
        8
 66
     7
 43
1.0
 76
     1
 77
     6
 78
     2
 67
     7
 79
     5
170
     0
171
     0
290
     0
174
     0
 93
        1
 44
0.0
173
     0
291
     1
 45
0.0
1001
ACAD
1000
AcDbSavedByObjectVersion
1070
     0
  0
VISUALSTYLE
  5
257
102
{ACAD_REACTORS
330
256
102
}
330
256
100
AcDbVisualStyle
  2
Flat
 70
     0
 71
     2
 72
     1
 73
     1
 90
        2
 40
-0.6
 41
30.0
 62
     5
 63
     7
 74
     0
 91
        4
 64
     7
 65
   257
 75
     1
175
     1
 42
1.0
 92
        8
 66
     7
 43
1.0
 76
     1
 77
     6
 78
     2
 67
     7
 79
     5
170
     0
171
     0
290
     0
174
     0
 93
       13
 44
0.0
173
     0
291
     1
 45
0.0
1001
ACAD
1000
AcDbSavedByObjectVersion
1070
     0
  0
VISUALSTYLE
  5
258
102
{ACAD_REACTORS
330
256
102
}
330
256
100
AcDbVisualStyle
  2
FlatWithEdges
 70
     1
 71
     2
 72
     1
 73
     1
 90
        2
 40
-0.6
 41
30.0
 62
     5
 63
     7
 74
     1
 91
        4
 64
     7
 65
   257
 75
     1
175
     1
 42
1.0
 92
        0
 66
   257
 43
1.0
 76
     1
 77
     6
 78
     2
 67
     7
 79
     5
170
     0
171
     0
290
     0
174
     0
 93
       13
 44
0.0
173
     0
291
     1
 45
0.0
1001
ACAD
1000
AcDbSavedByObjectVersion
1070
     0
  0
VISUALSTYLE
  5
259
102
{ACAD_REACTORS
330
256
102
}
330
256
100
AcDbVisualStyle
  2
Gouraud
 70
     2
 71
     2
 72
     2
 73
     1
 90
        2
 40
-0.6
 41
30.0
 62
     5
 63
     7
 74
     0
 91
        4
 64
     7
 65
   257
 75
     1
175
     1
 42
1.0
 92
        0
 66
     7
 43
1.0
 76
     1
 77
     6
 78
     2
 67
     7
 79
     5
170
     0
171
     0
290
     0
174
     0
 93
       13
 44
0.0
173
     0
291
     1
 45
0.0
1001
ACAD
1000
AcDbSavedByObjectVersion
1070
     0
  0
VISUALSTYLE
  5
25A
102
{ACAD_REACTORS
330
256
102
}
330
256
100
AcDbVisualStyle
  2
GouraudWithEdges
 70
     3
 71
     2
 72
     2
 73
     1
 90
        2
 40
-0.6
 41
30.0
 62
     5
 63
     7
 74
     1
 91
        4
 64
     7
 65
   257
 75
     1
175
     1
 42
1.0
 92
        0
 66
   257
 43
1.0
 76
     1
 77
     6
 78
     2
 67
     7
 79
     5
170
     0
171
     0
290
     0
174
     0
 93
       13
 44
0.0
173
     0
291
     1
 45
0.0
1001
ACAD
1000
AcDbSavedByObjectVersion
1070
     0
  0
VISUALSTYLE
  5
264
102
{ACAD_REACTORS
330
256
102
}
330
256
100
AcDbVisualStyle
  2
Linepattern
 70
    14
 71
     2
 72
     2
 73
     0
 90
        0
 40
-0.6
 41
-30.0
 62
     5
 63
     7
 74
     1
 91
        4
 64
     7
 65
   257
 75
     7
175
     7
 42
1.0
 92
        8
 66
     7
 43
1.0
 76
     1
 77
     6
 78
     2
 67
     7
 79
     5
170
     0
171
     0
290
     0
174
     0
 93
        1
 44
0.0
173
     0
291
     1
 45
0.0
1001
ACAD
1000
AcDbSavedByObjectVersion
1070
     0
  0
VISUALSTYLE
  5
260
102
{ACAD_REACTORS
330
256
102
}
330
256
100
AcDbVisualStyle
  2
Realistic
 70
     8
 71
     2
 72
     2
 73
     0
 90
        0
 40
-0.6
 41
-30.0
 62
     5
 63
     7
 74
     1
 91
        0
 64
     7
 65
   257
 75
     1
175
     1
 42
1.0
 92
        8
 66
     8
 43
1.0
 76
     1
 77
     6
 78
     2
 67
     7
 79
     5
170
     0
171
     0
290
     0
174
     0
 93
       13
 44
0.0
173
     0
291
     0
 45
0.0
1001
ACAD
1000
AcDbSavedByObjectVersion
1070
     0
  0
VISUALSTYLE
  5
263
102
{ACAD_REACTORS
330
256
102
}
330
256
100
AcDbVisualStyle
  2
Thicken
 70
    13
 71
     2
 72
     2
 73
     0
 90
        0
 40
-0.6
 41
-30.0
 62
     5
 63
     7
 74
     1
 91
        4
 64
     7
 65
   257
 75
     1
175
     1
 42
1.0
 92
       12
 66
     7
 43
1.0
 76
     1
 77
     6
 78
     2
 67
     7
 79
     5
170
     0
171
     0
290
     0
174
     0
 93
        1
 44
0.0
173
     0
291
     1
 45
0.0
1001
ACAD
1000
AcDbSavedByObjectVersion
1070
     0
  0
DICTIONARYVAR
  5
368
102
{ACAD_REACTORS
330
135
102
}
330
135
100
DictionaryVariables
280
     0
  1
STANDARD
  0
DICTIONARYVAR
  5
136
102
{ACAD_REACTORS
330
135
102
}
330
135
100
DictionaryVariables
280
     0
  1
1
  0
DICTIONARYVAR
  5
36A
102
{ACAD_REACTORS
330
135
102
}
330
135
100
DictionaryVariables
280
     0
  1
0
  0
DICTIONARYVAR
  5
369
102
{ACAD_REACTORS
330
135
102
}
330
135
100
DictionaryVariables
280
     0
  1
127
  0
DICTIONARY
  5
36E
330
BB
100
AcDbDictionary
280
     1
281
     1
  3
ACAD_XREC_ROUNDTRIP
360
36F
  0
DICTIONARY
  5
36C
330
BA
100
AcDbDictionary
280
     1
281
     1
  3
ACAD_XREC_ROUNDTRIP
360
36D
  0
DICTIONARY
  5
372
330
254
100
AcDbDictionary
280
     1
281
     1
  3
ACAD_XREC_ROUNDTRIP
360
373
  0
DICTIONARY
  5
370
330
253
100
AcDbDictionary
280
     1
281
     1
  3
ACAD_XREC_ROUNDTRIP
360
371
  0
DICTIONARY
  5
374
330
255
100
AcDbDictionary
280
     1
281
     1
  3
ACAD_XREC_ROUNDTRIP
360
375
  0
DICTIONARY
  5
376
330
269
100
AcDbDictionary
280
     1
281
     1
  3
ACAD_XREC_ROUNDTRIP
360
377
  0
XRECORD
  5
36F
102
{ACAD_REACTORS
330
36E
102
}
330
36E
100
AcDbXrecord
280
     1
102
SHADEPLOT
 70
     0
102
SHADEPLOTRESLEVEL
 70
     2
102
SHADEPLOTCUSTOMDPI
 70
   300
  0
XRECORD
  5
36D
102
{ACAD_REACTORS
330
36C
102
}
330
36C
100
AcDbXrecord
280
     1
102
SHADEPLOT
 70
     0
102
SHADEPLOTRESLEVEL
 70
     2
102
SHADEPLOTCUSTOMDPI
 70
   300
  0
XRECORD
  5
373
102
{ACAD_REACTORS
330
372
102
}
330
372
100
AcDbXrecord
280
     1
102
MATERIAL
148
0.0
149
0.0
149
0.0
 93
        0
 94
       63
282
     0
 72
     1
 77
     1
171
     1
175
     1
179
     1
273
     0
  0
XRECORD
  5
371
102
{ACAD_REACTORS
330
370
102
}
330
370
100
AcDbXrecord
280
     1
102
MATERIAL
148
0.0
149
0.0
149
0.0
 93
        0
 94
       63
282
     0
 72
     1
 77
     1
171
     1
175
     1
179
     1
273
     0
  0
XRECORD
  5
375
102
{ACAD_REACTORS
330
374
102
}
330
374
100
AcDbXrecord
280
     1
102
MATERIAL
148
0.0
149
0.0
149
0.0
 93
        0
 94
       63
282
     0
 72
     1
 77
     1
171
     1
175
     1
179
     1
273
     0
  0
XRECORD
  5
377
102
{ACAD_REACTORS
330
376
102
}
330
376
100
AcDbXrecord
280
     1
102
ACAD_ROUNDTRIP_PRE2007_TABLESTYLE
 90
      512
 91
        0
  1

 92
      512
 93
        0
  2

 94
      512
 95
        0
  3

  0
ENDSEC
  0
EOF
