  0
SECTION
  2
HEADER
  9
$ACADVER
  1
AC1015
  9
$ACADMAINTVER
 70
    20
  9
$DWGCODEPAGE
  3
ANSI_1252
  9
$INSBASE
 10
13.79006289895888
 20
8.178051398523814
 30
0.0
  9
$EXTMIN
 10
0.2433472520710751
 20
-1.859895007817044
 30
-0.0015258207003583
  9
$EXTMAX
 10
26.98132331550741
 20
12.99221981353659
 30
0.0000000349246037
  9
$LIMMIN
 10
0.0
 20
0.0
  9
$LIMMAX
 10
36.0
 20
36.0
  9
$ORTHOMODE
 70
     1
  9
$REGENMODE
 70
     1
  9
$FILLMODE
 70
     1
  9
$QTEXTMODE
 70
     0
  9
$MIRRTEXT
 70
     1
  9
$LTSCALE
 40
1.0
  9
$ATTMODE
 70
     1
  9
$TEXTSIZE
 40
0.2
  9
$TRACEWID
 40
0.05
  9
$TEXTSTYLE
  7
STANDARD
  9
$CLAYER
  8
0
  9
$CELTYPE
  6
ByLayer
  9
$CECOLOR
 62
   256
  9
$CELTSCALE
 40
1.0
  9
$DISPSILH
 70
     0
  9
$DIMSCALE
 40
1.0
  9
$DIMASZ
 40
0.125
  9
$DIMEXO
 40
0.0625
  9
$DIMDLI
 40
0.38
  9
$DIMRND
 40
0.0
  9
$DIMDLE
 40
0.0
  9
$DIMEXE
 40
0.18
  9
$DIMTP
 40
0.0
  9
$DIMTM
 40
0.0
  9
$DIMTXT
 40
0.125
  9
$DIMCEN
 40
0.1875
  9
$DIMTSZ
 40
0.125
  9
$DIMTOL
 70
     0
  9
$DIMLIM
 70
     0
  9
$DIMTIH
 70
     0
  9
$DIMTOH
 70
     0
  9
$DIMSE1
 70
     0
  9
$DIMSE2
 70
     0
  9
$DIMTAD
 70
     0
  9
$DIMZIN
 70
     3
  9
$DIMBLK
  1

  9
$DIMASO
 70
     1
  9
$DIMSHO
 70
     1
  9
$DIMPOST
  1

  9
$DIMAPOST
  1

  9
$DIMALT
 70
     0
  9
$DIMALTD
 70
     1
  9
$DIMALTF
 40
25.4
  9
$DIMLFAC
 40
1.0
  9
$DIMTOFL
 70
     0
  9
$DIMTVP
 40
0.0
  9
$DIMTIX
 70
     0
  9
$DIMSOXD
 70
     0
  9
$DIMSAH
 70
     0
  9
$DIMBLK1
  1

  9
$DIMBLK2
  1

  9
$DIMSTYLE
  2
Standard
  9
$DIMCLRD
 70
     0
  9
$DIMCLRE
 70
     0
  9
$DIMCLRT
 70
     0
  9
$DIMTFAC
 40
1.0
  9
$DIMGAP
 40
0.125
  9
$DIMJUST
 70
     0
  9
$DIMSD1
 70
     0
  9
$DIMSD2
 70
     0
  9
$DIMTOLJ
 70
     1
  9
$DIMTZIN
 70
     3
  9
$DIMALTZ
 70
     3
  9
$DIMALTTZ
 70
     3
  9
$DIMUPT
 70
     0
  9
$DIMDEC
 70
     4
  9
$DIMTDEC
 70
     4
  9
$DIMALTU
 70
     5
  9
$DIMALTTD
 70
     1
  9
$DIMTXSTY
  7
STANDARD
  9
$DIMAUNIT
 70
     0
  9
$DIMADEC
 70
     0
  9
$DIMALTRND
 40
0.0
  9
$DIMAZIN
 70
     0
  9
$DIMDSEP
 70
    46
  9
$DIMATFIT
 70
     3
  9
$DIMFRAC
 70
     0
  9
$DIMLDRBLK
  1

  9
$DIMLUNIT
 70
     5
  9
$DIMLWD
 70
    -2
  9
$DIMLWE
 70
    -2
  9
$DIMTMOVE
 70
     2
  9
$LUNITS
 70
     5
  9
$LUPREC
 70
     4
  9
$SKETCHINC
 40
0.1
  9
$FILLETRAD
 40
0.187
  9
$AUNITS
 70
     0
  9
$AUPREC
 70
     0
  9
$MENU
  1
acad
  9
$ELEVATION
 40
0.0
  9
$PELEVATION
 40
0.0
  9
$THICKNESS
 40
0.0
  9
$LIMCHECK
 70
     0
  9
$CHAMFERA
 40
0.0
  9
$CHAMFERB
 40
0.0
  9
$CHAMFERC
 40
0.0
  9
$CHAMFERD
 40
0.0
  9
$SKPOLY
 70
     0
  9
$TDCREATE
 40
2450399.683882523
  9
$TDUCREATE
 40
2450399.850549190
  9
$TDUPDATE
 40
2453984.929503703
  9
$TDUUPDATE
 40
2453985.096170371
  9
$TDINDWG
 40
0.0351892708
  9
$TDUSRTIMER
 40
0.0351892708
  9
$USRTIMER
 70
     1
  9
$ANGBASE
 50
0.0
  9
$ANGDIR
 70
     0
  9
$PDMODE
 70
     0
  9
$PDSIZE
 40
0.0
  9
$PLINEWID
 40
0.0
  9
$SPLFRAME
 70
     0
  9
$SPLINETYPE
 70
     6
  9
$SPLINESEGS
 70
     8
  9
$HANDSEED
  5
478
  9
$SURFTAB1
 70
     6
  9
$SURFTAB2
 70
     6
  9
$SURFTYPE
 70
     6
  9
$SURFU
 70
     6
  9
$SURFV
 70
     6
  9
$UCSBASE
  2

  9
$UCSNAME
  2

  9
$UCSORG
 10
0.0
 20
0.0
 30
0.0
  9
$UCSXDIR
 10
1.0
 20
0.0
 30
0.0
  9
$UCSYDIR
 10
0.0
 20
1.0
 30
0.0
  9
$UCSORTHOREF
  2

  9
$UCSORTHOVIEW
 70
     0
  9
$UCSORGTOP
 10
0.0
 20
0.0
 30
0.0
  9
$UCSORGBOTTOM
 10
0.0
 20
0.0
 30
0.0
  9
$UCSORGLEFT
 10
0.0
 20
0.0
 30
0.0
  9
$UCSORGRIGHT
 10
0.0
 20
0.0
 30
0.0
  9
$UCSORGFRONT
 10
0.0
 20
0.0
 30
0.0
  9
$UCSORGBACK
 10
0.0
 20
0.0
 30
0.0
  9
$PUCSBASE
  2

  9
$PUCSNAME
  2

  9
$PUCSORG
 10
0.0
 20
0.0
 30
0.0
  9
$PUCSXDIR
 10
1.0
 20
0.0
 30
0.0
  9
$PUCSYDIR
 10
0.0
 20
1.0
 30
0.0
  9
$PUCSORTHOREF
  2

  9
$PUCSORTHOVIEW
 70
     0
  9
$PUCSORGTOP
 10
0.0
 20
0.0
 30
0.0
  9
$PUCSORGBOTTOM
 10
0.0
 20
0.0
 30
0.0
  9
$PUCSORGLEFT
 10
0.0
 20
0.0
 30
0.0
  9
$PUCSORGRIGHT
 10
0.0
 20
0.0
 30
0.0
  9
$PUCSORGFRONT
 10
0.0
 20
0.0
 30
0.0
  9
$PUCSORGBACK
 10
0.0
 20
0.0
 30
0.0
  9
$USERI1
 70
     0
  9
$USERI2
 70
     0
  9
$USERI3
 70
     0
  9
$USERI4
 70
     0
  9
$USERI5
 70
     0
  9
$USERR1
 40
0.0
  9
$USERR2
 40
0.0
  9
$USERR3
 40
0.0
  9
$USERR4
 40
0.0
  9
$USERR5
 40
0.0
  9
$WORLDVIEW
 70
     1
  9
$SHADEDGE
 70
     3
  9
$SHADEDIF
 70
    70
  9
$TILEMODE
 70
     1
  9
$MAXACTVP
 70
    15
  9
$PINSBASE
 10
0.0004882914945483
 20
0.7501408034022604
 30
0.0
  9
$PLIMCHECK
 70
     0
  9
$PEXTMIN
 10
1.000000000000000E+20
 20
1.000000000000000E+20
 30
1.000000000000000E+20
  9
$PEXTMAX
 10
-1.000000000000000E+20
 20
-1.000000000000000E+20
 30
-1.000000000000000E+20
  9
$PLIMMIN
 10
0.0
 20
0.0
  9
$PLIMMAX
 10
12.0
 20
9.0
  9
$UNITMODE
 70
     0
  9
$VISRETAIN
 70
     0
  9
$PLINEGEN
 70
     0
  9
$PSLTSCALE
 70
     1
  9
$TREEDEPTH
 70
  3020
  9
$CMLSTYLE
  2
Standard
  9
$CMLJUST
 70
     0
  9
$CMLSCALE
 40
1.0
  9
$PROXYGRAPHICS
 70
     1
  9
$MEASUREMENT
 70
     0
  9
$CELWEIGHT
370
    -1
  9
$ENDCAPS
280
     0
  9
$JOINSTYLE
280
     0
  9
$LWDISPLAY
290
     0
  9
$INSUNITS
 70
     0
  9
$HYPERLINKBASE
  1

  9
$STYLESHEET
  1

  9
$XEDIT
290
     1
  9
$CEPSNTYPE
380
     0
  9
$PSTYLEMODE
290
     1
  9
$FINGERPRINTGUID
  2
{8CE0EF24-6951-4348-8EEB-C17035EF50A9}
  9
$VERSIONGUID
  2
{AE66F229-A452-4110-8EFB-BC2A8B2C45C2}
  9
$EXTNAMES
290
     1
  9
$PSVPSCALE
 40
0.0
  9
$OLESTARTUP
290
     0
  0
ENDSEC
  0
SECTION
  2
CLASSES
  0
CLASS
  1
ACDBDICTIONARYWDFLT
  2
AcDbDictionaryWithDefault
  3
ObjectDBX Classes
 90
        0
280
     0
281
     0
  0
CLASS
  1
ACDBPLACEHOLDER
  2
AcDbPlaceHolder
  3
ObjectDBX Classes
 90
        0
280
     0
281
     0
  0
CLASS
  1
LAYOUT
  2
AcDbLayout
  3
ObjectDBX Classes
 90
        0
280
     0
281
     0
  0
CLASS
  1
DICTIONARYVAR
  2
AcDbDictionaryVar
  3
ObjectDBX Classes
 90
        0
280
     0
281
     0
  0
CLASS
  1
MATERIAL
  2
AcDbMaterial
  3
ObjectDBX Classes
 90
     1024
280
     0
281
     0
  0
CLASS
  1
VISUALSTYLE
  2
AcDbVisualStyle
  3
ObjectDBX Classes
 90
     4095
280
     0
281
     0
  0
CLASS
  1
TABLESTYLE
  2
AcDbTableStyle
  3
ObjectDBX Classes
 90
     4095
280
     0
281
     0
  0
ENDSEC
  0
SECTION
  2
TABLES
  0
TABLE
  2
VPORT
  5
8
330
0
100
AcDbSymbolTable
 70
     1
  0
VPORT
  5
345
330
8
100
AcDbSymbolTableRecord
100
AcDbViewportTableRecord
  2
*Active
 70
     0
 10
0.0
 20
0.0
 11
1.0
 21
1.0
 12
13.61233528378924
 22
5.566162402859774
 13
0.0
 23
0.0
 14
0.5740882589684922
 24
0.5740882589684922
 15
0.5
 25
0.5
 16
0.0
 26
0.0
 36
1.0
 17
0.0
 27
0.0
 37
0.0
 40
15.58406583518004
 41
1.726930320150659
 42
50.0
 43
0.0
 44
0.0
 50
0.0
 51
0.0
 71
     0
 72
   100
 73
     1
 74
     0
 75
     0
 76
     0
 77
     0
 78
     0
281
     0
 65
     1
110
0.0
120
0.0
130
0.0
111
1.0
121
0.0
131
0.0
112
0.0
122
1.0
132
0.0
 79
     0
146
0.0
  0
ENDTAB
  0
TABLE
  2
LTYPE
  5
5
330
0
100
AcDbSymbolTable
 70
     1
  0
LTYPE
  5
13
330
5
100
AcDbSymbolTableRecord
100
AcDbLinetypeTableRecord
  2
ByBlock
 70
     0
  3

 72
    65
 73
     0
 40
0.0
  0
LTYPE
  5
14
330
5
100
AcDbSymbolTableRecord
100
AcDbLinetypeTableRecord
  2
ByLayer
 70
     0
  3

 72
    65
 73
     0
 40
0.0
  0
LTYPE
  5
15
330
5
100
AcDbSymbolTableRecord
100
AcDbLinetypeTableRecord
  2
CONTINUOUS
 70
     0
  3
Solid line
 72
    65
 73
     0
 40
0.0
  0
ENDTAB
  0
TABLE
  2
LAYER
  5
2
330
0
100
AcDbSymbolTable
 70
     4
  0
LAYER
  5
10
330
2
100
AcDbSymbolTableRecord
100
AcDbLayerTableRecord
  2
0
 70
     0
 62
     7
  6
CONTINUOUS
370
    -3
390
F
  0
LAYER
  5
101
330
2
100
AcDbSymbolTableRecord
100
AcDbLayerTableRecord
  2
ADP1DETAIL
 70
     0
 62
     7
  6
CONTINUOUS
370
    -3
390
F
  0
LAYER
  5
103
330
2
100
AcDbSymbolTableRecord
100
AcDbLayerTableRecord
  2
DEFPOINTS
 70
     0
 62
     7
  6
CONTINUOUS
290
     0
370
    -3
390
F
  0
LAYER
  5
106
330
2
100
AcDbSymbolTableRecord
100
AcDbLayerTableRecord
  2
ADPDIM
 70
     0
 62
     3
  6
CONTINUOUS
370
    -3
390
F
  0
ENDTAB
  0
TABLE
  2
STYLE
  5
3
330
0
100
AcDbSymbolTable
 70
     2
  0
STYLE
  5
11
330
3
100
AcDbSymbolTableRecord
100
AcDbTextStyleTableRecord
  2
STANDARD
 70
     0
 40
0.0
 41
1.0
 50
0.0
 71
     0
 42
0.2
  3
txt
  4

  0
STYLE
  5
1EC
330
3
100
AcDbSymbolTableRecord
100
AcDbTextStyleTableRecord
  2
ARIAL_WIDE
 70
     0
 40
0.0
 41
1.25
 50
0.0
 71
     0
 42
0.2
  3
ARIAL.TTF
  4

1001
ACAD
1000
Arial
1071
       34
  0
ENDTAB
  0
TABLE
  2
VIEW
  5
6
330
0
100
AcDbSymbolTable
 70
     0
  0
ENDTAB
  0
TABLE
  2
UCS
  5
7
330
0
100
AcDbSymbolTable
 70
     0
  0
ENDTAB
  0
TABLE
  2
APPID
  5
9
330
0
100
AcDbSymbolTable
 70
     1
  0
APPID
  5
12
330
9
100
AcDbSymbolTableRecord
100
AcDbRegAppTableRecord
  2
ACAD
 70
     0
  0
ENDTAB
  0
TABLE
  2
DIMSTYLE
  5
A
330
0
100
AcDbSymbolTable
 70
     1
100
AcDbDimStyleTable
 71
     0
  0
DIMSTYLE
105
1EA
102
{ACAD_REACTORS
330
3E6
330
3E9
330
408
102
}
330
A
100
AcDbSymbolTableRecord
100
AcDbDimStyleTableRecord
  2
Standard
 70
     0
340
11
  0
ENDTAB
  0
TABLE
  2
BLOCK_RECORD
  5
1
330
0
100
AcDbSymbolTable
 70
    12
  0
BLOCK_RECORD
  5
1E
102
{ACAD_XDICTIONARY
360
229
102
}
330
1
100
AcDbSymbolTableRecord
100
AcDbBlockTableRecord
  2
*Model_Space
340
21
  0
BLOCK_RECORD
  5
1A
102
{ACAD_XDICTIONARY
360
22B
102
}
330
1
100
AcDbSymbolTableRecord
100
AcDbBlockTableRecord
  2
*Paper_Space
340
1D
  0
BLOCK_RECORD
  5
F9
330
1
100
AcDbSymbolTableRecord
100
AcDbBlockTableRecord
  2
*D0
340
0
  0
BLOCK_RECORD
  5
FA
330
1
100
AcDbSymbolTableRecord
100
AcDbBlockTableRecord
  2
*D1
340
0
  0
BLOCK_RECORD
  5
FB
330
1
100
AcDbSymbolTableRecord
100
AcDbBlockTableRecord
  2
*D2
340
0
  0
BLOCK_RECORD
  5
FC
330
1
100
AcDbSymbolTableRecord
100
AcDbBlockTableRecord
  2
*D3
340
0
  0
BLOCK_RECORD
  5
FD
330
1
100
AcDbSymbolTableRecord
100
AcDbBlockTableRecord
  2
*D4
340
0
  0
BLOCK_RECORD
  5
397
330
1
100
AcDbSymbolTableRecord
100
AcDbBlockTableRecord
  2
*D5
340
0
  0
BLOCK_RECORD
  5
3A4
330
1
100
AcDbSymbolTableRecord
100
AcDbBlockTableRecord
  2
*D6
340
0
  0
BLOCK_RECORD
  5
3B1
330
1
100
AcDbSymbolTableRecord
100
AcDbBlockTableRecord
  2
*D7
340
0
  0
BLOCK_RECORD
  5
409
330
1
100
AcDbSymbolTableRecord
100
AcDbBlockTableRecord
  2
*D9
340
0
  0
BLOCK_RECORD
  5
416
330
1
100
AcDbSymbolTableRecord
100
AcDbBlockTableRecord
  2
*D10
340
0
  0
BLOCK_RECORD
  5
423
330
1
100
AcDbSymbolTableRecord
100
AcDbBlockTableRecord
  2
*D11
340
0
  0
ENDTAB
  0
ENDSEC
  0
SECTION
  2
BLOCKS
  0
BLOCK
  5
109
330
1E
100
AcDbEntity
  8
0
100
AcDbBlockBegin
  2
*Model_Space
 70
     0
 10
0.0
 20
0.0
 30
0.0
  3
*Model_Space
  1

  0
ENDBLK
  5
10A
330
1E
100
AcDbEntity
  8
0
100
AcDbBlockEnd
  0
BLOCK
  5
107
330
1A
100
AcDbEntity
 67
     1
  8
0
100
AcDbBlockBegin
  2
*Paper_Space
 70
     0
 10
0.0
 20
0.0
 30
0.0
  3
*Paper_Space
  1

  0
ENDBLK
  5
108
330
1A
100
AcDbEntity
 67
     1
  8
0
100
AcDbBlockEnd
  0
BLOCK
  5
10C
330
F9
100
AcDbEntity
  8
0
100
AcDbBlockBegin
  2
*D0
 70
     1
 10
0.0
 20
0.0
 30
0.0
  3
*D0
  1

  0
LINE
  5
10D
330
F9
100
AcDbEntity
  8
0
  6
ByBlock
 62
     0
100
AcDbLine
 10
12.16481289895888
 20
6.378409918200206
 30
0.0
 11
12.16481289895888
 21
6.056266773199558
 31
0.0
  0
LINE
  5
10E
330
F9
100
AcDbEntity
  8
0
  6
ByBlock
 62
     0
100
AcDbLine
 10
13.47781289895887
 20
6.378409918200206
 30
0.0
 11
13.47781289895887
 21
6.056266773199558
 31
0.0
  0
LINE
  5
10F
330
F9
100
AcDbEntity
  8
0
  6
ByBlock
 62
     0
100
AcDbLine
 10
12.16481289895888
 20
6.236266773199558
 30
0.0
 11
11.91481289895888
 21
6.236266773199558
 31
0.0
  0
LINE
  5
110
330
F9
100
AcDbEntity
  8
0
  6
ByBlock
 62
     0
100
AcDbLine
 10
13.47781289895887
 20
6.236266773199558
 30
0.0
 11
13.72781289895887
 21
6.236266773199558
 31
0.0
  0
LINE
  5
111
330
F9
100
AcDbEntity
  8
0
  6
ByBlock
 62
     0
100
AcDbLine
 10
12.03981289895888
 20
6.111266773199558
 30
0.0
 11
12.28981289895888
 21
6.361266773199558
 31
0.0
  0
LINE
  5
112
330
F9
100
AcDbEntity
  8
0
  6
ByBlock
 62
     0
100
AcDbLine
 10
13.35281289895887
 20
6.111266773199558
 30
0.0
 11
13.60281289895887
 21
6.361266773199558
 31
0.0
  0
TEXT
  5
113
330
F9
100
AcDbEntity
  8
0
  6
ByBlock
 62
     0
100
AcDbText
 10
13.85281289895887
 20
6.173766773199558
 30
0.0
 40
0.125
  1
1 5/16
 72
     1
 11
14.16531289895887
 21
6.236266773199558
 31
0.0
100
AcDbText
 73
     2
  0
POINT
  5
115
330
F9
100
AcDbEntity
  8
DEFPOINTS
  6
ByBlock
 62
     0
100
AcDbPoint
 10
12.16481289895888
 20
6.440909918200206
 30
0.0
  0
POINT
  5
116
330
F9
100
AcDbEntity
  8
DEFPOINTS
  6
ByBlock
 62
     0
100
AcDbPoint
 10
13.47781289895887
 20
6.440909918200206
 30
0.0
  0
POINT
  5
117
330
F9
100
AcDbEntity
  8
DEFPOINTS
  6
ByBlock
 62
     0
100
AcDbPoint
 10
13.47781289895887
 20
6.236266773199558
 30
0.0
  0
ENDBLK
  5
118
330
F9
100
AcDbEntity
  8
0
100
AcDbBlockEnd
  0
BLOCK
  5
119
330
FA
100
AcDbEntity
  8
0
100
AcDbBlockBegin
  2
*D1
 70
     1
 10
0.0
 20
0.0
 30
0.0
  3
*D1
  1

  0
LINE
  5
11A
330
FA
100
AcDbEntity
  8
0
  6
ByBlock
 62
     0
100
AcDbLine
 10
11.54006289895888
 20
0.4668360378079086
 30
0.0
 11
11.54006289895888
 21
-0.5053608738022446
 31
0.0
  0
LINE
  5
11B
330
FA
100
AcDbEntity
  8
0
  6
ByBlock
 62
     0
100
AcDbLine
 10
14.10256289895888
 20
0.4668360378079086
 30
0.0
 11
14.10256289895888
 21
-0.5053608738022446
 31
0.0
  0
LINE
  5
11C
330
FA
100
AcDbEntity
  8
0
  6
ByBlock
 62
     0
100
AcDbLine
 10
11.54006289895888
 20
-0.3253608738022446
 30
0.0
 11
12.36297956562554
 21
-0.3253608738022446
 31
0.0
  0
LINE
  5
11D
330
FA
100
AcDbEntity
  8
0
  6
ByBlock
 62
     0
100
AcDbLine
 10
14.10256289895888
 20
-0.3253608738022446
 30
0.0
 11
13.27964623229221
 21
-0.3253608738022446
 31
0.0
  0
LINE
  5
11E
330
FA
100
AcDbEntity
  8
0
  6
ByBlock
 62
     0
100
AcDbLine
 10
11.41506289895888
 20
-0.4503608738022447
 30
0.0
 11
11.66506289895888
 21
-0.2003608738022446
 31
0.0
  0
LINE
  5
11F
330
FA
100
AcDbEntity
  8
0
  6
ByBlock
 62
     0
100
AcDbLine
 10
13.97756289895888
 20
-0.4503608738022447
 30
0.0
 11
14.22756289895888
 21
-0.2003608738022446
 31
0.0
  0
TEXT
  5
120
330
FA
100
AcDbEntity
  8
0
  6
ByBlock
 62
     0
100
AcDbText
 10
12.48797956562554
 20
-0.3878608738022446
 30
0.0
 40
0.125
  1
2 9/16
 72
     1
 11
12.82131289895888
 21
-0.3253608738022446
 31
0.0
100
AcDbText
 73
     2
  0
POINT
  5
121
330
FA
100
AcDbEntity
  8
DEFPOINTS
  6
ByBlock
 62
     0
100
AcDbPoint
 10
11.54006289895888
 20
0.5293360378079086
 30
0.0
  0
POINT
  5
122
330
FA
100
AcDbEntity
  8
DEFPOINTS
  6
ByBlock
 62
     0
100
AcDbPoint
 10
14.10256289895888
 20
0.5293360378079086
 30
0.0
  0
POINT
  5
123
330
FA
100
AcDbEntity
  8
DEFPOINTS
  6
ByBlock
 62
     0
100
AcDbPoint
 10
14.10256289895888
 20
-0.3253608738022446
 30
0.0
  0
ENDBLK
  5
124
330
FA
100
AcDbEntity
  8
0
100
AcDbBlockEnd
  0
BLOCK
  5
125
330
FB
100
AcDbEntity
  8
0
100
AcDbBlockBegin
  2
*D2
 70
     1
 10
0.0
 20
0.0
 30
0.0
  3
*D2
  1

  0
LINE
  5
126
330
FB
100
AcDbEntity
  8
0
  6
ByBlock
 62
     0
100
AcDbLine
 10
11.16506289895888
 20
12.86555139852381
 30
0.0
 11
10.25790373246715
 21
12.86555139852381
 31
0.0
  0
LINE
  5
127
330
FB
100
AcDbEntity
  8
0
  6
ByBlock
 62
     0
100
AcDbLine
 10
11.16506289895888
 20
9.678051398523813
 30
0.0
 11
10.25790373246715
 21
9.678051398523813
 31
0.0
  0
LINE
  5
128
330
FB
100
AcDbEntity
  8
0
  6
ByBlock
 62
     0
100
AcDbLine
 10
10.43790373246715
 20
12.86555139852381
 30
0.0
 11
10.43790373246715
 21
11.73013473185714
 31
0.0
  0
LINE
  5
129
330
FB
100
AcDbEntity
  8
0
  6
ByBlock
 62
     0
100
AcDbLine
 10
10.43790373246715
 20
9.678051398523813
 30
0.0
 11
10.43790373246715
 21
10.81346806519048
 31
0.0
  0
LINE
  5
12A
330
FB
100
AcDbEntity
  8
0
  6
ByBlock
 62
     0
100
AcDbLine
 10
10.56290373246715
 20
12.74055139852381
 30
0.0
 11
10.31290373246715
 21
12.99055139852381
 31
0.0
  0
LINE
  5
12B
330
FB
100
AcDbEntity
  8
0
  6
ByBlock
 62
     0
100
AcDbLine
 10
10.56290373246715
 20
9.553051398523813
 30
0.0
 11
10.31290373246715
 21
9.803051398523813
 31
0.0
  0
TEXT
  5
12C
330
FB
100
AcDbEntity
  8
0
  6
ByBlock
 62
     0
100
AcDbText
 10
10.50040373246715
 20
10.93846806519048
 30
0.0
 40
0.125
  1
3 3/16
 50
90.0
 72
     1
 11
10.43790373246715
 21
11.27180139852381
 31
0.0
100
AcDbText
 73
     2
  0
POINT
  5
12D
330
FB
100
AcDbEntity
  8
DEFPOINTS
  6
ByBlock
 62
     0
100
AcDbPoint
 10
11.22756289895888
 20
12.86555139852381
 30
0.0
  0
POINT
  5
12E
330
FB
100
AcDbEntity
  8
DEFPOINTS
  6
ByBlock
 62
     0
100
AcDbPoint
 10
11.22756289895888
 20
9.678051398523813
 30
0.0
  0
POINT
  5
12F
330
FB
100
AcDbEntity
  8
DEFPOINTS
  6
ByBlock
 62
     0
100
AcDbPoint
 10
10.43790373246715
 20
9.678051398523813
 30
0.0
  0
ENDBLK
  5
130
330
FB
100
AcDbEntity
  8
0
100
AcDbBlockEnd
  0
BLOCK
  5
131
330
FC
100
AcDbEntity
  8
0
100
AcDbBlockBegin
  2
*D3
 70
     1
 10
0.0
 20
0.0
 30
0.0
  3
*D3
  1

  0
LINE
  5
132
330
FC
100
AcDbEntity
  8
0
  6
ByBlock
 62
     0
100
AcDbLine
 10
11.85988536809726
 20
6.882094607722397
 30
0.0
 11
11.85988536809726
 21
7.742810152075868
 31
0.0
  0
LINE
  5
133
330
FC
100
AcDbEntity
  8
0
  6
ByBlock
 62
     0
100
AcDbLine
 10
13.79738536809726
 20
6.882094607722397
 30
0.0
 11
13.79738536809726
 21
7.742810152075868
 31
0.0
  0
LINE
  5
134
330
FC
100
AcDbEntity
  8
0
  6
ByBlock
 62
     0
100
AcDbLine
 10
11.85988536809726
 20
7.562810152075869
 30
0.0
 11
12.34946870143059
 21
7.562810152075869
 31
0.0
  0
LINE
  5
135
330
FC
100
AcDbEntity
  8
0
  6
ByBlock
 62
     0
100
AcDbLine
 10
13.79738536809726
 20
7.562810152075869
 30
0.0
 11
13.30780203476392
 21
7.562810152075869
 31
0.0
  0
LINE
  5
136
330
FC
100
AcDbEntity
  8
0
  6
ByBlock
 62
     0
100
AcDbLine
 10
11.73488536809726
 20
7.437810152075869
 30
0.0
 11
11.98488536809726
 21
7.687810152075869
 31
0.0
  0
LINE
  5
137
330
FC
100
AcDbEntity
  8
0
  6
ByBlock
 62
     0
100
AcDbLine
 10
13.67238536809726
 20
7.437810152075869
 30
0.0
 11
13.92238536809726
 21
7.687810152075869
 31
0.0
  0
TEXT
  5
138
330
FC
100
AcDbEntity
  8
0
  6
ByBlock
 62
     0
100
AcDbText
 10
12.47446870143059
 20
7.500310152075869
 30
0.0
 40
0.125
  1
1 15/16
 72
     1
 11
12.82863536809726
 21
7.562810152075869
 31
0.0
100
AcDbText
 73
     2
  0
POINT
  5
139
330
FC
100
AcDbEntity
  8
DEFPOINTS
  6
ByBlock
 62
     0
100
AcDbPoint
 10
11.85988536809726
 20
6.819594607722397
 30
0.0
  0
POINT
  5
13A
330
FC
100
AcDbEntity
  8
DEFPOINTS
  6
ByBlock
 62
     0
100
AcDbPoint
 10
13.79738536809726
 20
6.819594607722397
 30
0.0
  0
POINT
  5
13B
330
FC
100
AcDbEntity
  8
DEFPOINTS
  6
ByBlock
 62
     0
100
AcDbPoint
 10
13.79738536809726
 20
7.562810152075869
 30
0.0
  0
ENDBLK
  5
13C
330
FC
100
AcDbEntity
  8
0
100
AcDbBlockEnd
  0
BLOCK
  5
13D
330
FD
100
AcDbEntity
  8
0
100
AcDbBlockBegin
  2
*D4
 70
     1
 10
0.0
 20
0.0
 30
0.0
  3
*D4
  1

  0
LINE
  5
13E
330
FD
100
AcDbEntity
  8
0
  6
ByBlock
 62
     0
100
AcDbLine
 10
11.16506289895888
 20
9.678051398523813
 30
0.0
 11
10.25790373246715
 21
9.678051398523813
 31
0.0
  0
LINE
  5
13F
330
FD
100
AcDbEntity
  8
0
  6
ByBlock
 62
     0
100
AcDbLine
 10
11.79006289895887
 20
8.178051398523814
 30
0.0
 11
10.25790373246715
 21
8.178051398523814
 31
0.0
  0
LINE
  5
140
330
FD
100
AcDbEntity
  8
0
  6
ByBlock
 62
     0
100
AcDbLine
 10
10.43790373246715
 20
9.678051398523813
 30
0.0
 11
10.43790373246715
 21
9.303051398523813
 31
0.0
  0
LINE
  5
141
330
FD
100
AcDbEntity
  8
0
  6
ByBlock
 62
     0
100
AcDbLine
 10
10.43790373246715
 20
8.178051398523814
 30
0.0
 11
10.43790373246715
 21
8.553051398523813
 31
0.0
  0
LINE
  5
142
330
FD
100
AcDbEntity
  8
0
  6
ByBlock
 62
     0
100
AcDbLine
 10
10.56290373246715
 20
9.553051398523813
 30
0.0
 11
10.31290373246715
 21
9.803051398523813
 31
0.0
  0
LINE
  5
143
330
FD
100
AcDbEntity
  8
0
  6
ByBlock
 62
     0
100
AcDbLine
 10
10.56290373246715
 20
8.053051398523814
 30
0.0
 11
10.31290373246715
 21
8.303051398523814
 31
0.0
  0
TEXT
  5
144
330
FD
100
AcDbEntity
  8
0
  6
ByBlock
 62
     0
100
AcDbText
 10
10.50040373246715
 20
8.678051398523813
 30
0.0
 40
0.125
  1
1 1/2
 50
90.0
 72
     1
 11
10.43790373246715
 21
8.928051398523813
 31
0.0
100
AcDbText
 73
     2
  0
POINT
  5
145
330
FD
100
AcDbEntity
  8
DEFPOINTS
  6
ByBlock
 62
     0
100
AcDbPoint
 10
11.22756289895888
 20
9.678051398523813
 30
0.0
  0
POINT
  5
146
330
FD
100
AcDbEntity
  8
DEFPOINTS
  6
ByBlock
 62
     0
100
AcDbPoint
 10
11.85256289895887
 20
8.178051398523814
 30
0.0
  0
POINT
  5
147
330
FD
100
AcDbEntity
  8
DEFPOINTS
  6
ByBlock
 62
     0
100
AcDbPoint
 10
10.43790373246715
 20
8.178051398523814
 30
0.0
  0
ENDBLK
  5
148
330
FD
100
AcDbEntity
  8
0
100
AcDbBlockEnd
  0
BLOCK
  5
398
330
397
100
AcDbEntity
  8
0
 62
     3
100
AcDbBlockBegin
  2
*D5
 70
     1
 10
0.0
 20
0.0
 30
0.0
  3
*D5
  1

  0
LINE
  5
399
330
397
100
AcDbEntity
  8
ADPDIM
 62
     0
370
    -2
100
AcDbLine
 10
8.856792694658739
 20
4.818128313001169
 30
0.0
 11
8.856792694658739
 21
4.507341758440906
 31
0.0
  0
LINE
  5
39A
330
397
100
AcDbEntity
  8
ADPDIM
 62
     0
370
    -2
100
AcDbLine
 10
9.919292694658739
 20
4.818128313001169
 30
0.0
 11
9.919292694658739
 21
4.507341758440906
 31
0.0
  0
LINE
  5
39B
330
397
100
AcDbEntity
  8
ADPDIM
 62
     0
370
    -2
100
AcDbLine
 10
8.856792694658739
 20
4.687341758440906
 30
0.0
 11
8.606792694658739
 21
4.687341758440906
 31
0.0
  0
LINE
  5
39C
330
397
100
AcDbEntity
  8
ADPDIM
 62
     0
370
    -2
100
AcDbLine
 10
9.919292694658739
 20
4.687341758440906
 30
0.0
 11
10.16929269465874
 21
4.687341758440906
 31
0.0
  0
LINE
  5
39D
330
397
100
AcDbEntity
  8
ADPDIM
 62
     0
370
    -2
100
AcDbLine
 10
9.794292694658739
 20
4.562341758440906
 30
0.0
 11
10.04429269465874
 21
4.812341758440906
 31
0.0
  0
LINE
  5
39E
330
397
100
AcDbEntity
  8
ADPDIM
 62
     0
370
    -2
100
AcDbLine
 10
8.731792694658739
 20
4.562341758440906
 30
0.0
 11
8.981792694658739
 21
4.812341758440906
 31
0.0
  0
MTEXT
  5
39F
330
397
100
AcDbEntity
  8
ADPDIM
 62
     0
100
AcDbMText
 10
9.388042694658739
 20
4.687341758440906
 30
0.0
 40
0.125
 41
0.0
 71
     5
 72
     1
  1
\A1;1 1/16
 73
     1
 44
1.0
1001
ACAD
1000
MTEXTBEGIN
1070
    73
1070
     1
1070
    44
1040
1.0
1070
    74
1070
     0
1000
MTEXTEND
  0
POINT
  5
3A0
330
397
100
AcDbEntity
  8
DEFPOINTS
 62
     0
100
AcDbPoint
 10
8.856792694658739
 20
4.880628313001169
 30
0.0
  0
POINT
  5
3A1
330
397
100
AcDbEntity
  8
DEFPOINTS
 62
     0
100
AcDbPoint
 10
9.919292694658739
 20
4.880628313001169
 30
0.0
  0
POINT
  5
3A2
330
397
100
AcDbEntity
  8
DEFPOINTS
 62
     0
100
AcDbPoint
 10
9.919292694658739
 20
4.687341758440906
 30
0.0
  0
ENDBLK
  5
3A3
330
397
100
AcDbEntity
  8
0
 62
     3
100
AcDbBlockEnd
  0
BLOCK
  5
3A5
330
3A4
100
AcDbEntity
  8
0
100
AcDbBlockBegin
  2
*D6
 70
     1
 10
0.0
 20
0.0
 30
0.0
  3
*D6
  1

  0
LINE
  5
3A6
330
3A4
100
AcDbEntity
  8
ADPDIM
 62
     0
370
    -2
100
AcDbLine
 10
8.727959494558838
 20
4.647717422344203
 30
0.0
 11
8.727959494558838
 21
4.024125386649526
 31
0.0
  0
LINE
  5
3A7
330
3A4
100
AcDbEntity
  8
ADPDIM
 62
     0
370
    -2
100
AcDbLine
 10
10.04095949455883
 20
4.647717422344203
 30
0.0
 11
10.04095949455883
 21
4.024125386649526
 31
0.0
  0
LINE
  5
3A8
330
3A4
100
AcDbEntity
  8
ADPDIM
 62
     0
370
    -2
100
AcDbLine
 10
8.727959494558838
 20
4.204125386649526
 30
0.0
 11
8.946959494558836
 21
4.204125386649526
 31
0.0
  0
LINE
  5
3A9
330
3A4
100
AcDbEntity
  8
ADPDIM
 62
     0
370
    -2
100
AcDbLine
 10
10.04095949455883
 20
4.204125386649526
 30
0.0
 11
9.821959494558836
 21
4.204125386649526
 31
0.0
  0
LINE
  5
3AA
330
3A4
100
AcDbEntity
  8
ADPDIM
 62
     0
370
    -2
100
AcDbLine
 10
9.915959494558833
 20
4.079125386649526
 30
0.0
 11
10.16595949455883
 21
4.329125386649526
 31
0.0
  0
LINE
  5
3AB
330
3A4
100
AcDbEntity
  8
ADPDIM
 62
     0
370
    -2
100
AcDbLine
 10
8.602959494558838
 20
4.079125386649526
 30
0.0
 11
8.852959494558838
 21
4.329125386649526
 31
0.0
  0
MTEXT
  5
3AC
330
3A4
100
AcDbEntity
  8
ADPDIM
 62
     0
100
AcDbMText
 10
9.384459494558836
 20
4.204125386649526
 30
0.0
 40
0.125
 41
0.0
 71
     5
 72
     1
  1
\A1;1 5/16
 73
     1
 44
1.0
1001
ACAD
1000
MTEXTBEGIN
1070
    73
1070
     1
1070
    44
1040
1.0
1070
    74
1070
     0
1000
MTEXTEND
  0
POINT
  5
3AD
330
3A4
100
AcDbEntity
  8
DEFPOINTS
 62
     0
100
AcDbPoint
 10
8.727959494558838
 20
4.710217422344203
 30
0.0
  0
POINT
  5
3AE
330
3A4
100
AcDbEntity
  8
DEFPOINTS
 62
     0
100
AcDbPoint
 10
10.04095949455883
 20
4.710217422344203
 30
0.0
  0
POINT
  5
3AF
330
3A4
100
AcDbEntity
  8
DEFPOINTS
 62
     0
100
AcDbPoint
 10
10.04095949455883
 20
4.204125386649526
 30
0.0
  0
ENDBLK
  5
3B0
330
3A4
100
AcDbEntity
  8
0
100
AcDbBlockEnd
  0
BLOCK
  5
3B2
330
3B1
100
AcDbEntity
  8
0
100
AcDbBlockBegin
  2
*D7
 70
     1
 10
0.0
 20
0.0
 30
0.0
  3
*D7
  1

  0
LINE
  5
3B3
330
3B1
100
AcDbEntity
  8
ADPDIM
 62
     0
370
    -2
100
AcDbLine
 10
8.423031963697219
 20
5.151402111866393
 30
0.0
 11
8.423031963697219
 21
5.79190616544941
 31
0.0
  0
LINE
  5
3B4
330
3B1
100
AcDbEntity
  8
ADPDIM
 62
     0
370
    -2
100
AcDbLine
 10
10.36053196369722
 20
5.151402111866393
 30
0.0
 11
10.36053196369722
 21
5.79190616544941
 31
0.0
  0
LINE
  5
3B5
330
3B1
100
AcDbEntity
  8
ADPDIM
 62
     0
370
    -2
100
AcDbLine
 10
8.423031963697219
 20
5.61190616544941
 30
0.0
 11
8.912615297030553
 21
5.61190616544941
 31
0.0
  0
LINE
  5
3B6
330
3B1
100
AcDbEntity
  8
ADPDIM
 62
     0
370
    -2
100
AcDbLine
 10
10.36053196369722
 20
5.61190616544941
 30
0.0
 11
9.870948630363885
 21
5.61190616544941
 31
0.0
  0
MTEXT
  5
3B7
330
3B1
100
AcDbEntity
  8
ADPDIM
 62
     0
100
AcDbMText
 10
9.391781963697219
 20
5.622442651374126
 30
0.0
 40
0.125
 41
0.0
 71
     5
 72
     1
  1
\A1;1 15/16
 73
     1
 44
1.0
1001
ACAD
1000
MTEXTBEGIN
1070
    73
1070
     1
1070
    44
1040
1.0
1070
    74
1070
     0
1000
MTEXTEND
  0
LINE
  5
3B8
330
3B1
100
AcDbEntity
  8
ADPDIM
 62
     0
370
    -2
100
AcDbLine
 10
10.23553196369722
 20
5.48690616544941
 30
0.0
 11
10.48553196369722
 21
5.73690616544941
 31
0.0
  0
LINE
  5
3B9
330
3B1
100
AcDbEntity
  8
ADPDIM
 62
     0
370
    -2
100
AcDbLine
 10
8.298031963697219
 20
5.48690616544941
 30
0.0
 11
8.548031963697219
 21
5.73690616544941
 31
0.0
  0
POINT
  5
3BA
330
3B1
100
AcDbEntity
  8
DEFPOINTS
 62
     0
100
AcDbPoint
 10
8.423031963697219
 20
5.088902111866393
 30
0.0
  0
POINT
  5
3BB
330
3B1
100
AcDbEntity
  8
DEFPOINTS
 62
     0
100
AcDbPoint
 10
10.36053196369722
 20
5.088902111866393
 30
0.0
  0
POINT
  5
3BC
330
3B1
100
AcDbEntity
  8
DEFPOINTS
 62
     0
100
AcDbPoint
 10
10.36053196369722
 20
5.61190616544941
 30
0.0
  0
ENDBLK
  5
3BD
330
3B1
100
AcDbEntity
  8
0
100
AcDbBlockEnd
  0
BLOCK
  5
414
330
409
100
AcDbEntity
  8
0
100
AcDbBlockBegin
  2
*D9
 70
     1
 10
0.0
 20
0.0
 30
0.0
  3
*D9
  1

  0
LINE
  5
430
330
409
100
AcDbEntity
  8
ADPDIM
 62
     0
370
    -2
100
AcDbLine
 10
12.17572354396985
 20
6.376956797567074
 30
0.0
 11
12.17572354396985
 21
5.753364761872397
 31
0.0
  0
LINE
  5
431
330
409
100
AcDbEntity
  8
ADPDIM
 62
     0
370
    -2
100
AcDbLine
 10
13.48872354396985
 20
6.376956797567074
 30
0.0
 11
13.48872354396985
 21
5.753364761872397
 31
0.0
  0
LINE
  5
432
330
409
100
AcDbEntity
  8
ADPDIM
 62
     0
370
    -2
100
AcDbLine
 10
12.17572354396985
 20
5.933364761872397
 30
0.0
 11
12.39472354396985
 21
5.933364761872397
 31
0.0
  0
LINE
  5
433
330
409
100
AcDbEntity
  8
ADPDIM
 62
     0
370
    -2
100
AcDbLine
 10
13.48872354396985
 20
5.933364761872397
 30
0.0
 11
13.26972354396985
 21
5.933364761872397
 31
0.0
  0
LINE
  5
434
330
409
100
AcDbEntity
  8
ADPDIM
 62
     0
370
    -2
100
AcDbLine
 10
13.36372354396985
 20
5.808364761872397
 30
0.0
 11
13.61372354396985
 21
6.058364761872397
 31
0.0
  0
LINE
  5
435
330
409
100
AcDbEntity
  8
ADPDIM
 62
     0
370
    -2
100
AcDbLine
 10
12.05072354396985
 20
5.808364761872397
 30
0.0
 11
12.30072354396985
 21
6.058364761872397
 31
0.0
  0
MTEXT
  5
436
330
409
100
AcDbEntity
  8
ADPDIM
 62
     0
100
AcDbMText
 10
12.83222354396985
 20
5.933364761872397
 30
0.0
 40
0.125
 41
0.0
 71
     5
 72
     1
  1
\A1;1 5/16
 73
     1
 44
1.0
1001
ACAD
1000
MTEXTBEGIN
1070
    73
1070
     1
1070
    44
1040
1.0
1070
    74
1070
     0
1000
MTEXTEND
  0
POINT
  5
437
330
409
100
AcDbEntity
  8
DEFPOINTS
 62
     0
100
AcDbPoint
 10
12.17572354396985
 20
6.439456797567074
 30
0.0
  0
POINT
  5
438
330
409
100
AcDbEntity
  8
DEFPOINTS
 62
     0
100
AcDbPoint
 10
13.48872354396985
 20
6.439456797567074
 30
0.0
  0
POINT
  5
439
330
409
100
AcDbEntity
  8
DEFPOINTS
 62
     0
100
AcDbPoint
 10
13.48872354396985
 20
5.933364761872397
 30
0.0
  0
ENDBLK
  5
415
330
409
100
AcDbEntity
  8
0
100
AcDbBlockEnd
  0
BLOCK
  5
421
330
416
100
AcDbEntity
  8
0
100
AcDbBlockBegin
  2
*D10
 70
     1
 10
0.0
 20
0.0
 30
0.0
  3
*D10
  1

  0
LINE
  5
43A
330
416
100
AcDbEntity
  8
ADPDIM
 62
     0
370
    -2
100
AcDbLine
 10
11.87079601310824
 20
6.880641487089264
 30
0.0
 11
11.87079601310824
 21
7.521145540672281
 31
0.0
  0
LINE
  5
43B
330
416
100
AcDbEntity
  8
ADPDIM
 62
     0
370
    -2
100
AcDbLine
 10
13.80829601310823
 20
6.880641487089264
 30
0.0
 11
13.80829601310823
 21
7.521145540672281
 31
0.0
  0
LINE
  5
43C
330
416
100
AcDbEntity
  8
ADPDIM
 62
     0
370
    -2
100
AcDbLine
 10
11.87079601310824
 20
7.341145540672282
 30
0.0
 11
12.36037934644157
 21
7.341145540672282
 31
0.0
  0
LINE
  5
43D
330
416
100
AcDbEntity
  8
ADPDIM
 62
     0
370
    -2
100
AcDbLine
 10
13.80829601310823
 20
7.341145540672282
 30
0.0
 11
13.3187126797749
 21
7.341145540672282
 31
0.0
  0
MTEXT
  5
43E
330
416
100
AcDbEntity
  8
ADPDIM
 62
     0
100
AcDbMText
 10
12.83954601310824
 20
7.351682026596997
 30
0.0
 40
0.125
 41
0.0
 71
     5
 72
     1
  1
\A1;1 15/16
 73
     1
 44
1.0
1001
ACAD
1000
MTEXTBEGIN
1070
    73
1070
     1
1070
    44
1040
1.0
1070
    74
1070
     0
1000
MTEXTEND
  0
LINE
  5
43F
330
416
100
AcDbEntity
  8
ADPDIM
 62
     0
370
    -2
100
AcDbLine
 10
13.68329601310823
 20
7.216145540672282
 30
0.0
 11
13.93329601310824
 21
7.466145540672282
 31
0.0
  0
LINE
  5
440
330
416
100
AcDbEntity
  8
ADPDIM
 62
     0
370
    -2
100
AcDbLine
 10
11.74579601310823
 20
7.216145540672282
 30
0.0
 11
11.99579601310823
 21
7.466145540672282
 31
0.0
  0
POINT
  5
441
330
416
100
AcDbEntity
  8
DEFPOINTS
 62
     0
100
AcDbPoint
 10
11.87079601310824
 20
6.818141487089264
 30
0.0
  0
POINT
  5
442
330
416
100
AcDbEntity
  8
DEFPOINTS
 62
     0
100
AcDbPoint
 10
13.80829601310823
 20
6.818141487089264
 30
0.0
  0
POINT
  5
443
330
416
100
AcDbEntity
  8
DEFPOINTS
 62
     0
100
AcDbPoint
 10
13.80829601310823
 20
7.341145540672282
 30
0.0
  0
ENDBLK
  5
422
330
416
100
AcDbEntity
  8
0
100
AcDbBlockEnd
  0
BLOCK
  5
42E
330
423
100
AcDbEntity
  8
0
100
AcDbBlockBegin
  2
*D11
 70
     1
 10
0.0
 20
0.0
 30
0.0
  3
*D11
  1

  0
LINE
  5
444
330
423
100
AcDbEntity
  8
ADPDIM
 62
     0
370
    -2
100
AcDbLine
 10
12.30455674406975
 20
6.54736768822404
 30
0.0
 11
12.30455674406975
 21
6.236581133663777
 31
0.0
  0
LINE
  5
445
330
423
100
AcDbEntity
  8
ADPDIM
 62
     0
370
    -2
100
AcDbLine
 10
13.36705674406976
 20
6.54736768822404
 30
0.0
 11
13.36705674406976
 21
6.236581133663777
 31
0.0
  0
LINE
  5
446
330
423
100
AcDbEntity
  8
ADPDIM
 62
     0
370
    -2
100
AcDbLine
 10
12.30455674406975
 20
6.416581133663777
 30
0.0
 11
12.05455674406975
 21
6.416581133663777
 31
0.0
  0
LINE
  5
447
330
423
100
AcDbEntity
  8
ADPDIM
 62
     0
370
    -2
100
AcDbLine
 10
13.36705674406976
 20
6.416581133663777
 30
0.0
 11
13.61705674406975
 21
6.416581133663777
 31
0.0
  0
LINE
  5
448
330
423
100
AcDbEntity
  8
ADPDIM
 62
     0
370
    -2
100
AcDbLine
 10
13.24205674406975
 20
6.291581133663777
 30
0.0
 11
13.49205674406976
 21
6.541581133663777
 31
0.0
  0
LINE
  5
449
330
423
100
AcDbEntity
  8
ADPDIM
 62
     0
370
    -2
100
AcDbLine
 10
12.17955674406975
 20
6.291581133663777
 30
0.0
 11
12.42955674406976
 21
6.541581133663777
 31
0.0
  0
MTEXT
  5
44A
330
423
100
AcDbEntity
  8
ADPDIM
 62
     0
100
AcDbMText
 10
12.83580674406975
 20
6.416581133663777
 30
0.0
 40
0.125
 41
0.0
 71
     5
 72
     1
  1
\A1;1 1/16
 73
     1
 44
1.0
1001
ACAD
1000
MTEXTBEGIN
1070
    73
1070
     1
1070
    44
1040
1.0
1070
    74
1070
     0
1000
MTEXTEND
  0
POINT
  5
44B
330
423
100
AcDbEntity
  8
DEFPOINTS
 62
     0
100
AcDbPoint
 10
12.30455674406975
 20
6.60986768822404
 30
0.0
  0
POINT
  5
44C
330
423
100
AcDbEntity
  8
DEFPOINTS
 62
     0
100
AcDbPoint
 10
13.36705674406976
 20
6.60986768822404
 30
0.0
  0
POINT
  5
44D
330
423
100
AcDbEntity
  8
DEFPOINTS
 62
     0
100
AcDbPoint
 10
13.36705674406976
 20
6.416581133663777
 30
0.0
  0
ENDBLK
  5
42F
330
423
100
AcDbEntity
  8
0
100
AcDbBlockEnd
  0
ENDSEC
  0
SECTION
  2
ENTITIES
  0
ARC
  5
14A
330
1E
100
AcDbEntity
  8
ADP1DETAIL
100
AcDbCircle
 10
11.52064962601652
 20
7.500285394074351
 30
0.0
 40
0.5435255596433758
100
AcDbArc
 50
264.1726231069675
 51
321.5501068260153
  0
ARC
  5
14B
330
1E
100
AcDbEntity
  8
ADP1DETAIL
100
AcDbCircle
 10
14.1204389910923
 20
7.498257345176256
 30
0.0
 40
0.5410609809819044
100
AcDbArc
 50
218.3829243804009
 51
275.3672628611653
  0
DIMENSION
  5
14E
330
1E
100
AcDbEntity
  8
ADPDIM
100
AcDbDimension
  2
*D1
 10
14.10256289895888
 20
-0.3253608738022446
 30
0.0
 11
12.82131289895888
 21
-0.3253608738022446
 31
0.0
 71
     5
 42
-1.0
100
AcDbAlignedDimension
 13
11.54006289895888
 23
0.5293360378079086
 33
0.0
 14
14.10256289895888
 24
0.5293360378079086
 34
0.0
100
AcDbRotatedDimension
  0
LINE
  5
152
330
1E
100
AcDbEntity
  8
ADP1DETAIL
100
AcDbLine
 10
14.171049544645
 20
6.959568606654471
 30
0.0
 11
13.53915419389436
 21
6.959568606654471
 31
0.0
  0
LINE
  5
153
330
1E
100
AcDbEntity
  8
ADP1DETAIL
100
AcDbLine
 10
14.186049544645
 20
6.90885555699004
 30
0.0
 11
13.55415419389435
 21
6.90885555699004
 31
0.0
  0
LINE
  5
154
330
1E
100
AcDbEntity
  8
ADP1DETAIL
100
AcDbLine
 10
13.79006289895888
 20
4.904336037807906
 30
0.0
 11
11.85256289895888
 21
4.904336037807906
 31
0.0
  0
LINE
  5
155
330
1E
100
AcDbEntity
  8
ADP1DETAIL
100
AcDbLine
 10
14.10256289895888
 20
3.091836037807908
 30
0.0
 11
11.54006289895888
 21
3.09183603780791
 31
0.0
  0
LINE
  5
156
330
1E
100
AcDbEntity
  8
ADP1DETAIL
100
AcDbLine
 10
11.39715458187054
 20
6.425909918200204
 30
0.0
 11
14.2393595383881
 21
6.425909918200206
 31
0.0
  0
LINE
  5
157
330
1E
100
AcDbEntity
  8
ADP1DETAIL
100
AcDbLine
 10
11.22756289895888
 20
0.2168360378079086
 30
0.0
 11
14.41506289895888
 21
0.2168360378079086
 31
0.0
  0
LINE
  5
158
330
1E
100
AcDbEntity
  8
ADP1DETAIL
100
AcDbLine
 10
11.38435464455176
 20
0.3736277834007913
 30
0.0
 11
14.25827115336599
 21
0.3736277834007922
 31
0.0
  0
LINE
  5
159
330
1E
100
AcDbEntity
  8
ADP1DETAIL
100
AcDbLine
 10
11.85256289895888
 20
0.5293360378079086
 30
0.0
 11
14.10256289895888
 21
0.5293360378079086
 31
0.0
  0
LINE
  5
15A
330
1E
100
AcDbEntity
  8
ADP1DETAIL
100
AcDbLine
 10
11.38435464455176
 20
3.247544292215025
 30
0.0
 11
11.38435464455176
 21
0.3736277834007913
 31
0.0
  0
LINE
  5
15B
330
1E
100
AcDbEntity
  8
ADP1DETAIL
100
AcDbLine
 10
11.54006289895888
 20
3.09183603780791
 30
0.0
 11
11.54006289895888
 21
0.5293360378079086
 31
0.0
  0
LINE
  5
15C
330
1E
100
AcDbEntity
  8
ADP1DETAIL
100
AcDbLine
 10
11.22756289895888
 20
3.404336037807908
 30
0.0
 11
11.22756289895888
 21
0.2168360378079086
 31
0.0
  0
LINE
  5
15D
330
1E
100
AcDbEntity
  8
ADP1DETAIL
100
AcDbLine
 10
11.66506289895888
 20
2.779336037807909
 30
0.0
 11
11.66506289895888
 21
0.8418360378079094
 31
0.0
  0
LWPOLYLINE
  5
15E
330
1E
100
AcDbEntity
  8
ADP1DETAIL
100
AcDbPolyline
 90
        2
 70
     0
 43
0.0
 10
11.85256289895888
 20
0.5293360378079086
 10
11.54006289895888
 20
0.5293360378079086
  0
LWPOLYLINE
  5
162
330
1E
100
AcDbEntity
  8
ADP1DETAIL
100
AcDbPolyline
 90
        4
 70
     0
 43
0.0
 10
11.66506289895888
 20
0.8418360378079059
 10
11.85256289895888
 20
0.8418360378079059
 10
11.85256289895888
 20
0.529336037807906
 10
11.66506289895888
 20
0.529336037807906
  0
LINE
  5
168
330
1E
100
AcDbEntity
  8
ADP1DETAIL
100
AcDbLine
 10
12.1034716040234
 20
6.959568606654471
 30
0.0
 11
11.46546457561363
 21
6.959568606654471
 31
0.0
  0
LINE
  5
169
330
1E
100
AcDbEntity
  8
ADP1DETAIL
100
AcDbLine
 10
12.0884716040234
 20
6.90885555699004
 30
0.0
 11
11.45046457561363
 21
6.90885555699004
 31
0.0
  0
LINE
  5
16A
330
1E
100
AcDbEntity
  8
ADP1DETAIL
100
AcDbLine
 10
12.00935464455176
 20
3.247544292215025
 30
0.0
 11
11.38435464455176
 21
3.247544292215025
 31
0.0
  0
LINE
  5
16B
330
1E
100
AcDbEntity
  8
ADP1DETAIL
100
AcDbLine
 10
11.85256289895888
 20
3.404336037807908
 30
0.0
 11
11.22756289895888
 21
3.404336037807908
 31
0.0
  0
ARC
  5
16C
330
1E
100
AcDbEntity
  8
ADP1DETAIL
100
AcDbCircle
 10
11.36384262421507
 20
6.754925125595402
 30
0.0
 40
0.1559999999999998
100
AcDbArc
 50
80.65678061822479
 51
230.3615138867189
  0
ARC
  5
16D
330
1E
100
AcDbEntity
  8
ADP1DETAIL
100
AcDbCircle
 10
11.17757035721087
 20
6.432948812528909
 30
0.0
 40
0.2196970135271751
100
AcDbArc
 50
358.1639806528344
 51
66.74166570965842
  0
ARC
  5
16E
330
1E
100
AcDbEntity
  8
ADP1DETAIL
100
AcDbCircle
 10
11.45046457561363
 20
6.923855556990041
 30
0.0
 40
0.015
100
AcDbArc
 50
270.0
 51
0.0
  0
LINE
  5
16F
330
1E
100
AcDbEntity
  8
ADP1DETAIL
100
AcDbLine
 10
11.46546457561363
 20
6.923855556990041
 30
0.0
 11
11.46546457561363
 21
6.959568606654471
 31
0.0
  0
LINE
  5
170
330
1E
100
AcDbEntity
  8
ADP1DETAIL
100
AcDbLine
 10
11.45046457561363
 20
6.90885555699004
 30
0.0
 11
11.38916894038344
 21
6.90885555699004
 31
0.0
  0
LINE
  5
171
330
1E
100
AcDbEntity
  8
ADP1DETAIL
100
AcDbLine
 10
13.47756289895888
 20
3.091836037807908
 30
0.0
 11
13.47756289895888
 21
4.904336037807906
 31
0.0
  0
LINE
  5
172
330
1E
100
AcDbEntity
  8
ADP1DETAIL
100
AcDbLine
 10
13.32185464455176
 20
3.091836037807908
 30
0.0
 11
13.32185464455176
 21
4.904336037807906
 31
0.0
  0
LINE
  5
173
330
1E
100
AcDbEntity
  8
ADP1DETAIL
100
AcDbLine
 10
11.85256289895888
 20
4.904336037807906
 30
0.0
 11
11.85256289895888
 21
3.404336037807908
 31
0.0
  0
LINE
  5
174
330
1E
100
AcDbEntity
  8
ADP1DETAIL
100
AcDbLine
 10
12.00935464455176
 20
4.904336037807906
 30
0.0
 11
12.00935464455176
 21
3.247544292215025
 31
0.0
  0
LINE
  5
175
330
1E
100
AcDbEntity
  8
ADP1DETAIL
100
AcDbLine
 10
12.16506289895888
 20
4.904336037807906
 30
0.0
 11
12.16506289895888
 21
3.091836037807908
 31
0.0
  0
LINE
  5
176
330
1E
100
AcDbEntity
  8
ADP1DETAIL
100
AcDbLine
 10
12.32077115336599
 20
4.904336037807906
 30
0.0
 11
12.32077115336599
 21
3.091836037807908
 31
0.0
  0
LWPOLYLINE
  5
177
330
1E
100
AcDbEntity
  8
ADP1DETAIL
100
AcDbPolyline
 90
        4
 70
     0
 43
0.0
 10
11.66506289895888
 20
3.091836037807909
 10
11.85256289895888
 20
3.091836037807907
 10
11.85256289895888
 20
2.779336037807907
 10
11.66506289895888
 20
2.779336037807909
  0
LWPOLYLINE
  5
17D
330
1E
100
AcDbEntity
  8
ADP1DETAIL
100
AcDbPolyline
 90
        2
 70
     0
 43
0.0
 10
11.66506289895888
 20
3.091836037807908
 10
11.97756289895888
 20
3.091836037807908
  0
LINE
  5
19B
330
1E
100
AcDbEntity
  8
ADP1DETAIL
100
AcDbLine
 10
15.91506289895887
 20
0.8418360378079086
 30
0.0
 11
15.91506289895887
 21
2.779336037807908
 31
0.0
  0
LINE
  5
19C
330
1E
100
AcDbEntity
  8
ADP1DETAIL
100
AcDbLine
 10
14.10256289895888
 20
0.5293360378079086
 30
0.0
 11
14.10256289895888
 21
3.091836037807908
 31
0.0
  0
LINE
  5
19D
330
1E
100
AcDbEntity
  8
ADP1DETAIL
100
AcDbLine
 10
13.97756289895889
 20
2.779336037807909
 30
0.0
 11
13.97756289895889
 21
0.8418360378079094
 31
0.0
  0
LINE
  5
19E
330
1E
100
AcDbEntity
  8
ADP1DETAIL
100
AcDbLine
 10
14.10256289895888
 20
1.154336037807908
 30
0.0
 11
15.91506289895887
 21
1.154336037807908
 31
0.0
  0
LINE
  5
19F
330
1E
100
AcDbEntity
  8
ADP1DETAIL
100
AcDbLine
 10
14.10256289895888
 20
1.310044292215025
 30
0.0
 11
15.91506289895887
 21
1.310044292215025
 31
0.0
  0
LINE
  5
1A0
330
1E
100
AcDbEntity
  8
ADP1DETAIL
100
AcDbLine
 10
15.91506289895887
 20
2.466836037807908
 30
0.0
 11
14.10256289895888
 21
2.466836037807908
 31
0.0
  0
LINE
  5
1A1
330
1E
100
AcDbEntity
  8
ADP1DETAIL
100
AcDbLine
 10
15.91506289895887
 20
2.311127783400792
 30
0.0
 11
14.10256289895888
 21
2.311127783400792
 31
0.0
  0
LINE
  5
1A2
330
1E
100
AcDbEntity
  8
ADP1DETAIL
100
AcDbLine
 10
14.41506289895888
 20
0.8418360378079086
 30
0.0
 11
15.91506289895887
 21
0.8418360378079086
 31
0.0
  0
LINE
  5
1A3
330
1E
100
AcDbEntity
  8
ADP1DETAIL
100
AcDbLine
 10
14.25827115336599
 20
0.9986277834007921
 30
0.0
 11
15.91506289895887
 21
0.9986277834007921
 31
0.0
  0
LINE
  5
1A4
330
1E
100
AcDbEntity
  8
ADP1DETAIL
100
AcDbLine
 10
14.41506289895888
 20
0.2168360378079086
 30
0.0
 11
14.41506289895888
 21
0.8418360378079086
 31
0.0
  0
LWPOLYLINE
  5
1A5
330
1E
100
AcDbEntity
  8
ADP1DETAIL
100
AcDbPolyline
 90
        2
 70
     0
 43
0.0
 10
14.10256289895888
 20
0.5293360378079086
 10
13.79006289895888
 20
0.5293360378079086
  0
LWPOLYLINE
  5
1A9
330
1E
100
AcDbEntity
  8
ADP1DETAIL
100
AcDbPolyline
 90
        4
 70
     0
 43
0.0
 10
13.97756289895889
 20
0.8418360378079059
 10
13.79006289895889
 20
0.8418360378079059
 10
13.79006289895889
 20
0.529336037807906
 10
13.97756289895889
 20
0.529336037807906
  0
LINE
  5
1AF
330
1E
100
AcDbEntity
  8
ADP1DETAIL
100
AcDbLine
 10
14.25827115336599
 20
0.3736277834007922
 30
0.0
 11
14.258271153366
 21
0.998627783400793
 31
0.0
  0
LINE
  5
1B0
330
1E
100
AcDbEntity
  8
ADP1DETAIL
100
AcDbLine
 10
15.91506289895887
 20
2.779336037807908
 30
0.0
 11
14.41506289895888
 21
2.779336037807908
 31
0.0
  0
LINE
  5
1B1
330
1E
100
AcDbEntity
  8
ADP1DETAIL
100
AcDbLine
 10
15.91506289895887
 20
2.622544292215025
 30
0.0
 11
14.25827115336599
 21
2.622544292215025
 31
0.0
  0
LINE
  5
1B2
330
1E
100
AcDbEntity
  8
ADP1DETAIL
100
AcDbLine
 10
13.79006289895888
 20
3.404336037807908
 30
0.0
 11
13.79006289895888
 21
4.904336037807906
 31
0.0
  0
LINE
  5
1B3
330
1E
100
AcDbEntity
  8
ADP1DETAIL
100
AcDbLine
 10
13.633271153366
 20
3.247544292215024
 30
0.0
 11
13.633271153366
 21
4.904336037807906
 31
0.0
  0
LINE
  5
1B4
330
1E
100
AcDbEntity
  8
ADP1DETAIL
100
AcDbLine
 10
14.25827115336599
 20
3.247544292215025
 30
0.0
 11
13.633271153366
 21
3.247544292215024
 31
0.0
  0
LINE
  5
1B5
330
1E
100
AcDbEntity
  8
ADP1DETAIL
100
AcDbLine
 10
14.41506289895888
 20
3.404336037807908
 30
0.0
 11
13.79006289895888
 21
3.404336037807908
 31
0.0
  0
LWPOLYLINE
  5
1B6
330
1E
100
AcDbEntity
  8
ADP1DETAIL
100
AcDbPolyline
 90
        4
 70
     0
 43
0.0
 10
13.97756289895889
 20
3.091836037807909
 10
13.79006289895889
 20
3.091836037807907
 10
13.79006289895889
 20
2.779336037807907
 10
13.97756289895889
 20
2.779336037807909
  0
LINE
  5
1BC
330
1E
100
AcDbEntity
  8
ADP1DETAIL
100
AcDbLine
 10
14.41506289895888
 20
2.779336037807908
 30
0.0
 11
14.41506289895888
 21
3.404336037807908
 31
0.0
  0
LINE
  5
1BD
330
1E
100
AcDbEntity
  8
ADP1DETAIL
100
AcDbLine
 10
14.25827115336599
 20
2.622544292215024
 30
0.0
 11
14.25827115336599
 21
3.247544292215025
 31
0.0
  0
ARC
  5
1C0
330
1E
100
AcDbEntity
  8
ADP1DETAIL
100
AcDbCircle
 10
14.27267149604356
 20
6.754925125595402
 30
0.0
 40
0.1559999999999996
100
AcDbArc
 50
309.6384861132802
 51
99.34321938177591
  0
ARC
  5
1C1
330
1E
100
AcDbEntity
  8
ADP1DETAIL
100
AcDbCircle
 10
14.45894376304778
 20
6.432948812528906
 30
0.0
 40
0.2196970135271803
100
AcDbArc
 50
113.2583342903419
 51
181.8360193471644
  0
LINE
  5
1C2
330
1E
100
AcDbEntity
  8
ADP1DETAIL
100
AcDbLine
 10
14.186049544645
 20
6.90885555699004
 30
0.0
 11
14.24734517987519
 21
6.90885555699004
 31
0.0
  0
LINE
  5
1C3
330
1E
100
AcDbEntity
  8
ADP1DETAIL
100
AcDbLine
 10
14.171049544645
 20
6.923855556990041
 30
0.0
 11
14.171049544645
 21
6.959568606654471
 31
0.0
  0
ARC
  5
1C4
330
1E
100
AcDbEntity
  8
ADP1DETAIL
100
AcDbCircle
 10
14.186049544645
 20
6.923855556990041
 30
0.0
 40
0.015
100
AcDbArc
 50
180.0
 51
270.0
  0
LINE
  5
1C5
330
1E
100
AcDbEntity
  8
ADP1DETAIL
100
AcDbLine
 10
11.47795837948428
 20
12.61515591799841
 30
0.0
 11
14.16466741843347
 21
12.61515591799841
 31
0.0
  0
LINE
  5
1C6
330
1E
100
AcDbEntity
  8
ADP1DETAIL
100
AcDbLine
 10
11.22756289895888
 20
12.86555139852381
 30
0.0
 11
14.41506289895888
 21
12.86555139852381
 31
0.0
  0
LINE
  5
1C7
330
1E
100
AcDbEntity
  8
ADP1DETAIL
100
AcDbLine
 10
11.94631289895888
 20
12.14680139852381
 30
0.0
 11
13.69631289895888
 21
12.14680139852381
 31
0.0
  0
LINE
  5
1C8
330
1E
100
AcDbEntity
  8
ADP1DETAIL
100
AcDbLine
 10
13.79006289895888
 20
9.678051398523813
 30
0.0
 11
13.07131289895888
 21
10.39680139852381
 31
0.0
  0
LINE
  5
1C9
330
1E
100
AcDbEntity
  8
ADP1DETAIL
100
AcDbLine
 10
14.16466741843347
 20
9.928446879049218
 30
0.0
 11
13.53966741843346
 21
9.928446879049218
 31
0.0
  0
LINE
  5
1CA
330
1E
100
AcDbEntity
  8
ADP1DETAIL
100
AcDbLine
 10
13.69631289895888
 20
7.162304903433776
 30
0.0
 11
11.94631289895888
 21
7.162304903433778
 31
0.0
  0
LINE
  5
1CB
330
1E
100
AcDbEntity
  8
ADP1DETAIL
100
AcDbLine
 10
13.79006289895888
 20
8.178051398523814
 30
0.0
 11
11.85256289895887
 21
8.178051398523814
 31
0.0
  0
LINE
  5
1CC
330
1E
100
AcDbEntity
  8
ADP1DETAIL
100
AcDbLine
 10
13.69631289895888
 20
10.39680139852381
 30
0.0
 11
11.94631289895888
 21
10.39680139852381
 31
0.0
  0
DIMENSION
  5
1CD
330
1E
100
AcDbEntity
  8
ADPDIM
100
AcDbDimension
  2
*D2
 10
10.43790373246715
 20
9.678051398523813
 30
0.0
 11
10.43790373246715
 21
11.27180139852381
 31
0.0
 71
     5
 42
-1.0
100
AcDbAlignedDimension
 13
11.22756289895888
 23
12.86555139852381
 33
0.0
 14
11.22756289895888
 24
9.678051398523813
 34
0.0
 50
90.0
100
AcDbRotatedDimension
  0
LINE
  5
1CE
330
1E
100
AcDbEntity
  8
ADP1DETAIL
100
AcDbLine
 10
11.22756289895888
 20
9.678051398523813
 30
0.0
 11
11.22756289895888
 21
12.86555139852381
 31
0.0
  0
LINE
  5
1CF
330
1E
100
AcDbEntity
  8
ADP1DETAIL
100
AcDbLine
 10
11.94631289895888
 20
10.39680139852381
 30
0.0
 11
11.94631289895888
 21
12.14680139852381
 31
0.0
  0
LINE
  5
1D0
330
1E
100
AcDbEntity
  8
ADP1DETAIL
100
AcDbLine
 10
11.47795837948428
 20
9.92844687904922
 30
0.0
 11
11.47795837948428
 21
12.61515591799841
 31
0.0
  0
DIMENSION
  5
1D1
330
1E
100
AcDbEntity
  8
ADPDIM
100
AcDbDimension
  2
*D4
 10
10.43790373246715
 20
8.178051398523814
 30
0.0
 11
10.43790373246715
 21
8.928051398523813
 31
0.0
 71
     5
 42
-1.0
100
AcDbAlignedDimension
 13
11.22756289895888
 23
9.678051398523813
 33
0.0
 14
11.85256289895887
 24
8.178051398523814
 34
0.0
 50
90.0
100
AcDbRotatedDimension
  0
LINE
  5
1D2
330
1E
100
AcDbEntity
  8
ADP1DETAIL
100
AcDbLine
 10
11.22756289895888
 20
9.678051398523813
 30
0.0
 11
11.94631289895888
 21
10.39680139852381
 31
0.0
  0
LINE
  5
1D3
330
1E
100
AcDbEntity
  8
ADP1DETAIL
100
AcDbLine
 10
11.85256289895888
 20
9.678051398523813
 30
0.0
 11
11.22756289895888
 21
9.678051398523813
 31
0.0
  0
LINE
  5
1D4
330
1E
100
AcDbEntity
  8
ADP1DETAIL
100
AcDbLine
 10
12.10295837948428
 20
9.92844687904922
 30
0.0
 11
11.47795837948428
 21
9.92844687904922
 31
0.0
  0
LINE
  5
1D5
330
1E
100
AcDbEntity
  8
ADP1DETAIL
100
AcDbLine
 10
13.53966741843346
 20
9.928446879049216
 30
0.0
 11
13.53966741843346
 21
8.178051398523814
 31
0.0
  0
LINE
  5
1D6
330
1E
100
AcDbEntity
  8
ADP1DETAIL
100
AcDbLine
 10
12.10295837948428
 20
8.178051398523814
 30
0.0
 11
12.10295837948428
 21
9.928446879049218
 31
0.0
  0
LINE
  5
1D7
330
1E
100
AcDbEntity
  8
ADP1DETAIL
100
AcDbLine
 10
11.85256289895887
 20
8.178051398523814
 30
0.0
 11
11.85256289895888
 21
9.678051398523813
 31
0.0
  0
LINE
  5
1D8
330
1E
100
AcDbEntity
  8
ADP1DETAIL
100
AcDbLine
 10
11.85256289895888
 20
9.678051398523813
 30
0.0
 11
12.57131289895888
 21
10.39680139852381
 31
0.0
  0
LINE
  5
1D9
330
1E
100
AcDbEntity
  8
ADP1DETAIL
100
AcDbLine
 10
11.94631289895888
 20
12.14680139852381
 30
0.0
 11
11.22756289895888
 21
12.86555139852381
 31
0.0
  0
LINE
  5
1DA
330
1E
100
AcDbEntity
  8
ADP1DETAIL
100
AcDbLine
 10
15.91506289895888
 20
10.30305139852381
 30
0.0
 11
15.91506289895888
 21
12.24055139852382
 31
0.0
  0
LINE
  5
1DB
330
1E
100
AcDbEntity
  8
ADP1DETAIL
100
AcDbLine
 10
13.69631289895888
 20
12.14680139852381
 30
0.0
 11
13.69631289895888
 21
10.39680139852381
 31
0.0
  0
LINE
  5
1DC
330
1E
100
AcDbEntity
  8
ADP1DETAIL
100
AcDbLine
 10
13.69631289895888
 20
11.52180139852381
 30
0.0
 11
14.41506289895888
 21
12.24055139852381
 31
0.0
  0
LINE
  5
1DD
330
1E
100
AcDbEntity
  8
ADP1DETAIL
100
AcDbLine
 10
14.16466741843348
 20
10.55344687904923
 30
0.0
 11
15.91506289895888
 21
10.55344687904923
 31
0.0
  0
LINE
  5
1DE
330
1E
100
AcDbEntity
  8
ADP1DETAIL
100
AcDbLine
 10
14.41506289895888
 20
10.30305139852381
 30
0.0
 11
15.91506289895888
 21
10.30305139852381
 31
0.0
  0
LINE
  5
1DF
330
1E
100
AcDbEntity
  8
ADP1DETAIL
100
AcDbLine
 10
13.79006289895888
 20
9.678051398523813
 30
0.0
 11
13.79006289895888
 21
8.178051398523814
 31
0.0
  0
LINE
  5
1E0
330
1E
100
AcDbEntity
  8
ADP1DETAIL
100
AcDbLine
 10
14.16466741843347
 20
10.55344687904923
 30
0.0
 11
14.16466741843347
 21
9.928446879049218
 31
0.0
  0
LINE
  5
1E1
330
1E
100
AcDbEntity
  8
ADP1DETAIL
100
AcDbLine
 10
14.41506289895888
 20
10.30305139852381
 30
0.0
 11
13.69631289895888
 21
11.02180139852381
 31
0.0
  0
LINE
  5
1E2
330
1E
100
AcDbEntity
  8
ADP1DETAIL
100
AcDbLine
 10
14.41506289895888
 20
9.678051398523813
 30
0.0
 11
13.69631289895888
 21
10.39680139852381
 31
0.0
  0
LINE
  5
1E3
330
1E
100
AcDbEntity
  8
ADP1DETAIL
100
AcDbLine
 10
14.41506289895888
 20
9.678051398523813
 30
0.0
 11
13.79006289895888
 21
9.678051398523813
 31
0.0
  0
LINE
  5
1E4
330
1E
100
AcDbEntity
  8
ADP1DETAIL
100
AcDbLine
 10
14.41506289895888
 20
10.30305139852381
 30
0.0
 11
14.41506289895888
 21
9.678051398523813
 31
0.0
  0
LINE
  5
1E5
330
1E
100
AcDbEntity
  8
ADP1DETAIL
100
AcDbLine
 10
15.91506289895888
 20
11.99015591799841
 30
0.0
 11
14.16466741843347
 21
11.99015591799841
 31
0.0
  0
LINE
  5
1E6
330
1E
100
AcDbEntity
  8
ADP1DETAIL
100
AcDbLine
 10
15.91506289895888
 20
12.24055139852382
 30
0.0
 11
14.41506289895888
 21
12.24055139852381
 31
0.0
  0
LINE
  5
1E7
330
1E
100
AcDbEntity
  8
ADP1DETAIL
100
AcDbLine
 10
14.41506289895888
 20
12.86555139852381
 30
0.0
 11
14.41506289895888
 21
12.24055139852381
 31
0.0
  0
LINE
  5
1E8
330
1E
100
AcDbEntity
  8
ADP1DETAIL
100
AcDbLine
 10
13.69631289895888
 20
12.14680139852381
 30
0.0
 11
14.41506289895888
 21
12.86555139852381
 31
0.0
  0
LINE
  5
1E9
330
1E
100
AcDbEntity
  8
ADP1DETAIL
100
AcDbLine
 10
14.16466741843347
 20
12.61515591799841
 30
0.0
 11
14.16466741843348
 21
11.99015591799841
 31
0.0
  0
TEXT
  5
1ED
330
1E
100
AcDbEntity
  8
ADPDIM
100
AcDbText
 10
0.2456835072239869
 20
-1.784728824862895
 30
0.0
 40
0.25
  1
J U L I U S  B L U M  &  C O . ,  I N C .      ( 8 0 0 )  5 2 6 - 6 2 9 3        W W W . J U L I U S B L U M . C O M        P A R T  N o .  6 9 3 4 - L
 41
1.25
  7
ARIAL_WIDE
 72
     1
 11
13.61251928485018
 21
-1.534728824862895
 31
0.0
100
AcDbText
 73
     3
  0
DIMENSION
  5
3E6
330
1E
100
AcDbEntity
  8
ADPDIM
100
AcDbDimension
  2
*D9
 10
13.48872354396985
 20
5.933364761872397
 30
0.0
 11
12.83222354396985
 21
5.933364761872397
 31
0.0
 70
    32
 71
     5
 42
1.312999999999995
  3
Standard
100
AcDbAlignedDimension
 13
12.17572354396985
 23
6.439456797567074
 33
0.0
 14
13.48872354396985
 24
6.439456797567074
 34
0.0
100
AcDbRotatedDimension
1001
ACAD
1000
DSTYLE
1002
{
1070
   276
1070
     2
1070
    41
1040
0.125
1070
    73
1070
     0
1070
    74
1070
     0
1070
    78
1070
     3
1070
   140
1040
0.125
1070
   141
1040
0.1875
1070
   142
1040
0.125
1070
   147
1040
0.125
1070
   171
1070
     1
1070
   273
1070
     5
1070
   274
1070
     1
1070
   277
1070
     5
1070
   279
1070
     2
1070
   284
1070
     3
1070
   285
1070
     3
1070
   286
1070
     3
1002
}
  0
LINE
  5
3E7
330
1E
100
AcDbEntity
  8
ADP1DETAIL
100
AcDbLine
 10
13.36322354396985
 20
6.796171463695345
 30
0.0
 11
12.83106483890533
 21
6.796171463695345
 31
0.0
  0
ARC
  5
3E8
330
1E
100
AcDbEntity
  8
ADP1DETAIL
100
AcDbCircle
 10
12.83106483890533
 20
6.410852677866128
 30
0.0
 40
0.7500000000000019
100
AcDbArc
 50
65.35881699432436
 51
89.91148141825664
  0
DIMENSION
  5
3E9
330
1E
100
AcDbEntity
  8
ADPDIM
100
AcDbDimension
  2
*D10
 10
13.80829601310823
 20
7.341145540672282
 30
0.0
 11
12.83954601310824
 21
7.351682026596997
 31
0.0
 70
   160
 71
     5
 42
1.9375
  3
Standard
100
AcDbAlignedDimension
 13
11.87079601310824
 23
6.818141487089264
 33
0.0
 14
13.80829601310823
 24
6.818141487089264
 34
0.0
100
AcDbRotatedDimension
1001
ACAD
1000
DSTYLE
1002
{
1070
   276
1070
     2
1070
    41
1040
0.125
1070
    73
1070
     0
1070
    74
1070
     0
1070
    78
1070
     3
1070
   140
1040
0.125
1070
   141
1040
0.1875
1070
   142
1040
0.125
1070
   147
1040
0.125
1070
   171
1070
     1
1070
   273
1070
     5
1070
   274
1070
     1
1070
   277
1070
     5
1070
   279
1070
     2
1070
   284
1070
     3
1070
   285
1070
     3
1070
   286
1070
     3
1002
}
  0
ARC
  5
3EA
330
1E
100
AcDbEntity
  8
ADP1DETAIL
100
AcDbCircle
 10
12.11438224903437
 20
7.722968413060255
 30
0.0
 40
0.7499999999999969
100
AcDbArc
 50
271.1235186577002
 51
302.8016517379419
  0
ARC
  5
3EB
330
1E
100
AcDbEntity
  8
ADP1DETAIL
100
AcDbCircle
 10
12.28622354396985
 20
6.623171463695347
 30
0.0
 40
0.015
100
AcDbArc
 50
270.0
 51
0.0
  0
ARC
  5
3EC
330
1E
100
AcDbEntity
  8
ADP1DETAIL
100
AcDbCircle
 10
12.01276029763581
 20
6.75347200496227
 30
0.0
 40
0.1559999999999998
100
AcDbArc
 50
80.65678061822477
 51
230.3615138867189
  0
ARC
  5
3ED
330
1E
100
AcDbEntity
  8
ADP1DETAIL
100
AcDbCircle
 10
11.8264880306316
 20
6.431495691895777
 30
0.0
 40
0.2196970135271751
100
AcDbArc
 50
358.1639806528343
 51
66.74166570965843
  0
LINE
  5
3EE
330
1E
100
AcDbEntity
  8
ADP1DETAIL
100
AcDbLine
 10
12.09938224903437
 20
6.907402436356908
 30
0.0
 11
12.03808661380417
 21
6.907402436356908
 31
0.0
  0
LINE
  5
3EF
330
1E
100
AcDbEntity
  8
ADP1DETAIL
100
AcDbLine
 10
12.19072354396985
 20
6.608171463695346
 30
0.0
 11
12.28622354396985
 21
6.608171463695346
 31
0.0
  0
ARC
  5
3F0
330
1E
100
AcDbEntity
  8
ADP1DETAIL
100
AcDbCircle
 10
12.19072354396985
 20
6.593171463695346
 30
0.0
 40
0.015
100
AcDbArc
 50
90.0
 51
180.0
  0
LINE
  5
3F1
330
1E
100
AcDbEntity
  8
ADP1DETAIL
100
AcDbLine
 10
12.17572354396985
 20
6.439456797567072
 30
0.0
 11
12.17572354396985
 21
6.593171463695346
 31
0.0
  0
LINE
  5
3F2
330
1E
100
AcDbEntity
  8
ADP1DETAIL
100
AcDbLine
 10
12.11438224903437
 20
6.922402436356908
 30
0.0
 11
12.11438224903437
 21
6.958115486021339
 31
0.0
  0
ARC
  5
3F3
330
1E
100
AcDbEntity
  8
ADP1DETAIL
100
AcDbCircle
 10
12.12938224903437
 20
6.958115486021339
 30
0.0
 40
0.015
100
AcDbArc
 50
91.12351865770264
 51
180.0
  0
ARC
  5
3F4
330
1E
100
AcDbEntity
  8
ADP1DETAIL
100
AcDbCircle
 10
12.09938224903437
 20
6.922402436356908
 30
0.0
 40
0.015
100
AcDbArc
 50
270.0
 51
0.0
  0
LINE
  5
3F5
330
1E
100
AcDbEntity
  8
ADP1DETAIL
100
AcDbLine
 10
12.04607225529127
 20
6.424456797567072
 30
0.0
 11
12.16072354396985
 21
6.424456797567072
 31
0.0
  0
ARC
  5
3F6
330
1E
100
AcDbEntity
  8
ADP1DETAIL
100
AcDbCircle
 10
12.16072354396985
 20
6.439456797567072
 30
0.0
 40
0.015
100
AcDbArc
 50
270.0
 51
0.0000000000003053
  0
LINE
  5
3F7
330
1E
100
AcDbEntity
  8
ADP1DETAIL
100
AcDbLine
 10
12.30122354396985
 20
6.796171463695345
 30
0.0
 11
12.83338224903437
 21
6.796171463695345
 31
0.0
  0
LINE
  5
3F8
330
1E
100
AcDbEntity
  8
ADP1DETAIL
100
AcDbLine
 10
12.30122354396985
 20
6.623171463695347
 30
0.0
 11
12.30122354396985
 21
6.796171463695345
 31
0.0
  0
ARC
  5
3F9
330
1E
100
AcDbEntity
  8
ADP1DETAIL
100
AcDbCircle
 10
12.83338224903437
 20
6.410852677866132
 30
0.0
 40
0.7499999999999986
100
AcDbArc
 50
90.08851858174336
 51
114.6411830056756
  0
ARC
  5
3FA
330
1E
100
AcDbEntity
  8
ADP1DETAIL
100
AcDbCircle
 10
13.6516867903039
 20
6.75347200496227
 30
0.0
 40
0.1559999999999996
100
AcDbArc
 50
309.6384861132802
 51
99.34321938177587
  0
ARC
  5
3FB
330
1E
100
AcDbEntity
  8
ADP1DETAIL
100
AcDbCircle
 10
13.83795905730811
 20
6.431495691895773
 30
0.0
 40
0.2196970135271803
100
AcDbArc
 50
113.258334290342
 51
181.8360193471644
  0
ARC
  5
3FC
330
1E
100
AcDbEntity
  8
ADP1DETAIL
100
AcDbCircle
 10
13.55006483890533
 20
7.722968413060255
 30
0.0
 40
0.75
100
AcDbArc
 50
237.1983482620581
 51
268.8764813422997
  0
ARC
  5
3FD
330
1E
100
AcDbEntity
  8
ADP1DETAIL
100
AcDbCircle
 10
13.56506483890533
 20
6.922402436356908
 30
0.0
 40
0.015
100
AcDbArc
 50
180.0
 51
270.0
  0
ARC
  5
3FE
330
1E
100
AcDbEntity
  8
ADP1DETAIL
100
AcDbCircle
 10
13.53506483890533
 20
6.958115486021339
 30
0.0
 40
0.015
100
AcDbArc
 50
0.0
 51
88.87648134229735
  0
LINE
  5
3FF
330
1E
100
AcDbEntity
  8
ADP1DETAIL
100
AcDbLine
 10
13.36322354396985
 20
6.623171463695347
 30
0.0
 11
13.36322354396985
 21
6.796171463695345
 31
0.0
  0
ARC
  5
400
330
1E
100
AcDbEntity
  8
ADP1DETAIL
100
AcDbCircle
 10
13.37822354396985
 20
6.623171463695347
 30
0.0
 40
0.015
100
AcDbArc
 50
180.0
 51
270.0
  0
LINE
  5
401
330
1E
100
AcDbEntity
  8
ADP1DETAIL
100
AcDbLine
 10
13.48872354396985
 20
6.439456797567072
 30
0.0
 11
13.48872354396985
 21
6.593171463695346
 31
0.0
  0
LINE
  5
402
330
1E
100
AcDbEntity
  8
ADP1DETAIL
100
AcDbLine
 10
13.47372354396985
 20
6.608171463695346
 30
0.0
 11
13.37822354396985
 21
6.608171463695346
 31
0.0
  0
ARC
  5
403
330
1E
100
AcDbEntity
  8
ADP1DETAIL
100
AcDbCircle
 10
13.47372354396985
 20
6.593171463695346
 30
0.0
 40
0.015
100
AcDbArc
 50
0.0
 51
90.0
  0
LINE
  5
404
330
1E
100
AcDbEntity
  8
ADP1DETAIL
100
AcDbLine
 10
13.56506483890533
 20
6.907402436356908
 30
0.0
 11
13.62636047413553
 21
6.907402436356908
 31
0.0
  0
LINE
  5
405
330
1E
100
AcDbEntity
  8
ADP1DETAIL
100
AcDbLine
 10
13.55006483890533
 20
6.922402436356908
 30
0.0
 11
13.55006483890533
 21
6.958115486021339
 31
0.0
  0
LINE
  5
406
330
1E
100
AcDbEntity
  8
ADP1DETAIL
100
AcDbLine
 10
13.61837483264843
 20
6.424456797567072
 30
0.0
 11
13.50372354396985
 21
6.424456797567072
 31
0.0
  0
ARC
  5
407
330
1E
100
AcDbEntity
  8
ADP1DETAIL
100
AcDbCircle
 10
13.50372354396985
 20
6.439456797567072
 30
0.0
 40
0.015
100
AcDbArc
 50
179.9999999999997
 51
270.0
  0
DIMENSION
  5
408
330
1E
100
AcDbEntity
  8
ADPDIM
 62
     3
100
AcDbDimension
  2
*D11
 10
13.36705674406976
 20
6.416581133663777
 30
0.0
 11
12.83580674406975
 21
6.416581133663777
 31
0.0
 70
    32
 71
     5
 42
1.0625
  3
Standard
100
AcDbAlignedDimension
 13
12.30455674406975
 23
6.60986768822404
 33
0.0
 14
13.36705674406976
 24
6.60986768822404
 34
0.0
100
AcDbRotatedDimension
1001
ACAD
1000
DSTYLE
1002
{
1070
   276
1070
     2
1070
    41
1040
0.125
1070
    73
1070
     0
1070
    74
1070
     0
1070
    78
1070
     3
1070
   140
1040
0.125
1070
   141
1040
0.1875
1070
   142
1040
0.125
1070
   147
1040
0.125
1070
   171
1070
     1
1070
   273
1070
     5
1070
   274
1070
     1
1070
   277
1070
     5
1070
   279
1070
     2
1070
   284
1070
     3
1070
   285
1070
     3
1070
   286
1070
     3
1002
}
  0
ENDSEC
  0
SECTION
  2
OBJECTS
  0
DICTIONARY
  5
C
330
0
100
AcDbDictionary
281
     1
  3
ACAD_COLOR
350
391
  3
ACAD_GROUP
350
D
  3
ACAD_LAYOUT
350
19
  3
ACAD_MATERIAL
350
37C
  3
ACAD_MLINESTYLE
350
16
  3
ACAD_PLOTSETTINGS
350
18
  3
ACAD_PLOTSTYLENAME
350
E
  3
ACAD_TABLESTYLE
350
392
  3
ACAD_VISUALSTYLE
350
380
  3
AcDbVariableDictionary
350
25E
  3
DWGPROPS
350
46B
  0
DICTIONARY
  5
229
330
1E
100
AcDbDictionary
280
     1
281
     1
  3
ACAD_LAYOUTSELFREF
360
378
  0
DICTIONARY
  5
22B
330
1A
100
AcDbDictionary
280
     1
281
     1
  3
ACAD_LAYOUTSELFREF
360
377
  0
DICTIONARY
  5
391
102
{ACAD_REACTORS
330
C
102
}
330
C
100
AcDbDictionary
281
     1
  0
DICTIONARY
  5
D
102
{ACAD_REACTORS
330
C
102
}
330
C
100
AcDbDictionary
281
     1
  0
DICTIONARY
  5
19
102
{ACAD_REACTORS
330
C
102
}
330
C
100
AcDbDictionary
281
     1
  3
Layout1
350
1D
  3
Model
350
21
  0
DICTIONARY
  5
37C
102
{ACAD_REACTORS
330
C
102
}
330
C
100
AcDbDictionary
281
     1
  3
ByBlock
350
37E
  3
ByLayer
350
37D
  3
Global
350
37F
  0
DICTIONARY
  5
16
102
{ACAD_REACTORS
330
C
102
}
330
C
100
AcDbDictionary
281
     1
  3
Standard
350
17
  0
DICTIONARY
  5
18
102
{ACAD_REACTORS
330
C
102
}
330
C
100
AcDbDictionary
281
     1
  0
ACDBDICTIONARYWDFLT
  5
E
102
{ACAD_REACTORS
330
C
102
}
330
C
100
AcDbDictionary
281
     1
  3
Normal
350
F
100
AcDbDictionaryWithDefault
340
F
  0
DICTIONARY
  5
392
102
{ACAD_REACTORS
330
C
102
}
330
C
100
AcDbDictionary
281
     1
  3
Standard
350
393
  0
DICTIONARY
  5
380
102
{ACAD_REACTORS
330
C
102
}
330
C
100
AcDbDictionary
281
     1
  3
2dWireframe
350
386
  3
3D Hidden
350
388
  3
3dWireframe
350
387
  3
Basic
350
385
  3
Brighten
350
38C
  3
ColorChange
350
390
  3
Conceptual
350
389
  3
Dim
350
38B
  3
Facepattern
350
38F
  3
Flat
350
381
  3
FlatWithEdges
350
382
  3
Gouraud
350
383
  3
GouraudWithEdges
350
384
  3
Linepattern
350
38E
  3
Realistic
350
38A
  3
Thicken
350
38D
  0
DICTIONARY
  5
25E
102
{ACAD_REACTORS
330
C
102
}
330
C
100
AcDbDictionary
281
     1
  3
CTABLESTYLE
350
468
  3
DIMASSOC
350
260
  3
HIDETEXT
350
25F
  3
INDEXCTL
350
46A
  3
SORTENTS
350
469
  0
XRECORD
  5
46B
102
{ACAD_REACTORS
330
C
102
}
330
C
100
AcDbXrecord
280
     1
  1
DWGPROPS COOKIE
  2

  3

  4

  6

  7

  8
Yu Hu
  9

300
=
301
=
302
=
303
=
304
=
305
=
306
=
307
=
308
=
309
=
 40
0.0351891550925926
 41
2450399.683882523
 42
2453984.929503703
  1

 90
        0
  0
XRECORD
  5
378
102
{ACAD_REACTORS
330
229
102
}
330
229
100
AcDbXrecord
280
     1
340
1E
  0
XRECORD
  5
377
102
{ACAD_REACTORS
330
22B
102
}
330
22B
100
AcDbXrecord
280
     1
340
1A
  0
LAYOUT
  5
1D
102
{ACAD_XDICTIONARY
360
46C
102
}
102
{ACAD_REACTORS
330
19
102
}
330
19
100
AcDbPlotSettings
  1

  2
Fax
  4

  6

 40
0.0
 41
0.0
 42
0.0
 43
0.0
 44
0.0
 45
0.0
 46
0.0
 47
0.0
 48
0.0
 49
0.0
140
0.0
141
0.0
142
1.0
143
1.0
 70
   688
 72
     0
 73
     0
 74
     5
  7
Default R14 pen assignments.ctb
 75
    16
147
1.0
148
0.0
149
0.0
100
AcDbLayout
  1
Layout1
 70
     1
 71
     1
 10
0.0
 20
0.0
 11
12.0
 21
9.0
 12
0.0004882914945483
 22
0.7501408034022604
 32
0.0
 14
1.000000000000000E+20
 24
1.000000000000000E+20
 34
1.000000000000000E+20
 15
-1.000000000000000E+20
 25
-1.000000000000000E+20
 35
-1.000000000000000E+20
146
0.0
 13
0.0
 23
0.0
 33
0.0
 16
1.0
 26
0.0
 36
0.0
 17
0.0
 27
1.0
 37
0.0
 76
     0
330
1A
  0
LAYOUT
  5
21
102
{ACAD_XDICTIONARY
360
46E
102
}
102
{ACAD_REACTORS
330
19
102
}
330
19
100
AcDbPlotSettings
  1

  2
Fax
  4

  6

 40
0.0
 41
0.0
 42
0.0
 43
0.0
 44
0.0
 45
0.0
 46
0.0
 47
0.0
 48
0.0
 49
0.0
140
0.0
141
0.0
142
1.0
143
1.0
 70
  1712
 72
     0
 73
     0
 74
     0
  7
Default R14 pen assignments.ctb
 75
     0
147
1.0
148
0.0
149
0.0
100
AcDbLayout
  1
Model
 70
     1
 71
     0
 10
0.0
 20
0.0
 11
12.0
 21
9.0
 12
0.0
 22
0.0
 32
0.0
 14
0.0
 24
0.0
 34
0.0
 15
0.0
 25
0.0
 35
0.0
146
0.0
 13
0.0
 23
0.0
 33
0.0
 16
1.0
 26
0.0
 36
0.0
 17
0.0
 27
1.0
 37
0.0
 76
     0
330
1E
331
345
  0
MATERIAL
  5
37E
102
{ACAD_XDICTIONARY
360
472
102
}
102
{ACAD_REACTORS
330
37C
102
}
330
37C
100
AcDbMaterial
  1
ByBlock
  0
MATERIAL
  5
37D
102
{ACAD_XDICTIONARY
360
470
102
}
102
{ACAD_REACTORS
330
37C
102
}
330
37C
100
AcDbMaterial
  1
ByLayer
  0
MATERIAL
  5
37F
102
{ACAD_XDICTIONARY
360
474
102
}
102
{ACAD_REACTORS
330
37C
102
}
330
37C
100
AcDbMaterial
  1
Global
  0
MLINESTYLE
  5
17
102
{ACAD_REACTORS
330
16
102
}
330
16
100
AcDbMlineStyle
  2
STANDARD
 70
     0
  3

 62
   256
 51
90.0
 52
90.0
 71
     2
 49
0.5
 62
   256
  6
BYLAYER
 49
-0.5
 62
   256
  6
BYLAYER
  0
ACDBPLACEHOLDER
  5
F
102
{ACAD_REACTORS
330
E
102
}
330
E
  0
TABLESTYLE
  5
393
102
{ACAD_XDICTIONARY
360
476
102
}
102
{ACAD_REACTORS
330
392
102
}
330
392
100
AcDbTableStyle
  3
Standard
 70
     0
 71
     0
 40
0.06
 41
0.06
280
     0
281
     0
  7
STANDARD
140
0.18
170
     2
 62
     0
 63
     7
283
     0
274
    -2
284
     1
 64
     0
275
    -2
285
     1
 65
     0
276
    -2
286
     1
 66
     0
277
    -2
287
     1
 67
     0
278
    -2
288
     1
 68
     0
279
    -2
289
     1
 69
     0
  7
STANDARD
140
0.25
170
     5
 62
     0
 63
     7
283
     0
274
    -2
284
     1
 64
     0
275
    -2
285
     1
 65
     0
276
    -2
286
     1
 66
     0
277
    -2
287
     1
 67
     0
278
    -2
288
     1
 68
     0
279
    -2
289
     1
 69
     0
  7
STANDARD
140
0.18
170
     5
 62
     0
 63
     7
283
     0
274
    -2
284
     1
 64
     0
275
    -2
285
     1
 65
     0
276
    -2
286
     1
 66
     0
277
    -2
287
     1
 67
     0
278
    -2
288
     1
 68
     0
279
    -2
289
     1
 69
     0
  0
VISUALSTYLE
  5
386
102
{ACAD_REACTORS
330
380
102
}
330
380
100
AcDbVisualStyle
  2
2dWireframe
 70
     4
 71
     0
 72
     2
 73
     0
 90
        0
 40
-0.6
 41
-30.0
 62
     5
 63
     7
 74
     1
 91
        4
 64
     7
 65
   257
 75
     1
175
     1
 42
1.0
 92
        0
 66
   257
 43
1.0
 76
     1
 77
     6
 78
     2
 67
     7
 79
     5
170
     0
171
     0
290
     0
174
     0
 93
        1
 44
0.0
173
     0
291
     0
 45
0.0
1001
ACAD
1000
AcDbSavedByObjectVersion
1070
     0
  0
VISUALSTYLE
  5
388
102
{ACAD_REACTORS
330
380
102
}
330
380
100
AcDbVisualStyle
  2
3D Hidden
 70
     6
 71
     1
 72
     2
 73
     2
 90
        0
 40
-0.6
 41
-30.0
 62
     5
 63
     7
 74
     2
 91
        2
 64
     7
 65
   257
 75
     2
175
     1
 42
40.0
 92
        0
 66
   257
 43
1.0
 76
     1
 77
     6
 78
     2
 67
     7
 79
     3
170
     0
171
     0
290
     0
174
     0
 93
        1
 44
0.0
173
     0
291
     0
 45
0.0
1001
ACAD
1000
AcDbSavedByObjectVersion
1070
     0
  0
VISUALSTYLE
  5
387
102
{ACAD_REACTORS
330
380
102
}
330
380
100
AcDbVisualStyle
  2
3dWireframe
 70
     5
 71
     0
 72
     2
 73
     0
 90
        0
 40
-0.6
 41
-30.0
 62
     5
 63
     7
 74
     1
 91
        4
 64
     7
 65
   257
 75
     1
175
     1
 42
1.0
 92
        0
 66
   257
 43
1.0
 76
     1
 77
     6
 78
     2
 67
     7
 79
     5
170
     0
171
     0
290
     0
174
     0
 93
        1
 44
0.0
173
     0
291
     0
 45
0.0
1001
ACAD
1000
AcDbSavedByObjectVersion
1070
     0
  0
VISUALSTYLE
  5
385
102
{ACAD_REACTORS
330
380
102
}
330
380
100
AcDbVisualStyle
  2
Basic
 70
     7
 71
     1
 72
     0
 73
     1
 90
        0
 40
-0.6
 41
-30.0
 62
     5
 63
     7
 74
     0
 91
        4
 64
     7
 65
   257
 75
     1
175
     1
 42
1.0
 92
        8
 66
     7
 43
1.0
 76
     1
 77
     6
 78
     2
 67
     7
 79
     5
170
     0
171
     0
290
     0
174
     0
 93
        1
 44
0.0
173
     0
291
     1
 45
0.0
1001
ACAD
1000
AcDbSavedByObjectVersion
1070
     0
  0
VISUALSTYLE
  5
38C
102
{ACAD_REACTORS
330
380
102
}
330
380
100
AcDbVisualStyle
  2
Brighten
 70
    12
 71
     2
 72
     2
 73
     0
 90
        0
 40
-0.6
 41
-30.0
 62
     5
 63
     7
 74
     1
 91
        4
 64
     7
 65
   257
 75
     1
175
     1
 42
1.0
 92
        8
 66
     7
 43
1.0
 76
     1
 77
     6
 78
     2
 67
     7
 79
     5
170
     0
171
     0
290
     0
174
     0
 93
        1
 44
50.0
173
     0
291
     1
 45
0.0
1001
ACAD
1000
AcDbSavedByObjectVersion
1070
     0
  0
VISUALSTYLE
  5
390
102
{ACAD_REACTORS
330
380
102
}
330
380
100
AcDbVisualStyle
  2
ColorChange
 70
    16
 71
     2
 72
     2
 73
     3
 90
        0
 40
-0.6
 41
-30.0
 62
     5
 63
     8
 74
     1
 91
        4
 64
     7
 65
   257
 75
     1
175
     1
 42
1.0
 92
        8
 66
     8
 43
1.0
 76
     1
 77
     6
 78
     2
 67
     7
 79
     5
170
     0
171
     0
290
     0
174
     0
 93
        1
 44
0.0
173
     0
291
     1
 45
0.0
1001
ACAD
1000
AcDbSavedByObjectVersion
1070
     0
  0
VISUALSTYLE
  5
389
102
{ACAD_REACTORS
330
380
102
}
330
380
100
AcDbVisualStyle
  2
Conceptual
 70
     9
 71
     3
 72
     2
 73
     0
 90
        0
 40
-0.6
 41
-30.0
 62
     5
 63
     7
 74
     2
 91
        2
 64
     7
 65
   257
 75
     1
175
     1
 42
40.0
 92
        8
 66
     7
 43
1.0
 76
     1
 77
     6
 78
     2
 67
     7
 79
     3
170
     0
171
     0
290
     0
174
     0
 93
        1
 44
0.0
173
     0
291
     0
 45
0.0
1001
ACAD
1000
AcDbSavedByObjectVersion
1070
     0
  0
VISUALSTYLE
  5
38B
102
{ACAD_REACTORS
330
380
102
}
330
380
100
AcDbVisualStyle
  2
Dim
 70
    11
 71
     2
 72
     2
 73
     0
 90
        0
 40
-0.6
 41
-30.0
 62
     5
 63
     7
 74
     1
 91
        4
 64
     7
 65
   257
 75
     1
175
     1
 42
1.0
 92
        8
 66
     7
 43
1.0
 76
     1
 77
     6
 78
     2
 67
     7
 79
     5
170
     0
171
     0
290
     0
174
     0
 93
        1
 44
-50.0
173
     0
291
     1
 45
0.0
1001
ACAD
1000
AcDbSavedByObjectVersion
1070
     0
  0
VISUALSTYLE
  5
38F
102
{ACAD_REACTORS
330
380
102
}
330
380
100
AcDbVisualStyle
  2
Facepattern
 70
    15
 71
     2
 72
     2
 73
     0
 90
        0
 40
-0.6
 41
-30.0
 62
     5
 63
     7
 74
     1
 91
        4
 64
     7
 65
   257
 75
     1
175
     1
 42
1.0
 92
        8
 66
     7
 43
1.0
 76
     1
 77
     6
 78
     2
 67
     7
 79
     5
170
     0
171
     0
290
     0
174
     0
 93
        1
 44
0.0
173
     0
291
     1
 45
0.0
1001
ACAD
1000
AcDbSavedByObjectVersion
1070
     0
  0
VISUALSTYLE
  5
381
102
{ACAD_REACTORS
330
380
102
}
330
380
100
AcDbVisualStyle
  2
Flat
 70
     0
 71
     2
 72
     1
 73
     1
 90
        2
 40
-0.6
 41
30.0
 62
     5
 63
     7
 74
     0
 91
        4
 64
     7
 65
   257
 75
     1
175
     1
 42
1.0
 92
        8
 66
     7
 43
1.0
 76
     1
 77
     6
 78
     2
 67
     7
 79
     5
170
     0
171
     0
290
     0
174
     0
 93
       13
 44
0.0
173
     0
291
     1
 45
0.0
1001
ACAD
1000
AcDbSavedByObjectVersion
1070
     0
  0
VISUALSTYLE
  5
382
102
{ACAD_REACTORS
330
380
102
}
330
380
100
AcDbVisualStyle
  2
FlatWithEdges
 70
     1
 71
     2
 72
     1
 73
     1
 90
        2
 40
-0.6
 41
30.0
 62
     5
 63
     7
 74
     1
 91
        4
 64
     7
 65
   257
 75
     1
175
     1
 42
1.0
 92
        0
 66
   257
 43
1.0
 76
     1
 77
     6
 78
     2
 67
     7
 79
     5
170
     0
171
     0
290
     0
174
     0
 93
       13
 44
0.0
173
     0
291
     1
 45
0.0
1001
ACAD
1000
AcDbSavedByObjectVersion
1070
     0
  0
VISUALSTYLE
  5
383
102
{ACAD_REACTORS
330
380
102
}
330
380
100
AcDbVisualStyle
  2
Gouraud
 70
     2
 71
     2
 72
     2
 73
     1
 90
        2
 40
-0.6
 41
30.0
 62
     5
 63
     7
 74
     0
 91
        4
 64
     7
 65
   257
 75
     1
175
     1
 42
1.0
 92
        0
 66
     7
 43
1.0
 76
     1
 77
     6
 78
     2
 67
     7
 79
     5
170
     0
171
     0
290
     0
174
     0
 93
       13
 44
0.0
173
     0
291
     1
 45
0.0
1001
ACAD
1000
AcDbSavedByObjectVersion
1070
     0
  0
VISUALSTYLE
  5
384
102
{ACAD_REACTORS
330
380
102
}
330
380
100
AcDbVisualStyle
  2
GouraudWithEdges
 70
     3
 71
     2
 72
     2
 73
     1
 90
        2
 40
-0.6
 41
30.0
 62
     5
 63
     7
 74
     1
 91
        4
 64
     7
 65
   257
 75
     1
175
     1
 42
1.0
 92
        0
 66
   257
 43
1.0
 76
     1
 77
     6
 78
     2
 67
     7
 79
     5
170
     0
171
     0
290
     0
174
     0
 93
       13
 44
0.0
173
     0
291
     1
 45
0.0
1001
ACAD
1000
AcDbSavedByObjectVersion
1070
     0
  0
VISUALSTYLE
  5
38E
102
{ACAD_REACTORS
330
380
102
}
330
380
100
AcDbVisualStyle
  2
Linepattern
 70
    14
 71
     2
 72
     2
 73
     0
 90
        0
 40
-0.6
 41
-30.0
 62
     5
 63
     7
 74
     1
 91
        4
 64
     7
 65
   257
 75
     7
175
     7
 42
1.0
 92
        8
 66
     7
 43
1.0
 76
     1
 77
     6
 78
     2
 67
     7
 79
     5
170
     0
171
     0
290
     0
174
     0
 93
        1
 44
0.0
173
     0
291
     1
 45
0.0
1001
ACAD
1000
AcDbSavedByObjectVersion
1070
     0
  0
VISUALSTYLE
  5
38A
102
{ACAD_REACTORS
330
380
102
}
330
380
100
AcDbVisualStyle
  2
Realistic
 70
     8
 71
     2
 72
     2
 73
     0
 90
        0
 40
-0.6
 41
-30.0
 62
     5
 63
     7
 74
     1
 91
        0
 64
     7
 65
   257
 75
     1
175
     1
 42
1.0
 92
        8
 66
     8
 43
1.0
 76
     1
 77
     6
 78
     2
 67
     7
 79
     5
170
     0
171
     0
290
     0
174
     0
 93
       13
 44
0.0
173
     0
291
     0
 45
0.0
1001
ACAD
1000
AcDbSavedByObjectVersion
1070
     0
  0
VISUALSTYLE
  5
38D
102
{ACAD_REACTORS
330
380
102
}
330
380
100
AcDbVisualStyle
  2
Thicken
 70
    13
 71
     2
 72
     2
 73
     0
 90
        0
 40
-0.6
 41
-30.0
 62
     5
 63
     7
 74
     1
 91
        4
 64
     7
 65
   257
 75
     1
175
     1
 42
1.0
 92
       12
 66
     7
 43
1.0
 76
     1
 77
     6
 78
     2
 67
     7
 79
     5
170
     0
171
     0
290
     0
174
     0
 93
        1
 44
0.0
173
     0
291
     1
 45
0.0
1001
ACAD
1000
AcDbSavedByObjectVersion
1070
     0
  0
DICTIONARYVAR
  5
468
102
{ACAD_REACTORS
330
25E
102
}
330
25E
100
DictionaryVariables
280
     0
  1
STANDARD
  0
DICTIONARYVAR
  5
260
102
{ACAD_REACTORS
330
25E
102
}
330
25E
100
DictionaryVariables
280
     0
  1
2
  0
DICTIONARYVAR
  5
25F
102
{ACAD_REACTORS
330
25E
102
}
330
25E
100
DictionaryVariables
280
     0
  1
1
  0
DICTIONARYVAR
  5
46A
102
{ACAD_REACTORS
330
25E
102
}
330
25E
100
DictionaryVariables
280
     0
  1
0
  0
DICTIONARYVAR
  5
469
102
{ACAD_REACTORS
330
25E
102
}
330
25E
100
DictionaryVariables
280
     0
  1
127
  0
DICTIONARY
  5
46C
330
1D
100
AcDbDictionary
280
     1
281
     1
  3
ACAD_XREC_ROUNDTRIP
360
46D
  0
DICTIONARY
  5
46E
330
21
100
AcDbDictionary
280
     1
281
     1
  3
ACAD_XREC_ROUNDTRIP
360
46F
  0
DICTIONARY
  5
472
330
37E
100
AcDbDictionary
280
     1
281
     1
  3
ACAD_XREC_ROUNDTRIP
360
473
  0
DICTIONARY
  5
470
330
37D
100
AcDbDictionary
280
     1
281
     1
  3
ACAD_XREC_ROUNDTRIP
360
471
  0
DICTIONARY
  5
474
330
37F
100
AcDbDictionary
280
     1
281
     1
  3
ACAD_XREC_ROUNDTRIP
360
475
  0
DICTIONARY
  5
476
330
393
100
AcDbDictionary
280
     1
281
     1
  3
ACAD_XREC_ROUNDTRIP
360
477
  0
XRECORD
  5
46D
102
{ACAD_REACTORS
330
46C
102
}
330
46C
100
AcDbXrecord
280
     1
102
SHADEPLOT
 70
     0
102
SHADEPLOTRESLEVEL
 70
     2
102
SHADEPLOTCUSTOMDPI
 70
   300
  0
XRECORD
  5
46F
102
{ACAD_REACTORS
330
46E
102
}
330
46E
100
AcDbXrecord
280
     1
102
SHADEPLOT
 70
     0
102
SHADEPLOTRESLEVEL
 70
     2
102
SHADEPLOTCUSTOMDPI
 70
   300
  0
XRECORD
  5
473
102
{ACAD_REACTORS
330
472
102
}
330
472
100
AcDbXrecord
280
     1
102
MATERIAL
148
0.0
149
0.0
149
0.0
 93
        0
 94
       63
282
     0
 72
     1
 77
     1
171
     1
175
     1
179
     1
273
     0
  0
XRECORD
  5
471
102
{ACAD_REACTORS
330
470
102
}
330
470
100
AcDbXrecord
280
     1
102
MATERIAL
148
0.0
149
0.0
149
0.0
 93
        0
 94
       63
282
     0
 72
     1
 77
     1
171
     1
175
     1
179
     1
273
     0
  0
XRECORD
  5
475
102
{ACAD_REACTORS
330
474
102
}
330
474
100
AcDbXrecord
280
     1
102
MATERIAL
148
0.0
149
0.0
149
0.0
 93
        0
 94
       63
282
     0
 72
     1
 77
     1
171
     1
175
     1
179
     1
273
     0
  0
XRECORD
  5
477
102
{ACAD_REACTORS
330
476
102
}
330
476
100
AcDbXrecord
280
     1
102
ACAD_ROUNDTRIP_PRE2007_TABLESTYLE
 90
      512
 91
        0
  1

 92
      512
 93
        0
  2

 94
      512
 95
        0
  3

  0
ENDSEC
  0
EOF
