  0
SECTION
  2
HEADER
  9
$ACADVER
  1
AC1014
  9
$ACADMAINTVER
 70
     9
  9
$DWGCODEPAGE
  3
ANSI_1252
  9
$INSBASE
 10
18.20914808419436
 20
-5.313048698866317
 30
0.0
  9
$EXTMIN
 10
3.849368070551804
 20
-15.2319986729573
 30
0.0
  9
$EXTMAX
 10
30.63142809783693
 20
-0.5005486988663196
 30
0.0
  9
$LIMMIN
 10
0.0
 20
0.0
  9
$LIMMAX
 10
36.0
 20
36.0
  9
$ORTHOMODE
 70
     1
  9
$REGENMODE
 70
     1
  9
$FILLMODE
 70
     1
  9
$QTEXTMODE
 70
     0
  9
$MIRRTEXT
 70
     1
  9
$DRAGMODE
 70
     0
  9
$LTSCALE
 40
1.0
  9
$OSMODE
 70
    37
  9
$ATTMODE
 70
     1
  9
$TEXTSIZE
 40
0.2
  9
$TRACEWID
 40
0.05
  9
$TEXTSTYLE
  7
STANDARD
  9
$CLAYER
  8
0
  9
$CELTYPE
  6
BYLAYER
  9
$CECOLOR
 62
   256
  9
$CELTSCALE
 40
1.0
  9
$DELOBJ
 70
     1
  9
$DISPSILH
 70
     0
  9
$DIMSCALE
 40
1.0
  9
$DIMASZ
 40
0.125
  9
$DIMEXO
 40
0.0625
  9
$DIMDLI
 40
0.38
  9
$DIMRND
 40
0.0
  9
$DIMDLE
 40
0.0
  9
$DIMEXE
 40
0.18
  9
$DIMTP
 40
0.0
  9
$DIMTM
 40
0.0
  9
$DIMTXT
 40
0.125
  9
$DIMCEN
 40
0.1875
  9
$DIMTSZ
 40
0.125
  9
$DIMTOL
 70
     0
  9
$DIMLIM
 70
     0
  9
$DIMTIH
 70
     0
  9
$DIMTOH
 70
     0
  9
$DIMSE1
 70
     0
  9
$DIMSE2
 70
     0
  9
$DIMTAD
 70
     0
  9
$DIMZIN
 70
     3
  9
$DIMBLK
  1

  9
$DIMASO
 70
     1
  9
$DIMSHO
 70
     1
  9
$DIMPOST
  1

  9
$DIMAPOST
  1

  9
$DIMALT
 70
     0
  9
$DIMALTD
 70
     1
  9
$DIMALTF
 40
25.4
  9
$DIMLFAC
 40
1.0
  9
$DIMTOFL
 70
     0
  9
$DIMTVP
 40
0.0
  9
$DIMTIX
 70
     0
  9
$DIMSOXD
 70
     0
  9
$DIMSAH
 70
     0
  9
$DIMBLK1
  1

  9
$DIMBLK2
  1

  9
$DIMSTYLE
  2
STANDARD
  9
$DIMCLRD
 70
     0
  9
$DIMCLRE
 70
     0
  9
$DIMCLRT
 70
     0
  9
$DIMTFAC
 40
1.0
  9
$DIMGAP
 40
0.125
  9
$DIMJUST
 70
     0
  9
$DIMSD1
 70
     0
  9
$DIMSD2
 70
     0
  9
$DIMTOLJ
 70
     1
  9
$DIMTZIN
 70
     3
  9
$DIMALTZ
 70
     3
  9
$DIMALTTZ
 70
     3
  9
$DIMFIT
 70
     5
  9
$DIMUPT
 70
     0
  9
$DIMUNIT
 70
     5
  9
$DIMDEC
 70
     4
  9
$DIMTDEC
 70
     4
  9
$DIMALTU
 70
     5
  9
$DIMALTTD
 70
     1
  9
$DIMTXSTY
  7
STANDARD
  9
$DIMAUNIT
 70
     0
  9
$LUNITS
 70
     5
  9
$LUPREC
 70
     4
  9
$SKETCHINC
 40
0.1
  9
$FILLETRAD
 40
0.187
  9
$AUNITS
 70
     0
  9
$AUPREC
 70
     0
  9
$MENU
  1
acad
  9
$ELEVATION
 40
0.0
  9
$PELEVATION
 40
0.0
  9
$THICKNESS
 40
0.0
  9
$LIMCHECK
 70
     0
  9
$BLIPMODE
 70
     0
  9
$CHAMFERA
 40
0.0
  9
$CHAMFERB
 40
0.0
  9
$CHAMFERC
 40
0.0
  9
$CHAMFERD
 40
0.0
  9
$SKPOLY
 70
     0
  9
$TDCREATE
 40
2450399.667939618
  9
$TDUPDATE
 40
2452297.096961261
  9
$TDINDWG
 40
0.0334749190
  9
$TDUSRTIMER
 40
0.0334749190
  9
$USRTIMER
 70
     1
  9
$ANGBASE
 50
0.0
  9
$ANGDIR
 70
     0
  9
$PDMODE
 70
     0
  9
$PDSIZE
 40
0.0
  9
$PLINEWID
 40
0.0
  9
$COORDS
 70
     2
  9
$SPLFRAME
 70
     0
  9
$SPLINETYPE
 70
     6
  9
$SPLINESEGS
 70
     8
  9
$ATTDIA
 70
     0
  9
$ATTREQ
 70
     1
  9
$HANDLING
 70
 22529
  9
$HANDSEED
  5
2F1
  9
$SURFTAB1
 70
     6
  9
$SURFTAB2
 70
     6
  9
$SURFTYPE
 70
     6
  9
$SURFU
 70
     6
  9
$SURFV
 70
     6
  9
$UCSNAME
  2

  9
$UCSORG
 10
0.0
 20
0.0
 30
0.0
  9
$UCSXDIR
 10
1.0
 20
0.0
 30
0.0
  9
$UCSYDIR
 10
0.0
 20
1.0
 30
0.0
  9
$PUCSNAME
  2

  9
$PUCSORG
 10
0.0
 20
0.0
 30
0.0
  9
$PUCSXDIR
 10
1.0
 20
0.0
 30
0.0
  9
$PUCSYDIR
 10
0.0
 20
1.0
 30
0.0
  9
$USERI1
 70
     0
  9
$USERI2
 70
     0
  9
$USERI3
 70
     0
  9
$USERI4
 70
     0
  9
$USERI5
 70
     0
  9
$USERR1
 40
0.0
  9
$USERR2
 40
0.0
  9
$USERR3
 40
0.0
  9
$USERR4
 40
0.0
  9
$USERR5
 40
0.0
  9
$WORLDVIEW
 70
     1
  9
$SHADEDGE
 70
     3
  9
$SHADEDIF
 70
    70
  9
$TILEMODE
 70
     1
  9
$MAXACTVP
 70
    15
  9
$PINSBASE
 10
0.0004882914945483
 20
0.7501408034022604
 30
0.0
  9
$PLIMCHECK
 70
     0
  9
$PEXTMIN
 10
1.000000000000000E+20
 20
1.000000000000000E+20
 30
1.000000000000000E+20
  9
$PEXTMAX
 10
-1.000000000000000E+20
 20
-1.000000000000000E+20
 30
-1.000000000000000E+20
  9
$PLIMMIN
 10
0.0
 20
0.0
  9
$PLIMMAX
 10
12.0
 20
9.0
  9
$UNITMODE
 70
     0
  9
$VISRETAIN
 70
     0
  9
$PLINEGEN
 70
     0
  9
$PSLTSCALE
 70
     1
  9
$TREEDEPTH
 70
  3020
  9
$PICKSTYLE
 70
     1
  9
$CMLSTYLE
  2
STANDARD
  9
$CMLJUST
 70
     0
  9
$CMLSCALE
 40
1.0
  9
$PROXYGRAPHICS
 70
     1
  9
$MEASUREMENT
 70
     0
  0
ENDSEC
  0
SECTION
  2
CLASSES
  0
CLASS
  1
ACDBDICTIONARYWDFLT
  2
AcDbDictionaryWithDefault
  3
AutoCAD 2000
 90
        0
280
     0
281
     0
  0
CLASS
  1
ACDBPLACEHOLDER
  2
AcDbPlaceHolder
  3
AutoCAD 2000
 90
        0
280
     0
281
     0
  0
CLASS
  1
LAYOUT
  2
AcDbLayout
  3
AutoCAD 2000
 90
        0
280
     0
281
     0
  0
CLASS
  1
DICTIONARYVAR
  2
AcDbDictionaryVar
  3
AutoCAD 2000
 90
        0
280
     0
281
     0
  0
CLASS
  1
LONG_TRANSACTION
  2
AcDbLongTransaction
  3
AutoCAD 2000
 90
        0
280
     0
281
     0
  0
CLASS
  1
LWPOLYLINE
  2
AcDbPolyline
  3
AutoCAD 2000
 90
        0
280
     0
281
     1
  0
CLASS
  1
HATCH
  2
AcDbHatch
  3
AutoCAD 2000
 90
        0
280
     0
281
     1
  0
CLASS
  1
XRECORD
  2
AcDbXrecord
  3
AutoCAD 2000
 90
        0
280
     0
281
     0
  0
CLASS
  1
LONG_TRANSACTION
  2
AcDbLongTransaction
  3
AutoCAD 2000
 90
        0
280
     0
281
     0
  0
CLASS
  1
LWPOLYLINE
  2
AcDbPolyline
  3
AutoCAD 2000
 90
        0
280
     0
281
     1
  0
CLASS
  1
HATCH
  2
AcDbHatch
  3
AutoCAD 2000
 90
        0
280
     0
281
     1
  0
CLASS
  1
XRECORD
  2
AcDbXrecord
  3
AutoCAD 2000
 90
        0
280
     0
281
     0
  0
CLASS
  1
LONG_TRANSACTION
  2
AcDbLongTransaction
  3
AutoCAD 2000
 90
        0
280
     0
281
     0
  0
CLASS
  1
LWPOLYLINE
  2
AcDbPolyline
  3
AutoCAD 2000
 90
        0
280
     0
281
     1
  0
CLASS
  1
HATCH
  2
AcDbHatch
  3
AutoCAD 2000
 90
        0
280
     0
281
     1
  0
CLASS
  1
XRECORD
  2
AcDbXrecord
  3
AutoCAD 2000
 90
        0
280
     0
281
     0
  0
CLASS
  1
LONG_TRANSACTION
  2
AcDbLongTransaction
  3
AutoCAD 2000
 90
        0
280
     0
281
     0
  0
CLASS
  1
LWPOLYLINE
  2
AcDbPolyline
  3
AutoCAD 2000
 90
        0
280
     0
281
     1
  0
CLASS
  1
HATCH
  2
AcDbHatch
  3
AutoCAD 2000
 90
        0
280
     0
281
     1
  0
CLASS
  1
XRECORD
  2
AcDbXrecord
  3
AutoCAD 2000
 90
        0
280
     0
281
     0
  0
CLASS
  1
LONG_TRANSACTION
  2
AcDbLongTransaction
  3
AutoCAD 2000
 90
        0
280
     0
281
     0
  0
CLASS
  1
LWPOLYLINE
  2
AcDbPolyline
  3
AutoCAD 2000
 90
        0
280
     0
281
     1
  0
CLASS
  1
HATCH
  2
AcDbHatch
  3
AutoCAD 2000
 90
        0
280
     0
281
     1
  0
CLASS
  1
XRECORD
  2
AcDbXrecord
  3
AutoCAD 2000
 90
        0
280
     0
281
     0
  0
ENDSEC
  0
SECTION
  2
TABLES
  0
TABLE
  2
VPORT
  5
8
330
0
100
AcDbSymbolTable
 70
     2
  0
VPORT
  5
2CD
330
8
100
AcDbSymbolTableRecord
100
AcDbViewportTableRecord
  2
*ACTIVE
 70
     0
 10
0.0
 20
0.0
 11
1.0
 21
1.0
 12
17.26081420029873
 22
-7.865453173120272
 13
0.0
 23
0.0
 14
0.5740882589684922
 24
0.5740882589684922
 15
0.5
 25
0.5
 16
0.0
 26
0.0
 36
1.0
 17
0.0
 27
0.0
 37
0.0
 40
17.16416797718497
 41
1.570528967254408
 42
50.0
 43
0.0
 44
0.0
 50
0.0
 51
0.0
 71
     0
 72
   100
 73
     1
 74
     0
 75
     0
 76
     0
 77
     0
 78
     0
  0
ENDTAB
  0
TABLE
  2
LTYPE
  5
5
330
0
100
AcDbSymbolTable
 70
     1
  0
LTYPE
  5
13
330
5
100
AcDbSymbolTableRecord
100
AcDbLinetypeTableRecord
  2
BYBLOCK
 70
     0
  3

 72
    65
 73
     0
 40
0.0
  0
LTYPE
  5
14
330
5
100
AcDbSymbolTableRecord
100
AcDbLinetypeTableRecord
  2
BYLAYER
 70
     0
  3

 72
    65
 73
     0
 40
0.0
  0
LTYPE
  5
15
330
5
100
AcDbSymbolTableRecord
100
AcDbLinetypeTableRecord
  2
CONTINUOUS
 70
     0
  3
Solid line
 72
    65
 73
     0
 40
0.0
  0
ENDTAB
  0
TABLE
  2
LAYER
  5
2
330
0
100
AcDbSymbolTable
 70
     4
  0
LAYER
  5
10
330
2
100
AcDbSymbolTableRecord
100
AcDbLayerTableRecord
  2
0
 70
     0
 62
     7
  6
CONTINUOUS
  0
LAYER
  5
65
330
2
100
AcDbSymbolTableRecord
100
AcDbLayerTableRecord
  2
ADP1DETAIL
 70
     0
 62
     7
  6
CONTINUOUS
  0
LAYER
  5
67
330
2
100
AcDbSymbolTableRecord
100
AcDbLayerTableRecord
  2
DEFPOINTS
 70
     0
 62
     7
  6
CONTINUOUS
  0
LAYER
  5
68
330
2
100
AcDbSymbolTableRecord
100
AcDbLayerTableRecord
  2
ADPDIM
 70
     0
 62
     3
  6
CONTINUOUS
  0
ENDTAB
  0
TABLE
  2
STYLE
  5
3
330
0
100
AcDbSymbolTable
 70
     2
  0
STYLE
  5
11
330
3
100
AcDbSymbolTableRecord
100
AcDbTextStyleTableRecord
  2
STANDARD
 70
     0
 40
0.0
 41
1.0
 50
0.0
 71
     0
 42
0.2
  3
txt
  4

  0
STYLE
  5
13A
330
3
100
AcDbSymbolTableRecord
100
AcDbTextStyleTableRecord
  2
ARIAL_WIDE
 70
     0
 40
0.0
 41
1.25
 50
0.0
 71
     0
 42
0.2
  3
ARIAL.TTF
  4

1001
ACAD
1000
Arial
1071
       34
  0
ENDTAB
  0
TABLE
  2
VIEW
  5
6
330
0
100
AcDbSymbolTable
 70
     0
  0
ENDTAB
  0
TABLE
  2
UCS
  5
7
330
0
100
AcDbSymbolTable
 70
     0
  0
ENDTAB
  0
TABLE
  2
APPID
  5
9
330
0
100
AcDbSymbolTable
 70
     1
  0
APPID
  5
12
330
9
100
AcDbSymbolTableRecord
100
AcDbRegAppTableRecord
  2
ACAD
 70
     0
  0
ENDTAB
  0
TABLE
  2
DIMSTYLE
  5
A
330
0
100
AcDbSymbolTable
 70
     1
  0
DIMSTYLE
105
138
330
A
100
AcDbSymbolTableRecord
100
AcDbDimStyleTableRecord
  2
STANDARD
 70
     0
  3

  4

  5

  6

  7

 40
1.0
 41
0.18
 42
0.0625
 43
0.38
 44
0.18
 45
0.0
 46
0.0
 47
0.0
 48
0.0
140
0.18
141
0.09
142
0.0
143
25.4
144
1.0
145
0.0
146
1.0
147
0.09
 71
     0
 72
     0
 73
     1
 74
     1
 75
     0
 76
     0
 77
     0
 78
     0
170
     0
171
     2
172
     0
173
     0
174
     0
175
     0
176
     0
177
     0
178
     0
270
     2
271
     4
272
     4
273
     2
274
     2
340
11
275
     0
280
     0
281
     0
282
     0
283
     1
284
     0
285
     0
286
     0
287
     3
288
     0
  0
ENDTAB
  0
TABLE
  2
BLOCK_RECORD
  5
1
330
0
100
AcDbSymbolTable
 70
     5
  0
BLOCK_RECORD
  5
1E
102
{ACAD_XDICTIONARY
360
177
102
}
330
1
100
AcDbSymbolTableRecord
100
AcDbBlockTableRecord
  2
*MODEL_SPACE
  0
BLOCK_RECORD
  5
1A
102
{ACAD_XDICTIONARY
360
179
102
}
330
1
100
AcDbSymbolTableRecord
100
AcDbBlockTableRecord
  2
*PAPER_SPACE
  0
BLOCK_RECORD
  5
5D
330
1
100
AcDbSymbolTableRecord
100
AcDbBlockTableRecord
  2
*D0
  0
BLOCK_RECORD
  5
5E
330
1
100
AcDbSymbolTableRecord
100
AcDbBlockTableRecord
  2
*D1
  0
BLOCK_RECORD
  5
5F
330
1
100
AcDbSymbolTableRecord
100
AcDbBlockTableRecord
  2
*D2
  0
BLOCK_RECORD
  5
60
330
1
100
AcDbSymbolTableRecord
100
AcDbBlockTableRecord
  2
*D3
  0
BLOCK_RECORD
  5
61
330
1
100
AcDbSymbolTableRecord
100
AcDbBlockTableRecord
  2
*D4
  0
ENDTAB
  0
ENDSEC
  0
SECTION
  2
BLOCKS
  0
BLOCK
  5
6B
330
1E
100
AcDbEntity
  8
0
100
AcDbBlockBegin
  2
*MODEL_SPACE
 70
     0
 10
0.0
 20
0.0
 30
0.0
  3
*MODEL_SPACE
  1

  0
ENDBLK
  5
6C
330
1E
100
AcDbEntity
  8
0
100
AcDbBlockEnd
  0
BLOCK
  5
69
330
1A
100
AcDbEntity
 67
     1
  8
0
100
AcDbBlockBegin
  2
*PAPER_SPACE
 70
     0
 10
0.0
 20
0.0
 30
0.0
  3
*PAPER_SPACE
  1

  0
ENDBLK
  5
6A
330
1A
100
AcDbEntity
 67
     1
  8
0
100
AcDbBlockEnd
  0
BLOCK
  5
6E
330
5D
100
AcDbEntity
  8
0
100
AcDbBlockBegin
  2
*D0
 70
     1
 10
0.0
 20
0.0
 30
0.0
  3
*D0
  1

  0
LINE
  5
6F
330
5D
100
AcDbEntity
  8
0
  6
BYBLOCK
 62
     0
100
AcDbLine
 10
15.58414808419436
 20
-0.6255486988663197
 30
0.0
 11
14.7440557048201
 21
-0.6255486988663196
 31
0.0
  0
LINE
  5
70
330
5D
100
AcDbEntity
  8
0
  6
BYBLOCK
 62
     0
100
AcDbLine
 10
15.52164808419436
 20
-3.813048698866319
 30
0.0
 11
14.7440557048201
 21
-3.813048698866319
 31
0.0
  0
LINE
  5
71
330
5D
100
AcDbEntity
  8
0
  6
BYBLOCK
 62
     0
100
AcDbLine
 10
14.9240557048201
 20
-0.6255486988663196
 30
0.0
 11
14.9240557048201
 21
-1.760965365532986
 31
0.0
  0
LINE
  5
72
330
5D
100
AcDbEntity
  8
0
  6
BYBLOCK
 62
     0
100
AcDbLine
 10
14.9240557048201
 20
-3.813048698866319
 30
0.0
 11
14.9240557048201
 21
-2.677632032199653
 31
0.0
  0
LINE
  5
73
330
5D
100
AcDbEntity
  8
0
  6
BYBLOCK
 62
     0
100
AcDbLine
 10
15.0490557048201
 20
-0.7505486988663196
 30
0.0
 11
14.7990557048201
 21
-0.5005486988663196
 31
0.0
  0
LINE
  5
74
330
5D
100
AcDbEntity
  8
0
  6
BYBLOCK
 62
     0
100
AcDbLine
 10
15.0490557048201
 20
-3.938048698866319
 30
0.0
 11
14.7990557048201
 21
-3.688048698866319
 31
0.0
  0
TEXT
  5
75
330
5D
100
AcDbEntity
  8
0
  6
BYBLOCK
 62
     0
100
AcDbText
 10
14.9865557048201
 20
-2.552632032199653
 30
0.0
 40
0.125
  1
3 3/16
 50
90.0
 72
     1
 11
14.9240557048201
 21
-2.219298698866319
 31
0.0
100
AcDbText
 73
     2
  0
POINT
  5
77
330
5D
100
AcDbEntity
  8
DEFPOINTS
  6
BYBLOCK
 62
     0
100
AcDbPoint
 10
15.64664808419436
 20
-0.6255486988663197
 30
0.0
  0
POINT
  5
78
330
5D
100
AcDbEntity
  8
DEFPOINTS
  6
BYBLOCK
 62
     0
100
AcDbPoint
 10
15.58414808419436
 20
-3.813048698866319
 30
0.0
  0
POINT
  5
79
330
5D
100
AcDbEntity
  8
DEFPOINTS
  6
BYBLOCK
 62
     0
100
AcDbPoint
 10
14.9240557048201
 20
-3.813048698866319
 30
0.0
  0
ENDBLK
  5
7A
330
5D
100
AcDbEntity
  8
0
100
AcDbBlockEnd
  0
BLOCK
  5
7B
330
5E
100
AcDbEntity
  8
0
100
AcDbBlockBegin
  2
*D1
 70
     1
 10
0.0
 20
0.0
 30
0.0
  3
*D1
  1

  0
LINE
  5
7C
330
5E
100
AcDbEntity
  8
0
  6
BYBLOCK
 62
     0
100
AcDbLine
 10
15.95914808419436
 20
-13.02426405958222
 30
0.0
 11
15.95914808419436
 21
-13.99646097119237
 31
0.0
  0
LINE
  5
7D
330
5E
100
AcDbEntity
  8
0
  6
BYBLOCK
 62
     0
100
AcDbLine
 10
18.52164808419436
 20
-13.02426405958222
 30
0.0
 11
18.52164808419436
 21
-13.99646097119237
 31
0.0
  0
LINE
  5
7E
330
5E
100
AcDbEntity
  8
0
  6
BYBLOCK
 62
     0
100
AcDbLine
 10
15.95914808419436
 20
-13.81646097119237
 30
0.0
 11
16.78206475086103
 21
-13.81646097119237
 31
0.0
  0
LINE
  5
7F
330
5E
100
AcDbEntity
  8
0
  6
BYBLOCK
 62
     0
100
AcDbLine
 10
18.52164808419436
 20
-13.81646097119237
 30
0.0
 11
17.69873141752769
 21
-13.81646097119237
 31
0.0
  0
LINE
  5
80
330
5E
100
AcDbEntity
  8
0
  6
BYBLOCK
 62
     0
100
AcDbLine
 10
15.83414808419436
 20
-13.94146097119237
 30
0.0
 11
16.08414808419436
 21
-13.69146097119237
 31
0.0
  0
LINE
  5
81
330
5E
100
AcDbEntity
  8
0
  6
BYBLOCK
 62
     0
100
AcDbLine
 10
18.39664808419436
 20
-13.94146097119237
 30
0.0
 11
18.64664808419436
 21
-13.69146097119237
 31
0.0
  0
TEXT
  5
82
330
5E
100
AcDbEntity
  8
0
  6
BYBLOCK
 62
     0
100
AcDbText
 10
16.90706475086103
 20
-13.87896097119237
 30
0.0
 40
0.125
  1
2 9/16
 72
     1
 11
17.24039808419436
 21
-13.81646097119237
 31
0.0
100
AcDbText
 73
     2
  0
POINT
  5
83
330
5E
100
AcDbEntity
  8
DEFPOINTS
  6
BYBLOCK
 62
     0
100
AcDbPoint
 10
15.95914808419436
 20
-12.96176405958222
 30
0.0
  0
POINT
  5
84
330
5E
100
AcDbEntity
  8
DEFPOINTS
  6
BYBLOCK
 62
     0
100
AcDbPoint
 10
18.52164808419436
 20
-12.96176405958222
 30
0.0
  0
POINT
  5
85
330
5E
100
AcDbEntity
  8
DEFPOINTS
  6
BYBLOCK
 62
     0
100
AcDbPoint
 10
18.52164808419436
 20
-13.81646097119237
 30
0.0
  0
ENDBLK
  5
86
330
5E
100
AcDbEntity
  8
0
100
AcDbBlockEnd
  0
BLOCK
  5
87
330
5F
100
AcDbEntity
  8
0
100
AcDbBlockBegin
  2
*D2
 70
     1
 10
0.0
 20
0.0
 30
0.0
  3
*D2
  1

  0
LINE
  5
88
330
5F
100
AcDbEntity
  8
0
  6
BYBLOCK
 62
     0
100
AcDbLine
 10
16.58389808419436
 20
-7.112690179189925
 30
0.0
 11
16.58389808419436
 21
-7.434833324190574
 31
0.0
  0
LINE
  5
89
330
5F
100
AcDbEntity
  8
0
  6
BYBLOCK
 62
     0
100
AcDbLine
 10
17.89689808419436
 20
-7.112690179189925
 30
0.0
 11
17.89689808419436
 21
-7.434833324190574
 31
0.0
  0
LINE
  5
8A
330
5F
100
AcDbEntity
  8
0
  6
BYBLOCK
 62
     0
100
AcDbLine
 10
16.58389808419436
 20
-7.254833324190574
 30
0.0
 11
16.33389808419436
 21
-7.254833324190574
 31
0.0
  0
LINE
  5
8B
330
5F
100
AcDbEntity
  8
0
  6
BYBLOCK
 62
     0
100
AcDbLine
 10
17.89689808419436
 20
-7.254833324190574
 30
0.0
 11
18.14689808419436
 21
-7.254833324190574
 31
0.0
  0
LINE
  5
8C
330
5F
100
AcDbEntity
  8
0
  6
BYBLOCK
 62
     0
100
AcDbLine
 10
16.45889808419436
 20
-7.379833324190574
 30
0.0
 11
16.70889808419436
 21
-7.129833324190574
 31
0.0
  0
LINE
  5
8D
330
5F
100
AcDbEntity
  8
0
  6
BYBLOCK
 62
     0
100
AcDbLine
 10
17.77189808419436
 20
-7.379833324190574
 30
0.0
 11
18.02189808419436
 21
-7.129833324190574
 31
0.0
  0
TEXT
  5
8E
330
5F
100
AcDbEntity
  8
0
  6
BYBLOCK
 62
     0
100
AcDbText
 10
18.27189808419436
 20
-7.317333324190574
 30
0.0
 40
0.125
  1
1 5/16
 72
     1
 11
18.58439808419436
 21
-7.254833324190574
 31
0.0
100
AcDbText
 73
     2
  0
POINT
  5
8F
330
5F
100
AcDbEntity
  8
DEFPOINTS
  6
BYBLOCK
 62
     0
100
AcDbPoint
 10
16.58389808419436
 20
-7.050190179189925
 30
0.0
  0
POINT
  5
90
330
5F
100
AcDbEntity
  8
DEFPOINTS
  6
BYBLOCK
 62
     0
100
AcDbPoint
 10
17.89689808419436
 20
-7.050190179189925
 30
0.0
  0
POINT
  5
91
330
5F
100
AcDbEntity
  8
DEFPOINTS
  6
BYBLOCK
 62
     0
100
AcDbPoint
 10
17.89689808419436
 20
-7.254833324190574
 30
0.0
  0
ENDBLK
  5
92
330
5F
100
AcDbEntity
  8
0
100
AcDbBlockEnd
  0
BLOCK
  5
93
330
60
100
AcDbEntity
  8
0
100
AcDbBlockBegin
  2
*D3
 70
     1
 10
0.0
 20
0.0
 30
0.0
  3
*D3
  1

  0
LINE
  5
94
330
60
100
AcDbEntity
  8
0
  6
BYBLOCK
 62
     0
100
AcDbLine
 10
16.27897055333274
 20
-6.609005489667735
 30
0.0
 11
16.27897055333274
 21
-5.748289945314263
 31
0.0
  0
LINE
  5
95
330
60
100
AcDbEntity
  8
0
  6
BYBLOCK
 62
     0
100
AcDbLine
 10
18.21647055333274
 20
-6.609005489667735
 30
0.0
 11
18.21647055333274
 21
-5.748289945314263
 31
0.0
  0
LINE
  5
96
330
60
100
AcDbEntity
  8
0
  6
BYBLOCK
 62
     0
100
AcDbLine
 10
16.27897055333274
 20
-5.928289945314263
 30
0.0
 11
16.76855388666607
 21
-5.928289945314263
 31
0.0
  0
LINE
  5
97
330
60
100
AcDbEntity
  8
0
  6
BYBLOCK
 62
     0
100
AcDbLine
 10
18.21647055333274
 20
-5.928289945314263
 30
0.0
 11
17.72688721999941
 21
-5.928289945314263
 31
0.0
  0
LINE
  5
98
330
60
100
AcDbEntity
  8
0
  6
BYBLOCK
 62
     0
100
AcDbLine
 10
16.15397055333274
 20
-6.053289945314263
 30
0.0
 11
16.40397055333274
 21
-5.803289945314263
 31
0.0
  0
LINE
  5
99
330
60
100
AcDbEntity
  8
0
  6
BYBLOCK
 62
     0
100
AcDbLine
 10
18.09147055333274
 20
-6.053289945314263
 30
0.0
 11
18.34147055333274
 21
-5.803289945314263
 31
0.0
  0
TEXT
  5
9A
330
60
100
AcDbEntity
  8
0
  6
BYBLOCK
 62
     0
100
AcDbText
 10
16.89355388666608
 20
-5.990789945314263
 30
0.0
 40
0.125
  1
1 15/16
 72
     1
 11
17.24772055333274
 21
-5.928289945314263
 31
0.0
100
AcDbText
 73
     2
  0
POINT
  5
9B
330
60
100
AcDbEntity
  8
DEFPOINTS
  6
BYBLOCK
 62
     0
100
AcDbPoint
 10
16.27897055333274
 20
-6.671505489667735
 30
0.0
  0
POINT
  5
9C
330
60
100
AcDbEntity
  8
DEFPOINTS
  6
BYBLOCK
 62
     0
100
AcDbPoint
 10
18.21647055333274
 20
-6.671505489667735
 30
0.0
  0
POINT
  5
9D
330
60
100
AcDbEntity
  8
DEFPOINTS
  6
BYBLOCK
 62
     0
100
AcDbPoint
 10
18.21647055333274
 20
-5.928289945314263
 30
0.0
  0
ENDBLK
  5
9E
330
60
100
AcDbEntity
  8
0
100
AcDbBlockEnd
  0
BLOCK
  5
9F
330
61
100
AcDbEntity
  8
0
100
AcDbBlockBegin
  2
*D4
 70
     1
 10
0.0
 20
0.0
 30
0.0
  3
*D4
  1

  0
LINE
  5
A0
330
61
100
AcDbEntity
  8
0
  6
BYBLOCK
 62
     0
100
AcDbLine
 10
16.20914808419436
 20
-5.313048698866317
 30
0.0
 11
14.7440557048201
 21
-5.313048698866317
 31
0.0
  0
LINE
  5
A1
330
61
100
AcDbEntity
  8
0
  6
BYBLOCK
 62
     0
100
AcDbLine
 10
15.58414808419436
 20
-3.813048698866319
 30
0.0
 11
14.7440557048201
 21
-3.813048698866319
 31
0.0
  0
LINE
  5
A2
330
61
100
AcDbEntity
  8
0
  6
BYBLOCK
 62
     0
100
AcDbLine
 10
14.9240557048201
 20
-5.313048698866317
 30
0.0
 11
14.9240557048201
 21
-4.938048698866318
 31
0.0
  0
LINE
  5
A3
330
61
100
AcDbEntity
  8
0
  6
BYBLOCK
 62
     0
100
AcDbLine
 10
14.9240557048201
 20
-3.813048698866319
 30
0.0
 11
14.9240557048201
 21
-4.188048698866318
 31
0.0
  0
LINE
  5
A4
330
61
100
AcDbEntity
  8
0
  6
BYBLOCK
 62
     0
100
AcDbLine
 10
15.0490557048201
 20
-5.438048698866317
 30
0.0
 11
14.7990557048201
 21
-5.188048698866317
 31
0.0
  0
LINE
  5
A5
330
61
100
AcDbEntity
  8
0
  6
BYBLOCK
 62
     0
100
AcDbLine
 10
15.0490557048201
 20
-3.938048698866319
 30
0.0
 11
14.7990557048201
 21
-3.688048698866319
 31
0.0
  0
TEXT
  5
A6
330
61
100
AcDbEntity
  8
0
  6
BYBLOCK
 62
     0
100
AcDbText
 10
14.9865557048201
 20
-4.813048698866318
 30
0.0
 40
0.125
  1
1 1/2
 50
90.0
 72
     1
 11
14.9240557048201
 21
-4.563048698866318
 31
0.0
100
AcDbText
 73
     2
  0
POINT
  5
A7
330
61
100
AcDbEntity
  8
DEFPOINTS
  6
BYBLOCK
 62
     0
100
AcDbPoint
 10
16.27164808419436
 20
-5.313048698866317
 30
0.0
  0
POINT
  5
A8
330
61
100
AcDbEntity
  8
DEFPOINTS
  6
BYBLOCK
 62
     0
100
AcDbPoint
 10
15.64664808419436
 20
-3.813048698866319
 30
0.0
  0
POINT
  5
A9
330
61
100
AcDbEntity
  8
DEFPOINTS
  6
BYBLOCK
 62
     0
100
AcDbPoint
 10
14.9240557048201
 20
-3.813048698866319
 30
0.0
  0
ENDBLK
  5
AA
330
61
100
AcDbEntity
  8
0
100
AcDbBlockEnd
  0
ENDSEC
  0
SECTION
  2
ENTITIES
  0
DIMENSION
  5
AB
330
1E
100
AcDbEntity
  8
ADPDIM
100
AcDbDimension
  2
*D4
 10
14.9240557048201
 20
-3.813048698866319
 30
0.0
 11
14.9240557048201
 21
-4.563048698866318
 31
0.0
100
AcDbAlignedDimension
 13
16.27164808419436
 23
-5.313048698866317
 33
0.0
 14
15.64664808419436
 24
-3.813048698866319
 34
0.0
 50
90.0
100
AcDbRotatedDimension
  0
LINE
  5
AC
330
1E
100
AcDbEntity
  8
ADP1DETAIL
100
AcDbLine
 10
18.20914808419436
 20
-3.813048698866319
 30
0.0
 11
18.20914808419436
 21
-5.313048698866317
 31
0.0
  0
LINE
  5
AD
330
1E
100
AcDbEntity
  8
ADP1DETAIL
100
AcDbLine
 10
16.27164808419436
 20
-5.313048698866317
 30
0.0
 11
16.27164808419436
 21
-3.813048698866319
 31
0.0
  0
LINE
  5
AE
330
1E
100
AcDbEntity
  8
ADP1DETAIL
100
AcDbLine
 10
16.52204356471977
 20
-5.313048698866317
 30
0.0
 11
16.52204356471977
 21
-3.562653218340914
 31
0.0
  0
LINE
  5
AF
330
1E
100
AcDbEntity
  8
ADP1DETAIL
100
AcDbLine
 10
17.95875260366895
 20
-3.562653218340916
 30
0.0
 11
17.95875260366895
 21
-5.313048698866317
 31
0.0
  0
LINE
  5
B0
330
1E
100
AcDbEntity
  8
ADP1DETAIL
100
AcDbLine
 10
18.39664808419437
 20
-10.71176405958222
 30
0.0
 11
18.39664808419437
 21
-12.64926405958222
 31
0.0
  0
LINE
  5
B1
330
1E
100
AcDbEntity
  8
ADP1DETAIL
100
AcDbLine
 10
18.67735633860148
 20
-13.11747231398934
 30
0.0
 11
18.67735633860148
 21
-10.2435558051751
 31
0.0
  0
LINE
  5
B2
330
1E
100
AcDbEntity
  8
ADP1DETAIL
100
AcDbLine
 10
18.52164808419436
 20
-12.96176405958222
 30
0.0
 11
18.52164808419436
 21
-10.39926405958222
 31
0.0
  0
LINE
  5
B3
330
1E
100
AcDbEntity
  8
ADP1DETAIL
100
AcDbLine
 10
15.80343982978725
 20
-10.2435558051751
 30
0.0
 11
15.80343982978724
 21
-13.11747231398934
 31
0.0
  0
LINE
  5
B4
330
1E
100
AcDbEntity
  8
ADP1DETAIL
100
AcDbLine
 10
15.95914808419436
 20
-10.39926405958222
 30
0.0
 11
15.95914808419436
 21
-12.96176405958222
 31
0.0
  0
LINE
  5
B5
330
1E
100
AcDbEntity
  8
ADP1DETAIL
100
AcDbLine
 10
16.08414808419436
 20
-10.71176405958222
 30
0.0
 11
16.08414808419436
 21
-12.64926405958222
 31
0.0
  0
LINE
  5
B6
330
1E
100
AcDbEntity
  8
ADP1DETAIL
100
AcDbLine
 10
15.64664808419436
 20
-10.08676405958222
 30
0.0
 11
15.64664808419436
 21
-13.27426405958222
 31
0.0
  0
LINE
  5
B7
330
1E
100
AcDbEntity
  8
ADP1DETAIL
100
AcDbLine
 10
18.83414808419436
 20
-13.27426405958222
 30
0.0
 11
18.83414808419436
 21
-10.08676405958222
 31
0.0
  0
LINE
  5
B8
330
1E
100
AcDbEntity
  8
ADP1DETAIL
100
AcDbLine
 10
15.64664808419436
 20
-13.27426405958222
 30
0.0
 11
18.83414808419436
 21
-13.27426405958222
 31
0.0
  0
DIMENSION
  5
B9
330
1E
100
AcDbEntity
  8
ADPDIM
100
AcDbDimension
  2
*D1
 10
18.52164808419436
 20
-13.81646097119237
 30
0.0
 11
17.24039808419436
 21
-13.81646097119237
 31
0.0
100
AcDbAlignedDimension
 13
15.95914808419436
 23
-12.96176405958222
 33
0.0
 14
18.52164808419436
 24
-12.96176405958222
 34
0.0
100
AcDbRotatedDimension
  0
LINE
  5
BA
330
1E
100
AcDbEntity
  8
ADP1DETAIL
100
AcDbLine
 10
15.80343982978724
 20
-13.11747231398934
 30
0.0
 11
18.67735633860148
 21
-13.11747231398934
 31
0.0
  0
LINE
  5
BB
330
1E
100
AcDbEntity
  8
ADP1DETAIL
100
AcDbLine
 10
16.27164808419436
 20
-12.96176405958222
 30
0.0
 11
18.52164808419436
 21
-12.96176405958222
 31
0.0
  0
LWPOLYLINE
  5
BC
330
1E
100
AcDbEntity
  8
ADP1DETAIL
100
AcDbPolyline
 90
        4
 70
     0
 43
0.0
 10
16.08414808419436
 20
-12.64926405958222
 10
16.27164808419436
 20
-12.64926405958222
 10
16.27164808419436
 20
-12.96176405958222
 10
16.08414808419436
 20
-12.96176405958222
  0
LWPOLYLINE
  5
C2
330
1E
100
AcDbEntity
  8
ADP1DETAIL
100
AcDbPolyline
 90
        2
 70
     0
 43
0.0
 10
16.27164808419436
 20
-12.96176405958222
 10
15.95914808419436
 20
-12.96176405958222
  0
LWPOLYLINE
  5
C6
330
1E
100
AcDbEntity
  8
ADP1DETAIL
100
AcDbPolyline
 90
        4
 70
     0
 43
0.0
 10
18.39664808419437
 20
-12.64926405958222
 10
18.20914808419437
 20
-12.64926405958222
 10
18.20914808419437
 20
-12.96176405958222
 10
18.39664808419437
 20
-12.96176405958222
  0
LWPOLYLINE
  5
CC
330
1E
100
AcDbEntity
  8
ADP1DETAIL
100
AcDbPolyline
 90
        2
 70
     0
 43
0.0
 10
18.52164808419436
 20
-12.96176405958222
 10
18.20914808419436
 20
-12.96176405958222
  0
ARC
  5
D0
330
1E
100
AcDbEntity
  8
ADP1DETAIL
100
AcDbCircle
 10
15.59665554244635
 20
-7.058151284861223
 30
0.0
 40
0.2196970135271751
100
AcDbArc
 50
358.1639806528343
 51
66.74166570965842
  0
ARC
  5
D1
330
1E
100
AcDbEntity
  8
ADP1DETAIL
100
AcDbCircle
 10
15.78292780945055
 20
-6.73617497179473
 30
0.0
 40
0.1559999999999998
100
AcDbArc
 50
80.65678061822479
 51
230.3615138867189
  0
LINE
  5
D2
330
1E
100
AcDbEntity
  8
ADP1DETAIL
100
AcDbLine
 10
16.27164808419436
 20
-10.08676405958222
 30
0.0
 11
15.64664808419436
 21
-10.08676405958222
 31
0.0
  0
LINE
  5
D3
330
1E
100
AcDbEntity
  8
ADP1DETAIL
100
AcDbLine
 10
18.20914808419436
 20
-8.586764059582225
 30
0.0
 11
16.27164808419436
 21
-8.586764059582225
 31
0.0
  0
LINE
  5
D4
330
1E
100
AcDbEntity
  8
ADP1DETAIL
100
AcDbLine
 10
18.52164808419436
 20
-10.39926405958222
 30
0.0
 11
15.95914808419436
 21
-10.39926405958222
 31
0.0
  0
LINE
  5
D5
330
1E
100
AcDbEntity
  8
ADP1DETAIL
100
AcDbLine
 10
16.27164808419436
 20
-8.586764059582225
 30
0.0
 11
16.27164808419436
 21
-10.08676405958222
 31
0.0
  0
LINE
  5
D6
330
1E
100
AcDbEntity
  8
ADP1DETAIL
100
AcDbLine
 10
16.42843982978724
 20
-8.586764059582225
 30
0.0
 11
16.42843982978724
 21
-10.2435558051751
 31
0.0
  0
LINE
  5
D7
330
1E
100
AcDbEntity
  8
ADP1DETAIL
100
AcDbLine
 10
16.58414808419436
 20
-8.586764059582225
 30
0.0
 11
16.58414808419436
 21
-10.39926405958222
 31
0.0
  0
LINE
  5
D8
330
1E
100
AcDbEntity
  8
ADP1DETAIL
100
AcDbLine
 10
16.73985633860148
 20
-8.586764059582225
 30
0.0
 11
16.73985633860148
 21
-10.39926405958222
 31
0.0
  0
LINE
  5
D9
330
1E
100
AcDbEntity
  8
ADP1DETAIL
100
AcDbLine
 10
16.42843982978724
 20
-10.2435558051751
 30
0.0
 11
15.80343982978725
 21
-10.2435558051751
 31
0.0
  0
LWPOLYLINE
  5
DA
330
1E
100
AcDbEntity
  8
ADP1DETAIL
100
AcDbPolyline
 90
        4
 70
     0
 43
0.0
 10
16.08414808419436
 20
-10.39926405958222
 10
16.27164808419436
 20
-10.39926405958222
 10
16.27164808419436
 20
-10.71176405958222
 10
16.08414808419436
 20
-10.71176405958222
  0
LWPOLYLINE
  5
E0
330
1E
100
AcDbEntity
  8
ADP1DETAIL
100
AcDbPolyline
 90
        2
 70
     0
 43
0.0
 10
16.08414808419436
 20
-10.39926405958222
 10
16.39664808419436
 20
-10.39926405958222
  0
LINE
  5
E4
330
1E
100
AcDbEntity
  8
ADP1DETAIL
100
AcDbLine
 10
18.20914808419436
 20
-10.08676405958222
 30
0.0
 11
18.20914808419436
 21
-8.586764059582225
 31
0.0
  0
LINE
  5
E5
330
1E
100
AcDbEntity
  8
ADP1DETAIL
100
AcDbLine
 10
18.05235633860148
 20
-10.24355580517511
 30
0.0
 11
18.05235633860148
 21
-8.586764059582225
 31
0.0
  0
LINE
  5
E6
330
1E
100
AcDbEntity
  8
ADP1DETAIL
100
AcDbLine
 10
17.89664808419436
 20
-10.39926405958222
 30
0.0
 11
17.89664808419436
 21
-8.586764059582225
 31
0.0
  0
LINE
  5
E7
330
1E
100
AcDbEntity
  8
ADP1DETAIL
100
AcDbLine
 10
17.74093982978725
 20
-10.39926405958222
 30
0.0
 11
17.74093982978724
 21
-8.586764059582225
 31
0.0
  0
LINE
  5
E8
330
1E
100
AcDbEntity
  8
ADP1DETAIL
100
AcDbLine
 10
18.83414808419436
 20
-10.08676405958222
 30
0.0
 11
18.20914808419436
 21
-10.08676405958222
 31
0.0
  0
LINE
  5
E9
330
1E
100
AcDbEntity
  8
ADP1DETAIL
100
AcDbLine
 10
18.67735633860148
 20
-10.2435558051751
 30
0.0
 11
18.05235633860148
 21
-10.24355580517511
 31
0.0
  0
LWPOLYLINE
  5
EA
330
1E
100
AcDbEntity
  8
ADP1DETAIL
100
AcDbPolyline
 90
        4
 70
     0
 43
0.0
 10
18.39664808419437
 20
-10.39926405958222
 10
18.20914808419437
 20
-10.39926405958222
 10
18.20914808419437
 20
-10.71176405958222
 10
18.39664808419437
 20
-10.71176405958222
  0
DIMENSION
  5
F0
330
1E
100
AcDbEntity
  8
ADPDIM
100
AcDbDimension
  2
*D3
 10
18.21647055333274
 20
-5.928289945314263
 30
0.0
 11
17.24772055333274
 21
-5.928289945314263
 31
0.0
 70
   128
100
AcDbAlignedDimension
 13
16.27897055333274
 23
-6.671505489667735
 33
0.0
 14
18.21647055333274
 24
-6.671505489667735
 34
0.0
100
AcDbRotatedDimension
  0
DIMENSION
  5
F1
330
1E
100
AcDbEntity
  8
ADPDIM
100
AcDbDimension
  2
*D2
 10
17.89689808419436
 20
-7.254833324190574
 30
0.0
 11
18.58439808419436
 21
-7.254833324190574
 31
0.0
100
AcDbAlignedDimension
 13
16.58389808419436
 23
-7.050190179189925
 33
0.0
 14
17.89689808419436
 24
-7.050190179189925
 34
0.0
100
AcDbRotatedDimension
  0
ARC
  5
F2
330
1E
100
AcDbEntity
  8
ADP1DETAIL
100
AcDbCircle
 10
17.95823937912984
 20
-5.766678563696745
 30
0.0
 40
0.75
100
AcDbArc
 50
237.198348262058
 51
268.8764813422996
  0
LINE
  5
F3
330
1E
100
AcDbEntity
  8
ADP1DETAIL
100
AcDbLine
 10
17.77139808419436
 20
-6.693475513061654
 30
0.0
 11
17.23923937912984
 21
-6.693475513061654
 31
0.0
  0
LINE
  5
F4
330
1E
100
AcDbEntity
  8
ADP1DETAIL
100
AcDbLine
 10
15.81623976710602
 20
-7.065190179189928
 30
0.0
 11
18.65844472362359
 21
-7.065190179189926
 31
0.0
  0
LINE
  5
F5
330
1E
100
AcDbEntity
  8
ADP1DETAIL
100
AcDbLine
 10
18.11539808419436
 20
-6.328795193956356
 30
0.0
 11
16.36539808419436
 21
-6.328795193956354
 31
0.0
  0
LINE
  5
F6
330
1E
100
AcDbEntity
  8
ADP1DETAIL
100
AcDbLine
 10
18.20914808419436
 20
-5.313048698866317
 30
0.0
 11
16.27164808419436
 21
-5.313048698866317
 31
0.0
  0
ARC
  5
F7
330
1E
100
AcDbEntity
  8
ADP1DETAIL
100
AcDbCircle
 10
16.52255678925888
 20
-5.766678563696745
 30
0.0
 40
0.7499999999999969
100
AcDbArc
 50
271.1235186577001
 51
302.801651737942
  0
LINE
  5
F8
330
1E
100
AcDbEntity
  8
ADP1DETAIL
100
AcDbLine
 10
16.59889808419436
 20
-6.881475513061653
 30
0.0
 11
16.69439808419436
 21
-6.881475513061653
 31
0.0
  0
ARC
  5
F9
330
1E
100
AcDbEntity
  8
ADP1DETAIL
100
AcDbCircle
 10
16.23466257085611
 20
-7.058151284861223
 30
0.0
 40
0.2196970135271751
100
AcDbArc
 50
358.1639806528343
 51
66.74166570965842
  0
LINE
  5
FA
330
1E
100
AcDbEntity
  8
ADP1DETAIL
100
AcDbLine
 10
16.58389808419436
 20
-7.050190179189927
 30
0.0
 11
16.58389808419436
 21
-6.896475513061654
 31
0.0
  0
LINE
  5
FB
330
1E
100
AcDbEntity
  8
ADP1DETAIL
100
AcDbLine
 10
16.45424679551578
 20
-7.065190179189928
 30
0.0
 11
16.56889808419436
 21
-7.065190179189928
 31
0.0
  0
ARC
  5
FC
330
1E
100
AcDbEntity
  8
ADP1DETAIL
100
AcDbCircle
 10
16.56889808419436
 20
-7.050190179189927
 30
0.0
 40
0.015
100
AcDbArc
 50
270.0
 51
0.0000000000002926
  0
LINE
  5
FD
330
1E
100
AcDbEntity
  8
ADP1DETAIL
100
AcDbLine
 10
16.52255678925888
 20
-6.531531490735661
 30
0.0
 11
15.88454976084912
 21
-6.531531490735661
 31
0.0
  0
LINE
  5
FE
330
1E
100
AcDbEntity
  8
ADP1DETAIL
100
AcDbLine
 10
16.50755678925888
 20
-6.582244540400091
 30
0.0
 11
15.86954976084912
 21
-6.582244540400091
 31
0.0
  0
ARC
  5
FF
330
1E
100
AcDbEntity
  8
ADP1DETAIL
100
AcDbCircle
 10
15.939734811252
 20
-5.990814703315781
 30
0.0
 40
0.5435255596433758
100
AcDbArc
 50
264.1726231069675
 51
321.5501068260153
  0
LINE
  5
100
330
1E
100
AcDbEntity
  8
ADP1DETAIL
100
AcDbLine
 10
15.86954976084912
 20
-6.582244540400091
 30
0.0
 11
15.80825412561892
 21
-6.582244540400091
 31
0.0
  0
ARC
  5
101
330
1E
100
AcDbEntity
  8
ADP1DETAIL
100
AcDbCircle
 10
15.86954976084912
 20
-6.567244540400091
 30
0.0
 40
0.015
100
AcDbArc
 50
270.0
 51
0.0
  0
LINE
  5
102
330
1E
100
AcDbEntity
  8
ADP1DETAIL
100
AcDbLine
 10
15.88454976084912
 20
-6.567244540400091
 30
0.0
 11
15.88454976084912
 21
-6.531531490735661
 31
0.0
  0
LINE
  5
103
330
1E
100
AcDbEntity
  8
ADP1DETAIL
100
AcDbLine
 10
16.50755678925888
 20
-6.582244540400091
 30
0.0
 11
16.44626115402868
 21
-6.582244540400091
 31
0.0
  0
ARC
  5
104
330
1E
100
AcDbEntity
  8
ADP1DETAIL
100
AcDbCircle
 10
16.50755678925888
 20
-6.567244540400091
 30
0.0
 40
0.015
100
AcDbArc
 50
270.0
 51
0.0
  0
ARC
  5
105
330
1E
100
AcDbEntity
  8
ADP1DETAIL
100
AcDbCircle
 10
16.53755678925888
 20
-6.531531490735661
 30
0.0
 40
0.015
100
AcDbArc
 50
91.1235186577027
 51
180.0
  0
LINE
  5
106
330
1E
100
AcDbEntity
  8
ADP1DETAIL
100
AcDbLine
 10
16.52255678925888
 20
-6.567244540400091
 30
0.0
 11
16.52255678925888
 21
-6.531531490735661
 31
0.0
  0
ARC
  5
107
330
1E
100
AcDbEntity
  8
ADP1DETAIL
100
AcDbCircle
 10
16.59889808419436
 20
-6.896475513061654
 30
0.0
 40
0.015
100
AcDbArc
 50
90.0
 51
180.0
  0
ARC
  5
108
330
1E
100
AcDbEntity
  8
ADP1DETAIL
100
AcDbCircle
 10
16.42093483786032
 20
-6.73617497179473
 30
0.0
 40
0.1559999999999998
100
AcDbArc
 50
80.65678061822479
 51
230.3615138867189
  0
ARC
  5
109
330
1E
100
AcDbEntity
  8
ADP1DETAIL
100
AcDbCircle
 10
17.24155678925888
 20
-7.078794298890867
 30
0.0
 40
0.7499999999999986
100
AcDbArc
 50
90.08851858174335
 51
114.6411830056756
  0
LINE
  5
10A
330
1E
100
AcDbEntity
  8
ADP1DETAIL
100
AcDbLine
 10
16.70939808419436
 20
-6.693475513061654
 30
0.0
 11
17.24155678925888
 21
-6.693475513061654
 31
0.0
  0
ARC
  5
10B
330
1E
100
AcDbEntity
  8
ADP1DETAIL
100
AcDbCircle
 10
16.69439808419436
 20
-6.866475513061653
 30
0.0
 40
0.015
100
AcDbArc
 50
270.0
 51
0.0
  0
LINE
  5
10C
330
1E
100
AcDbEntity
  8
ADP1DETAIL
100
AcDbLine
 10
16.70939808419436
 20
-6.866475513061653
 30
0.0
 11
16.70939808419436
 21
-6.693475513061654
 31
0.0
  0
ARC
  5
10D
330
1E
100
AcDbEntity
  8
ADP1DETAIL
100
AcDbCircle
 10
17.23923937912984
 20
-7.078794298890871
 30
0.0
 40
0.7500000000000019
100
AcDbArc
 50
65.35881699432443
 51
89.91148141825666
  0
ARC
  5
10E
330
1E
100
AcDbEntity
  8
ADP1DETAIL
100
AcDbCircle
 10
18.53952417632778
 20
-5.992842752213876
 30
0.0
 40
0.5410609809819044
100
AcDbArc
 50
218.3829243804008
 51
275.3672628611653
  0
LINE
  5
10F
330
1E
100
AcDbEntity
  8
ADP1DETAIL
100
AcDbLine
 10
18.59013472988048
 20
-6.531531490735661
 30
0.0
 11
17.95823937912984
 21
-6.531531490735661
 31
0.0
  0
LINE
  5
110
330
1E
100
AcDbEntity
  8
ADP1DETAIL
100
AcDbLine
 10
18.60513472988048
 20
-6.582244540400091
 30
0.0
 11
17.97323937912984
 21
-6.582244540400091
 31
0.0
  0
LINE
  5
111
330
1E
100
AcDbEntity
  8
ADP1DETAIL
100
AcDbLine
 10
17.89689808419436
 20
-7.050190179189927
 30
0.0
 11
17.89689808419436
 21
-6.896475513061654
 31
0.0
  0
ARC
  5
112
330
1E
100
AcDbEntity
  8
ADP1DETAIL
100
AcDbCircle
 10
18.24613359753262
 20
-7.058151284861226
 30
0.0
 40
0.2196970135271803
100
AcDbArc
 50
113.2583342903419
 51
181.8360193471644
  0
ARC
  5
113
330
1E
100
AcDbEntity
  8
ADP1DETAIL
100
AcDbCircle
 10
17.91189808419436
 20
-7.050190179189927
 30
0.0
 40
0.015
100
AcDbArc
 50
179.9999999999996
 51
270.0
  0
LINE
  5
114
330
1E
100
AcDbEntity
  8
ADP1DETAIL
100
AcDbLine
 10
18.02654937287294
 20
-7.065190179189928
 30
0.0
 11
17.91189808419436
 21
-7.065190179189928
 31
0.0
  0
ARC
  5
115
330
1E
100
AcDbEntity
  8
ADP1DETAIL
100
AcDbCircle
 10
18.0598613305284
 20
-6.73617497179473
 30
0.0
 40
0.1559999999999996
100
AcDbArc
 50
309.6384861132801
 51
99.34321938177591
  0
ARC
  5
116
330
1E
100
AcDbEntity
  8
ADP1DETAIL
100
AcDbCircle
 10
17.94323937912984
 20
-6.531531490735661
 30
0.0
 40
0.015
100
AcDbArc
 50
0.000000000000007
 51
88.87648134229731
  0
ARC
  5
117
330
1E
100
AcDbEntity
  8
ADP1DETAIL
100
AcDbCircle
 10
17.97323937912984
 20
-6.567244540400091
 30
0.0
 40
0.015
100
AcDbArc
 50
180.0
 51
270.0
  0
LINE
  5
118
330
1E
100
AcDbEntity
  8
ADP1DETAIL
100
AcDbLine
 10
17.95823937912984
 20
-6.567244540400091
 30
0.0
 11
17.95823937912984
 21
-6.531531490735661
 31
0.0
  0
LINE
  5
119
330
1E
100
AcDbEntity
  8
ADP1DETAIL
100
AcDbLine
 10
17.97323937912984
 20
-6.582244540400091
 30
0.0
 11
18.03453501436004
 21
-6.582244540400091
 31
0.0
  0
ARC
  5
11A
330
1E
100
AcDbEntity
  8
ADP1DETAIL
100
AcDbCircle
 10
17.78639808419436
 20
-6.866475513061653
 30
0.0
 40
0.015
100
AcDbArc
 50
180.0
 51
270.0
  0
LINE
  5
11B
330
1E
100
AcDbEntity
  8
ADP1DETAIL
100
AcDbLine
 10
17.77139808419436
 20
-6.866475513061653
 30
0.0
 11
17.77139808419436
 21
-6.693475513061654
 31
0.0
  0
ARC
  5
11C
330
1E
100
AcDbEntity
  8
ADP1DETAIL
100
AcDbCircle
 10
17.88189808419436
 20
-6.896475513061654
 30
0.0
 40
0.015
100
AcDbArc
 50
0.000000000000007
 51
90.0
  0
LINE
  5
11D
330
1E
100
AcDbEntity
  8
ADP1DETAIL
100
AcDbLine
 10
17.88189808419436
 20
-6.881475513061653
 30
0.0
 11
17.78639808419436
 21
-6.881475513061653
 31
0.0
  0
ARC
  5
11E
330
1E
100
AcDbEntity
  8
ADP1DETAIL
100
AcDbCircle
 10
18.87802894828326
 20
-7.058151284861226
 30
0.0
 40
0.2196970135271803
100
AcDbArc
 50
113.2583342903419
 51
181.8360193471644
  0
LINE
  5
11F
330
1E
100
AcDbEntity
  8
ADP1DETAIL
100
AcDbLine
 10
18.60513472988048
 20
-6.582244540400091
 30
0.0
 11
18.66643036511068
 21
-6.582244540400091
 31
0.0
  0
LINE
  5
120
330
1E
100
AcDbEntity
  8
ADP1DETAIL
100
AcDbLine
 10
18.59013472988048
 20
-6.567244540400091
 30
0.0
 11
18.59013472988048
 21
-6.531531490735661
 31
0.0
  0
ARC
  5
121
330
1E
100
AcDbEntity
  8
ADP1DETAIL
100
AcDbCircle
 10
18.60513472988048
 20
-6.567244540400091
 30
0.0
 40
0.015
100
AcDbArc
 50
180.0
 51
270.0
  0
ARC
  5
122
330
1E
100
AcDbEntity
  8
ADP1DETAIL
100
AcDbCircle
 10
18.69175668127905
 20
-6.73617497179473
 30
0.0
 40
0.1559999999999996
100
AcDbArc
 50
309.6384861132801
 51
99.34321938177591
  0
LINE
  5
123
330
1E
100
AcDbEntity
  8
ADP1DETAIL
100
AcDbLine
 10
16.36539808419436
 20
-1.344298698866319
 30
0.0
 11
15.64664808419436
 21
-0.6255486988663197
 31
0.0
  0
LINE
  5
124
330
1E
100
AcDbEntity
  8
ADP1DETAIL
100
AcDbLine
 10
16.27164808419436
 20
-3.813048698866319
 30
0.0
 11
15.64664808419436
 21
-3.813048698866319
 31
0.0
  0
LINE
  5
125
330
1E
100
AcDbEntity
  8
ADP1DETAIL
100
AcDbLine
 10
15.64664808419436
 20
-3.813048698866319
 30
0.0
 11
16.36539808419436
 21
-3.094298698866319
 31
0.0
  0
LINE
  5
126
330
1E
100
AcDbEntity
  8
ADP1DETAIL
100
AcDbLine
 10
15.64664808419436
 20
-0.6255486988663197
 30
0.0
 11
18.83414808419436
 21
-0.6255486988663197
 31
0.0
  0
DIMENSION
  5
127
330
1E
100
AcDbEntity
  8
ADPDIM
100
AcDbDimension
  2
*D0
 10
14.9240557048201
 20
-3.813048698866319
 30
0.0
 11
14.9240557048201
 21
-2.219298698866319
 31
0.0
100
AcDbAlignedDimension
 13
15.64664808419436
 23
-0.6255486988663197
 33
0.0
 14
15.58414808419436
 24
-3.813048698866319
 34
0.0
 50
90.0
100
AcDbRotatedDimension
  0
LINE
  5
128
330
1E
100
AcDbEntity
  8
ADP1DETAIL
100
AcDbLine
 10
15.64664808419436
 20
-3.813048698866319
 30
0.0
 11
15.64664808419436
 21
-0.6255486988663197
 31
0.0
  0
LINE
  5
129
330
1E
100
AcDbEntity
  8
ADP1DETAIL
100
AcDbLine
 10
18.20914808419436
 20
-3.813048698866319
 30
0.0
 11
17.49039808419436
 21
-3.094298698866321
 31
0.0
  0
LINE
  5
12A
330
1E
100
AcDbEntity
  8
ADP1DETAIL
100
AcDbLine
 10
18.11539808419436
 20
-3.094298698866321
 30
0.0
 11
16.36539808419436
 21
-3.094298698866319
 31
0.0
  0
LINE
  5
12B
330
1E
100
AcDbEntity
  8
ADP1DETAIL
100
AcDbLine
 10
15.89704356471977
 20
-0.875944179391725
 30
0.0
 11
18.58375260366895
 21
-0.875944179391725
 31
0.0
  0
LINE
  5
12C
330
1E
100
AcDbEntity
  8
ADP1DETAIL
100
AcDbLine
 10
16.36539808419436
 20
-1.344298698866319
 30
0.0
 11
18.11539808419436
 21
-1.344298698866319
 31
0.0
  0
LINE
  5
12D
330
1E
100
AcDbEntity
  8
ADP1DETAIL
100
AcDbLine
 10
16.36539808419436
 20
-3.094298698866319
 30
0.0
 11
16.36539808419436
 21
-1.344298698866319
 31
0.0
  0
LINE
  5
12E
330
1E
100
AcDbEntity
  8
ADP1DETAIL
100
AcDbLine
 10
15.89704356471977
 20
-3.562653218340912
 30
0.0
 11
15.89704356471977
 21
-0.875944179391725
 31
0.0
  0
LINE
  5
12F
330
1E
100
AcDbEntity
  8
ADP1DETAIL
100
AcDbLine
 10
16.27164808419436
 20
-3.813048698866319
 30
0.0
 11
16.99039808419436
 21
-3.094298698866319
 31
0.0
  0
LINE
  5
130
330
1E
100
AcDbEntity
  8
ADP1DETAIL
100
AcDbLine
 10
16.52204356471977
 20
-3.562653218340912
 30
0.0
 11
15.89704356471977
 21
-3.562653218340912
 31
0.0
  0
LINE
  5
131
330
1E
100
AcDbEntity
  8
ADP1DETAIL
100
AcDbLine
 10
18.11539808419436
 20
-1.344298698866319
 30
0.0
 11
18.11539808419436
 21
-3.094298698866321
 31
0.0
  0
LINE
  5
132
330
1E
100
AcDbEntity
  8
ADP1DETAIL
100
AcDbLine
 10
18.58375260366895
 20
-0.875944179391725
 30
0.0
 11
18.58375260366895
 21
-3.562653218340914
 31
0.0
  0
LINE
  5
133
330
1E
100
AcDbEntity
  8
ADP1DETAIL
100
AcDbLine
 10
18.83414808419436
 20
-0.6255486988663197
 30
0.0
 11
18.83414808419436
 21
-3.813048698866319
 31
0.0
  0
LINE
  5
134
330
1E
100
AcDbEntity
  8
ADP1DETAIL
100
AcDbLine
 10
18.83414808419436
 20
-3.813048698866319
 30
0.0
 11
18.20914808419436
 21
-3.813048698866319
 31
0.0
  0
LINE
  5
135
330
1E
100
AcDbEntity
  8
ADP1DETAIL
100
AcDbLine
 10
18.83414808419436
 20
-3.813048698866319
 30
0.0
 11
18.11539808419436
 21
-3.094298698866321
 31
0.0
  0
LINE
  5
136
330
1E
100
AcDbEntity
  8
ADP1DETAIL
100
AcDbLine
 10
18.58375260366895
 20
-3.562653218340914
 30
0.0
 11
17.95875260366895
 21
-3.562653218340916
 31
0.0
  0
LINE
  5
137
330
1E
100
AcDbEntity
  8
ADP1DETAIL
100
AcDbLine
 10
18.11539808419436
 20
-1.344298698866319
 30
0.0
 11
18.83414808419436
 21
-0.6255486988663197
 31
0.0
  0
TEXT
  5
13B
330
1E
100
AcDbEntity
  8
ADPDIM
100
AcDbText
 10
3.849368070551804
 20
-15.15798775890545
 30
0.0
 40
0.25
  1
J U L I U S  B L U M  &  C O . ,  I N C .      ( 8 0 0 )  5 2 6 - 6 2 9 3        W W W . J U L I U S B L U M . C O M        P A R T  N o .  6 9 3 4 - E
 41
1.25
  7
ARIAL_WIDE
 72
     1
 11
17.24039808419436
 21
-14.90798775890546
 31
0.0
100
AcDbText
 73
     3
  0
ENDSEC
  0
SECTION
  2
OBJECTS
  0
DICTIONARY
  5
C
330
0
100
AcDbDictionary
  3
ACAD_GROUP
350
D
  3
ACAD_LAYOUT
350
19
  3
ACAD_MLINESTYLE
350
16
  3
ACAD_PLOTSETTINGS
350
18
  3
ACAD_PLOTSTYLENAME
350
E
  3
ACDBHEADERROUNDTRIPXREC
350
2CE
  3
ACDBVARIABLEDICTIONARY
350
1AC
  0
DICTIONARY
  5
177
330
1E
100
AcDbDictionary
280
     1
  3
ACAD_LAYOUTSELFREF
360
2F0
  0
DICTIONARY
  5
179
330
1A
100
AcDbDictionary
280
     1
  3
ACAD_LAYOUTSELFREF
360
2EF
  0
DICTIONARY
  5
D
102
{ACAD_REACTORS
330
C
102
}
330
C
100
AcDbDictionary
  0
DICTIONARY
  5
19
102
{ACAD_REACTORS
330
C
102
}
330
C
100
AcDbDictionary
  0
DICTIONARY
  5
16
102
{ACAD_REACTORS
330
C
102
}
330
C
100
AcDbDictionary
  3
STANDARD
350
17
  0
DICTIONARY
  5
18
102
{ACAD_REACTORS
330
C
102
}
330
C
100
AcDbDictionary
  0
ACDBDICTIONARYWDFLT
  5
E
102
{ACAD_REACTORS
330
C
102
}
330
C
100
AcDbDictionary
281
     1
  3
Normal
350
F
100
AcDbDictionaryWithDefault
340
F
  0
DICTIONARY
  5
2CE
102
{ACAD_REACTORS
330
C
102
}
330
C
100
AcDbDictionary
  3
CEPSNTYPE
350
2D8
  3
DIMSTYLEDATA
350
2DC
  3
FINGERPRINTGUID
350
2D9
  3
HYPERLINKBASE
350
2D1
  3
INSUNITS
350
2D7
  3
LAYOUTDICT
350
2D3
  3
LWETCUNION
350
2D6
  3
PLOTSETDICT
350
2D4
  3
PLOTSTYLNAMDICT
350
2D5
  3
PSVPSCALE
350
2DB
  3
PUCSBASE
350
2DF
  3
PUCSORGBACK
350
2E5
  3
PUCSORGBOTTOM
350
2E1
  3
PUCSORGFRONT
350
2E4
  3
PUCSORGLEFT
350
2E2
  3
PUCSORGRIGHT
350
2E3
  3
PUCSORGTOP
350
2E0
  3
PUCSORTHOREF
350
2DD
  3
PUCSORTHOVIEW
350
2DE
  3
STYLESHEET
350
2D2
  3
TSTACKALIGN
350
2CF
  3
TSTACKSIZE
350
2D0
  3
UCSBASE
350
2E8
  3
UCSORGBACK
350
2EE
  3
UCSORGBOTTOM
350
2EA
  3
UCSORGFRONT
350
2ED
  3
UCSORGLEFT
350
2EB
  3
UCSORGRIGHT
350
2EC
  3
UCSORGTOP
350
2E9
  3
UCSORTHOREF
350
2E6
  3
UCSORTHOVIEW
350
2E7
  3
VERSIONGUID
350
2DA
  0
DICTIONARY
  5
1AC
102
{ACAD_REACTORS
330
C
102
}
330
C
100
AcDbDictionary
  3
DIMASSOC
350
1AE
  3
HIDETEXT
350
1AD
  0
XRECORD
  5
2F0
102
{ACAD_REACTORS
330
177
102
}
330
177
100
AcDbXrecord
340
1E
  0
XRECORD
  5
2EF
102
{ACAD_REACTORS
330
179
102
}
330
179
100
AcDbXrecord
340
1A
  0
MLINESTYLE
  5
17
102
{ACAD_REACTORS
330
16
102
}
330
16
100
AcDbMlineStyle
  2
STANDARD
 70
     0
  3

 62
   256
 51
90.0
 52
90.0
 71
     2
 49
0.5
 62
   256
  6
BYLAYER
 49
-0.5
 62
   256
  6
BYLAYER
  0
ACDBPLACEHOLDER
  5
F
102
{ACAD_REACTORS
330
E
102
}
330
E
100
AcDbPlaceHolder
280
     0
  0
XRECORD
  5
2D8
102
{ACAD_REACTORS
330
2CE
102
}
330
2CE
100
AcDbXrecord
 90
        0
  0
XRECORD
  5
2DC
102
{ACAD_REACTORS
330
2CE
102
}
330
2CE
100
AcDbXrecord
1000
DSTYLE
1002
{
1070
   277
 70
     5
1070
   279
 70
     2
1002
}
  0
XRECORD
  5
2D9
102
{ACAD_REACTORS
330
2CE
102
}
330
2CE
100
AcDbXrecord
  1
{F0A77DB8-5D95-4A64-B150-00A2D984D30A}
  0
XRECORD
  5
2D1
102
{ACAD_REACTORS
330
2CE
102
}
330
2CE
100
AcDbXrecord
  1

  0
XRECORD
  5
2D7
102
{ACAD_REACTORS
330
2CE
102
}
330
2CE
100
AcDbXrecord
 90
        0
  0
XRECORD
  5
2D3
102
{ACAD_REACTORS
330
2CE
102
}
330
2CE
100
AcDbXrecord
340
19
  0
XRECORD
  5
2D6
102
{ACAD_REACTORS
330
2CE
102
}
330
2CE
100
AcDbXrecord
 90
    14877
  0
XRECORD
  5
2D4
102
{ACAD_REACTORS
330
2CE
102
}
330
2CE
100
AcDbXrecord
340
18
  0
XRECORD
  5
2D5
102
{ACAD_REACTORS
330
2CE
102
}
330
2CE
100
AcDbXrecord
340
E
  0
XRECORD
  5
2DB
102
{ACAD_REACTORS
330
2CE
102
}
330
2CE
100
AcDbXrecord
 40
0.0
  0
XRECORD
  5
2DF
102
{ACAD_REACTORS
330
2CE
102
}
330
2CE
100
AcDbXrecord
340
0
  0
XRECORD
  5
2E5
102
{ACAD_REACTORS
330
2CE
102
}
330
2CE
100
AcDbXrecord
 10
0.0
 20
0.0
 30
0.0
  0
XRECORD
  5
2E1
102
{ACAD_REACTORS
330
2CE
102
}
330
2CE
100
AcDbXrecord
 10
0.0
 20
0.0
 30
0.0
  0
XRECORD
  5
2E4
102
{ACAD_REACTORS
330
2CE
102
}
330
2CE
100
AcDbXrecord
 10
0.0
 20
0.0
 30
0.0
  0
XRECORD
  5
2E2
102
{ACAD_REACTORS
330
2CE
102
}
330
2CE
100
AcDbXrecord
 10
0.0
 20
0.0
 30
0.0
  0
XRECORD
  5
2E3
102
{ACAD_REACTORS
330
2CE
102
}
330
2CE
100
AcDbXrecord
 10
0.0
 20
0.0
 30
0.0
  0
XRECORD
  5
2E0
102
{ACAD_REACTORS
330
2CE
102
}
330
2CE
100
AcDbXrecord
 10
0.0
 20
0.0
 30
0.0
  0
XRECORD
  5
2DD
102
{ACAD_REACTORS
330
2CE
102
}
330
2CE
100
AcDbXrecord
340
0
  0
XRECORD
  5
2DE
102
{ACAD_REACTORS
330
2CE
102
}
330
2CE
100
AcDbXrecord
 70
     0
  0
XRECORD
  5
2D2
102
{ACAD_REACTORS
330
2CE
102
}
330
2CE
100
AcDbXrecord
  1

  0
XRECORD
  5
2CF
102
{ACAD_REACTORS
330
2CE
102
}
330
2CE
100
AcDbXrecord
 90
        1
  0
XRECORD
  5
2D0
102
{ACAD_REACTORS
330
2CE
102
}
330
2CE
100
AcDbXrecord
 90
       70
  0
XRECORD
  5
2E8
102
{ACAD_REACTORS
330
2CE
102
}
330
2CE
100
AcDbXrecord
340
0
  0
XRECORD
  5
2EE
102
{ACAD_REACTORS
330
2CE
102
}
330
2CE
100
AcDbXrecord
 10
0.0
 20
0.0
 30
0.0
  0
XRECORD
  5
2EA
102
{ACAD_REACTORS
330
2CE
102
}
330
2CE
100
AcDbXrecord
 10
0.0
 20
0.0
 30
0.0
  0
XRECORD
  5
2ED
102
{ACAD_REACTORS
330
2CE
102
}
330
2CE
100
AcDbXrecord
 10
0.0
 20
0.0
 30
0.0
  0
XRECORD
  5
2EB
102
{ACAD_REACTORS
330
2CE
102
}
330
2CE
100
AcDbXrecord
 10
0.0
 20
0.0
 30
0.0
  0
XRECORD
  5
2EC
102
{ACAD_REACTORS
330
2CE
102
}
330
2CE
100
AcDbXrecord
 10
0.0
 20
0.0
 30
0.0
  0
XRECORD
  5
2E9
102
{ACAD_REACTORS
330
2CE
102
}
330
2CE
100
AcDbXrecord
 10
0.0
 20
0.0
 30
0.0
  0
XRECORD
  5
2E6
102
{ACAD_REACTORS
330
2CE
102
}
330
2CE
100
AcDbXrecord
340
0
  0
XRECORD
  5
2E7
102
{ACAD_REACTORS
330
2CE
102
}
330
2CE
100
AcDbXrecord
 70
     0
  0
XRECORD
  5
2DA
102
{ACAD_REACTORS
330
2CE
102
}
330
2CE
100
AcDbXrecord
  1
{05A8DBF9-B378-498D-A2C2-91211B7E189E}
  0
DICTIONARYVAR
  5
1AE
102
{ACAD_REACTORS
330
1AC
102
}
330
1AC
100
DictionaryVariables
280
     0
  1
2
  0
DICTIONARYVAR
  5
1AD
102
{ACAD_REACTORS
330
1AC
102
}
330
1AC
100
DictionaryVariables
280
     0
  1
1
  0
ENDSEC
  0
EOF
