  0
SECTION
  2
HEADER
  9
$ACADVER
  1
AC1014
  9
$ACADMAINTVER
 70
     9
  9
$DWGCODEPAGE
  3
ANSI_1252
  9
$INSBASE
 10
89.73244254095369
 20
2.627592319054653
 30
0.0
  9
$EXTMIN
 10
85.321043472614
 20
-4.999485971355966
 30
0.0
  9
$EXTMAX
 10
105.7713014023548
 20
5.803899350549812
 30
0.0
  9
$LIMMIN
 10
0.0
 20
0.0
  9
$LIMMAX
 10
36.0
 20
36.0
  9
$ORTHOMODE
 70
     1
  9
$REGENMODE
 70
     1
  9
$FILLMODE
 70
     1
  9
$QTEXTMODE
 70
     0
  9
$MIRRTEXT
 70
     1
  9
$DRAGMODE
 70
     0
  9
$LTSCALE
 40
1.0
  9
$OSMODE
 70
    37
  9
$ATTMODE
 70
     1
  9
$TEXTSIZE
 40
0.2
  9
$TRACEWID
 40
0.05
  9
$TEXTSTYLE
  7
STANDARD
  9
$CLAYER
  8
ADP1DETAIL
  9
$CELTYPE
  6
BYLAYER
  9
$CECOLOR
 62
   256
  9
$CELTSCALE
 40
1.0
  9
$DELOBJ
 70
     1
  9
$DISPSILH
 70
     0
  9
$DIMSCALE
 40
1.0
  9
$DIMASZ
 40
0.125
  9
$DIMEXO
 40
0.0625
  9
$DIMDLI
 40
0.38
  9
$DIMRND
 40
0.0
  9
$DIMDLE
 40
0.0
  9
$DIMEXE
 40
0.18
  9
$DIMTP
 40
0.0
  9
$DIMTM
 40
0.0
  9
$DIMTXT
 40
0.125
  9
$DIMCEN
 40
0.1875
  9
$DIMTSZ
 40
0.125
  9
$DIMTOL
 70
     0
  9
$DIMLIM
 70
     0
  9
$DIMTIH
 70
     0
  9
$DIMTOH
 70
     0
  9
$DIMSE1
 70
     0
  9
$DIMSE2
 70
     0
  9
$DIMTAD
 70
     0
  9
$DIMZIN
 70
     3
  9
$DIMBLK
  1

  9
$DIMASO
 70
     1
  9
$DIMSHO
 70
     1
  9
$DIMPOST
  1

  9
$DIMAPOST
  1

  9
$DIMALT
 70
     0
  9
$DIMALTD
 70
     1
  9
$DIMALTF
 40
25.4
  9
$DIMLFAC
 40
1.0
  9
$DIMTOFL
 70
     0
  9
$DIMTVP
 40
0.0
  9
$DIMTIX
 70
     0
  9
$DIMSOXD
 70
     0
  9
$DIMSAH
 70
     0
  9
$DIMBLK1
  1

  9
$DIMBLK2
  1

  9
$DIMSTYLE
  2
STANDARD
  9
$DIMCLRD
 70
     0
  9
$DIMCLRE
 70
     0
  9
$DIMCLRT
 70
     0
  9
$DIMTFAC
 40
1.0
  9
$DIMGAP
 40
0.125
  9
$DIMJUST
 70
     0
  9
$DIMSD1
 70
     0
  9
$DIMSD2
 70
     0
  9
$DIMTOLJ
 70
     1
  9
$DIMTZIN
 70
     3
  9
$DIMALTZ
 70
     3
  9
$DIMALTTZ
 70
     3
  9
$DIMFIT
 70
     5
  9
$DIMUPT
 70
     0
  9
$DIMUNIT
 70
     5
  9
$DIMDEC
 70
     4
  9
$DIMTDEC
 70
     4
  9
$DIMALTU
 70
     5
  9
$DIMALTTD
 70
     1
  9
$DIMTXSTY
  7
STANDARD
  9
$DIMAUNIT
 70
     0
  9
$LUNITS
 70
     5
  9
$LUPREC
 70
     4
  9
$SKETCHINC
 40
0.1
  9
$FILLETRAD
 40
0.0
  9
$AUNITS
 70
     0
  9
$AUPREC
 70
     0
  9
$MENU
  1
acad
  9
$ELEVATION
 40
0.0
  9
$PELEVATION
 40
0.0
  9
$THICKNESS
 40
0.0
  9
$LIMCHECK
 70
     0
  9
$BLIPMODE
 70
     0
  9
$CHAMFERA
 40
0.0
  9
$CHAMFERB
 40
0.0
  9
$CHAMFERC
 40
0.0
  9
$CHAMFERD
 40
0.0
  9
$SKPOLY
 70
     0
  9
$TDCREATE
 40
2450399.607331203
  9
$TDUPDATE
 40
2452297.096772453
  9
$TDINDWG
 40
0.0286282986
  9
$TDUSRTIMER
 40
0.0286282986
  9
$USRTIMER
 70
     1
  9
$ANGBASE
 50
0.0
  9
$ANGDIR
 70
     0
  9
$PDMODE
 70
     0
  9
$PDSIZE
 40
0.0
  9
$PLINEWID
 40
0.0
  9
$COORDS
 70
     2
  9
$SPLFRAME
 70
     0
  9
$SPLINETYPE
 70
     6
  9
$SPLINESEGS
 70
     8
  9
$ATTDIA
 70
     0
  9
$ATTREQ
 70
     1
  9
$HANDLING
 70
 22529
  9
$HANDSEED
  5
226
  9
$SURFTAB1
 70
     6
  9
$SURFTAB2
 70
     6
  9
$SURFTYPE
 70
     6
  9
$SURFU
 70
     6
  9
$SURFV
 70
     6
  9
$UCSNAME
  2

  9
$UCSORG
 10
0.0
 20
0.0
 30
0.0
  9
$UCSXDIR
 10
1.0
 20
0.0
 30
0.0
  9
$UCSYDIR
 10
0.0
 20
1.0
 30
0.0
  9
$PUCSNAME
  2

  9
$PUCSORG
 10
0.0
 20
0.0
 30
0.0
  9
$PUCSXDIR
 10
1.0
 20
0.0
 30
0.0
  9
$PUCSYDIR
 10
0.0
 20
1.0
 30
0.0
  9
$USERI1
 70
     0
  9
$USERI2
 70
     0
  9
$USERI3
 70
     0
  9
$USERI4
 70
     0
  9
$USERI5
 70
     0
  9
$USERR1
 40
0.0
  9
$USERR2
 40
0.0
  9
$USERR3
 40
0.0
  9
$USERR4
 40
0.0
  9
$USERR5
 40
0.0
  9
$WORLDVIEW
 70
     1
  9
$SHADEDGE
 70
     3
  9
$SHADEDIF
 70
    70
  9
$TILEMODE
 70
     1
  9
$MAXACTVP
 70
    15
  9
$PINSBASE
 10
0.109376907348633
 20
0.0
 30
0.0
  9
$PLIMCHECK
 70
     0
  9
$PEXTMIN
 10
1.000000000000000E+20
 20
1.000000000000000E+20
 30
1.000000000000000E+20
  9
$PEXTMAX
 10
-1.000000000000000E+20
 20
-1.000000000000000E+20
 30
-1.000000000000000E+20
  9
$PLIMMIN
 10
0.0
 20
0.0
  9
$PLIMMAX
 10
12.0
 20
9.0
  9
$UNITMODE
 70
     0
  9
$VISRETAIN
 70
     0
  9
$PLINEGEN
 70
     0
  9
$PSLTSCALE
 70
     1
  9
$TREEDEPTH
 70
  3020
  9
$PICKSTYLE
 70
     1
  9
$CMLSTYLE
  2
STANDARD
  9
$CMLJUST
 70
     0
  9
$CMLSCALE
 40
1.0
  9
$PROXYGRAPHICS
 70
     1
  9
$MEASUREMENT
 70
     0
  0
ENDSEC
  0
SECTION
  2
CLASSES
  0
CLASS
  1
ACDBDICTIONARYWDFLT
  2
AcDbDictionaryWithDefault
  3
AutoCAD 2000
 90
        0
280
     0
281
     0
  0
CLASS
  1
ACDBPLACEHOLDER
  2
AcDbPlaceHolder
  3
AutoCAD 2000
 90
        0
280
     0
281
     0
  0
CLASS
  1
LAYOUT
  2
AcDbLayout
  3
AutoCAD 2000
 90
        0
280
     0
281
     0
  0
CLASS
  1
DICTIONARYVAR
  2
AcDbDictionaryVar
  3
AutoCAD 2000
 90
        0
280
     0
281
     0
  0
CLASS
  1
LONG_TRANSACTION
  2
AcDbLongTransaction
  3
AutoCAD 2000
 90
        0
280
     0
281
     0
  0
CLASS
  1
LWPOLYLINE
  2
AcDbPolyline
  3
AutoCAD 2000
 90
        0
280
     0
281
     1
  0
CLASS
  1
HATCH
  2
AcDbHatch
  3
AutoCAD 2000
 90
        0
280
     0
281
     1
  0
CLASS
  1
XRECORD
  2
AcDbXrecord
  3
AutoCAD 2000
 90
        0
280
     0
281
     0
  0
CLASS
  1
LONG_TRANSACTION
  2
AcDbLongTransaction
  3
AutoCAD 2000
 90
        0
280
     0
281
     0
  0
CLASS
  1
LWPOLYLINE
  2
AcDbPolyline
  3
AutoCAD 2000
 90
        0
280
     0
281
     1
  0
CLASS
  1
HATCH
  2
AcDbHatch
  3
AutoCAD 2000
 90
        0
280
     0
281
     1
  0
CLASS
  1
XRECORD
  2
AcDbXrecord
  3
AutoCAD 2000
 90
        0
280
     0
281
     0
  0
CLASS
  1
LONG_TRANSACTION
  2
AcDbLongTransaction
  3
AutoCAD 2000
 90
        0
280
     0
281
     0
  0
CLASS
  1
LWPOLYLINE
  2
AcDbPolyline
  3
AutoCAD 2000
 90
        0
280
     0
281
     1
  0
CLASS
  1
HATCH
  2
AcDbHatch
  3
AutoCAD 2000
 90
        0
280
     0
281
     1
  0
CLASS
  1
XRECORD
  2
AcDbXrecord
  3
AutoCAD 2000
 90
        0
280
     0
281
     0
  0
CLASS
  1
LONG_TRANSACTION
  2
AcDbLongTransaction
  3
AutoCAD 2000
 90
        0
280
     0
281
     0
  0
CLASS
  1
LWPOLYLINE
  2
AcDbPolyline
  3
AutoCAD 2000
 90
        0
280
     0
281
     1
  0
CLASS
  1
HATCH
  2
AcDbHatch
  3
AutoCAD 2000
 90
        0
280
     0
281
     1
  0
CLASS
  1
XRECORD
  2
AcDbXrecord
  3
AutoCAD 2000
 90
        0
280
     0
281
     0
  0
CLASS
  1
LONG_TRANSACTION
  2
AcDbLongTransaction
  3
AutoCAD 2000
 90
        0
280
     0
281
     0
  0
CLASS
  1
LWPOLYLINE
  2
AcDbPolyline
  3
AutoCAD 2000
 90
        0
280
     0
281
     1
  0
CLASS
  1
HATCH
  2
AcDbHatch
  3
AutoCAD 2000
 90
        0
280
     0
281
     1
  0
CLASS
  1
XRECORD
  2
AcDbXrecord
  3
AutoCAD 2000
 90
        0
280
     0
281
     0
  0
ENDSEC
  0
SECTION
  2
TABLES
  0
TABLE
  2
VPORT
  5
8
330
0
100
AcDbSymbolTable
 70
     2
  0
VPORT
  5
202
330
8
100
AcDbSymbolTableRecord
100
AcDbViewportTableRecord
  2
*ACTIVE
 70
     0
 10
0.0
 20
0.0
 11
1.0
 21
1.0
 12
95.56061892618298
 22
0.4015288122610974
 13
0.0
 23
0.0
 14
0.5740882589684922
 24
0.5740882589684922
 15
0.5
 25
0.5
 16
0.0
 26
0.0
 36
1.0
 17
0.0
 27
0.0
 37
0.0
 40
13.10990876663393
 41
1.570528967254408
 42
50.0
 43
0.0
 44
0.0
 50
0.0
 51
0.0
 71
     0
 72
   100
 73
     1
 74
     0
 75
     0
 76
     0
 77
     0
 78
     0
  0
ENDTAB
  0
TABLE
  2
LTYPE
  5
5
330
0
100
AcDbSymbolTable
 70
     1
  0
LTYPE
  5
13
330
5
100
AcDbSymbolTableRecord
100
AcDbLinetypeTableRecord
  2
BYBLOCK
 70
     0
  3

 72
    65
 73
     0
 40
0.0
  0
LTYPE
  5
14
330
5
100
AcDbSymbolTableRecord
100
AcDbLinetypeTableRecord
  2
BYLAYER
 70
     0
  3

 72
    65
 73
     0
 40
0.0
  0
LTYPE
  5
15
330
5
100
AcDbSymbolTableRecord
100
AcDbLinetypeTableRecord
  2
CONTINUOUS
 70
     0
  3
Solid line
 72
    65
 73
     0
 40
0.0
  0
ENDTAB
  0
TABLE
  2
LAYER
  5
2
330
0
100
AcDbSymbolTable
 70
     4
  0
LAYER
  5
10
330
2
100
AcDbSymbolTableRecord
100
AcDbLayerTableRecord
  2
0
 70
     0
 62
     7
  6
CONTINUOUS
  0
LAYER
  5
26
330
2
100
AcDbSymbolTableRecord
100
AcDbLayerTableRecord
  2
ADPDIM
 70
     0
 62
     3
  6
CONTINUOUS
  0
LAYER
  5
27
330
2
100
AcDbSymbolTableRecord
100
AcDbLayerTableRecord
  2
ADP1DETAIL
 70
     0
 62
     7
  6
CONTINUOUS
  0
LAYER
  5
28
330
2
100
AcDbSymbolTableRecord
100
AcDbLayerTableRecord
  2
DEFPOINTS
 70
     0
 62
     7
  6
CONTINUOUS
  0
ENDTAB
  0
TABLE
  2
STYLE
  5
3
330
0
100
AcDbSymbolTable
 70
     2
  0
STYLE
  5
11
330
3
100
AcDbSymbolTableRecord
100
AcDbTextStyleTableRecord
  2
STANDARD
 70
     0
 40
0.0
 41
1.0
 50
0.0
 71
     0
 42
0.2
  3
txt
  4

  0
STYLE
  5
6F
330
3
100
AcDbSymbolTableRecord
100
AcDbTextStyleTableRecord
  2
ARIAL_WIDE
 70
     0
 40
0.0
 41
1.25
 50
0.0
 71
     0
 42
0.2
  3
ARIAL.TTF
  4

1001
ACAD
1000
Arial
1071
       34
  0
ENDTAB
  0
TABLE
  2
VIEW
  5
6
330
0
100
AcDbSymbolTable
 70
     0
  0
ENDTAB
  0
TABLE
  2
UCS
  5
7
330
0
100
AcDbSymbolTable
 70
     0
  0
ENDTAB
  0
TABLE
  2
APPID
  5
9
330
0
100
AcDbSymbolTable
 70
     1
  0
APPID
  5
12
330
9
100
AcDbSymbolTableRecord
100
AcDbRegAppTableRecord
  2
ACAD
 70
     0
  0
ENDTAB
  0
TABLE
  2
DIMSTYLE
  5
A
330
0
100
AcDbSymbolTable
 70
     1
  0
DIMSTYLE
105
6D
330
A
100
AcDbSymbolTableRecord
100
AcDbDimStyleTableRecord
  2
STANDARD
 70
     0
  3

  4

  5

  6

  7

 40
1.0
 41
0.18
 42
0.0625
 43
0.38
 44
0.18
 45
0.0
 46
0.0
 47
0.0
 48
0.0
140
0.18
141
0.09
142
0.0
143
25.4
144
1.0
145
0.0
146
1.0
147
0.09
 71
     0
 72
     0
 73
     1
 74
     1
 75
     0
 76
     0
 77
     0
 78
     0
170
     0
171
     2
172
     0
173
     0
174
     0
175
     0
176
     0
177
     0
178
     0
270
     2
271
     4
272
     4
273
     2
274
     2
340
11
275
     0
280
     0
281
     0
282
     0
283
     1
284
     0
285
     0
286
     0
287
     3
288
     0
  0
ENDTAB
  0
TABLE
  2
BLOCK_RECORD
  5
1
330
0
100
AcDbSymbolTable
 70
     3
  0
BLOCK_RECORD
  5
1E
102
{ACAD_XDICTIONARY
360
AC
102
}
330
1
100
AcDbSymbolTableRecord
100
AcDbBlockTableRecord
  2
*MODEL_SPACE
  0
BLOCK_RECORD
  5
1A
102
{ACAD_XDICTIONARY
360
AE
102
}
330
1
100
AcDbSymbolTableRecord
100
AcDbBlockTableRecord
  2
*PAPER_SPACE
  0
BLOCK_RECORD
  5
22
330
1
100
AcDbSymbolTableRecord
100
AcDbBlockTableRecord
  2
6933
  0
BLOCK_RECORD
  5
23
330
1
100
AcDbSymbolTableRecord
100
AcDbBlockTableRecord
  2
*D1
  0
BLOCK_RECORD
  5
24
330
1
100
AcDbSymbolTableRecord
100
AcDbBlockTableRecord
  2
*D2
  0
ENDTAB
  0
ENDSEC
  0
SECTION
  2
BLOCKS
  0
BLOCK
  5
2B
330
1E
100
AcDbEntity
  8
0
100
AcDbBlockBegin
  2
*MODEL_SPACE
 70
     0
 10
0.0
 20
0.0
 30
0.0
  3
*MODEL_SPACE
  1

  0
ENDBLK
  5
2C
330
1E
100
AcDbEntity
  8
0
100
AcDbBlockEnd
  0
BLOCK
  5
29
330
1A
100
AcDbEntity
 67
     1
  8
0
100
AcDbBlockBegin
  2
*PAPER_SPACE
 70
     0
 10
0.0
 20
0.0
 30
0.0
  3
*PAPER_SPACE
  1

  0
ENDBLK
  5
2A
330
1A
100
AcDbEntity
 67
     1
  8
0
100
AcDbBlockEnd
  0
BLOCK
  5
2D
330
22
100
AcDbEntity
  8
0
100
AcDbBlockBegin
  2
6933
 70
     0
 10
0.0
 20
0.0
 30
0.0
  3
6933
  1

  0
DIMENSION
  5
2E
330
22
100
AcDbEntity
  8
ADPDIM
100
AcDbDimension
  2
*D1
 10
-1.306248784513032
 20
-0.1911699640571189
 30
0.0
 11
-2.20624878451303
 21
-0.1911699640571189
 31
0.0
 12
-15.028862497596
 22
-12.71037642052152
 32
0.0
100
AcDbAlignedDimension
 13
0.0000000109656693
 23
0.0000022935638331
 33
0.0
 14
-1.306248784513032
 24
0.0031249049026378
 34
0.0
100
AcDbRotatedDimension
  0
DIMENSION
  5
2F
330
22
100
AcDbEntity
  8
ADPDIM
100
AcDbDimension
  2
*D2
 10
0.2180419728085177
 20
0.9406876802492742
 30
0.0
 11
-0.6526034058522577
 21
0.9406876802492742
 31
0.0
 12
-15.028862497596
 22
-12.71037642052152
 32
0.0
100
AcDbAlignedDimension
 13
-1.523248784513032
 23
0.221122611312591
 33
0.0
 14
0.2180419728085177
 24
0.2183630707123605
 34
0.0
100
AcDbRotatedDimension
  0
ARC
  5
30
330
22
100
AcDbEntity
  8
ADP1DETAIL
100
AcDbCircle
 10
-0.6281620917771349
 20
-2.72880581251656
 30
0.0
 40
3.356225554059557
100
AcDbArc
 50
90.40060923645667
 51
100.53334409849
  0
LINE
  5
31
330
22
100
AcDbEntity
  8
ADP1DETAIL
100
AcDbLine
 10
-1.18124878451303
 20
0.2531226113125911
 30
0.0
 11
-0.6492487845130342
 21
0.2531226113125911
 31
0.0
  0
ARC
  5
32
330
22
100
AcDbEntity
  8
ADP1DETAIL
100
AcDbCircle
 10
-1.305248784513032
 20
0.221122611312591
 30
0.0
 40
0.218
100
AcDbArc
 50
179.6312450729445
 51
269.7371744015996
  0
LINE
  5
33
330
22
100
AcDbEntity
  8
ADP1DETAIL
100
AcDbLine
 10
-1.30624878451303
 20
0.0031226113125911
 30
0.0
 11
-1.30624878451303
 21
0.1281226113125911
 31
0.0
  0
ARC
  5
34
330
22
100
AcDbEntity
  8
ADP1DETAIL
100
AcDbCircle
 10
-1.165248784513032
 20
0.221122611312591
 30
0.0
 40
0.358
100
AcDbArc
 50
102.3315095628152
 51
179.9999999999999
  0
LINE
  5
35
330
22
100
AcDbEntity
  8
ADP1DETAIL
100
AcDbLine
 10
-1.30624878451303
 20
0.1281226113125911
 30
0.0
 11
-1.18124878451303
 21
0.1281226113125911
 31
0.0
  0
LINE
  5
36
330
22
100
AcDbEntity
  8
ADP1DETAIL
100
AcDbLine
 10
-1.18124878451303
 20
0.1281226113125911
 30
0.0
 11
-1.18124878451303
 21
0.2531226113125911
 31
0.0
  0
ARC
  5
37
330
22
100
AcDbEntity
  8
ADP1DETAIL
100
AcDbCircle
 10
0.000042271347958
 20
0.2180022894676412
 30
0.0
 40
0.218
100
AcDbArc
 50
269.9888929286198
 51
0.0948222572748857
  0
LINE
  5
38
330
22
100
AcDbEntity
  8
ADP1DETAIL
100
AcDbLine
 10
0.0
 20
0.0
 30
0.0
 11
0.0005976261002658
 21
0.12499857136401
 31
0.0
  0
LINE
  5
39
330
22
100
AcDbEntity
  8
ADP1DETAIL
100
AcDbLine
 10
-0.1238033191634713
 20
0.2505947688282966
 30
0.0
 11
-0.6557972388887095
 21
0.2531382655110548
 31
0.0
  0
ARC
  5
3A
330
22
100
AcDbEntity
  8
ADP1DETAIL
100
AcDbCircle
 10
-0.691140316664729
 20
-2.728655261932466
 30
0.0
 40
3.356225554059557
100
AcDbArc
 50
79.19272323172942
 51
89.3254580937628
  0
ARC
  5
3B
330
22
100
AcDbEntity
  8
ADP1DETAIL
100
AcDbCircle
 10
-0.1399561285797333
 20
0.2186716306999443
 30
0.0
 40
0.358
100
AcDbArc
 50
359.7260673302195
 51
77.39455776740417
  0
LINE
  5
3C
330
22
100
AcDbEntity
  8
ADP1DETAIL
100
AcDbLine
 10
0.0005976261002658
 20
0.12499857136401
 30
0.0
 11
-0.1244009452637442
 21
0.125596197464283
 31
0.0
  0
LINE
  5
3D
330
22
100
AcDbEntity
  8
ADP1DETAIL
100
AcDbLine
 10
-0.1244009452637442
 20
0.125596197464283
 30
0.0
 11
-0.1238033191634713
 21
0.2505947688282966
 31
0.0
  0
ENDBLK
  5
3E
330
22
100
AcDbEntity
  8
0
100
AcDbBlockEnd
  0
BLOCK
  5
3F
330
23
100
AcDbEntity
  8
0
100
AcDbBlockBegin
  2
*D1
 70
     1
 10
0.0
 20
0.0
 30
0.0
  3
*D1
  1

  0
LINE
  5
40
330
23
100
AcDbEntity
  8
0
  6
BYBLOCK
 62
     0
100
AcDbLine
 10
15.02886250856168
 20
12.64787871408535
 30
0.0
 11
15.02886250856168
 21
12.3392064564644
 31
0.0
  0
LINE
  5
41
330
23
100
AcDbEntity
  8
0
  6
BYBLOCK
 62
     0
100
AcDbLine
 10
13.72261371308297
 20
12.65100132542416
 30
0.0
 11
13.72261371308297
 21
12.3392064564644
 31
0.0
  0
LINE
  5
42
330
23
100
AcDbEntity
  8
0
  6
BYBLOCK
 62
     0
100
AcDbLine
 10
15.20886250856167
 20
12.5192064564644
 30
0.0
 11
15.38886250856167
 21
12.5192064564644
 31
0.0
  0
LINE
  5
43
330
23
100
AcDbEntity
  8
0
  6
BYBLOCK
 62
     0
100
AcDbLine
 10
13.54261371308297
 20
12.5192064564644
 30
0.0
 11
13.36261371308297
 21
12.5192064564644
 31
0.0
  0
SOLID
  5
44
330
23
100
AcDbEntity
  8
0
  6
BYBLOCK
 62
     0
100
AcDbTrace
 10
15.20886250856167
 20
12.5492064564644
 30
0.0
 11
15.20886250856167
 21
12.4892064564644
 31
0.0
 12
15.02886250856168
 22
12.5192064564644
 32
0.0
 13
15.02886250856168
 23
12.5192064564644
 33
0.0
  0
SOLID
  5
45
330
23
100
AcDbEntity
  8
0
  6
BYBLOCK
 62
     0
100
AcDbTrace
 10
13.54261371308297
 20
12.5492064564644
 30
0.0
 11
13.54261371308297
 21
12.4892064564644
 31
0.0
 12
13.72261371308297
 22
12.5192064564644
 32
0.0
 13
13.72261371308297
 23
12.5192064564644
 33
0.0
  0
TEXT
  5
46
330
23
100
AcDbEntity
  8
0
  6
BYBLOCK
 62
     0
100
AcDbText
 10
12.37261371308298
 20
12.4292064564644
 30
0.0
 40
0.18
  1
1 5/16
 72
     1
 11
12.82261371308297
 21
12.5192064564644
 31
0.0
100
AcDbText
 73
     2
  0
POINT
  5
48
330
23
100
AcDbEntity
  8
DEFPOINTS
  6
BYBLOCK
 62
     0
100
AcDbPoint
 10
15.02886250856168
 20
12.71037871408535
 30
0.0
  0
POINT
  5
49
330
23
100
AcDbEntity
  8
DEFPOINTS
  6
BYBLOCK
 62
     0
100
AcDbPoint
 10
13.72261371308297
 20
12.71350132542416
 30
0.0
  0
POINT
  5
4A
330
23
100
AcDbEntity
  8
DEFPOINTS
  6
BYBLOCK
 62
     0
100
AcDbPoint
 10
13.72261371308297
 20
12.5192064564644
 30
0.0
  0
ENDBLK
  5
4B
330
23
100
AcDbEntity
  8
0
100
AcDbBlockEnd
  0
BLOCK
  5
4C
330
24
100
AcDbEntity
  8
0
100
AcDbBlockBegin
  2
*D2
 70
     1
 10
0.0
 20
0.0
 30
0.0
  3
*D2
  1

  0
LINE
  5
4D
330
24
100
AcDbEntity
  8
0
  6
BYBLOCK
 62
     0
100
AcDbLine
 10
13.50561371308297
 20
12.99399903183411
 30
0.0
 11
13.50561371308297
 21
13.83106410077079
 31
0.0
  0
LINE
  5
4E
330
24
100
AcDbEntity
  8
0
  6
BYBLOCK
 62
     0
100
AcDbLine
 10
15.24690447040452
 20
12.99123949123388
 30
0.0
 11
15.24690447040452
 21
13.83106410077079
 31
0.0
  0
LINE
  5
4F
330
24
100
AcDbEntity
  8
0
  6
BYBLOCK
 62
     0
100
AcDbLine
 10
13.68561371308297
 20
13.65106410077079
 30
0.0
 11
13.89625909174375
 21
13.65106410077079
 31
0.0
  0
LINE
  5
50
330
24
100
AcDbEntity
  8
0
  6
BYBLOCK
 62
     0
100
AcDbLine
 10
15.06690447040452
 20
13.65106410077079
 30
0.0
 11
14.85625909174375
 21
13.65106410077079
 31
0.0
  0
SOLID
  5
51
330
24
100
AcDbEntity
  8
0
  6
BYBLOCK
 62
     0
100
AcDbTrace
 10
13.68561371308297
 20
13.68106410077079
 30
0.0
 11
13.68561371308297
 21
13.62106410077079
 31
0.0
 12
13.50561371308297
 22
13.65106410077079
 32
0.0
 13
13.50561371308297
 23
13.65106410077079
 33
0.0
  0
SOLID
  5
52
330
24
100
AcDbEntity
  8
0
  6
BYBLOCK
 62
     0
100
AcDbTrace
 10
15.06690447040452
 20
13.68106410077079
 30
0.0
 11
15.06690447040452
 21
13.62106410077079
 31
0.0
 12
15.24690447040452
 22
13.65106410077079
 32
0.0
 13
15.24690447040452
 23
13.65106410077079
 33
0.0
  0
TEXT
  5
53
330
24
100
AcDbEntity
  8
0
  6
BYBLOCK
 62
     0
100
AcDbText
 10
13.98625909174375
 20
13.56106410077079
 30
0.0
 40
0.18
  1
1 3/4
 72
     1
 11
14.37625909174375
 21
13.65106410077079
 31
0.0
100
AcDbText
 73
     2
  0
POINT
  5
54
330
24
100
AcDbEntity
  8
DEFPOINTS
  6
BYBLOCK
 62
     0
100
AcDbPoint
 10
13.50561371308297
 20
12.93149903183411
 30
0.0
  0
POINT
  5
55
330
24
100
AcDbEntity
  8
DEFPOINTS
  6
BYBLOCK
 62
     0
100
AcDbPoint
 10
15.24690447040452
 20
12.92873949123388
 30
0.0
  0
POINT
  5
56
330
24
100
AcDbEntity
  8
DEFPOINTS
  6
BYBLOCK
 62
     0
100
AcDbPoint
 10
15.24690447040452
 20
13.65106410077079
 30
0.0
  0
ENDBLK
  5
57
330
24
100
AcDbEntity
  8
0
100
AcDbBlockEnd
  0
ENDSEC
  0
SECTION
  2
ENTITIES
  0
ARC
  5
58
330
1E
100
AcDbEntity
  8
ADP1DETAIL
100
AcDbCircle
 10
95.47245924662446
 20
1.786235365079357
 30
0.0
 40
4.167095764889594
100
AcDbArc
 50
257.357904679813
 51
313.1396243356453
  0
ARC
  5
59
330
1E
100
AcDbEntity
  8
ADP1DETAIL
100
AcDbCircle
 10
96.00923371214237
 20
2.130363871622252
 30
0.0
 40
6.386124620162743
100
AcDbArc
 50
209.9866288112151
 51
253.3311794229287
  0
ARC
  5
5A
330
1E
100
AcDbEntity
  8
ADP1DETAIL
100
AcDbCircle
 10
96.00923371214237
 20
2.130363871622252
 30
0.0
 40
4.636124620162743
100
AcDbArc
 50
210.3840034139746
 51
252.5648944349462
  0
ARC
  5
5B
330
1E
100
AcDbEntity
  8
ADP1DETAIL
100
AcDbCircle
 10
95.76851809074037
 20
1.298130037743742
 30
0.0
 40
5.359784745786716
100
AcDbArc
 50
314.3981978629555
 51
355.3872511813307
  0
INSERT
  5
5C
330
1E
100
AcDbEntity
  8
ADP1DETAIL
100
AcDbBlockReference
  2
6933
 10
91.23934292916061
 20
3.321335229316262
 30
0.0
  0
ARC
  5
5D
330
1E
100
AcDbEntity
  8
ADP1DETAIL
100
AcDbCircle
 10
96.92886763960483
 20
1.280375190508632
 30
0.0
 40
4.20244609868203
100
AcDbArc
 50
354.3562154823877
 51
52.68386476352667
  0
ARC
  5
5E
330
1E
100
AcDbEntity
  8
ADP1DETAIL
100
AcDbCircle
 10
97.45845325358883
 20
1.621992197188921
 30
0.0
 40
3.616058884373841
100
AcDbArc
 50
56.07804134186856
 51
153.1076472806651
  0
ARC
  5
5F
330
1E
100
AcDbEntity
  8
ADP1DETAIL
100
AcDbCircle
 10
96.92886763960483
 20
1.280375190508632
 30
0.0
 40
2.45244609868203
100
AcDbArc
 50
354.3562154823877
 51
51.43471635111748
  0
ARC
  5
60
330
1E
100
AcDbEntity
  8
ADP1DETAIL
100
AcDbCircle
 10
96.26219425384594
 20
2.117950097171068
 30
0.0
 40
2.326933154704537
100
AcDbArc
 50
150.6750945534993
 51
231.1274831236509
  0
ARC
  5
61
330
1E
100
AcDbEntity
  8
ADP1DETAIL
100
AcDbCircle
 10
96.12904992127493
 20
1.723737906686594
 30
0.0
 40
1.941789303039755
100
AcDbArc
 50
226.8821676971989
 51
62.10728424815254
  0
ARC
  5
62
330
1E
100
AcDbEntity
  8
ADP1DETAIL
100
AcDbCircle
 10
97.45845325358883
 20
1.621992197188728
 30
0.0
 40
1.866058884374
100
AcDbArc
 50
57.62183399197654
 51
103.0387150108147
  0
ARC
  5
63
330
1E
100
AcDbEntity
  8
ADP1DETAIL
100
AcDbCircle
 10
95.76342767082078
 20
1.299480690233741
 30
0.0
 40
3.614967419729265
100
AcDbArc
 50
315.0501051847257
 51
355.3724016529002
  0
LWPOLYLINE
  5
64
330
1E
100
AcDbEntity
  8
ADP1DETAIL
100
AcDbPolyline
 90
        3
 70
     0
 43
0.0
 10
91.4824425409537
 20
2.627592319054656
 10
91.4824425409537
 20
1.68378559353689
 42
0.1064866492065307
 10
92.02484680497219
 20
-0.2431246015885811
 42
0.1064866492065307
  0
ARC
  5
69
330
1E
100
AcDbEntity
  8
ADP1DETAIL
100
AcDbCircle
 10
96.22617759471276
 20
1.979299872886801
 30
0.0
 40
6.502930774750398
100
AcDbArc
 50
183.0473837583831
 51
207.8779930597791
  0
LINE
  5
6A
330
1E
100
AcDbEntity
  8
ADP1DETAIL
100
AcDbLine
 10
91.4824425409537
 20
2.627592319054655
 30
0.0
 11
89.73244254095369
 21
2.627592319054654
 31
0.0
  0
LINE
  5
6B
330
1E
100
AcDbEntity
  8
ADP1DETAIL
100
AcDbLine
 10
89.73244254095369
 20
2.627592319054654
 30
0.0
 11
89.73244254095369
 21
1.633592319054678
 31
0.0
  0
ARC
  5
6C
330
1E
100
AcDbEntity
  8
ADP1DETAIL
100
AcDbCircle
 10
95.47245924662446
 20
1.786235365079357
 30
0.0
 40
5.917095764889594
100
AcDbArc
 50
257.357904679813
 51
313.1396243356453
  0
TEXT
  5
70
330
1E
100
AcDbEntity
  8
ADPDIM
100
AcDbText
 10
85.321043472614
 20
-4.943977785817084
 30
0.0
 40
0.1875
  1
J U L I U S  B L U M  &  C O . ,  I N C .      ( 8 0 0 )  5 2 6 - 6 2 9 3        W W W . J U L I U S B L U M . C O M        P A R T  N o .  6 9 3 3 - G R
 41
1.25
  7
ARIAL_WIDE
 72
     1
 11
95.54617243748438
 21
-4.756477785817084
 31
0.0
100
AcDbText
 73
     3
  0
ENDSEC
  0
SECTION
  2
OBJECTS
  0
DICTIONARY
  5
C
330
0
100
AcDbDictionary
  3
ACAD_GROUP
350
D
  3
ACAD_LAYOUT
350
19
  3
ACAD_MLINESTYLE
350
16
  3
ACAD_PLOTSETTINGS
350
18
  3
ACAD_PLOTSTYLENAME
350
E
  3
ACDBHEADERROUNDTRIPXREC
350
203
  3
ACDBVARIABLEDICTIONARY
350
E1
  0
DICTIONARY
  5
AC
330
1E
100
AcDbDictionary
280
     1
  3
ACAD_LAYOUTSELFREF
360
225
  0
DICTIONARY
  5
AE
330
1A
100
AcDbDictionary
280
     1
  3
ACAD_LAYOUTSELFREF
360
224
  0
DICTIONARY
  5
D
102
{ACAD_REACTORS
330
C
102
}
330
C
100
AcDbDictionary
  0
DICTIONARY
  5
19
102
{ACAD_REACTORS
330
C
102
}
330
C
100
AcDbDictionary
  0
DICTIONARY
  5
16
102
{ACAD_REACTORS
330
C
102
}
330
C
100
AcDbDictionary
  3
STANDARD
350
17
  0
DICTIONARY
  5
18
102
{ACAD_REACTORS
330
C
102
}
330
C
100
AcDbDictionary
  0
ACDBDICTIONARYWDFLT
  5
E
102
{ACAD_REACTORS
330
C
102
}
330
C
100
AcDbDictionary
281
     1
  3
Normal
350
F
100
AcDbDictionaryWithDefault
340
F
  0
DICTIONARY
  5
203
102
{ACAD_REACTORS
330
C
102
}
330
C
100
AcDbDictionary
  3
CEPSNTYPE
350
20D
  3
DIMSTYLEDATA
350
211
  3
FINGERPRINTGUID
350
20E
  3
HYPERLINKBASE
350
206
  3
INSUNITS
350
20C
  3
LAYOUTDICT
350
208
  3
LWETCUNION
350
20B
  3
PLOTSETDICT
350
209
  3
PLOTSTYLNAMDICT
350
20A
  3
PSVPSCALE
350
210
  3
PUCSBASE
350
214
  3
PUCSORGBACK
350
21A
  3
PUCSORGBOTTOM
350
216
  3
PUCSORGFRONT
350
219
  3
PUCSORGLEFT
350
217
  3
PUCSORGRIGHT
350
218
  3
PUCSORGTOP
350
215
  3
PUCSORTHOREF
350
212
  3
PUCSORTHOVIEW
350
213
  3
STYLESHEET
350
207
  3
TSTACKALIGN
350
204
  3
TSTACKSIZE
350
205
  3
UCSBASE
350
21D
  3
UCSORGBACK
350
223
  3
UCSORGBOTTOM
350
21F
  3
UCSORGFRONT
350
222
  3
UCSORGLEFT
350
220
  3
UCSORGRIGHT
350
221
  3
UCSORGTOP
350
21E
  3
UCSORTHOREF
350
21B
  3
UCSORTHOVIEW
350
21C
  3
VERSIONGUID
350
20F
  0
DICTIONARY
  5
E1
102
{ACAD_REACTORS
330
C
102
}
330
C
100
AcDbDictionary
  3
DIMASSOC
350
E3
  3
HIDETEXT
350
E2
  0
XRECORD
  5
225
102
{ACAD_REACTORS
330
AC
102
}
330
AC
100
AcDbXrecord
340
1E
  0
XRECORD
  5
224
102
{ACAD_REACTORS
330
AE
102
}
330
AE
100
AcDbXrecord
340
1A
  0
MLINESTYLE
  5
17
102
{ACAD_REACTORS
330
16
102
}
330
16
100
AcDbMlineStyle
  2
STANDARD
 70
     0
  3

 62
   256
 51
90.0
 52
90.0
 71
     2
 49
0.5
 62
   256
  6
BYLAYER
 49
-0.5
 62
   256
  6
BYLAYER
  0
ACDBPLACEHOLDER
  5
F
102
{ACAD_REACTORS
330
E
102
}
330
E
100
AcDbPlaceHolder
280
     0
  0
XRECORD
  5
20D
102
{ACAD_REACTORS
330
203
102
}
330
203
100
AcDbXrecord
 90
        0
  0
XRECORD
  5
211
102
{ACAD_REACTORS
330
203
102
}
330
203
100
AcDbXrecord
1000
DSTYLE
1002
{
1070
   277
 70
     5
1070
   279
 70
     2
1002
}
  0
XRECORD
  5
20E
102
{ACAD_REACTORS
330
203
102
}
330
203
100
AcDbXrecord
  1
{D6F6DC00-8B59-4C68-8AA8-7DA5DC24ED3D}
  0
XRECORD
  5
206
102
{ACAD_REACTORS
330
203
102
}
330
203
100
AcDbXrecord
  1

  0
XRECORD
  5
20C
102
{ACAD_REACTORS
330
203
102
}
330
203
100
AcDbXrecord
 90
        0
  0
XRECORD
  5
208
102
{ACAD_REACTORS
330
203
102
}
330
203
100
AcDbXrecord
340
19
  0
XRECORD
  5
20B
102
{ACAD_REACTORS
330
203
102
}
330
203
100
AcDbXrecord
 90
    14877
  0
XRECORD
  5
209
102
{ACAD_REACTORS
330
203
102
}
330
203
100
AcDbXrecord
340
18
  0
XRECORD
  5
20A
102
{ACAD_REACTORS
330
203
102
}
330
203
100
AcDbXrecord
340
E
  0
XRECORD
  5
210
102
{ACAD_REACTORS
330
203
102
}
330
203
100
AcDbXrecord
 40
0.0
  0
XRECORD
  5
214
102
{ACAD_REACTORS
330
203
102
}
330
203
100
AcDbXrecord
340
0
  0
XRECORD
  5
21A
102
{ACAD_REACTORS
330
203
102
}
330
203
100
AcDbXrecord
 10
0.0
 20
0.0
 30
0.0
  0
XRECORD
  5
216
102
{ACAD_REACTORS
330
203
102
}
330
203
100
AcDbXrecord
 10
0.0
 20
0.0
 30
0.0
  0
XRECORD
  5
219
102
{ACAD_REACTORS
330
203
102
}
330
203
100
AcDbXrecord
 10
0.0
 20
0.0
 30
0.0
  0
XRECORD
  5
217
102
{ACAD_REACTORS
330
203
102
}
330
203
100
AcDbXrecord
 10
0.0
 20
0.0
 30
0.0
  0
XRECORD
  5
218
102
{ACAD_REACTORS
330
203
102
}
330
203
100
AcDbXrecord
 10
0.0
 20
0.0
 30
0.0
  0
XRECORD
  5
215
102
{ACAD_REACTORS
330
203
102
}
330
203
100
AcDbXrecord
 10
0.0
 20
0.0
 30
0.0
  0
XRECORD
  5
212
102
{ACAD_REACTORS
330
203
102
}
330
203
100
AcDbXrecord
340
0
  0
XRECORD
  5
213
102
{ACAD_REACTORS
330
203
102
}
330
203
100
AcDbXrecord
 70
     0
  0
XRECORD
  5
207
102
{ACAD_REACTORS
330
203
102
}
330
203
100
AcDbXrecord
  1

  0
XRECORD
  5
204
102
{ACAD_REACTORS
330
203
102
}
330
203
100
AcDbXrecord
 90
        1
  0
XRECORD
  5
205
102
{ACAD_REACTORS
330
203
102
}
330
203
100
AcDbXrecord
 90
       70
  0
XRECORD
  5
21D
102
{ACAD_REACTORS
330
203
102
}
330
203
100
AcDbXrecord
340
0
  0
XRECORD
  5
223
102
{ACAD_REACTORS
330
203
102
}
330
203
100
AcDbXrecord
 10
0.0
 20
0.0
 30
0.0
  0
XRECORD
  5
21F
102
{ACAD_REACTORS
330
203
102
}
330
203
100
AcDbXrecord
 10
0.0
 20
0.0
 30
0.0
  0
XRECORD
  5
222
102
{ACAD_REACTORS
330
203
102
}
330
203
100
AcDbXrecord
 10
0.0
 20
0.0
 30
0.0
  0
XRECORD
  5
220
102
{ACAD_REACTORS
330
203
102
}
330
203
100
AcDbXrecord
 10
0.0
 20
0.0
 30
0.0
  0
XRECORD
  5
221
102
{ACAD_REACTORS
330
203
102
}
330
203
100
AcDbXrecord
 10
0.0
 20
0.0
 30
0.0
  0
XRECORD
  5
21E
102
{ACAD_REACTORS
330
203
102
}
330
203
100
AcDbXrecord
 10
0.0
 20
0.0
 30
0.0
  0
XRECORD
  5
21B
102
{ACAD_REACTORS
330
203
102
}
330
203
100
AcDbXrecord
340
0
  0
XRECORD
  5
21C
102
{ACAD_REACTORS
330
203
102
}
330
203
100
AcDbXrecord
 70
     0
  0
XRECORD
  5
20F
102
{ACAD_REACTORS
330
203
102
}
330
203
100
AcDbXrecord
  1
{A27B5FE3-70E5-4153-856E-21594CD92B83}
  0
DICTIONARYVAR
  5
E3
102
{ACAD_REACTORS
330
E1
102
}
330
E1
100
DictionaryVariables
280
     0
  1
2
  0
DICTIONARYVAR
  5
E2
102
{ACAD_REACTORS
330
E1
102
}
330
E1
100
DictionaryVariables
280
     0
  1
1
  0
ENDSEC
  0
EOF
