  0
SECTION
  2
HEADER
  9
$ACADVER
  1
AC1014
  9
$ACADMAINTVER
 70
     9
  9
$DWGCODEPAGE
  3
ANSI_1252
  9
$INSBASE
 10
5.649962210943687
 20
26.06118429205946
 30
0.0
  9
$EXTMIN
 10
-0.3460735929200176
 20
23.23322930198569
 30
0.0
  9
$EXTMAX
 10
13.04495642072254
 20
27.05319873883878
 30
0.0
  9
$LIMMIN
 10
-23.61579290080725
 20
-21.96805058542324
  9
$LIMMAX
 10
-4.61579290080726
 20
2.031949414576754
  9
$ORTHOMODE
 70
     1
  9
$REGENMODE
 70
     1
  9
$FILLMODE
 70
     1
  9
$QTEXTMODE
 70
     0
  9
$MIRRTEXT
 70
     1
  9
$DRAGMODE
 70
     0
  9
$LTSCALE
 40
1.0
  9
$OSMODE
 70
    37
  9
$ATTMODE
 70
     1
  9
$TEXTSIZE
 40
0.2
  9
$TRACEWID
 40
0.125
  9
$TEXTSTYLE
  7
STANDARD
  9
$CLAYER
  8
ADPDIM
  9
$CELTYPE
  6
BYLAYER
  9
$CECOLOR
 62
   256
  9
$CELTSCALE
 40
1.0
  9
$DELOBJ
 70
     1
  9
$DISPSILH
 70
     0
  9
$DIMSCALE
 40
1.0
  9
$DIMASZ
 40
0.18
  9
$DIMEXO
 40
0.0625
  9
$DIMDLI
 40
0.38
  9
$DIMRND
 40
0.0
  9
$DIMDLE
 40
0.0
  9
$DIMEXE
 40
0.18
  9
$DIMTP
 40
0.0
  9
$DIMTM
 40
0.0
  9
$DIMTXT
 40
0.18
  9
$DIMCEN
 40
0.09
  9
$DIMTSZ
 40
0.0
  9
$DIMTOL
 70
     0
  9
$DIMLIM
 70
     0
  9
$DIMTIH
 70
     1
  9
$DIMTOH
 70
     1
  9
$DIMSE1
 70
     0
  9
$DIMSE2
 70
     0
  9
$DIMTAD
 70
     0
  9
$DIMZIN
 70
     0
  9
$DIMBLK
  1

  9
$DIMASO
 70
     1
  9
$DIMSHO
 70
     1
  9
$DIMPOST
  1

  9
$DIMAPOST
  1

  9
$DIMALT
 70
     0
  9
$DIMALTD
 70
     2
  9
$DIMALTF
 40
25.4
  9
$DIMLFAC
 40
1.0
  9
$DIMTOFL
 70
     0
  9
$DIMTVP
 40
0.0
  9
$DIMTIX
 70
     0
  9
$DIMSOXD
 70
     0
  9
$DIMSAH
 70
     0
  9
$DIMBLK1
  1

  9
$DIMBLK2
  1

  9
$DIMSTYLE
  2
STANDARD
  9
$DIMCLRD
 70
     0
  9
$DIMCLRE
 70
     0
  9
$DIMCLRT
 70
     0
  9
$DIMTFAC
 40
1.0
  9
$DIMGAP
 40
0.09
  9
$DIMJUST
 70
     0
  9
$DIMSD1
 70
     0
  9
$DIMSD2
 70
     0
  9
$DIMTOLJ
 70
     1
  9
$DIMTZIN
 70
     0
  9
$DIMALTZ
 70
     0
  9
$DIMALTTZ
 70
     0
  9
$DIMFIT
 70
     5
  9
$DIMUPT
 70
     0
  9
$DIMUNIT
 70
     5
  9
$DIMDEC
 70
     5
  9
$DIMTDEC
 70
     5
  9
$DIMALTU
 70
     5
  9
$DIMALTTD
 70
     2
  9
$DIMTXSTY
  7
STANDARD
  9
$DIMAUNIT
 70
     0
  9
$LUNITS
 70
     5
  9
$LUPREC
 70
     5
  9
$SKETCHINC
 40
0.1
  9
$FILLETRAD
 40
0.038
  9
$AUNITS
 70
     0
  9
$AUPREC
 70
     0
  9
$MENU
  1
acad
  9
$ELEVATION
 40
0.0
  9
$PELEVATION
 40
0.0
  9
$THICKNESS
 40
0.0
  9
$LIMCHECK
 70
     0
  9
$BLIPMODE
 70
     0
  9
$CHAMFERA
 40
0.0
  9
$CHAMFERB
 40
0.0
  9
$CHAMFERC
 40
0.0
  9
$CHAMFERD
 40
0.0
  9
$SKPOLY
 70
     0
  9
$TDCREATE
 40
2450359.953588345
  9
$TDUPDATE
 40
2452297.096465567
  9
$TDINDWG
 40
0.0336009838
  9
$TDUSRTIMER
 40
0.0336009838
  9
$USRTIMER
 70
     1
  9
$ANGBASE
 50
0.0
  9
$ANGDIR
 70
     0
  9
$PDMODE
 70
    34
  9
$PDSIZE
 40
0.0
  9
$PLINEWID
 40
0.0
  9
$COORDS
 70
     2
  9
$SPLFRAME
 70
     0
  9
$SPLINETYPE
 70
     6
  9
$SPLINESEGS
 70
     8
  9
$ATTDIA
 70
     0
  9
$ATTREQ
 70
     1
  9
$HANDLING
 70
 22529
  9
$HANDSEED
  5
25E
  9
$SURFTAB1
 70
     6
  9
$SURFTAB2
 70
     6
  9
$SURFTYPE
 70
     6
  9
$SURFU
 70
     6
  9
$SURFV
 70
     6
  9
$UCSNAME
  2

  9
$UCSORG
 10
0.0
 20
0.0
 30
0.0
  9
$UCSXDIR
 10
1.0
 20
0.0
 30
0.0
  9
$UCSYDIR
 10
0.0
 20
1.0
 30
0.0
  9
$PUCSNAME
  2

  9
$PUCSORG
 10
0.0
 20
0.0
 30
0.0
  9
$PUCSXDIR
 10
1.0
 20
0.0
 30
0.0
  9
$PUCSYDIR
 10
0.0
 20
1.0
 30
0.0
  9
$USERI1
 70
     0
  9
$USERI2
 70
     0
  9
$USERI3
 70
     0
  9
$USERI4
 70
     0
  9
$USERI5
 70
     0
  9
$USERR1
 40
0.0
  9
$USERR2
 40
0.0
  9
$USERR3
 40
0.0
  9
$USERR4
 40
0.0
  9
$USERR5
 40
0.0
  9
$WORLDVIEW
 70
     1
  9
$SHADEDGE
 70
     3
  9
$SHADEDIF
 70
    70
  9
$TILEMODE
 70
     1
  9
$MAXACTVP
 70
    15
  9
$PINSBASE
 10
0.0
 20
-0.0000000000727758
 30
0.0
  9
$PLIMCHECK
 70
     0
  9
$PEXTMIN
 10
1.000000000000000E+20
 20
1.000000000000000E+20
 30
1.000000000000000E+20
  9
$PEXTMAX
 10
-1.000000000000000E+20
 20
-1.000000000000000E+20
 30
-1.000000000000000E+20
  9
$PLIMMIN
 10
-21.61579290080726
 20
-19.96805058542324
  9
$PLIMMAX
 10
-9.61579290080726
 20
-10.96805058542324
  9
$UNITMODE
 70
     0
  9
$VISRETAIN
 70
     0
  9
$PLINEGEN
 70
     0
  9
$PSLTSCALE
 70
     1
  9
$TREEDEPTH
 70
  3020
  9
$PICKSTYLE
 70
     1
  9
$CMLSTYLE
  2
STANDARD
  9
$CMLJUST
 70
     0
  9
$CMLSCALE
 40
1.0
  9
$PROXYGRAPHICS
 70
     1
  9
$MEASUREMENT
 70
     0
  0
ENDSEC
  0
SECTION
  2
CLASSES
  0
CLASS
  1
ACDBDICTIONARYWDFLT
  2
AcDbDictionaryWithDefault
  3
AutoCAD 2000
 90
        0
280
     0
281
     0
  0
CLASS
  1
ACDBPLACEHOLDER
  2
AcDbPlaceHolder
  3
AutoCAD 2000
 90
        0
280
     0
281
     0
  0
CLASS
  1
LAYOUT
  2
AcDbLayout
  3
AutoCAD 2000
 90
        0
280
     0
281
     0
  0
CLASS
  1
DICTIONARYVAR
  2
AcDbDictionaryVar
  3
AutoCAD 2000
 90
        0
280
     0
281
     0
  0
CLASS
  1
LONG_TRANSACTION
  2
AcDbLongTransaction
  3
AutoCAD 2000
 90
        0
280
     0
281
     0
  0
CLASS
  1
LWPOLYLINE
  2
AcDbPolyline
  3
AutoCAD 2000
 90
        0
280
     0
281
     1
  0
CLASS
  1
HATCH
  2
AcDbHatch
  3
AutoCAD 2000
 90
        0
280
     0
281
     1
  0
CLASS
  1
XRECORD
  2
AcDbXrecord
  3
AutoCAD 2000
 90
        0
280
     0
281
     0
  0
CLASS
  1
LONG_TRANSACTION
  2
AcDbLongTransaction
  3
AutoCAD 2000
 90
        0
280
     0
281
     0
  0
CLASS
  1
LWPOLYLINE
  2
AcDbPolyline
  3
AutoCAD 2000
 90
        0
280
     0
281
     1
  0
CLASS
  1
HATCH
  2
AcDbHatch
  3
AutoCAD 2000
 90
        0
280
     0
281
     1
  0
CLASS
  1
XRECORD
  2
AcDbXrecord
  3
AutoCAD 2000
 90
        0
280
     0
281
     0
  0
CLASS
  1
LONG_TRANSACTION
  2
AcDbLongTransaction
  3
AutoCAD 2000
 90
        0
280
     0
281
     0
  0
CLASS
  1
LWPOLYLINE
  2
AcDbPolyline
  3
AutoCAD 2000
 90
        0
280
     0
281
     1
  0
CLASS
  1
HATCH
  2
AcDbHatch
  3
AutoCAD 2000
 90
        0
280
     0
281
     1
  0
CLASS
  1
XRECORD
  2
AcDbXrecord
  3
AutoCAD 2000
 90
        0
280
     0
281
     0
  0
CLASS
  1
LONG_TRANSACTION
  2
AcDbLongTransaction
  3
AutoCAD 2000
 90
        0
280
     0
281
     0
  0
CLASS
  1
LWPOLYLINE
  2
AcDbPolyline
  3
AutoCAD 2000
 90
        0
280
     0
281
     1
  0
CLASS
  1
HATCH
  2
AcDbHatch
  3
AutoCAD 2000
 90
        0
280
     0
281
     1
  0
CLASS
  1
XRECORD
  2
AcDbXrecord
  3
AutoCAD 2000
 90
        0
280
     0
281
     0
  0
CLASS
  1
LONG_TRANSACTION
  2
AcDbLongTransaction
  3
AutoCAD 2000
 90
        0
280
     0
281
     0
  0
CLASS
  1
LWPOLYLINE
  2
AcDbPolyline
  3
AutoCAD 2000
 90
        0
280
     0
281
     1
  0
CLASS
  1
HATCH
  2
AcDbHatch
  3
AutoCAD 2000
 90
        0
280
     0
281
     1
  0
CLASS
  1
XRECORD
  2
AcDbXrecord
  3
AutoCAD 2000
 90
        0
280
     0
281
     0
  0
ENDSEC
  0
SECTION
  2
TABLES
  0
TABLE
  2
VPORT
  5
8
330
0
100
AcDbSymbolTable
 70
     2
  0
VPORT
  5
23A
330
8
100
AcDbSymbolTableRecord
100
AcDbViewportTableRecord
  2
*ACTIVE
 70
     0
 10
0.0
 20
0.0
 11
1.0
 21
1.0
 12
27.97565320664093
 22
45.11116071937959
 13
0.0
 23
0.0
 14
1.0
 24
1.0
 15
1.0
 25
1.0
 16
0.0
 26
0.0
 36
1.0
 17
-21.61579290080726
 27
-19.96805058542324
 37
0.0
 40
8.582274373465549
 41
1.570528967254408
 42
50.0
 43
0.0
 44
0.0
 50
0.0
 51
0.0
 71
     0
 72
   100
 73
     1
 74
     3
 75
     0
 76
     0
 77
     0
 78
     0
  0
ENDTAB
  0
TABLE
  2
LTYPE
  5
5
330
0
100
AcDbSymbolTable
 70
     1
  0
LTYPE
  5
13
330
5
100
AcDbSymbolTableRecord
100
AcDbLinetypeTableRecord
  2
BYBLOCK
 70
     0
  3

 72
    65
 73
     0
 40
0.0
  0
LTYPE
  5
14
330
5
100
AcDbSymbolTableRecord
100
AcDbLinetypeTableRecord
  2
BYLAYER
 70
     0
  3

 72
    65
 73
     0
 40
0.0
  0
LTYPE
  5
15
330
5
100
AcDbSymbolTableRecord
100
AcDbLinetypeTableRecord
  2
CONTINUOUS
 70
     0
  3
Solid line
 72
    65
 73
     0
 40
0.0
  0
ENDTAB
  0
TABLE
  2
LAYER
  5
2
330
0
100
AcDbSymbolTable
 70
     5
  0
LAYER
  5
10
330
2
100
AcDbSymbolTableRecord
100
AcDbLayerTableRecord
  2
0
 70
     0
 62
     7
  6
CONTINUOUS
  0
LAYER
  5
2B
330
2
100
AcDbSymbolTableRecord
100
AcDbLayerTableRecord
  2
DEFPOINTS
 70
     0
 62
    -7
  6
CONTINUOUS
  0
LAYER
  5
2C
330
2
100
AcDbSymbolTableRecord
100
AcDbLayerTableRecord
  2
DIMENSION
 70
     0
 62
     1
  6
CONTINUOUS
  0
LAYER
  5
2D
330
2
100
AcDbSymbolTableRecord
100
AcDbLayerTableRecord
  2
ADPDIM
 70
     0
 62
     3
  6
CONTINUOUS
  0
LAYER
  5
2E
330
2
100
AcDbSymbolTableRecord
100
AcDbLayerTableRecord
  2
ADP1DETAIL
 70
     0
 62
     7
  6
CONTINUOUS
  0
ENDTAB
  0
TABLE
  2
STYLE
  5
3
330
0
100
AcDbSymbolTable
 70
     2
  0
STYLE
  5
11
330
3
100
AcDbSymbolTableRecord
100
AcDbTextStyleTableRecord
  2
STANDARD
 70
     0
 40
0.0
 41
1.0
 50
0.0
 71
     0
 42
0.2
  3
txt
  4

  0
STYLE
  5
A7
330
3
100
AcDbSymbolTableRecord
100
AcDbTextStyleTableRecord
  2
ARIAL_WIDE
 70
     0
 40
0.0
 41
1.25
 50
0.0
 71
     0
 42
0.2
  3
ARIAL.TTF
  4

1001
ACAD
1000
Arial
1071
       34
  0
ENDTAB
  0
TABLE
  2
VIEW
  5
6
330
0
100
AcDbSymbolTable
 70
     0
  0
ENDTAB
  0
TABLE
  2
UCS
  5
7
330
0
100
AcDbSymbolTable
 70
     0
  0
ENDTAB
  0
TABLE
  2
APPID
  5
9
330
0
100
AcDbSymbolTable
 70
     1
  0
APPID
  5
12
330
9
100
AcDbSymbolTableRecord
100
AcDbRegAppTableRecord
  2
ACAD
 70
     0
  0
ENDTAB
  0
TABLE
  2
DIMSTYLE
  5
A
330
0
100
AcDbSymbolTable
 70
     1
  0
DIMSTYLE
105
A5
330
A
100
AcDbSymbolTableRecord
100
AcDbDimStyleTableRecord
  2
STANDARD
 70
     0
  3

  4

  5

  6

  7

 40
1.0
 41
0.18
 42
0.0625
 43
0.38
 44
0.18
 45
0.0
 46
0.0
 47
0.0
 48
0.0
140
0.18
141
0.09
142
0.0
143
25.4
144
1.0
145
0.0
146
1.0
147
0.09
 71
     0
 72
     0
 73
     1
 74
     1
 75
     0
 76
     0
 77
     0
 78
     0
170
     0
171
     2
172
     0
173
     0
174
     0
175
     0
176
     0
177
     0
178
     0
270
     2
271
     4
272
     4
273
     2
274
     2
340
11
275
     0
280
     0
281
     0
282
     0
283
     1
284
     0
285
     0
286
     0
287
     3
288
     0
  0
ENDTAB
  0
TABLE
  2
BLOCK_RECORD
  5
1
330
0
100
AcDbSymbolTable
 70
     4
  0
BLOCK_RECORD
  5
1E
102
{ACAD_XDICTIONARY
360
E4
102
}
330
1
100
AcDbSymbolTableRecord
100
AcDbBlockTableRecord
  2
*MODEL_SPACE
  0
BLOCK_RECORD
  5
1A
102
{ACAD_XDICTIONARY
360
E6
102
}
330
1
100
AcDbSymbolTableRecord
100
AcDbBlockTableRecord
  2
*PAPER_SPACE
  0
BLOCK_RECORD
  5
25
330
1
100
AcDbSymbolTableRecord
100
AcDbBlockTableRecord
  2
4531-VX
  0
BLOCK_RECORD
  5
26
330
1
100
AcDbSymbolTableRecord
100
AcDbBlockTableRecord
  2
*D1
  0
BLOCK_RECORD
  5
29
330
1
100
AcDbSymbolTableRecord
100
AcDbBlockTableRecord
  2
*D2
  0
BLOCK_RECORD
  5
2A
330
1
100
AcDbSymbolTableRecord
100
AcDbBlockTableRecord
  2
*D3
  0
ENDTAB
  0
ENDSEC
  0
SECTION
  2
BLOCKS
  0
BLOCK
  5
31
330
1E
100
AcDbEntity
  8
0
100
AcDbBlockBegin
  2
*MODEL_SPACE
 70
     0
 10
0.0
 20
0.0
 30
0.0
  3
*MODEL_SPACE
  1

  0
ENDBLK
  5
32
330
1E
100
AcDbEntity
  8
0
100
AcDbBlockEnd
  0
BLOCK
  5
2F
330
1A
100
AcDbEntity
 67
     1
  8
0
100
AcDbBlockBegin
  2
*PAPER_SPACE
 70
     0
 10
0.0
 20
0.0
 30
0.0
  3
*PAPER_SPACE
  1

  0
ENDBLK
  5
30
330
1A
100
AcDbEntity
 67
     1
  8
0
100
AcDbBlockEnd
  0
BLOCK
  5
34
330
25
100
AcDbEntity
  8
0
100
AcDbBlockBegin
  2
4531-VX
 70
     0
 10
0.0
 20
0.0
 30
0.0
  3
4531-VX
  1

  0
DIMENSION
  5
35
330
25
100
AcDbEntity
  8
ADPDIM
100
AcDbDimension
  2
*D1
 10
2.134790645132222
 20
-2.034398766293107
 30
0.0
 11
1.06739532256611
 21
-2.034398766293107
 31
0.0
 12
-10.75080303793681
 22
-1.357741290194981
 32
0.0
100
AcDbAlignedDimension
 13
0.0
 23
0.0
 33
0.0
 14
2.134790645132222
 24
-0.3724252224134026
 34
0.0
100
AcDbRotatedDimension
  0
LINE
  5
36
330
25
100
AcDbEntity
  8
ADP1DETAIL
100
AcDbLine
 10
3.348410256560875
 20
0.0
 30
0.0
 11
0.0
 21
0.0
 31
0.0
  0
LINE
  5
37
330
25
100
AcDbEntity
  8
ADP1DETAIL
100
AcDbLine
 10
0.0
 20
0.2560492229548257
 30
0.0
 11
3.3432678679413
 21
0.2560492229548248
 31
0.0
  0
LINE
  5
38
330
25
100
AcDbEntity
  8
ADP1DETAIL
100
AcDbLine
 10
0.0
 20
0.4681687403597323
 30
0.0
 11
3.344248884750875
 21
0.4681687403597317
 31
0.0
  0
LINE
  5
39
330
25
100
AcDbEntity
  8
ADP1DETAIL
100
AcDbLine
 10
0.0000000000000018
 20
0.393952037486873
 30
0.0
 11
3.343917181107952
 21
0.3939520374868719
 31
0.0
  0
LINE
  5
3A
330
25
100
AcDbEntity
  8
ADP1DETAIL
100
AcDbLine
 10
0.0
 20
0.6440564626140067
 30
0.0
 11
3.344993511401121
 21
0.6440564626140067
 31
0.0
  0
LINE
  5
3B
330
25
100
AcDbEntity
  8
ADP1DETAIL
100
AcDbLine
 10
0.0
 20
0.0
 30
0.0
 11
0.0
 21
0.6440564626140067
 31
0.0
  0
ARC
  5
3C
330
25
100
AcDbEntity
  8
ADP1DETAIL
100
AcDbCircle
 10
3.334423293400348
 20
-0.6498910149523343
 30
0.0
 40
1.293990650742454
100
AcDbArc
 50
302.2505397901014
 51
89.53196291241038
  0
ARC
  5
3D
330
25
100
AcDbEntity
  8
ADP1DETAIL
100
AcDbCircle
 10
3.334423293400357
 20
-0.6498910149523303
 30
0.0
 40
0.905983411083273
100
AcDbArc
 50
302.3511612593817
 51
89.44064666494151
  0
ARC
  5
3E
330
25
100
AcDbEntity
  8
ADP1DETAIL
100
AcDbCircle
 10
3.334423293400352
 20
-0.6498910149523319
 30
0.0
 40
1.043886225615319
100
AcDbArc
 50
302.3059703619324
 51
89.47890183561826
  0
ARC
  5
3F
330
25
100
AcDbEntity
  8
ADP1DETAIL
100
AcDbCircle
 10
3.334423293400364
 20
-0.6498910149523251
 30
0.0
 40
1.118102928488179
100
AcDbArc
 50
302.2866985077194
 51
89.49649343788328
  0
CIRCLE
  5
40
330
25
100
AcDbEntity
  8
ADP1DETAIL
100
AcDbCircle
 10
3.498299652992876
 20
-0.7713224557226737
 30
0.0
 40
0.2526152719136452
  0
ARC
  5
41
330
25
100
AcDbEntity
  8
ADP1DETAIL
100
AcDbCircle
 10
3.501092787351868
 20
-0.8992719174296277
 30
0.0
 40
0.9941761846860549
100
AcDbArc
 50
148.3467148660078
 51
301.7963456826713
  0
ARC
  5
42
330
25
100
AcDbEntity
  8
ADP1DETAIL
100
AcDbCircle
 10
3.501092787351867
 20
-0.8992719174296288
 30
0.0
 40
0.6061689450268744
100
AcDbArc
 50
148.3467148660076
 51
301.656003611937
  0
ARC
  5
43
330
25
100
AcDbEntity
  8
ADP1DETAIL
100
AcDbCircle
 10
3.501092787351868
 20
-0.8992719174296276
 30
0.0
 40
0.7440717595589211
100
AcDbArc
 50
148.3467148660078
 51
301.7214421265083
  0
ARC
  5
44
330
25
100
AcDbEntity
  8
ADP1DETAIL
100
AcDbCircle
 10
3.501092787351868
 20
-0.8992719174296276
 30
0.0
 40
0.8182884624317807
100
AcDbArc
 50
148.3467148660078
 51
301.748124862221
  0
LWPOLYLINE
  5
45
330
25
100
AcDbEntity
  8
ADP1DETAIL
100
AcDbPolyline
 90
        3
 70
     0
 43
0.0
 10
2.972568288987718
 20
-0.5893885400579084
 42
-0.5270451295264426
 10
3.710585243495012
 20
-0.5073866562237653
 42
-0.1888602360304876
 10
3.751586185412085
 20
-0.7533923077261964
 42
1.233301537780671
  0
LWPOLYLINE
  5
4A
330
25
100
AcDbEntity
  8
ADP1DETAIL
100
AcDbPolyline
 90
        2
 70
     0
 43
0.0
 10
2.808564521319429
 20
-0.4629689691469361
 42
-0.4900511097669242
 10
3.674709419317574
 20
-0.3348410256560861
 42
0.4019948784075533
  0
LWPOLYLINE
  5
4E
330
25
100
AcDbEntity
  8
ADP1DETAIL
100
AcDbPolyline
 90
        2
 70
     0
 43
0.0
 10
2.870065934195036
 20
-0.4937196755847402
 42
-0.4809238761903897
 10
3.68666802737672
 20
-0.3536331240347441
 42
-0.4490634127766108
  0
LINE
  5
52
330
25
100
AcDbEntity
  8
ADP1DETAIL
100
AcDbLine
 10
2.636018890751753
 20
-0.3724252224134026
 30
0.0
 11
2.134790645132222
 21
-0.3724252224134026
 31
0.0
  0
LINE
  5
53
330
25
100
AcDbEntity
  8
ADP1DETAIL
100
AcDbLine
 10
2.134790645132222
 20
0.0000000000000004
 30
0.0
 11
2.134790645132222
 21
-0.3724252224134026
 31
0.0
  0
ARC
  5
54
330
25
100
AcDbEntity
  8
ADP1DETAIL
100
AcDbCircle
 10
2.552240687701026
 20
-0.7671660616514713
 30
0.0
 40
0.4035332916486361
100
AcDbArc
 50
51.19060037010967
 51
78.01757593154942
  0
ARC
  5
55
330
25
100
AcDbEntity
  8
ADP1DETAIL
100
AcDbCircle
 10
3.374104038257739
 20
-0.3140153568714297
 30
0.0
 40
0.3150647786868235
100
AcDbArc
 50
352.7762291793138
 51
94.67771078057319
  0
ENDBLK
  5
56
330
25
100
AcDbEntity
  8
0
100
AcDbBlockEnd
  0
BLOCK
  5
57
330
26
100
AcDbEntity
  8
0
100
AcDbBlockBegin
  2
*D1
 70
     1
 10
0.0
 20
0.0
 30
0.0
  3
*D1
  1
*U
  0
LINE
  5
58
330
26
100
AcDbEntity
  8
0
  6
BYBLOCK
 62
     0
100
AcDbLine
 10
10.75080303793681
 20
1.295241290194981
 30
0.0
 11
10.75080303793681
 21
-0.8566574760981261
 31
0.0
  0
LINE
  5
59
330
26
100
AcDbEntity
  8
0
  6
BYBLOCK
 62
     0
100
AcDbLine
 10
12.88559368306903
 20
0.922816067781579
 30
0.0
 11
12.88559368306903
 21
-0.8566574760981257
 31
0.0
  0
LINE
  5
5A
330
26
100
AcDbEntity
  8
0
  6
BYBLOCK
 62
     0
100
AcDbLine
 10
10.75080303793681
 20
-0.6766574760981259
 30
0.0
 11
11.42236502716959
 21
-0.6766574760981259
 31
0.0
  0
LINE
  5
5B
330
26
100
AcDbEntity
  8
0
  6
BYBLOCK
 62
     0
100
AcDbLine
 10
12.88559368306903
 20
-0.6766574760981259
 30
0.0
 11
12.21403169383626
 21
-0.6766574760981259
 31
0.0
  0
LINE
  5
5C
330
26
100
AcDbEntity
  8
0
  6
BYBLOCK
 62
     0
100
AcDbLine
 10
10.62580303793681
 20
-0.8016574760981258
 30
0.0
 11
10.87580303793681
 21
-0.5516574760981259
 31
0.0
  0
LINE
  5
5D
330
26
100
AcDbEntity
  8
0
  6
BYBLOCK
 62
     0
100
AcDbLine
 10
12.76059368306903
 20
-0.8016574760981258
 30
0.0
 11
13.01059368306903
 21
-0.5516574760981259
 31
0.0
  0
TEXT
  5
5E
330
26
100
AcDbEntity
  8
0
  6
BYBLOCK
 62
     0
100
AcDbText
 10
11.54736502716959
 20
-0.7391574760981259
 30
0.0
 40
0.125
  1
2 1/8
 72
     1
 11
11.81819836050292
 21
-0.6766574760981259
 31
0.0
100
AcDbText
 73
     2
  0
POINT
  5
60
330
26
100
AcDbEntity
  8
DEFPOINTS
  6
BYBLOCK
 62
     0
100
AcDbPoint
 10
10.75080303793681
 20
1.357741290194981
 30
0.0
  0
POINT
  5
61
330
26
100
AcDbEntity
  8
DEFPOINTS
  6
BYBLOCK
 62
     0
100
AcDbPoint
 10
12.88559368306903
 20
0.985316067781579
 30
0.0
  0
POINT
  5
62
330
26
100
AcDbEntity
  8
DEFPOINTS
  6
BYBLOCK
 62
     0
100
AcDbPoint
 10
12.88559368306903
 20
-0.6766574760981259
 30
0.0
  0
ENDBLK
  5
63
330
26
100
AcDbEntity
  8
0
100
AcDbBlockEnd
  0
BLOCK
  5
64
330
29
100
AcDbEntity
  8
0
100
AcDbBlockBegin
  2
*D2
 70
     1
 10
0.0
 20
0.0
 30
0.0
  3
*D2
  1

  0
LINE
  5
65
330
29
100
AcDbEntity
  8
0
  6
BYBLOCK
 62
     0
100
AcDbLine
 10
4.866547639027116
 20
25.98874075467346
 30
0.0
 11
4.866547639027116
 21
25.55555053484571
 31
0.0
  0
LINE
  5
66
330
29
100
AcDbEntity
  8
0
  6
BYBLOCK
 62
     0
100
AcDbLine
 10
3.77954763902712
 20
25.98874075467346
 30
0.0
 11
3.77954763902712
 21
25.55555053484571
 31
0.0
  0
LINE
  5
67
330
29
100
AcDbEntity
  8
0
  6
BYBLOCK
 62
     0
100
AcDbLine
 10
5.046547639027116
 20
25.73555053484571
 30
0.0
 11
5.226547639027116
 21
25.73555053484571
 31
0.0
  0
LINE
  5
68
330
29
100
AcDbEntity
  8
0
  6
BYBLOCK
 62
     0
100
AcDbLine
 10
3.599547639027119
 20
25.73555053484571
 30
0.0
 11
3.41954763902712
 21
25.73555053484571
 31
0.0
  0
SOLID
  5
69
330
29
100
AcDbEntity
  8
0
  6
BYBLOCK
 62
     0
100
AcDbTrace
 10
5.046547639027116
 20
25.76555053484571
 30
0.0
 11
5.046547639027116
 21
25.70555053484571
 31
0.0
 12
4.866547639027116
 22
25.73555053484571
 32
0.0
 13
4.866547639027116
 23
25.73555053484571
 33
0.0
  0
SOLID
  5
6A
330
29
100
AcDbEntity
  8
0
  6
BYBLOCK
 62
     0
100
AcDbTrace
 10
3.599547639027119
 20
25.76555053484571
 30
0.0
 11
3.599547639027119
 21
25.70555053484571
 31
0.0
 12
3.77954763902712
 22
25.73555053484571
 32
0.0
 13
3.77954763902712
 23
25.73555053484571
 33
0.0
  0
TEXT
  5
6B
330
29
100
AcDbEntity
  8
0
  6
BYBLOCK
 62
     0
100
AcDbText
 10
2.36954763902712
 20
25.64555053484571
 30
0.0
 40
0.18
  1
1 3/32
 72
     1
 11
2.84954763902712
 21
25.73555053484571
 31
0.0
100
AcDbText
 73
     2
  0
POINT
  5
6C
330
29
100
AcDbEntity
  8
DEFPOINTS
  6
BYBLOCK
 62
     0
100
AcDbPoint
 10
4.866547639027116
 20
26.05124075467347
 30
0.0
  0
POINT
  5
6D
330
29
100
AcDbEntity
  8
DEFPOINTS
  6
BYBLOCK
 62
     0
100
AcDbPoint
 10
3.77954763902712
 20
26.05124075467347
 30
0.0
  0
POINT
  5
6E
330
29
100
AcDbEntity
  8
DEFPOINTS
  6
BYBLOCK
 62
     0
100
AcDbPoint
 10
3.77954763902712
 20
25.73555053484571
 30
0.0
  0
ENDBLK
  5
6F
330
29
100
AcDbEntity
  8
0
100
AcDbBlockEnd
  0
BLOCK
  5
70
330
2A
100
AcDbEntity
  8
0
100
AcDbBlockBegin
  2
*D3
 70
     1
 10
0.0
 20
0.0
 30
0.0
  3
*D3
  1

  0
LINE
  5
71
330
2A
100
AcDbEntity
  8
0
  6
BYBLOCK
 62
     0
100
AcDbLine
 10
3.511122595997417
 20
26.3857622464421
 30
0.0
 11
3.511122595997417
 21
27.05319873883878
 31
0.0
  0
LINE
  5
72
330
2A
100
AcDbEntity
  8
0
  6
BYBLOCK
 62
     0
100
AcDbLine
 10
5.133238322370786
 20
26.3857622464421
 30
0.0
 11
5.133238322370786
 21
27.05319873883878
 31
0.0
  0
LINE
  5
73
330
2A
100
AcDbEntity
  8
0
  6
BYBLOCK
 62
     0
100
AcDbLine
 10
3.691122595997417
 20
26.87319873883878
 30
0.0
 11
3.842180459184101
 21
26.87319873883878
 31
0.0
  0
LINE
  5
74
330
2A
100
AcDbEntity
  8
0
  6
BYBLOCK
 62
     0
100
AcDbLine
 10
4.953238322370786
 20
26.87319873883878
 30
0.0
 11
4.802180459184101
 21
26.87319873883878
 31
0.0
  0
SOLID
  5
75
330
2A
100
AcDbEntity
  8
0
  6
BYBLOCK
 62
     0
100
AcDbTrace
 10
3.691122595997417
 20
26.90319873883878
 30
0.0
 11
3.691122595997417
 21
26.84319873883878
 31
0.0
 12
3.511122595997417
 22
26.87319873883878
 32
0.0
 13
3.511122595997417
 23
26.87319873883878
 33
0.0
  0
SOLID
  5
76
330
2A
100
AcDbEntity
  8
0
  6
BYBLOCK
 62
     0
100
AcDbTrace
 10
4.953238322370786
 20
26.90319873883878
 30
0.0
 11
4.953238322370786
 21
26.84319873883878
 31
0.0
 12
5.133238322370786
 22
26.87319873883878
 32
0.0
 13
5.133238322370786
 23
26.87319873883878
 33
0.0
  0
TEXT
  5
77
330
2A
100
AcDbEntity
  8
0
  6
BYBLOCK
 62
     0
100
AcDbText
 10
3.932180459184101
 20
26.78319873883878
 30
0.0
 40
0.18
  1
1 5/8
 72
     1
 11
4.322180459184101
 21
26.87319873883878
 31
0.0
100
AcDbText
 73
     2
  0
POINT
  5
78
330
2A
100
AcDbEntity
  8
DEFPOINTS
  6
BYBLOCK
 62
     0
100
AcDbPoint
 10
3.511122595997417
 20
26.3232622464421
 30
0.0
  0
POINT
  5
79
330
2A
100
AcDbEntity
  8
DEFPOINTS
  6
BYBLOCK
 62
     0
100
AcDbPoint
 10
5.133238322370786
 20
26.3232622464421
 30
0.0
  0
POINT
  5
7A
330
2A
100
AcDbEntity
  8
DEFPOINTS
  6
BYBLOCK
 62
     0
100
AcDbPoint
 10
5.133238322370786
 20
26.87319873883878
 30
0.0
  0
ENDBLK
  5
7B
330
2A
100
AcDbEntity
  8
0
100
AcDbBlockEnd
  0
ENDSEC
  0
SECTION
  2
ENTITIES
  0
INSERT
  5
7C
330
1E
100
AcDbEntity
  8
DIMENSION
100
AcDbBlockReference
  2
4531-VX
 10
5.649962210943687
 20
26.06118429205946
 30
0.0
  0
DIMENSION
  5
7D
330
1E
100
AcDbEntity
  8
ADPDIM
100
AcDbDimension
  2
*D3
 10
5.133238322370786
 20
26.87319873883878
 30
0.0
 11
4.322180459184101
 21
26.87319873883878
 31
0.0
100
AcDbAlignedDimension
 13
3.511122595997417
 23
26.3232622464421
 33
0.0
 14
5.133238322370786
 24
26.3232622464421
 34
0.0
100
AcDbRotatedDimension
  0
DIMENSION
  5
7E
330
1E
100
AcDbEntity
  8
ADPDIM
100
AcDbDimension
  2
*D2
 10
3.77954763902712
 20
25.73555053484571
 30
0.0
 11
2.84954763902712
 21
25.73555053484571
 31
0.0
100
AcDbAlignedDimension
 13
4.866547639027116
 23
26.05124075467347
 33
0.0
 14
3.77954763902712
 24
26.05124075467347
 34
0.0
100
AcDbRotatedDimension
  0
LINE
  5
7F
330
1E
100
AcDbEntity
  8
0
100
AcDbLine
 10
4.323047639027118
 20
26.35324075467346
 30
0.0
 11
4.645047639027117
 21
26.35324075467346
 31
0.0
  0
ARC
  5
80
330
1E
100
AcDbEntity
  8
0
100
AcDbCircle
 10
4.325844236236056
 20
26.34740448540099
 30
0.0
 40
0.3578471972264042
100
AcDbArc
 50
49.18300244968252
 51
90.44777449537638
  0
ARC
  5
81
330
1E
100
AcDbEntity
  8
0
100
AcDbCircle
 10
4.320251041818179
 20
26.34740448540099
 30
0.0
 40
0.3578471972264042
100
AcDbArc
 50
89.55222550462364
 51
130.8169975503174
  0
ARC
  5
82
330
1E
100
AcDbEntity
  8
0
100
AcDbCircle
 10
3.486999826196742
 20
26.07921780305149
 30
0.0
 40
0.177
100
AcDbArc
 50
354.4834109811158
 51
61.18686185974408
  0
ARC
  5
83
330
1E
100
AcDbEntity
  8
0
100
AcDbCircle
 10
3.67313371814445
 20
26.06124075467347
 30
0.0
 40
0.01
100
AcDbArc
 50
174.4834109811091
 51
270.0
  0
LINE
  5
84
330
1E
100
AcDbEntity
  8
0
100
AcDbLine
 10
3.710419196454596
 20
26.46144622138546
 30
0.0
 11
3.621592132240545
 21
26.45367486025244
 31
0.0
  0
ARC
  5
85
330
1E
100
AcDbEntity
  8
0
100
AcDbCircle
 10
3.632998323878661
 20
26.33685714957439
 30
0.0
 40
0.1179999999999985
100
AcDbArc
 50
95.54702259966882
 51
239.5148189894003
  0
ARC
  5
86
330
1E
100
AcDbEntity
  8
0
100
AcDbCircle
 10
3.808652782494961
 20
26.99809665807168
 30
0.0
 40
0.4720000000000001
100
AcDbArc
 50
269.7955928626708
 51
306.4075433808796
  0
LINE
  5
87
330
1E
100
AcDbEntity
  8
0
100
AcDbLine
 10
4.323047639027118
 20
26.35324075467346
 30
0.0
 11
4.001047639027119
 21
26.35324075467346
 31
0.0
  0
LINE
  5
88
330
1E
100
AcDbEntity
  8
0
100
AcDbLine
 10
3.729622221925817
 20
26.52602254058047
 30
0.0
 11
3.806984472891072
 21
26.52544553443928
 31
0.0
  0
ARC
  5
89
330
1E
100
AcDbEntity
  8
0
100
AcDbCircle
 10
3.77954763902712
 20
26.06124075467347
 30
0.0
 40
0.01
100
AcDbArc
 50
270.0
 51
0.000000000000007
  0
LINE
  5
8A
330
1E
100
AcDbEntity
  8
0
100
AcDbLine
 10
3.77954763902712
 20
26.05124075467347
 30
0.0
 11
3.67313371814445
 21
26.05124075467347
 31
0.0
  0
LINE
  5
8B
330
1E
100
AcDbEntity
  8
0
100
AcDbLine
 10
3.719547639027121
 20
26.47140816836637
 30
0.0
 11
3.719547639027117
 21
26.51602281871478
 31
0.0
  0
ARC
  5
8C
330
1E
100
AcDbEntity
  8
0
100
AcDbCircle
 10
3.709547639027119
 20
26.47140816836637
 30
0.0
 40
0.01
100
AcDbArc
 50
274.9999999999993
 51
0.000000000000007
  0
ARC
  5
8D
330
1E
100
AcDbEntity
  8
0
100
AcDbCircle
 10
3.729547639027119
 20
26.51602281871478
 30
0.0
 40
0.01
100
AcDbArc
 50
89.5726675062138
 51
180.0
  0
LINE
  5
8E
330
1E
100
AcDbEntity
  8
0
100
AcDbLine
 10
3.789547639027118
 20
26.19524075467346
 30
0.0
 11
3.789547639027121
 21
26.06124075467347
 31
0.0
  0
ARC
  5
8F
330
1E
100
AcDbEntity
  8
0
100
AcDbCircle
 10
3.981047639027115
 20
26.21524075467347
 30
0.0
 40
0.01
100
AcDbArc
 50
270.0
 51
0.000000000000007
  0
LINE
  5
90
330
1E
100
AcDbEntity
  8
0
100
AcDbLine
 10
3.991047639027117
 20
26.34324075467346
 30
0.0
 11
3.991047639027117
 21
26.21524075467347
 31
0.0
  0
ARC
  5
91
330
1E
100
AcDbEntity
  8
0
100
AcDbCircle
 10
4.001047639027119
 20
26.34324075467346
 30
0.0
 40
0.01
100
AcDbArc
 50
90.0
 51
180.0
  0
ARC
  5
92
330
1E
100
AcDbEntity
  8
0
100
AcDbCircle
 10
3.799547639027119
 20
26.19524075467346
 30
0.0
 40
0.01
100
AcDbArc
 50
90.0
 51
180.0000000000014
  0
LINE
  5
93
330
1E
100
AcDbEntity
  8
0
100
AcDbLine
 10
3.981047639027115
 20
26.20524075467347
 30
0.0
 11
3.799547639027119
 21
26.20524075467347
 31
0.0
  0
ARC
  5
94
330
1E
100
AcDbEntity
  8
0
100
AcDbCircle
 10
4.837442495559274
 20
26.99809665807168
 30
0.0
 40
0.4720000000000001
100
AcDbArc
 50
233.5924566191204
 51
270.2044071373291
  0
LINE
  5
95
330
1E
100
AcDbEntity
  8
0
100
AcDbLine
 10
4.66504763902712
 20
26.20524075467347
 30
0.0
 11
4.846547639027116
 21
26.20524075467347
 31
0.0
  0
ARC
  5
96
330
1E
100
AcDbEntity
  8
0
100
AcDbCircle
 10
4.645047639027117
 20
26.34324075467346
 30
0.0
 40
0.01
100
AcDbArc
 50
0.0
 51
90.0
  0
ARC
  5
97
330
1E
100
AcDbEntity
  8
0
100
AcDbCircle
 10
4.66504763902712
 20
26.21524075467347
 30
0.0
 40
0.01
100
AcDbArc
 50
180.0
 51
270.0
  0
LINE
  5
98
330
1E
100
AcDbEntity
  8
0
100
AcDbLine
 10
4.655047639027118
 20
26.34324075467346
 30
0.0
 11
4.655047639027118
 21
26.21524075467347
 31
0.0
  0
ARC
  5
99
330
1E
100
AcDbEntity
  8
0
100
AcDbCircle
 10
5.159095451857494
 20
26.07921780305149
 30
0.0
 40
0.177
100
AcDbArc
 50
118.8131381402559
 51
185.5165890188841
  0
LINE
  5
9A
330
1E
100
AcDbEntity
  8
0
100
AcDbLine
 10
4.856547639027118
 20
26.19524075467346
 30
0.0
 11
4.856547639027114
 21
26.06124075467347
 31
0.0
  0
ARC
  5
9B
330
1E
100
AcDbEntity
  8
0
100
AcDbCircle
 10
4.866547639027116
 20
26.06124075467347
 30
0.0
 40
0.01
100
AcDbArc
 50
180.0
 51
270.0
  0
ARC
  5
9C
330
1E
100
AcDbEntity
  8
0
100
AcDbCircle
 10
4.972961559909785
 20
26.06124075467347
 30
0.0
 40
0.01
100
AcDbArc
 50
270.0
 51
5.516589018890842
  0
LINE
  5
9D
330
1E
100
AcDbEntity
  8
0
100
AcDbLine
 10
4.866547639027116
 20
26.05124075467347
 30
0.0
 11
4.972961559909785
 21
26.05124075467347
 31
0.0
  0
LINE
  5
9E
330
1E
100
AcDbEntity
  8
0
100
AcDbLine
 10
4.935676081599639
 20
26.46144622138546
 30
0.0
 11
5.024503145813691
 21
26.45367486025244
 31
0.0
  0
ARC
  5
9F
330
1E
100
AcDbEntity
  8
0
100
AcDbCircle
 10
4.936547639027116
 20
26.47140816836637
 30
0.0
 40
0.01
100
AcDbArc
 50
180.0
 51
265.0000000000007
  0
ARC
  5
A0
330
1E
100
AcDbEntity
  8
0
100
AcDbCircle
 10
4.916547639027117
 20
26.51602281871478
 30
0.0
 40
0.01
100
AcDbArc
 50
0.0
 51
90.42733249378619
  0
ARC
  5
A1
330
1E
100
AcDbEntity
  8
0
100
AcDbCircle
 10
4.846547639027116
 20
26.19524075467346
 30
0.0
 40
0.01
100
AcDbArc
 50
359.9999999999985
 51
90.0
  0
LINE
  5
A2
330
1E
100
AcDbEntity
  8
0
100
AcDbLine
 10
4.916473056128419
 20
26.52602254058047
 30
0.0
 11
4.839110805163164
 21
26.52544553443928
 31
0.0
  0
LINE
  5
A3
330
1E
100
AcDbEntity
  8
0
100
AcDbLine
 10
4.926547639027115
 20
26.47140816836637
 30
0.0
 11
4.926547639027118
 21
26.51602281871478
 31
0.0
  0
ARC
  5
A4
330
1E
100
AcDbEntity
  8
0
100
AcDbCircle
 10
5.013096954175574
 20
26.33685714957439
 30
0.0
 40
0.1179999999999985
100
AcDbArc
 50
300.4851810105996
 51
84.45297740033117
  0
TEXT
  5
A8
330
1E
100
AcDbEntity
  8
ADPDIM
100
AcDbText
 10
-0.3460735929200176
 20
23.27023475901161
 30
0.0
 40
0.125
  1
J U L I U S  B L U M  &  C O . ,  I N C .      ( 8 0 0 )  5 2 6 - 6 2 9 3        W W W . J U L I U S B L U M . C O M        P A R T  N o .  6 9 3 1 - V
 41
1.25
  7
ARIAL_WIDE
 72
     1
 11
6.349441413901264
 21
23.39523475901161
 31
0.0
100
AcDbText
 73
     3
  0
ENDSEC
  0
SECTION
  2
OBJECTS
  0
DICTIONARY
  5
C
330
0
100
AcDbDictionary
  3
ACAD_GROUP
350
D
  3
ACAD_LAYOUT
350
19
  3
ACAD_MLINESTYLE
350
16
  3
ACAD_PLOTSETTINGS
350
18
  3
ACAD_PLOTSTYLENAME
350
E
  3
ACDBHEADERROUNDTRIPXREC
350
23B
  3
ACDBVARIABLEDICTIONARY
350
119
  0
DICTIONARY
  5
E4
330
1E
100
AcDbDictionary
280
     1
  3
ACAD_LAYOUTSELFREF
360
25D
  0
DICTIONARY
  5
E6
330
1A
100
AcDbDictionary
280
     1
  3
ACAD_LAYOUTSELFREF
360
25C
  0
DICTIONARY
  5
D
102
{ACAD_REACTORS
330
C
102
}
330
C
100
AcDbDictionary
  0
DICTIONARY
  5
19
102
{ACAD_REACTORS
330
C
102
}
330
C
100
AcDbDictionary
  0
DICTIONARY
  5
16
102
{ACAD_REACTORS
330
C
102
}
330
C
100
AcDbDictionary
  3
STANDARD
350
17
  0
DICTIONARY
  5
18
102
{ACAD_REACTORS
330
C
102
}
330
C
100
AcDbDictionary
  0
ACDBDICTIONARYWDFLT
  5
E
102
{ACAD_REACTORS
330
C
102
}
330
C
100
AcDbDictionary
281
     1
  3
Normal
350
F
100
AcDbDictionaryWithDefault
340
F
  0
DICTIONARY
  5
23B
102
{ACAD_REACTORS
330
C
102
}
330
C
100
AcDbDictionary
  3
CEPSNTYPE
350
245
  3
DIMSTYLEDATA
350
249
  3
FINGERPRINTGUID
350
246
  3
HYPERLINKBASE
350
23E
  3
INSUNITS
350
244
  3
LAYOUTDICT
350
240
  3
LWETCUNION
350
243
  3
PLOTSETDICT
350
241
  3
PLOTSTYLNAMDICT
350
242
  3
PSVPSCALE
350
248
  3
PUCSBASE
350
24C
  3
PUCSORGBACK
350
252
  3
PUCSORGBOTTOM
350
24E
  3
PUCSORGFRONT
350
251
  3
PUCSORGLEFT
350
24F
  3
PUCSORGRIGHT
350
250
  3
PUCSORGTOP
350
24D
  3
PUCSORTHOREF
350
24A
  3
PUCSORTHOVIEW
350
24B
  3
STYLESHEET
350
23F
  3
TSTACKALIGN
350
23C
  3
TSTACKSIZE
350
23D
  3
UCSBASE
350
255
  3
UCSORGBACK
350
25B
  3
UCSORGBOTTOM
350
257
  3
UCSORGFRONT
350
25A
  3
UCSORGLEFT
350
258
  3
UCSORGRIGHT
350
259
  3
UCSORGTOP
350
256
  3
UCSORTHOREF
350
253
  3
UCSORTHOVIEW
350
254
  3
VERSIONGUID
350
247
  0
DICTIONARY
  5
119
102
{ACAD_REACTORS
330
C
102
}
330
C
100
AcDbDictionary
  3
DIMASSOC
350
11B
  3
HIDETEXT
350
11A
  0
XRECORD
  5
25D
102
{ACAD_REACTORS
330
E4
102
}
330
E4
100
AcDbXrecord
340
1E
  0
XRECORD
  5
25C
102
{ACAD_REACTORS
330
E6
102
}
330
E6
100
AcDbXrecord
340
1A
  0
MLINESTYLE
  5
17
102
{ACAD_REACTORS
330
16
102
}
330
16
100
AcDbMlineStyle
  2
STANDARD
 70
     0
  3

 62
   256
 51
90.0
 52
90.0
 71
     2
 49
0.5
 62
   256
  6
BYLAYER
 49
-0.5
 62
   256
  6
BYLAYER
  0
ACDBPLACEHOLDER
  5
F
102
{ACAD_REACTORS
330
E
102
}
330
E
100
AcDbPlaceHolder
280
     0
  0
XRECORD
  5
245
102
{ACAD_REACTORS
330
23B
102
}
330
23B
100
AcDbXrecord
 90
        0
  0
XRECORD
  5
249
102
{ACAD_REACTORS
330
23B
102
}
330
23B
100
AcDbXrecord
1000
DSTYLE
1002
{
1070
   277
 70
     5
1070
   279
 70
     2
1002
}
  0
XRECORD
  5
246
102
{ACAD_REACTORS
330
23B
102
}
330
23B
100
AcDbXrecord
  1
{A201A377-B8CE-4B72-B894-980C81482A7B}
  0
XRECORD
  5
23E
102
{ACAD_REACTORS
330
23B
102
}
330
23B
100
AcDbXrecord
  1

  0
XRECORD
  5
244
102
{ACAD_REACTORS
330
23B
102
}
330
23B
100
AcDbXrecord
 90
        0
  0
XRECORD
  5
240
102
{ACAD_REACTORS
330
23B
102
}
330
23B
100
AcDbXrecord
340
19
  0
XRECORD
  5
243
102
{ACAD_REACTORS
330
23B
102
}
330
23B
100
AcDbXrecord
 90
    14877
  0
XRECORD
  5
241
102
{ACAD_REACTORS
330
23B
102
}
330
23B
100
AcDbXrecord
340
18
  0
XRECORD
  5
242
102
{ACAD_REACTORS
330
23B
102
}
330
23B
100
AcDbXrecord
340
E
  0
XRECORD
  5
248
102
{ACAD_REACTORS
330
23B
102
}
330
23B
100
AcDbXrecord
 40
0.0
  0
XRECORD
  5
24C
102
{ACAD_REACTORS
330
23B
102
}
330
23B
100
AcDbXrecord
340
0
  0
XRECORD
  5
252
102
{ACAD_REACTORS
330
23B
102
}
330
23B
100
AcDbXrecord
 10
0.0
 20
0.0
 30
0.0
  0
XRECORD
  5
24E
102
{ACAD_REACTORS
330
23B
102
}
330
23B
100
AcDbXrecord
 10
0.0
 20
0.0
 30
0.0
  0
XRECORD
  5
251
102
{ACAD_REACTORS
330
23B
102
}
330
23B
100
AcDbXrecord
 10
0.0
 20
0.0
 30
0.0
  0
XRECORD
  5
24F
102
{ACAD_REACTORS
330
23B
102
}
330
23B
100
AcDbXrecord
 10
0.0
 20
0.0
 30
0.0
  0
XRECORD
  5
250
102
{ACAD_REACTORS
330
23B
102
}
330
23B
100
AcDbXrecord
 10
0.0
 20
0.0
 30
0.0
  0
XRECORD
  5
24D
102
{ACAD_REACTORS
330
23B
102
}
330
23B
100
AcDbXrecord
 10
0.0
 20
0.0
 30
0.0
  0
XRECORD
  5
24A
102
{ACAD_REACTORS
330
23B
102
}
330
23B
100
AcDbXrecord
340
0
  0
XRECORD
  5
24B
102
{ACAD_REACTORS
330
23B
102
}
330
23B
100
AcDbXrecord
 70
     0
  0
XRECORD
  5
23F
102
{ACAD_REACTORS
330
23B
102
}
330
23B
100
AcDbXrecord
  1

  0
XRECORD
  5
23C
102
{ACAD_REACTORS
330
23B
102
}
330
23B
100
AcDbXrecord
 90
        1
  0
XRECORD
  5
23D
102
{ACAD_REACTORS
330
23B
102
}
330
23B
100
AcDbXrecord
 90
       70
  0
XRECORD
  5
255
102
{ACAD_REACTORS
330
23B
102
}
330
23B
100
AcDbXrecord
340
0
  0
XRECORD
  5
25B
102
{ACAD_REACTORS
330
23B
102
}
330
23B
100
AcDbXrecord
 10
0.0
 20
0.0
 30
0.0
  0
XRECORD
  5
257
102
{ACAD_REACTORS
330
23B
102
}
330
23B
100
AcDbXrecord
 10
0.0
 20
0.0
 30
0.0
  0
XRECORD
  5
25A
102
{ACAD_REACTORS
330
23B
102
}
330
23B
100
AcDbXrecord
 10
0.0
 20
0.0
 30
0.0
  0
XRECORD
  5
258
102
{ACAD_REACTORS
330
23B
102
}
330
23B
100
AcDbXrecord
 10
0.0
 20
0.0
 30
0.0
  0
XRECORD
  5
259
102
{ACAD_REACTORS
330
23B
102
}
330
23B
100
AcDbXrecord
 10
0.0
 20
0.0
 30
0.0
  0
XRECORD
  5
256
102
{ACAD_REACTORS
330
23B
102
}
330
23B
100
AcDbXrecord
 10
0.0
 20
0.0
 30
0.0
  0
XRECORD
  5
253
102
{ACAD_REACTORS
330
23B
102
}
330
23B
100
AcDbXrecord
340
0
  0
XRECORD
  5
254
102
{ACAD_REACTORS
330
23B
102
}
330
23B
100
AcDbXrecord
 70
     0
  0
XRECORD
  5
247
102
{ACAD_REACTORS
330
23B
102
}
330
23B
100
AcDbXrecord
  1
{751D49AF-F93A-4803-B346-647300AD4502}
  0
DICTIONARYVAR
  5
11B
102
{ACAD_REACTORS
330
119
102
}
330
119
100
DictionaryVariables
280
     0
  1
2
  0
DICTIONARYVAR
  5
11A
102
{ACAD_REACTORS
330
119
102
}
330
119
100
DictionaryVariables
280
     0
  1
1
  0
ENDSEC
  0
EOF
