  0
SECTION
  2
HEADER
  9
$ACADVER
  1
AC1015
  9
$ACADMAINTVER
 70
    20
  9
$DWGCODEPAGE
  3
ANSI_1252
  9
$INSBASE
 10
3.606939410733546
 20
0.2881617275447006
 30
0.0
  9
$EXTMIN
 10
-2.418117643106228
 20
-4.134013031255198
 30
0.0
  9
$EXTMAX
 10
10.97291237053633
 20
1.542735324845293
 30
0.0
  9
$LIMMIN
 10
0.0
 20
0.0
  9
$LIMMAX
 10
36.0
 20
36.0
  9
$ORTHOMODE
 70
     1
  9
$REGENMODE
 70
     1
  9
$FILLMODE
 70
     1
  9
$QTEXTMODE
 70
     0
  9
$MIRRTEXT
 70
     1
  9
$LTSCALE
 40
1.0
  9
$ATTMODE
 70
     1
  9
$TEXTSIZE
 40
0.2
  9
$TRACEWID
 40
0.05
  9
$TEXTSTYLE
  7
STANDARD
  9
$CLAYER
  8
ADP1DETAIL
  9
$CELTYPE
  6
BYLAYER
  9
$CECOLOR
 62
   256
  9
$CELTSCALE
 40
1.0
  9
$DISPSILH
 70
     0
  9
$DIMSCALE
 40
1.0
  9
$DIMASZ
 40
0.125
  9
$DIMEXO
 40
0.0625
  9
$DIMDLI
 40
0.38
  9
$DIMRND
 40
0.0
  9
$DIMDLE
 40
0.0
  9
$DIMEXE
 40
0.18
  9
$DIMTP
 40
0.0
  9
$DIMTM
 40
0.0
  9
$DIMTXT
 40
0.125
  9
$DIMCEN
 40
0.1875
  9
$DIMTSZ
 40
0.125
  9
$DIMTOL
 70
     0
  9
$DIMLIM
 70
     0
  9
$DIMTIH
 70
     0
  9
$DIMTOH
 70
     0
  9
$DIMSE1
 70
     0
  9
$DIMSE2
 70
     0
  9
$DIMTAD
 70
     0
  9
$DIMZIN
 70
     3
  9
$DIMBLK
  1

  9
$DIMASO
 70
     1
  9
$DIMSHO
 70
     1
  9
$DIMPOST
  1

  9
$DIMAPOST
  1

  9
$DIMALT
 70
     0
  9
$DIMALTD
 70
     1
  9
$DIMALTF
 40
25.4
  9
$DIMLFAC
 40
1.0
  9
$DIMTOFL
 70
     0
  9
$DIMTVP
 40
0.0
  9
$DIMTIX
 70
     0
  9
$DIMSOXD
 70
     0
  9
$DIMSAH
 70
     0
  9
$DIMBLK1
  1

  9
$DIMBLK2
  1

  9
$DIMSTYLE
  2
STANDARD
  9
$DIMCLRD
 70
     0
  9
$DIMCLRE
 70
     0
  9
$DIMCLRT
 70
     0
  9
$DIMTFAC
 40
1.0
  9
$DIMGAP
 40
0.125
  9
$DIMJUST
 70
     0
  9
$DIMSD1
 70
     0
  9
$DIMSD2
 70
     0
  9
$DIMTOLJ
 70
     1
  9
$DIMTZIN
 70
     0
  9
$DIMALTZ
 70
     0
  9
$DIMALTTZ
 70
     0
  9
$DIMUPT
 70
     0
  9
$DIMDEC
 70
     3
  9
$DIMTDEC
 70
     4
  9
$DIMALTU
 70
     2
  9
$DIMALTTD
 70
     2
  9
$DIMTXSTY
  7
STANDARD
  9
$DIMAUNIT
 70
     0
  9
$DIMADEC
 70
     0
  9
$DIMALTRND
 40
0.0
  9
$DIMAZIN
 70
     0
  9
$DIMDSEP
 70
    46
  9
$DIMATFIT
 70
     3
  9
$DIMFRAC
 70
     2
  9
$DIMLDRBLK
  1

  9
$DIMLUNIT
 70
     5
  9
$DIMLWD
 70
    -2
  9
$DIMLWE
 70
    -2
  9
$DIMTMOVE
 70
     0
  9
$LUNITS
 70
     5
  9
$LUPREC
 70
     4
  9
$SKETCHINC
 40
0.1
  9
$FILLETRAD
 40
0.062
  9
$AUNITS
 70
     0
  9
$AUPREC
 70
     0
  9
$MENU
  1
acad
  9
$ELEVATION
 40
0.0
  9
$PELEVATION
 40
0.0
  9
$THICKNESS
 40
0.0
  9
$LIMCHECK
 70
     0
  9
$CHAMFERA
 40
0.0
  9
$CHAMFERB
 40
0.0
  9
$CHAMFERC
 40
0.0
  9
$CHAMFERD
 40
0.0
  9
$SKPOLY
 70
     0
  9
$TDCREATE
 40
2450352.993086806
  9
$TDUCREATE
 40
2450353.159753472
  9
$TDUPDATE
 40
2453961.629422639
  9
$TDUUPDATE
 40
2453961.796089306
  9
$TDINDWG
 40
0.0541802546
  9
$TDUSRTIMER
 40
0.0541802546
  9
$USRTIMER
 70
     1
  9
$ANGBASE
 50
0.0
  9
$ANGDIR
 70
     0
  9
$PDMODE
 70
     0
  9
$PDSIZE
 40
0.0
  9
$PLINEWID
 40
0.0
  9
$SPLFRAME
 70
     0
  9
$SPLINETYPE
 70
     6
  9
$SPLINESEGS
 70
     8
  9
$HANDSEED
  5
758
  9
$SURFTAB1
 70
     6
  9
$SURFTAB2
 70
     6
  9
$SURFTYPE
 70
     6
  9
$SURFU
 70
     6
  9
$SURFV
 70
     6
  9
$UCSBASE
  2

  9
$UCSNAME
  2

  9
$UCSORG
 10
0.0
 20
0.0
 30
0.0
  9
$UCSXDIR
 10
1.0
 20
0.0
 30
0.0
  9
$UCSYDIR
 10
0.0
 20
1.0
 30
0.0
  9
$UCSORTHOREF
  2

  9
$UCSORTHOVIEW
 70
     0
  9
$UCSORGTOP
 10
0.0
 20
0.0
 30
0.0
  9
$UCSORGBOTTOM
 10
0.0
 20
0.0
 30
0.0
  9
$UCSORGLEFT
 10
0.0
 20
0.0
 30
0.0
  9
$UCSORGRIGHT
 10
0.0
 20
0.0
 30
0.0
  9
$UCSORGFRONT
 10
0.0
 20
0.0
 30
0.0
  9
$UCSORGBACK
 10
0.0
 20
0.0
 30
0.0
  9
$PUCSBASE
  2

  9
$PUCSNAME
  2

  9
$PUCSORG
 10
0.0
 20
0.0
 30
0.0
  9
$PUCSXDIR
 10
1.0
 20
0.0
 30
0.0
  9
$PUCSYDIR
 10
0.0
 20
1.0
 30
0.0
  9
$PUCSORTHOREF
  2

  9
$PUCSORTHOVIEW
 70
     0
  9
$PUCSORGTOP
 10
0.0
 20
0.0
 30
0.0
  9
$PUCSORGBOTTOM
 10
0.0
 20
0.0
 30
0.0
  9
$PUCSORGLEFT
 10
0.0
 20
0.0
 30
0.0
  9
$PUCSORGRIGHT
 10
0.0
 20
0.0
 30
0.0
  9
$PUCSORGFRONT
 10
0.0
 20
0.0
 30
0.0
  9
$PUCSORGBACK
 10
0.0
 20
0.0
 30
0.0
  9
$USERI1
 70
     0
  9
$USERI2
 70
     0
  9
$USERI3
 70
     0
  9
$USERI4
 70
     0
  9
$USERI5
 70
     0
  9
$USERR1
 40
0.0
  9
$USERR2
 40
0.0
  9
$USERR3
 40
0.0
  9
$USERR4
 40
0.0
  9
$USERR5
 40
0.0
  9
$WORLDVIEW
 70
     1
  9
$SHADEDGE
 70
     3
  9
$SHADEDIF
 70
    70
  9
$TILEMODE
 70
     1
  9
$MAXACTVP
 70
    15
  9
$PINSBASE
 10
0.0
 20
0.0
 30
0.0
  9
$PLIMCHECK
 70
     0
  9
$PEXTMIN
 10
1.000000000000000E+20
 20
1.000000000000000E+20
 30
1.000000000000000E+20
  9
$PEXTMAX
 10
-1.000000000000000E+20
 20
-1.000000000000000E+20
 30
-1.000000000000000E+20
  9
$PLIMMIN
 10
0.0
 20
0.0
  9
$PLIMMAX
 10
12.0
 20
9.0
  9
$UNITMODE
 70
     0
  9
$VISRETAIN
 70
     0
  9
$PLINEGEN
 70
     0
  9
$PSLTSCALE
 70
     1
  9
$TREEDEPTH
 70
  3020
  9
$CMLSTYLE
  2
STANDARD
  9
$CMLJUST
 70
     0
  9
$CMLSCALE
 40
1.0
  9
$PROXYGRAPHICS
 70
     1
  9
$MEASUREMENT
 70
     0
  9
$CELWEIGHT
370
    -1
  9
$ENDCAPS
280
     0
  9
$JOINSTYLE
280
     0
  9
$LWDISPLAY
290
     0
  9
$INSUNITS
 70
     0
  9
$HYPERLINKBASE
  1

  9
$STYLESHEET
  1

  9
$XEDIT
290
     1
  9
$CEPSNTYPE
380
     0
  9
$PSTYLEMODE
290
     1
  9
$FINGERPRINTGUID
  2
{35694C19-8CBA-4AF3-AF38-6400F8956267}
  9
$VERSIONGUID
  2
{B1B8F281-6E4E-4F01-B861-8E2395D0C4A6}
  9
$EXTNAMES
290
     1
  9
$PSVPSCALE
 40
0.0
  9
$OLESTARTUP
290
     0
  0
ENDSEC
  0
SECTION
  2
CLASSES
  0
CLASS
  1
ACDBDICTIONARYWDFLT
  2
AcDbDictionaryWithDefault
  3
ObjectDBX Classes
 90
        0
280
     0
281
     0
  0
CLASS
  1
ACDBPLACEHOLDER
  2
AcDbPlaceHolder
  3
ObjectDBX Classes
 90
        0
280
     0
281
     0
  0
CLASS
  1
LAYOUT
  2
AcDbLayout
  3
ObjectDBX Classes
 90
        0
280
     0
281
     0
  0
CLASS
  1
DICTIONARYVAR
  2
AcDbDictionaryVar
  3
ObjectDBX Classes
 90
        0
280
     0
281
     0
  0
CLASS
  1
MATERIAL
  2
AcDbMaterial
  3
ObjectDBX Classes
 90
     1024
280
     0
281
     0
  0
CLASS
  1
VISUALSTYLE
  2
AcDbVisualStyle
  3
ObjectDBX Classes
 90
     4095
280
     0
281
     0
  0
CLASS
  1
TABLESTYLE
  2
AcDbTableStyle
  3
ObjectDBX Classes
 90
     4095
280
     0
281
     0
  0
ENDSEC
  0
SECTION
  2
TABLES
  0
TABLE
  2
VPORT
  5
8
330
0
100
AcDbSymbolTable
 70
     1
  0
VPORT
  5
6A4
330
8
100
AcDbSymbolTableRecord
100
AcDbViewportTableRecord
  2
*Active
 70
     0
 10
0.0
 20
0.0
 11
1.0
 21
1.0
 12
1.296042147256866
 22
0.6606756947600143
 13
0.0
 23
0.0
 14
0.5740882589684922
 24
0.5740882589684922
 15
0.5
 25
0.5
 16
0.0
 26
0.0
 36
1.0
 17
0.0
 27
0.0
 37
0.0
 40
2.676794939039468
 41
0.9290060851926979
 42
50.0
 43
0.0
 44
0.0
 50
0.0
 51
0.0
 71
     0
 72
   100
 73
     1
 74
     0
 75
     0
 76
     0
 77
     0
 78
     0
281
     0
 65
     1
110
0.0
120
0.0
130
0.0
111
1.0
121
0.0
131
0.0
112
0.0
122
1.0
132
0.0
 79
     0
146
0.0
  0
ENDTAB
  0
TABLE
  2
LTYPE
  5
5
330
0
100
AcDbSymbolTable
 70
     2
  0
LTYPE
  5
12
330
5
100
AcDbSymbolTableRecord
100
AcDbLinetypeTableRecord
  2
BYBLOCK
 70
     0
  3

 72
    65
 73
     0
 40
0.0
  0
LTYPE
  5
13
330
5
100
AcDbSymbolTableRecord
100
AcDbLinetypeTableRecord
  2
BYLAYER
 70
     0
  3

 72
    65
 73
     0
 40
0.0
  0
LTYPE
  5
14
330
5
100
AcDbSymbolTableRecord
100
AcDbLinetypeTableRecord
  2
CONTINUOUS
 70
     0
  3
Solid line
 72
    65
 73
     0
 40
0.0
  0
LTYPE
  5
255
330
5
100
AcDbSymbolTableRecord
100
AcDbLinetypeTableRecord
  2
HIDDEN2
 70
     0
  3
_ _ _ _ _ _ _ _ _ _ _ _ _ _ _ _ _ _ _ _ _ _ _ _
 72
    65
 73
     2
 40
0.1875
 49
0.125
 74
     0
 49
-0.0625
 74
     0
  0
ENDTAB
  0
TABLE
  2
LAYER
  5
2
330
0
100
AcDbSymbolTable
 70
     5
  0
LAYER
  5
F
330
2
100
AcDbSymbolTableRecord
100
AcDbLayerTableRecord
  2
0
 70
     0
 62
     7
  6
CONTINUOUS
370
    -3
390
492
  0
LAYER
  5
3F
330
2
100
AcDbSymbolTableRecord
100
AcDbLayerTableRecord
  2
ADPDIM
 70
     0
 62
     3
  6
CONTINUOUS
370
    -3
390
492
  0
LAYER
  5
41
330
2
100
AcDbSymbolTableRecord
100
AcDbLayerTableRecord
  2
ADP1DETAIL
 70
     0
 62
     7
  6
CONTINUOUS
370
    -3
390
492
  0
LAYER
  5
43
330
2
100
AcDbSymbolTableRecord
100
AcDbLayerTableRecord
  2
DEFPOINTS
 70
     0
 62
     7
  6
CONTINUOUS
290
     0
370
    -3
390
492
  0
LAYER
  5
254
330
2
100
AcDbSymbolTableRecord
100
AcDbLayerTableRecord
  2
ADP2DETAIL
 70
     0
 62
     5
  6
CONTINUOUS
370
    -3
390
492
  0
ENDTAB
  0
TABLE
  2
STYLE
  5
3
330
0
100
AcDbSymbolTable
 70
     2
  0
STYLE
  5
10
330
3
100
AcDbSymbolTableRecord
100
AcDbTextStyleTableRecord
  2
STANDARD
 70
     0
 40
0.0
 41
1.0
 50
0.0
 71
     0
 42
0.2
  3
txt
  4

  0
STYLE
  5
499
330
3
100
AcDbSymbolTableRecord
100
AcDbTextStyleTableRecord
  2
ARIAL_WIDE
 70
     0
 40
0.0
 41
1.25
 50
0.0
 71
     0
 42
0.2
  3
ARIAL.TTF
  4

1001
ACAD
1000
Arial
1071
       34
  0
ENDTAB
  0
TABLE
  2
VIEW
  5
6
330
0
100
AcDbSymbolTable
 70
     0
  0
ENDTAB
  0
TABLE
  2
UCS
  5
7
330
0
100
AcDbSymbolTable
 70
     0
  0
ENDTAB
  0
TABLE
  2
APPID
  5
9
330
0
100
AcDbSymbolTable
 70
     1
  0
APPID
  5
11
330
9
100
AcDbSymbolTableRecord
100
AcDbRegAppTableRecord
  2
ACAD
 70
     0
  0
ENDTAB
  0
TABLE
  2
DIMSTYLE
  5
A
330
0
100
AcDbSymbolTable
 70
     1
100
AcDbDimStyleTable
 71
     0
  0
DIMSTYLE
105
C3
102
{ACAD_REACTORS
330
98
330
D2
330
43C
330
43E
102
}
330
A
100
AcDbSymbolTableRecord
100
AcDbDimStyleTableRecord
  2
STANDARD
 70
     0
340
10
  0
ENDTAB
  0
TABLE
  2
BLOCK_RECORD
  5
1
330
0
100
AcDbSymbolTable
 70
     4
  0
BLOCK_RECORD
  5
18
102
{ACAD_XDICTIONARY
360
518
102
}
330
1
100
AcDbSymbolTableRecord
100
AcDbBlockTableRecord
  2
*MODEL_SPACE
340
495
  0
BLOCK_RECORD
  5
15
102
{ACAD_XDICTIONARY
360
516
102
}
330
1
100
AcDbSymbolTableRecord
100
AcDbBlockTableRecord
  2
*PAPER_SPACE
340
496
  0
BLOCK_RECORD
  5
C5
330
1
100
AcDbSymbolTableRecord
100
AcDbBlockTableRecord
  2
*D0
340
0
  0
BLOCK_RECORD
  5
144
330
1
100
AcDbSymbolTableRecord
100
AcDbBlockTableRecord
  2
*D1
340
0
  0
BLOCK_RECORD
  5
45C
330
1
100
AcDbSymbolTableRecord
100
AcDbBlockTableRecord
  2
*D2
340
0
  0
BLOCK_RECORD
  5
469
330
1
100
AcDbSymbolTableRecord
100
AcDbBlockTableRecord
  2
*D3
340
0
  0
ENDTAB
  0
ENDSEC
  0
SECTION
  2
BLOCKS
  0
BLOCK
  5
46
330
18
100
AcDbEntity
  8
0
100
AcDbBlockBegin
  2
*MODEL_SPACE
 70
     0
 10
0.0
 20
0.0
 30
0.0
  3
*MODEL_SPACE
  1

  0
ENDBLK
  5
47
330
18
100
AcDbEntity
  8
0
100
AcDbBlockEnd
  0
BLOCK
  5
44
330
15
100
AcDbEntity
 67
     1
  8
0
100
AcDbBlockBegin
  2
*PAPER_SPACE
 70
     0
 10
0.0
 20
0.0
 30
0.0
  3
*PAPER_SPACE
  1

  0
ENDBLK
  5
45
330
15
100
AcDbEntity
 67
     1
  8
0
100
AcDbBlockEnd
  0
BLOCK
  5
239
330
C5
100
AcDbEntity
  8
0
100
AcDbBlockBegin
  2
*D0
 70
     1
 10
0.0
 20
0.0
 30
0.0
  3
*D0
  1

  0
LINE
  5
6D8
330
C5
100
AcDbEntity
  8
ADPDIM
 62
     0
100
AcDbLine
 10
2.875425967837587
 20
0.3571570668071078
 30
0.0
 11
2.875425967837587
 21
-1.104442001568181
 31
0.0
  0
LINE
  5
6D9
330
C5
100
AcDbEntity
  8
ADPDIM
 62
     0
100
AcDbLine
 10
5.936296483281624
 20
0.1138959121738958
 30
0.0
 11
5.936296483281624
 21
-1.104442001568181
 31
0.0
  0
LINE
  5
6DA
330
C5
100
AcDbEntity
  8
ADPDIM
 62
     0
100
AcDbLine
 10
2.875425967837587
 20
-0.9244420015681811
 30
0.0
 11
4.239194558892939
 21
-0.9244420015681811
 31
0.0
  0
LINE
  5
6DB
330
C5
100
AcDbEntity
  8
ADPDIM
 62
     0
100
AcDbLine
 10
5.936296483281624
 20
-0.9244420015681811
 30
0.0
 11
4.572527892226273
 21
-0.9244420015681811
 31
0.0
  0
LINE
  5
6DC
330
C5
100
AcDbEntity
  8
ADPDIM
 62
     0
100
AcDbLine
 10
5.811296483281624
 20
-1.049442001568181
 30
0.0
 11
6.061296483281624
 21
-0.7994420015681812
 31
0.0
  0
LINE
  5
6DD
330
C5
100
AcDbEntity
  8
ADPDIM
 62
     0
100
AcDbLine
 10
2.750425967837587
 20
-1.049442001568181
 30
0.0
 11
3.000425967837587
 21
-0.7994420015681812
 31
0.0
  0
MTEXT
  5
6DE
330
C5
100
AcDbEntity
  8
ADPDIM
 62
     0
100
AcDbMText
 10
4.405861225559606
 20
-0.9244420015681811
 30
0.0
 40
0.125
 41
0.0
 71
     5
 72
     1
  1
\A1;3
 73
     1
 44
1.0
1001
ACAD
1000
MTEXTBEGIN
1070
    73
1070
     1
1070
    44
1040
1.0
1070
    74
1070
     0
1000
MTEXTEND
  0
POINT
  5
6DF
330
C5
100
AcDbEntity
  8
DEFPOINTS
 62
     0
100
AcDbPoint
 10
2.875425967837587
 20
0.4196570668071078
 30
0.0
  0
POINT
  5
6E0
330
C5
100
AcDbEntity
  8
DEFPOINTS
 62
     0
100
AcDbPoint
 10
5.936296483281624
 20
0.1763959121738958
 30
0.0
  0
POINT
  5
6E1
330
C5
100
AcDbEntity
  8
DEFPOINTS
 62
     0
100
AcDbPoint
 10
5.936296483281624
 20
-0.9244420015681811
 30
0.0
  0
ENDBLK
  5
244
330
C5
100
AcDbEntity
  8
0
100
AcDbBlockEnd
  0
BLOCK
  5
1FD
330
144
100
AcDbEntity
  8
0
100
AcDbBlockBegin
  2
*D1
 70
     1
 10
0.0
 20
0.0
 30
0.0
  3
*D1
  1

  0
LINE
  5
6CE
330
144
100
AcDbEntity
  8
ADPDIM
 62
     0
100
AcDbLine
 10
6.986774765955173
 20
-3.475559469293257
 30
0.0
 11
8.534639258733591
 21
-3.475559469293258
 31
0.0
  0
LINE
  5
6CF
330
144
100
AcDbEntity
  8
ADPDIM
 62
     0
100
AcDbLine
 10
6.893997532331843
 20
1.149440530706742
 30
0.0
 11
8.534639258733591
 21
1.149440530706741
 31
0.0
  0
LINE
  5
6D0
330
144
100
AcDbEntity
  8
ADPDIM
 62
     0
100
AcDbLine
 10
8.354639258733591
 20
-3.475559469293258
 30
0.0
 11
8.354639258733591
 21
-1.579726135959924
 31
0.0
  0
LINE
  5
6D1
330
144
100
AcDbEntity
  8
ADPDIM
 62
     0
100
AcDbLine
 10
8.354639258733591
 20
1.149440530706742
 30
0.0
 11
8.354639258733591
 21
-0.7463928026265915
 31
0.0
  0
LINE
  5
6D2
330
144
100
AcDbEntity
  8
ADPDIM
 62
     0
100
AcDbLine
 10
8.479639258733591
 20
1.024440530706742
 30
0.0
 11
8.229639258733591
 21
1.274440530706742
 31
0.0
  0
LINE
  5
6D3
330
144
100
AcDbEntity
  8
ADPDIM
 62
     0
100
AcDbLine
 10
8.479639258733591
 20
-3.600559469293258
 30
0.0
 11
8.229639258733591
 21
-3.350559469293258
 31
0.0
  0
MTEXT
  5
6D4
330
144
100
AcDbEntity
  8
ADPDIM
 62
     0
100
AcDbMText
 10
8.354639258733591
 20
-1.163059469293256
 30
0.0
 40
0.125
 41
0.0
 71
     5
 72
     1
  1
\A1;4 3/4
 11
0.0000000000000001
 21
1.0
 31
0.0
 73
     1
 44
1.0
1001
ACAD
1000
MTEXTBEGIN
1070
    73
1070
     1
1070
    44
1040
1.0
1070
    74
1070
     0
1000
MTEXTEND
  0
POINT
  5
6D5
330
144
100
AcDbEntity
  8
DEFPOINTS
 62
     0
100
AcDbPoint
 10
6.924274765955173
 20
-3.475559469293257
 30
0.0
  0
POINT
  5
6D6
330
144
100
AcDbEntity
  8
DEFPOINTS
 62
     0
100
AcDbPoint
 10
6.831497532331843
 20
1.149440530706742
 30
0.0
  0
POINT
  5
6D7
330
144
100
AcDbEntity
  8
DEFPOINTS
 62
     0
100
AcDbPoint
 10
8.354639258733591
 20
1.149440530706742
 30
0.0
  0
ENDBLK
  5
208
330
144
100
AcDbEntity
  8
0
100
AcDbBlockEnd
  0
BLOCK
  5
476
330
45C
100
AcDbEntity
  8
0
100
AcDbBlockBegin
  2
*D2
 70
     1
 10
0.0
 20
0.0
 30
0.0
  3
*D2
  1

  0
LINE
  5
6E2
330
45C
100
AcDbEntity
  8
ADPDIM
 62
     0
100
AcDbLine
 10
0.4770031511145696
 20
0.8985657989232693
 30
0.0
 11
0.4770031511145697
 21
1.542735324845293
 31
0.0
  0
LINE
  5
6E3
330
45C
100
AcDbEntity
  8
ADPDIM
 62
     0
100
AcDbLine
 10
2.090984442029052
 20
0.8986440374094835
 30
0.0
 11
2.090984442029052
 21
1.542735324845293
 31
0.0
  0
LINE
  5
6E4
330
45C
100
AcDbEntity
  8
ADPDIM
 62
     0
100
AcDbLine
 10
0.4770031511145697
 20
1.362735324845293
 30
0.0
 11
0.8881604632384776
 21
1.362735324845293
 31
0.0
  0
LINE
  5
6E5
330
45C
100
AcDbEntity
  8
ADPDIM
 62
     0
100
AcDbLine
 10
2.090984442029052
 20
1.362735324845293
 30
0.0
 11
1.679827129905144
 21
1.362735324845293
 31
0.0
  0
LINE
  5
6E6
330
45C
100
AcDbEntity
  8
ADPDIM
 62
     0
100
AcDbLine
 10
1.965984442029052
 20
1.237735324845293
 30
0.0
 11
2.215984442029052
 21
1.487735324845293
 31
0.0
  0
LINE
  5
6E7
330
45C
100
AcDbEntity
  8
ADPDIM
 62
     0
100
AcDbLine
 10
0.3520031511145696
 20
1.237735324845293
 30
0.0
 11
0.6020031511145696
 21
1.487735324845293
 31
0.0
  0
MTEXT
  5
6E8
330
45C
100
AcDbEntity
  8
ADPDIM
 62
     0
100
AcDbMText
 10
1.28399379657181
 20
1.362735324845293
 30
0.0
 40
0.125
 41
0.0
 71
     5
 72
     1
  1
\A1;1 5/8
 73
     1
 44
1.0
1001
ACAD
1000
MTEXTBEGIN
1070
    73
1070
     1
1070
    44
1040
1.0
1070
    74
1070
     0
1000
MTEXTEND
  0
POINT
  5
6E9
330
45C
100
AcDbEntity
  8
DEFPOINTS
 62
     0
100
AcDbPoint
 10
0.4770031511145696
 20
0.8360657989232693
 30
0.0
  0
POINT
  5
6EA
330
45C
100
AcDbEntity
  8
DEFPOINTS
 62
     0
100
AcDbPoint
 10
2.090984442029052
 20
0.8361440374094835
 30
0.0
  0
POINT
  5
6EB
330
45C
100
AcDbEntity
  8
DEFPOINTS
 62
     0
100
AcDbPoint
 10
2.090984442029052
 20
1.362735324845293
 30
0.0
  0
ENDBLK
  5
481
330
45C
100
AcDbEntity
  8
0
100
AcDbBlockEnd
  0
BLOCK
  5
482
330
469
100
AcDbEntity
  8
0
100
AcDbBlockBegin
  2
*D3
 70
     1
 10
0.0
 20
0.0
 30
0.0
  3
*D3
  1

  0
LINE
  5
722
330
469
100
AcDbEntity
  8
ADPDIM
 62
     0
370
    -2
100
AcDbLine
 10
0.7526939161216557
 20
0.5169020028184486
 30
0.0
 11
0.7526939161216557
 21
0.1175422735959343
 31
0.0
  0
LINE
  5
723
330
469
100
AcDbEntity
  8
ADPDIM
 62
     0
370
    -2
100
AcDbLine
 10
1.815318562108968
 20
0.5169535140374331
 30
0.0
 11
1.815318562108968
 21
0.1175422735959343
 31
0.0
  0
LINE
  5
724
330
469
100
AcDbEntity
  8
ADPDIM
 62
     0
370
    -2
100
AcDbLine
 10
0.7526939161216557
 20
0.2975422735959343
 30
0.0
 11
0.5026939161216557
 21
0.2975422735959343
 31
0.0
  0
LINE
  5
725
330
469
100
AcDbEntity
  8
ADPDIM
 62
     0
370
    -2
100
AcDbLine
 10
1.815318562108968
 20
0.2975422735959343
 30
0.0
 11
2.065318562108968
 21
0.2975422735959343
 31
0.0
  0
LINE
  5
726
330
469
100
AcDbEntity
  8
ADPDIM
 62
     0
370
    -2
100
AcDbLine
 10
1.690318562108968
 20
0.1725422735959343
 30
0.0
 11
1.940318562108968
 21
0.4225422735959344
 31
0.0
  0
LINE
  5
727
330
469
100
AcDbEntity
  8
ADPDIM
 62
     0
370
    -2
100
AcDbLine
 10
0.6276939161216557
 20
0.1725422735959343
 30
0.0
 11
0.8776939161216557
 21
0.4225422735959344
 31
0.0
  0
MTEXT
  5
728
330
469
100
AcDbEntity
  8
ADPDIM
 62
     0
100
AcDbMText
 10
1.284006239115312
 20
0.2975422735959343
 30
0.0
 40
0.125
 41
0.0
 71
     5
 72
     1
  1
\A1;1 1/16
 73
     1
 44
1.0
1001
ACAD
1000
MTEXTBEGIN
1070
    73
1070
     1
1070
    44
1040
1.0
1070
    74
1070
     0
1000
MTEXTEND
  0
POINT
  5
729
330
469
100
AcDbEntity
  8
DEFPOINTS
 62
     0
100
AcDbPoint
 10
0.7526939161216557
 20
0.5794020028184486
 30
0.0
  0
POINT
  5
72A
330
469
100
AcDbEntity
  8
DEFPOINTS
 62
     0
100
AcDbPoint
 10
1.815318562108968
 20
0.5794535140374331
 30
0.0
  0
POINT
  5
72B
330
469
100
AcDbEntity
  8
DEFPOINTS
 62
     0
100
AcDbPoint
 10
1.815318562108968
 20
0.2975422735959343
 30
0.0
  0
ENDBLK
  5
48D
330
469
100
AcDbEntity
  8
0
100
AcDbBlockEnd
  0
ENDSEC
  0
SECTION
  2
ENTITIES
  0
DIMENSION
  5
98
330
18
100
AcDbEntity
  8
ADPDIM
100
AcDbDimension
  2
*D1
 10
8.354639258733591
 20
1.149440530706742
 30
0.0
 11
8.354639258733591
 21
-1.163059469293256
 31
0.0
 70
    32
 71
     5
 42
-1.0
  3
STANDARD
100
AcDbAlignedDimension
 13
6.924274765955173
 23
-3.475559469293257
 33
0.0
 14
6.831497532331843
 24
1.149440530706742
 34
0.0
 50
90.0
100
AcDbRotatedDimension
1001
ACAD
1000
DSTYLE
1002
{
1070
   270
1070
     7
1070
   270
1070
     7
1070
   270
1070
     7
1070
   270
1070
     7
1070
    41
1040
0.125
1070
    73
1070
     0
1070
    74
1070
     0
1070
    78
1070
     3
1070
   140
1040
0.125
1070
   141
1040
0.1875
1070
   142
1040
0.125
1070
   147
1040
0.125
1070
   171
1070
     1
1070
   271
1070
     2
1070
   276
1070
     2
1070
   277
1070
     5
1002
}
  0
LWPOLYLINE
  5
99
330
18
100
AcDbEntity
  8
ADP1DETAIL
100
AcDbPolyline
 90
        3
 70
     0
 43
0.0
 10
2.071228189954197
 20
0.7970852361022804
 10
1.8057150736402
 20
-3.131955790837778
 42
-0.2725128395227334
 10
1.497584277771466
 20
-3.428734399490297
 42
-1.267072024178556
  0
LWPOLYLINE
  5
9E
330
18
100
AcDbEntity
  8
ADP1DETAIL
100
AcDbPolyline
 90
        3
 70
     0
 43
0.0
 10
1.945883875022061
 20
0.4408709188940892
 42
-0.1019441154588945
 10
1.699663377659874
 20
-0.407430858945812
 42
-0.2157683724541793
 10
1.383423876636699
 20
-0.6344746032701414
 42
-0.0991479086627735
  0
LWPOLYLINE
  5
A3
330
18
100
AcDbEntity
  8
ADP1DETAIL
100
AcDbPolyline
 90
        7
 70
     0
 43
0.0
 10
2.875425967837587
 20
0.6012733553691505
 10
6.90934110181447
 20
0.6045355443283476
 42
-0.5100519166965124
 10
7.74291599169094
 20
-0.4528396078106778
 42
-0.0615156988695696
 10
6.91744980696891
 20
-1.740501986335809
 42
0.1086974875637559
 10
6.464984059351136
 20
-2.551372501779847
 42
0.4559809694909038
 10
6.792575747590529
 20
-3.219529806505735
 42
0.3693429021028158
 10
7.333309959058462
 20
-2.722452884553821
  0
LWPOLYLINE
  5
AC
330
18
100
AcDbEntity
  8
ADP1DETAIL
100
AcDbPolyline
 90
       17
 70
     0
 43
0.0
 10
5.936296483281624
 20
0.4182756726511645
 10
2.875425967837587
 20
0.4196570668071078
 10
2.875425967837587
 20
1.149440530706742
 10
6.831497532331843
 20
1.149440530706742
 42
-0.4537591896528591
 10
8.057533751683227
 20
-0.4885179104902156
 42
-0.0932469716169457
 10
7.76075514303071
 20
-1.069101199548146
 42
-0.001450272892869
 10
6.881771504289373
 20
-2.366494024258606
 42
0.2939983051024957
 10
6.829106241522964
 20
-2.956768696955862
 42
0.487589501119799
 10
7.236932790053862
 20
-2.68392670427174
 42
-0.4012285993264923
 10
7.376330639714993
 20
-2.816909468804562
 42
-0.4922567079628896
 10
6.721219142231452
 20
-3.37521694547099
 42
-0.4715620077390599
 10
6.4293057566716
 20
-2.175128582613814
 42
-0.0519799414755948
 10
6.954749850679336
 20
-1.425884226343523
 42
0.1507456337358686
 10
7.395863411080894
 20
-0.1966045249303612
 42
0.3780707433069197
 10
7.071515204903278
 20
0.1763959121738958
 10
5.936296483281624
 20
0.1763959121738958
 10
5.936296483281624
 20
0.6027561685324217
  0
LINE
  5
BF
330
18
100
AcDbEntity
  8
ADP1DETAIL
100
AcDbLine
 10
1.070428200459159
 20
-3.428734399490297
 30
0.0
 11
1.497584277771466
 21
-3.428734399490297
 31
0.0
  0
ARC
  5
C1
330
18
100
AcDbEntity
  8
ADP2DETAIL
  6
HIDDEN2
100
AcDbCircle
 10
1.389837776327939
 20
-3.152401473654325
 30
0.0
 40
0.5287935828451525
100
AcDbArc
 50
116.3950178012247
 51
195.0001510998601
  0
LINE
  5
C2
330
18
100
AcDbEntity
  8
ADP2DETAIL
  6
HIDDEN2
100
AcDbLine
 10
1.154758734065338
 20
-2.678734399490297
 30
0.0
 11
1.413253744165286
 21
-2.678734399490297
 31
0.0
  0
DIMENSION
  5
D2
330
18
100
AcDbEntity
  8
ADPDIM
100
AcDbDimension
  2
*D0
 10
5.936296483281624
 20
-0.9244420015681811
 30
0.0
 11
4.405861225559606
 21
-0.9244420015681811
 31
0.0
 70
    32
 71
     5
 42
-1.0
  3
STANDARD
100
AcDbAlignedDimension
 13
2.875425967837587
 23
0.4196570668071078
 33
0.0
 14
5.936296483281624
 24
0.1763959121738958
 34
0.0
100
AcDbRotatedDimension
1001
ACAD
1000
DSTYLE
1002
{
1070
   270
1070
     7
1070
   270
1070
     7
1070
   270
1070
     7
1070
   270
1070
     7
1070
    41
1040
0.125
1070
    73
1070
     0
1070
    74
1070
     0
1070
    78
1070
     3
1070
   140
1040
0.125
1070
   141
1040
0.1875
1070
   142
1040
0.125
1070
   147
1040
0.125
1070
   171
1070
     1
1070
   271
1070
     2
1070
   276
1070
     2
1070
   277
1070
     5
1002
}
  0
LWPOLYLINE
  5
22D
330
18
100
AcDbEntity
  8
ADP1DETAIL
100
AcDbPolyline
 90
        3
 70
     0
 43
0.0
 10
0.4606961693390803
 20
0.7970852361022806
 10
0.7618295503300275
 20
-3.131955790837778
 42
0.2725128395227334
 10
1.069960346198762
 20
-3.428734399490297
 42
1.267072024178556
  0
LWPOLYLINE
  5
232
330
18
100
AcDbEntity
  8
ADP1DETAIL
100
AcDbPolyline
 90
        3
 70
     0
 43
0.0
 10
0.621660748948167
 20
0.4408709188940892
 42
0.1019441154588945
 10
0.867881246310354
 20
-0.407430858945812
 42
0.2157683724541793
 10
1.184120747333528
 20
-0.6344746032701414
 42
0.0991479086627735
  0
ARC
  5
238
330
18
100
AcDbEntity
  8
ADP2DETAIL
  6
HIDDEN2
100
AcDbCircle
 10
1.178174701902685
 20
-3.152401473654325
 30
0.0
 40
0.5287935828451525
100
AcDbArc
 50
344.9998489001398
 51
63.60498219877527
  0
ARC
  5
43A
330
18
100
AcDbEntity
  8
ADP1DETAIL
100
AcDbCircle
 10
1.971797329121839
 20
0.7984686858272712
 30
0.0
 40
0.125
100
AcDbArc
 50
305.0782027138775
 51
90.00555487858157
  0
ARC
  5
43B
330
18
100
AcDbEntity
  8
ADP1DETAIL
100
AcDbCircle
 10
0.5961939161216545
 20
0.7984020028184462
 30
0.0
 40
0.125
100
AcDbArc
 50
90.0
 51
234.9273521647041
  0
DIMENSION
  5
43C
330
18
100
AcDbEntity
  8
ADPDIM
100
AcDbDimension
  2
*D2
 10
2.090984442029052
 20
1.362735324845293
 30
0.0
 11
1.28399379657181
 21
1.362735324845293
 31
0.0
 70
    32
 71
     5
 42
-1.0
  3
STANDARD
100
AcDbAlignedDimension
 13
0.4770031511145696
 23
0.8360657989232693
 33
0.0
 14
2.090984442029052
 24
0.8361440374094835
 34
0.0
100
AcDbRotatedDimension
1001
ACAD
1000
DSTYLE
1002
{
1070
   270
1070
     7
1070
   270
1070
     7
1070
   270
1070
     7
1070
   270
1070
     7
1070
    41
1040
0.125
1070
    73
1070
     0
1070
    74
1070
     0
1070
    78
1070
     3
1070
   140
1040
0.125
1070
   141
1040
0.1875
1070
   142
1040
0.125
1070
   147
1040
0.125
1070
   171
1070
     1
1070
   271
1070
     3
1070
   276
1070
     2
1070
   277
1070
     5
1002
}
  0
LINE
  5
43D
330
18
100
AcDbEntity
  8
ADP1DETAIL
100
AcDbLine
 10
1.285193916121654
 20
0.8134020028184467
 30
0.0
 11
0.9551939161216562
 21
0.8134020028184467
 31
0.0
  0
DIMENSION
  5
43E
330
18
100
AcDbEntity
  8
ADPDIM
100
AcDbDimension
  2
*D3
 10
1.815318562108968
 20
0.2975422735959343
 30
0.0
 11
1.284006239115312
 21
0.2975422735959343
 31
0.0
 70
    32
 71
     5
 42
1.062624645987312
  3
STANDARD
100
AcDbAlignedDimension
 13
0.7526939161216557
 23
0.5794020028184486
 33
0.0
 14
1.815318562108968
 24
0.5794535140374331
 34
0.0
100
AcDbRotatedDimension
1001
ACAD
1000
DSTYLE
1002
{
1070
   270
1070
     7
1070
   270
1070
     7
1070
   270
1070
     7
1070
   270
1070
     7
1070
    41
1040
0.125
1070
    73
1070
     0
1070
    74
1070
     0
1070
    78
1070
     3
1070
   140
1040
0.125
1070
   141
1040
0.1875
1070
   142
1040
0.125
1070
   147
1040
0.125
1070
   171
1070
     1
1070
   271
1070
     4
1070
   276
1070
     2
1070
   277
1070
     5
1002
}
  0
LINE
  5
43F
330
18
100
AcDbEntity
  8
ADP1DETAIL
100
AcDbLine
 10
0.9251939161216551
 20
0.657402002818448
 30
0.0
 11
0.7676939161216563
 21
0.657402002818448
 31
0.0
  0
LINE
  5
440
330
18
100
AcDbEntity
  8
ADP1DETAIL
100
AcDbLine
 10
0.7376939161216552
 20
0.5014020028184456
 30
0.0
 11
0.6282033975127188
 21
0.5014020028184456
 31
0.0
  0
ARC
  5
441
330
18
100
AcDbEntity
  8
ADP1DETAIL
100
AcDbCircle
 10
0.377176193487065
 20
0.4922578136890339
 30
0.0
 40
0.25
100
AcDbArc
 50
2.096161348793594
 51
54.23341280286933
  0
ARC
  5
442
330
18
100
AcDbEntity
  8
ADP1DETAIL
100
AcDbCircle
 10
0.7376939161216552
 20
0.5164020028184462
 30
0.0
 40
0.0150000000000006
100
AcDbArc
 50
270.0
 51
0.0
  0
LINE
  5
443
330
18
100
AcDbEntity
  8
ADP1DETAIL
100
AcDbLine
 10
0.7526939161216557
 20
0.6424020028184474
 30
0.0
 11
0.7526939161216557
 21
0.5164020028184462
 31
0.0
  0
ARC
  5
444
330
18
100
AcDbEntity
  8
ADP1DETAIL
100
AcDbCircle
 10
0.7676939161216563
 20
0.6424020028184474
 30
0.0
 40
0.0150000000000006
100
AcDbArc
 50
90.0
 51
180.0
  0
ARC
  5
445
330
18
100
AcDbEntity
  8
ADP1DETAIL
100
AcDbCircle
 10
0.9551939161216562
 20
0.7984020028184462
 30
0.0
 40
0.0150000000000006
100
AcDbArc
 50
90.0
 51
179.9999999999966
  0
LINE
  5
446
330
18
100
AcDbEntity
  8
ADP1DETAIL
100
AcDbLine
 10
0.9401939161216557
 20
0.7984020028184462
 30
0.0
 11
0.9401939161216557
 21
0.672402002818445
 31
0.0
  0
ARC
  5
447
330
18
100
AcDbEntity
  8
ADP1DETAIL
100
AcDbCircle
 10
0.9251939161216551
 20
0.672402002818445
 30
0.0
 40
0.0150000000000006
100
AcDbArc
 50
270.0
 51
0.0
  0
LINE
  5
448
330
18
100
AcDbEntity
  8
ADP1DETAIL
100
AcDbLine
 10
1.830326124210285
 20
0.5014549686678232
 30
0.0
 11
1.93981664230464
 21
0.5014655838744036
 31
0.0
  0
LINE
  5
449
330
18
100
AcDbEntity
  8
ADP1DETAIL
100
AcDbLine
 10
1.28279587809615
 20
0.8134018865724508
 30
0.0
 11
1.612795876545236
 21
0.8134338803762632
 31
0.0
  0
ARC
  5
44A
330
18
100
AcDbEntity
  8
ADP1DETAIL
100
AcDbCircle
 10
1.800312454271464
 20
0.642452059477539
 30
0.0
 40
0.0150000000000002
100
AcDbArc
 50
0.005554878582119
 51
90.00555487858212
  0
ARC
  5
44B
330
18
100
AcDbEntity
  8
ADP1DETAIL
100
AcDbCircle
 10
1.612797330809046
 20
0.7984338804467593
 30
0.0
 40
0.0150000000000002
100
AcDbArc
 50
0.005554878582119
 51
90.00555487858212
  0
LINE
  5
44C
330
18
100
AcDbEntity
  8
ADP1DETAIL
100
AcDbLine
 10
1.642811000747864
 20
0.6574367896370399
 30
0.0
 11
1.800311000007654
 21
0.657452059407043
 31
0.0
  0
LINE
  5
44D
330
18
100
AcDbEntity
  8
ADP1DETAIL
100
AcDbLine
 10
1.62779733073855
 20
0.7984353347105691
 30
0.0
 11
1.62780954655455
 21
0.6724353353027342
 31
0.0
  0
ARC
  5
44E
330
18
100
AcDbEntity
  8
ADP1DETAIL
100
AcDbCircle
 10
1.642809546484054
 20
0.672436789566544
 30
0.0
 40
0.0150000000000002
100
AcDbArc
 50
180.0055548785821
 51
270.0055548785821
  0
ARC
  5
44F
330
18
100
AcDbEntity
  8
ADP1DETAIL
100
AcDbCircle
 10
1.830324669946476
 20
0.5164549685973272
 30
0.0
 40
0.0150000000000037
100
AcDbArc
 50
180.0055548785889
 51
270.0055548785821
  0
LINE
  5
450
330
18
100
AcDbEntity
  8
ADP1DETAIL
100
AcDbLine
 10
1.815312454200968
 20
0.6424535137413488
 30
0.0
 11
1.815324670016968
 21
0.5164535143335139
 31
0.0
  0
ARC
  5
451
330
18
100
AcDbEntity
  8
ADP1DETAIL
100
AcDbCircle
 10
2.190844731688086
 20
0.492345732106501
 30
0.0
 40
0.25
100
AcDbArc
 50
125.7721420757122
 51
177.9093935297879
  0
ARC
  5
452
330
18
100
AcDbEntity
  8
ADP1DETAIL
100
AcDbCircle
 10
1.283693916121654
 20
0.7514020028184456
 30
0.0
 40
0.4060000000000001
100
AcDbArc
 50
89.95987807238291
 51
133.0663233236764
  0
ARC
  5
453
330
18
100
AcDbEntity
  8
ADP1DETAIL
100
AcDbCircle
 10
0.7853669442086489
 20
1.324751641497692
 30
0.0
 40
0.3542134459117149
100
AcDbArc
 50
269.8326154630628
 51
308.6218531458785
  0
LINE
  5
454
330
18
100
AcDbEntity
  8
ADP1DETAIL
100
AcDbLine
 10
0.6111829371508986
 20
0.9704129737562903
 30
0.0
 11
0.7843321425218815
 21
0.9705397071277177
 31
0.0
  0
ARC
  5
455
330
18
100
AcDbEntity
  8
ADP1DETAIL
100
AcDbCircle
 10
0.6111939161216551
 20
0.955412977774217
 30
0.0
 40
0.0150000000000006
100
AcDbArc
 50
90.0419365829275
 51
180.0
  0
LINE
  5
456
330
18
100
AcDbEntity
  8
ADP1DETAIL
100
AcDbLine
 10
0.5961939161216545
 20
0.9234020028184461
 30
0.0
 11
0.5961939161216545
 21
0.955412977774217
 31
0.0
  0
LINE
  5
457
330
18
100
AcDbEntity
  8
ADP1DETAIL
100
AcDbLine
 10
1.956791631541046
 20
0.9704782027573175
 30
0.0
 11
1.783642414696897
 21
0.9705881491532801
 31
0.0
  0
ARC
  5
458
330
18
100
AcDbEntity
  8
ADP1DETAIL
100
AcDbCircle
 10
1.284301889046181
 20
0.7514020322902164
 30
0.0
 40
0.4060000000000001
100
AcDbArc
 50
46.93923155490511
 51
90.04567680619867
  0
ARC
  5
459
330
18
100
AcDbEntity
  8
ADP1DETAIL
100
AcDbCircle
 10
1.78257327184186
 20
1.324799981533577
 30
0.0
 40
0.3542134459117149
100
AcDbArc
 50
231.3837017327031
 51
270.1729394155187
  0
ARC
  5
45A
330
18
100
AcDbEntity
  8
ADP1DETAIL
100
AcDbCircle
 10
1.956782106833761
 20
0.9554782057813193
 30
0.0
 40
0.0150000000000002
100
AcDbArc
 50
0.005554878582119
 51
89.96361829565627
  0
LINE
  5
45B
330
18
100
AcDbEntity
  8
ADP1DETAIL
100
AcDbLine
 10
1.97178521025676
 20
0.9234686852398015
 30
0.0
 11
1.971782106763265
 21
0.9554796600451291
 31
0.0
  0
TEXT
  5
49A
330
18
100
AcDbEntity
  8
ADPDIM
100
AcDbText
 10
-2.418117643106228
 20
-4.097007574229277
 30
0.0
 40
0.125
  1
J U L I U S  B L U M  &  C O . ,  I N C .      ( 8 0 0 )  5 2 6 - 6 2 9 3        W W W . J U L I U S B L U M . C O M        P A R T  N o .  6 9 3 1 - S
 41
1.25
  7
ARIAL_WIDE
 72
     1
 11
4.277397363715053
 21
-3.972007574229277
 31
0.0
100
AcDbText
 73
     3
  0
ENDSEC
  0
SECTION
  2
OBJECTS
  0
DICTIONARY
  5
C
330
0
100
AcDbDictionary
281
     1
  3
ACAD_COLOR
350
70E
  3
ACAD_GROUP
350
D
  3
ACAD_LAYOUT
350
493
  3
ACAD_MATERIAL
350
6F9
  3
ACAD_MLINESTYLE
350
E
  3
ACAD_PLOTSETTINGS
350
494
  3
ACAD_PLOTSTYLENAME
350
491
  3
ACAD_TABLESTYLE
350
70F
  3
ACAD_VISUALSTYLE
350
6FD
  3
AcDbVariableDictionary
350
546
  3
DWGPROPS
350
74B
  0
DICTIONARY
  5
518
330
18
100
AcDbDictionary
280
     1
281
     1
  3
ACAD_LAYOUTSELFREF
360
6CB
  0
DICTIONARY
  5
516
330
15
100
AcDbDictionary
280
     1
281
     1
  3
ACAD_LAYOUTSELFREF
360
6CA
  0
DICTIONARY
  5
70E
102
{ACAD_REACTORS
330
C
102
}
330
C
100
AcDbDictionary
281
     1
  0
DICTIONARY
  5
D
102
{ACAD_REACTORS
330
C
102
}
330
C
100
AcDbDictionary
281
     1
  0
DICTIONARY
  5
493
102
{ACAD_REACTORS
330
C
102
}
330
C
100
AcDbDictionary
281
     1
  3
Layout1
350
496
  3
Model
350
495
  0
DICTIONARY
  5
6F9
102
{ACAD_REACTORS
330
C
102
}
330
C
100
AcDbDictionary
281
     1
  3
ByBlock
350
6FB
  3
ByLayer
350
6FA
  3
Global
350
6FC
  0
DICTIONARY
  5
E
102
{ACAD_REACTORS
330
C
102
}
330
C
100
AcDbDictionary
281
     1
  3
STANDARD
350
1B
  0
DICTIONARY
  5
494
102
{ACAD_REACTORS
330
C
102
}
330
C
100
AcDbDictionary
281
     1
  0
ACDBDICTIONARYWDFLT
  5
491
102
{ACAD_REACTORS
330
C
102
}
330
C
100
AcDbDictionary
281
     1
  3
Normal
350
492
100
AcDbDictionaryWithDefault
340
492
  0
DICTIONARY
  5
70F
102
{ACAD_REACTORS
330
C
102
}
330
C
100
AcDbDictionary
281
     1
  3
Standard
350
710
  0
DICTIONARY
  5
6FD
102
{ACAD_REACTORS
330
C
102
}
330
C
100
AcDbDictionary
281
     1
  3
2dWireframe
350
703
  3
3D Hidden
350
705
  3
3dWireframe
350
704
  3
Basic
350
702
  3
Brighten
350
709
  3
ColorChange
350
70D
  3
Conceptual
350
706
  3
Dim
350
708
  3
Facepattern
350
70C
  3
Flat
350
6FE
  3
FlatWithEdges
350
6FF
  3
Gouraud
350
700
  3
GouraudWithEdges
350
701
  3
Linepattern
350
70B
  3
Realistic
350
707
  3
Thicken
350
70A
  0
DICTIONARY
  5
546
102
{ACAD_REACTORS
330
C
102
}
330
C
100
AcDbDictionary
281
     1
  3
CTABLESTYLE
350
748
  3
DIMASSOC
350
547
  3
INDEXCTL
350
74A
  3
SORTENTS
350
749
  0
XRECORD
  5
74B
102
{ACAD_REACTORS
330
C
102
}
330
C
100
AcDbXrecord
280
     1
  1
DWGPROPS COOKIE
  2

  3

  4

  6

  7

  8
Yu Hu
  9

300
=
301
=
302
=
303
=
304
=
305
=
306
=
307
=
308
=
309
=
 40
0.0541801388888889
 41
2450352.993086806
 42
2453961.629422639
  1

 90
        0
  0
XRECORD
  5
6CB
102
{ACAD_REACTORS
330
518
102
}
330
518
100
AcDbXrecord
280
     1
340
18
  0
XRECORD
  5
6CA
102
{ACAD_REACTORS
330
516
102
}
330
516
100
AcDbXrecord
280
     1
340
15
  0
LAYOUT
  5
496
102
{ACAD_XDICTIONARY
360
74E
102
}
102
{ACAD_REACTORS
330
493
102
}
330
493
100
AcDbPlotSettings
  1

  2
Fax
  4

  6

 40
0.0
 41
0.0
 42
0.0
 43
0.0
 44
0.0
 45
0.0
 46
0.0
 47
0.0
 48
0.0
 49
0.0
140
0.0
141
0.0
142
1.0
143
1.0
 70
   688
 72
     0
 73
     0
 74
     5
  7
Default R14 pen assignments.ctb
 75
    16
147
1.0
148
0.0
149
0.0
100
AcDbLayout
  1
Layout1
 70
     1
 71
     1
 10
0.0
 20
0.0
 11
12.0
 21
9.0
 12
0.0
 22
0.0
 32
0.0
 14
1.000000000000000E+20
 24
1.000000000000000E+20
 34
1.000000000000000E+20
 15
-1.000000000000000E+20
 25
-1.000000000000000E+20
 35
-1.000000000000000E+20
146
0.0
 13
0.0
 23
0.0
 33
0.0
 16
1.0
 26
0.0
 36
0.0
 17
0.0
 27
1.0
 37
0.0
 76
     0
330
15
  0
LAYOUT
  5
495
102
{ACAD_XDICTIONARY
360
74C
102
}
102
{ACAD_REACTORS
330
493
102
}
330
493
100
AcDbPlotSettings
  1

  2
Fax
  4

  6

 40
0.0
 41
0.0
 42
0.0
 43
0.0
 44
0.0
 45
0.0
 46
0.0
 47
0.0
 48
0.0
 49
0.0
140
0.0
141
0.0
142
1.0
143
1.0
 70
  1712
 72
     0
 73
     0
 74
     0
  7
Default R14 pen assignments.ctb
 75
     0
147
1.0
148
0.0
149
0.0
100
AcDbLayout
  1
Model
 70
     1
 71
     0
 10
0.0
 20
0.0
 11
12.0
 21
9.0
 12
0.0
 22
0.0
 32
0.0
 14
0.0
 24
0.0
 34
0.0
 15
0.0
 25
0.0
 35
0.0
146
0.0
 13
0.0
 23
0.0
 33
0.0
 16
1.0
 26
0.0
 36
0.0
 17
0.0
 27
1.0
 37
0.0
 76
     0
330
18
331
6A4
  0
MATERIAL
  5
6FB
102
{ACAD_XDICTIONARY
360
752
102
}
102
{ACAD_REACTORS
330
6F9
102
}
330
6F9
100
AcDbMaterial
  1
ByBlock
  0
MATERIAL
  5
6FA
102
{ACAD_XDICTIONARY
360
750
102
}
102
{ACAD_REACTORS
330
6F9
102
}
330
6F9
100
AcDbMaterial
  1
ByLayer
  0
MATERIAL
  5
6FC
102
{ACAD_XDICTIONARY
360
754
102
}
102
{ACAD_REACTORS
330
6F9
102
}
330
6F9
100
AcDbMaterial
  1
Global
  0
MLINESTYLE
  5
1B
102
{ACAD_REACTORS
330
E
102
}
330
E
100
AcDbMlineStyle
  2
STANDARD
 70
     0
  3

 62
     0
 51
90.0
 52
90.0
 71
     2
 49
0.5
 62
   256
  6
BYLAYER
 49
-0.5
 62
   256
  6
BYLAYER
  0
ACDBPLACEHOLDER
  5
492
102
{ACAD_REACTORS
330
491
102
}
330
491
  0
TABLESTYLE
  5
710
102
{ACAD_XDICTIONARY
360
756
102
}
102
{ACAD_REACTORS
330
70F
102
}
330
70F
100
AcDbTableStyle
  3
Standard
 70
     0
 71
     0
 40
0.06
 41
0.06
280
     0
281
     0
  7
STANDARD
140
0.18
170
     2
 62
     0
 63
     7
283
     0
274
    -2
284
     1
 64
     0
275
    -2
285
     1
 65
     0
276
    -2
286
     1
 66
     0
277
    -2
287
     1
 67
     0
278
    -2
288
     1
 68
     0
279
    -2
289
     1
 69
     0
  7
STANDARD
140
0.25
170
     5
 62
     0
 63
     7
283
     0
274
    -2
284
     1
 64
     0
275
    -2
285
     1
 65
     0
276
    -2
286
     1
 66
     0
277
    -2
287
     1
 67
     0
278
    -2
288
     1
 68
     0
279
    -2
289
     1
 69
     0
  7
STANDARD
140
0.18
170
     5
 62
     0
 63
     7
283
     0
274
    -2
284
     1
 64
     0
275
    -2
285
     1
 65
     0
276
    -2
286
     1
 66
     0
277
    -2
287
     1
 67
     0
278
    -2
288
     1
 68
     0
279
    -2
289
     1
 69
     0
  0
VISUALSTYLE
  5
703
102
{ACAD_REACTORS
330
6FD
102
}
330
6FD
100
AcDbVisualStyle
  2
2dWireframe
 70
     4
 71
     0
 72
     2
 73
     0
 90
        0
 40
-0.6
 41
-30.0
 62
     5
 63
     7
 74
     1
 91
        4
 64
     7
 65
   257
 75
     1
175
     1
 42
1.0
 92
        0
 66
   257
 43
1.0
 76
     1
 77
     6
 78
     2
 67
     7
 79
     5
170
     0
171
     0
290
     0
174
     0
 93
        1
 44
0.0
173
     0
291
     0
 45
0.0
1001
ACAD
1000
AcDbSavedByObjectVersion
1070
     0
  0
VISUALSTYLE
  5
705
102
{ACAD_REACTORS
330
6FD
102
}
330
6FD
100
AcDbVisualStyle
  2
3D Hidden
 70
     6
 71
     1
 72
     2
 73
     2
 90
        0
 40
-0.6
 41
-30.0
 62
     5
 63
     7
 74
     2
 91
        2
 64
     7
 65
   257
 75
     2
175
     1
 42
40.0
 92
        0
 66
   257
 43
1.0
 76
     1
 77
     6
 78
     2
 67
     7
 79
     3
170
     0
171
     0
290
     0
174
     0
 93
        1
 44
0.0
173
     0
291
     0
 45
0.0
1001
ACAD
1000
AcDbSavedByObjectVersion
1070
     0
  0
VISUALSTYLE
  5
704
102
{ACAD_REACTORS
330
6FD
102
}
330
6FD
100
AcDbVisualStyle
  2
3dWireframe
 70
     5
 71
     0
 72
     2
 73
     0
 90
        0
 40
-0.6
 41
-30.0
 62
     5
 63
     7
 74
     1
 91
        4
 64
     7
 65
   257
 75
     1
175
     1
 42
1.0
 92
        0
 66
   257
 43
1.0
 76
     1
 77
     6
 78
     2
 67
     7
 79
     5
170
     0
171
     0
290
     0
174
     0
 93
        1
 44
0.0
173
     0
291
     0
 45
0.0
1001
ACAD
1000
AcDbSavedByObjectVersion
1070
     0
  0
VISUALSTYLE
  5
702
102
{ACAD_REACTORS
330
6FD
102
}
330
6FD
100
AcDbVisualStyle
  2
Basic
 70
     7
 71
     1
 72
     0
 73
     1
 90
        0
 40
-0.6
 41
-30.0
 62
     5
 63
     7
 74
     0
 91
        4
 64
     7
 65
   257
 75
     1
175
     1
 42
1.0
 92
        8
 66
     7
 43
1.0
 76
     1
 77
     6
 78
     2
 67
     7
 79
     5
170
     0
171
     0
290
     0
174
     0
 93
        1
 44
0.0
173
     0
291
     1
 45
0.0
1001
ACAD
1000
AcDbSavedByObjectVersion
1070
     0
  0
VISUALSTYLE
  5
709
102
{ACAD_REACTORS
330
6FD
102
}
330
6FD
100
AcDbVisualStyle
  2
Brighten
 70
    12
 71
     2
 72
     2
 73
     0
 90
        0
 40
-0.6
 41
-30.0
 62
     5
 63
     7
 74
     1
 91
        4
 64
     7
 65
   257
 75
     1
175
     1
 42
1.0
 92
        8
 66
     7
 43
1.0
 76
     1
 77
     6
 78
     2
 67
     7
 79
     5
170
     0
171
     0
290
     0
174
     0
 93
        1
 44
50.0
173
     0
291
     1
 45
0.0
1001
ACAD
1000
AcDbSavedByObjectVersion
1070
     0
  0
VISUALSTYLE
  5
70D
102
{ACAD_REACTORS
330
6FD
102
}
330
6FD
100
AcDbVisualStyle
  2
ColorChange
 70
    16
 71
     2
 72
     2
 73
     3
 90
        0
 40
-0.6
 41
-30.0
 62
     5
 63
     8
 74
     1
 91
        4
 64
     7
 65
   257
 75
     1
175
     1
 42
1.0
 92
        8
 66
     8
 43
1.0
 76
     1
 77
     6
 78
     2
 67
     7
 79
     5
170
     0
171
     0
290
     0
174
     0
 93
        1
 44
0.0
173
     0
291
     1
 45
0.0
1001
ACAD
1000
AcDbSavedByObjectVersion
1070
     0
  0
VISUALSTYLE
  5
706
102
{ACAD_REACTORS
330
6FD
102
}
330
6FD
100
AcDbVisualStyle
  2
Conceptual
 70
     9
 71
     3
 72
     2
 73
     0
 90
        0
 40
-0.6
 41
-30.0
 62
     5
 63
     7
 74
     2
 91
        2
 64
     7
 65
   257
 75
     1
175
     1
 42
40.0
 92
        8
 66
     7
 43
1.0
 76
     1
 77
     6
 78
     2
 67
     7
 79
     3
170
     0
171
     0
290
     0
174
     0
 93
        1
 44
0.0
173
     0
291
     0
 45
0.0
1001
ACAD
1000
AcDbSavedByObjectVersion
1070
     0
  0
VISUALSTYLE
  5
708
102
{ACAD_REACTORS
330
6FD
102
}
330
6FD
100
AcDbVisualStyle
  2
Dim
 70
    11
 71
     2
 72
     2
 73
     0
 90
        0
 40
-0.6
 41
-30.0
 62
     5
 63
     7
 74
     1
 91
        4
 64
     7
 65
   257
 75
     1
175
     1
 42
1.0
 92
        8
 66
     7
 43
1.0
 76
     1
 77
     6
 78
     2
 67
     7
 79
     5
170
     0
171
     0
290
     0
174
     0
 93
        1
 44
-50.0
173
     0
291
     1
 45
0.0
1001
ACAD
1000
AcDbSavedByObjectVersion
1070
     0
  0
VISUALSTYLE
  5
70C
102
{ACAD_REACTORS
330
6FD
102
}
330
6FD
100
AcDbVisualStyle
  2
Facepattern
 70
    15
 71
     2
 72
     2
 73
     0
 90
        0
 40
-0.6
 41
-30.0
 62
     5
 63
     7
 74
     1
 91
        4
 64
     7
 65
   257
 75
     1
175
     1
 42
1.0
 92
        8
 66
     7
 43
1.0
 76
     1
 77
     6
 78
     2
 67
     7
 79
     5
170
     0
171
     0
290
     0
174
     0
 93
        1
 44
0.0
173
     0
291
     1
 45
0.0
1001
ACAD
1000
AcDbSavedByObjectVersion
1070
     0
  0
VISUALSTYLE
  5
6FE
102
{ACAD_REACTORS
330
6FD
102
}
330
6FD
100
AcDbVisualStyle
  2
Flat
 70
     0
 71
     2
 72
     1
 73
     1
 90
        2
 40
-0.6
 41
30.0
 62
     5
 63
     7
 74
     0
 91
        4
 64
     7
 65
   257
 75
     1
175
     1
 42
1.0
 92
        8
 66
     7
 43
1.0
 76
     1
 77
     6
 78
     2
 67
     7
 79
     5
170
     0
171
     0
290
     0
174
     0
 93
       13
 44
0.0
173
     0
291
     1
 45
0.0
1001
ACAD
1000
AcDbSavedByObjectVersion
1070
     0
  0
VISUALSTYLE
  5
6FF
102
{ACAD_REACTORS
330
6FD
102
}
330
6FD
100
AcDbVisualStyle
  2
FlatWithEdges
 70
     1
 71
     2
 72
     1
 73
     1
 90
        2
 40
-0.6
 41
30.0
 62
     5
 63
     7
 74
     1
 91
        4
 64
     7
 65
   257
 75
     1
175
     1
 42
1.0
 92
        0
 66
   257
 43
1.0
 76
     1
 77
     6
 78
     2
 67
     7
 79
     5
170
     0
171
     0
290
     0
174
     0
 93
       13
 44
0.0
173
     0
291
     1
 45
0.0
1001
ACAD
1000
AcDbSavedByObjectVersion
1070
     0
  0
VISUALSTYLE
  5
700
102
{ACAD_REACTORS
330
6FD
102
}
330
6FD
100
AcDbVisualStyle
  2
Gouraud
 70
     2
 71
     2
 72
     2
 73
     1
 90
        2
 40
-0.6
 41
30.0
 62
     5
 63
     7
 74
     0
 91
        4
 64
     7
 65
   257
 75
     1
175
     1
 42
1.0
 92
        0
 66
     7
 43
1.0
 76
     1
 77
     6
 78
     2
 67
     7
 79
     5
170
     0
171
     0
290
     0
174
     0
 93
       13
 44
0.0
173
     0
291
     1
 45
0.0
1001
ACAD
1000
AcDbSavedByObjectVersion
1070
     0
  0
VISUALSTYLE
  5
701
102
{ACAD_REACTORS
330
6FD
102
}
330
6FD
100
AcDbVisualStyle
  2
GouraudWithEdges
 70
     3
 71
     2
 72
     2
 73
     1
 90
        2
 40
-0.6
 41
30.0
 62
     5
 63
     7
 74
     1
 91
        4
 64
     7
 65
   257
 75
     1
175
     1
 42
1.0
 92
        0
 66
   257
 43
1.0
 76
     1
 77
     6
 78
     2
 67
     7
 79
     5
170
     0
171
     0
290
     0
174
     0
 93
       13
 44
0.0
173
     0
291
     1
 45
0.0
1001
ACAD
1000
AcDbSavedByObjectVersion
1070
     0
  0
VISUALSTYLE
  5
70B
102
{ACAD_REACTORS
330
6FD
102
}
330
6FD
100
AcDbVisualStyle
  2
Linepattern
 70
    14
 71
     2
 72
     2
 73
     0
 90
        0
 40
-0.6
 41
-30.0
 62
     5
 63
     7
 74
     1
 91
        4
 64
     7
 65
   257
 75
     7
175
     7
 42
1.0
 92
        8
 66
     7
 43
1.0
 76
     1
 77
     6
 78
     2
 67
     7
 79
     5
170
     0
171
     0
290
     0
174
     0
 93
        1
 44
0.0
173
     0
291
     1
 45
0.0
1001
ACAD
1000
AcDbSavedByObjectVersion
1070
     0
  0
VISUALSTYLE
  5
707
102
{ACAD_REACTORS
330
6FD
102
}
330
6FD
100
AcDbVisualStyle
  2
Realistic
 70
     8
 71
     2
 72
     2
 73
     0
 90
        0
 40
-0.6
 41
-30.0
 62
     5
 63
     7
 74
     1
 91
        0
 64
     7
 65
   257
 75
     1
175
     1
 42
1.0
 92
        8
 66
     8
 43
1.0
 76
     1
 77
     6
 78
     2
 67
     7
 79
     5
170
     0
171
     0
290
     0
174
     0
 93
       13
 44
0.0
173
     0
291
     0
 45
0.0
1001
ACAD
1000
AcDbSavedByObjectVersion
1070
     0
  0
VISUALSTYLE
  5
70A
102
{ACAD_REACTORS
330
6FD
102
}
330
6FD
100
AcDbVisualStyle
  2
Thicken
 70
    13
 71
     2
 72
     2
 73
     0
 90
        0
 40
-0.6
 41
-30.0
 62
     5
 63
     7
 74
     1
 91
        4
 64
     7
 65
   257
 75
     1
175
     1
 42
1.0
 92
       12
 66
     7
 43
1.0
 76
     1
 77
     6
 78
     2
 67
     7
 79
     5
170
     0
171
     0
290
     0
174
     0
 93
        1
 44
0.0
173
     0
291
     1
 45
0.0
1001
ACAD
1000
AcDbSavedByObjectVersion
1070
     0
  0
DICTIONARYVAR
  5
748
102
{ACAD_REACTORS
330
546
102
}
330
546
100
DictionaryVariables
280
     0
  1
STANDARD
  0
DICTIONARYVAR
  5
547
102
{ACAD_REACTORS
330
546
102
}
330
546
100
DictionaryVariables
280
     0
  1
1
  0
DICTIONARYVAR
  5
74A
102
{ACAD_REACTORS
330
546
102
}
330
546
100
DictionaryVariables
280
     0
  1
0
  0
DICTIONARYVAR
  5
749
102
{ACAD_REACTORS
330
546
102
}
330
546
100
DictionaryVariables
280
     0
  1
127
  0
DICTIONARY
  5
74E
330
496
100
AcDbDictionary
280
     1
281
     1
  3
ACAD_XREC_ROUNDTRIP
360
74F
  0
DICTIONARY
  5
74C
330
495
100
AcDbDictionary
280
     1
281
     1
  3
ACAD_XREC_ROUNDTRIP
360
74D
  0
DICTIONARY
  5
752
330
6FB
100
AcDbDictionary
280
     1
281
     1
  3
ACAD_XREC_ROUNDTRIP
360
753
  0
DICTIONARY
  5
750
330
6FA
100
AcDbDictionary
280
     1
281
     1
  3
ACAD_XREC_ROUNDTRIP
360
751
  0
DICTIONARY
  5
754
330
6FC
100
AcDbDictionary
280
     1
281
     1
  3
ACAD_XREC_ROUNDTRIP
360
755
  0
DICTIONARY
  5
756
330
710
100
AcDbDictionary
280
     1
281
     1
  3
ACAD_XREC_ROUNDTRIP
360
757
  0
XRECORD
  5
74F
102
{ACAD_REACTORS
330
74E
102
}
330
74E
100
AcDbXrecord
280
     1
102
SHADEPLOT
 70
     0
102
SHADEPLOTRESLEVEL
 70
     2
102
SHADEPLOTCUSTOMDPI
 70
   300
  0
XRECORD
  5
74D
102
{ACAD_REACTORS
330
74C
102
}
330
74C
100
AcDbXrecord
280
     1
102
SHADEPLOT
 70
     0
102
SHADEPLOTRESLEVEL
 70
     2
102
SHADEPLOTCUSTOMDPI
 70
   300
  0
XRECORD
  5
753
102
{ACAD_REACTORS
330
752
102
}
330
752
100
AcDbXrecord
280
     1
102
MATERIAL
148
0.0
149
0.0
149
0.0
 93
        0
 94
       63
282
     0
 72
     1
 77
     1
171
     1
175
     1
179
     1
273
     0
  0
XRECORD
  5
751
102
{ACAD_REACTORS
330
750
102
}
330
750
100
AcDbXrecord
280
     1
102
MATERIAL
148
0.0
149
0.0
149
0.0
 93
        0
 94
       63
282
     0
 72
     1
 77
     1
171
     1
175
     1
179
     1
273
     0
  0
XRECORD
  5
755
102
{ACAD_REACTORS
330
754
102
}
330
754
100
AcDbXrecord
280
     1
102
MATERIAL
148
0.0
149
0.0
149
0.0
 93
        0
 94
       63
282
     0
 72
     1
 77
     1
171
     1
175
     1
179
     1
273
     0
  0
XRECORD
  5
757
102
{ACAD_REACTORS
330
756
102
}
330
756
100
AcDbXrecord
280
     1
102
ACAD_ROUNDTRIP_PRE2007_TABLESTYLE
 90
      512
 91
        0
  1

 92
      512
 93
        0
  2

 94
      512
 95
        0
  3

  0
ENDSEC
  0
EOF
