  0
SECTION
  2
HEADER
  9
$ACADVER
  1
AC1015
  9
$ACADMAINTVER
 70
    20
  9
$DWGCODEPAGE
  3
ANSI_1252
  9
$INSBASE
 10
10.66443960591097
 20
2.522878239641804
 30
0.0
  9
$EXTMIN
 10
5.008667081837387
 20
-0.3606619503980823
 30
-0.0015258207003583
  9
$EXTMAX
 10
18.4010010398936
 20
3.719912171562441
 30
0.0000000349246037
  9
$LIMMIN
 10
0.0
 20
0.0
  9
$LIMMAX
 10
36.0
 20
36.0
  9
$ORTHOMODE
 70
     1
  9
$REGENMODE
 70
     1
  9
$FILLMODE
 70
     1
  9
$QTEXTMODE
 70
     0
  9
$MIRRTEXT
 70
     1
  9
$LTSCALE
 40
1.0
  9
$ATTMODE
 70
     1
  9
$TEXTSIZE
 40
0.2
  9
$TRACEWID
 40
0.05
  9
$TEXTSTYLE
  7
STANDARD
  9
$CLAYER
  8
ADP1DETAIL
  9
$CELTYPE
  6
BYLAYER
  9
$CECOLOR
 62
   256
  9
$CELTSCALE
 40
1.0
  9
$DISPSILH
 70
     0
  9
$DIMSCALE
 40
1.0
  9
$DIMASZ
 40
0.125
  9
$DIMEXO
 40
0.0625
  9
$DIMDLI
 40
0.38
  9
$DIMRND
 40
0.0
  9
$DIMDLE
 40
0.0
  9
$DIMEXE
 40
0.18
  9
$DIMTP
 40
0.0
  9
$DIMTM
 40
0.0
  9
$DIMTXT
 40
0.125
  9
$DIMCEN
 40
0.1875
  9
$DIMTSZ
 40
0.125
  9
$DIMTOL
 70
     0
  9
$DIMLIM
 70
     0
  9
$DIMTIH
 70
     0
  9
$DIMTOH
 70
     0
  9
$DIMSE1
 70
     0
  9
$DIMSE2
 70
     0
  9
$DIMTAD
 70
     0
  9
$DIMZIN
 70
     2
  9
$DIMBLK
  1

  9
$DIMASO
 70
     1
  9
$DIMSHO
 70
     1
  9
$DIMPOST
  1

  9
$DIMAPOST
  1

  9
$DIMALT
 70
     0
  9
$DIMALTD
 70
     1
  9
$DIMALTF
 40
25.4
  9
$DIMLFAC
 40
1.0
  9
$DIMTOFL
 70
     0
  9
$DIMTVP
 40
0.0
  9
$DIMTIX
 70
     0
  9
$DIMSOXD
 70
     0
  9
$DIMSAH
 70
     0
  9
$DIMBLK1
  1

  9
$DIMBLK2
  1

  9
$DIMSTYLE
  2
STANDARD
  9
$DIMCLRD
 70
     0
  9
$DIMCLRE
 70
     0
  9
$DIMCLRT
 70
     0
  9
$DIMTFAC
 40
1.0
  9
$DIMGAP
 40
0.125
  9
$DIMJUST
 70
     0
  9
$DIMSD1
 70
     0
  9
$DIMSD2
 70
     0
  9
$DIMTOLJ
 70
     1
  9
$DIMTZIN
 70
     0
  9
$DIMALTZ
 70
     0
  9
$DIMALTTZ
 70
     0
  9
$DIMUPT
 70
     0
  9
$DIMDEC
 70
     4
  9
$DIMTDEC
 70
     4
  9
$DIMALTU
 70
     2
  9
$DIMALTTD
 70
     2
  9
$DIMTXSTY
  7
STANDARD
  9
$DIMAUNIT
 70
     0
  9
$DIMADEC
 70
     0
  9
$DIMALTRND
 40
0.0
  9
$DIMAZIN
 70
     0
  9
$DIMDSEP
 70
    46
  9
$DIMATFIT
 70
     3
  9
$DIMFRAC
 70
     2
  9
$DIMLDRBLK
  1

  9
$DIMLUNIT
 70
     5
  9
$DIMLWD
 70
    -2
  9
$DIMLWE
 70
    -2
  9
$DIMTMOVE
 70
     0
  9
$LUNITS
 70
     5
  9
$LUPREC
 70
     4
  9
$SKETCHINC
 40
0.1
  9
$FILLETRAD
 40
0.062
  9
$AUNITS
 70
     0
  9
$AUPREC
 70
     0
  9
$MENU
  1
acad
  9
$ELEVATION
 40
0.0
  9
$PELEVATION
 40
0.0
  9
$THICKNESS
 40
0.0
  9
$LIMCHECK
 70
     0
  9
$CHAMFERA
 40
0.0
  9
$CHAMFERB
 40
0.0
  9
$CHAMFERC
 40
0.0
  9
$CHAMFERD
 40
0.0
  9
$SKPOLY
 70
     0
  9
$TDCREATE
 40
2450353.004106667
  9
$TDUCREATE
 40
2450353.170773333
  9
$TDUPDATE
 40
2453980.449403669
  9
$TDUUPDATE
 40
2453980.616070336
  9
$TDINDWG
 40
0.0468708912
  9
$TDUSRTIMER
 40
0.0468708912
  9
$USRTIMER
 70
     1
  9
$ANGBASE
 50
0.0
  9
$ANGDIR
 70
     0
  9
$PDMODE
 70
     0
  9
$PDSIZE
 40
0.0
  9
$PLINEWID
 40
0.0
  9
$SPLFRAME
 70
     0
  9
$SPLINETYPE
 70
     6
  9
$SPLINESEGS
 70
     8
  9
$HANDSEED
  5
526
  9
$SURFTAB1
 70
     6
  9
$SURFTAB2
 70
     6
  9
$SURFTYPE
 70
     6
  9
$SURFU
 70
     6
  9
$SURFV
 70
     6
  9
$UCSBASE
  2

  9
$UCSNAME
  2

  9
$UCSORG
 10
0.0
 20
0.0
 30
0.0
  9
$UCSXDIR
 10
1.0
 20
0.0
 30
0.0
  9
$UCSYDIR
 10
0.0
 20
1.0
 30
0.0
  9
$UCSORTHOREF
  2

  9
$UCSORTHOVIEW
 70
     0
  9
$UCSORGTOP
 10
0.0
 20
0.0
 30
0.0
  9
$UCSORGBOTTOM
 10
0.0
 20
0.0
 30
0.0
  9
$UCSORGLEFT
 10
0.0
 20
0.0
 30
0.0
  9
$UCSORGRIGHT
 10
0.0
 20
0.0
 30
0.0
  9
$UCSORGFRONT
 10
0.0
 20
0.0
 30
0.0
  9
$UCSORGBACK
 10
0.0
 20
0.0
 30
0.0
  9
$PUCSBASE
  2

  9
$PUCSNAME
  2

  9
$PUCSORG
 10
0.0
 20
0.0
 30
0.0
  9
$PUCSXDIR
 10
1.0
 20
0.0
 30
0.0
  9
$PUCSYDIR
 10
0.0
 20
1.0
 30
0.0
  9
$PUCSORTHOREF
  2

  9
$PUCSORTHOVIEW
 70
     0
  9
$PUCSORGTOP
 10
0.0
 20
0.0
 30
0.0
  9
$PUCSORGBOTTOM
 10
0.0
 20
0.0
 30
0.0
  9
$PUCSORGLEFT
 10
0.0
 20
0.0
 30
0.0
  9
$PUCSORGRIGHT
 10
0.0
 20
0.0
 30
0.0
  9
$PUCSORGFRONT
 10
0.0
 20
0.0
 30
0.0
  9
$PUCSORGBACK
 10
0.0
 20
0.0
 30
0.0
  9
$USERI1
 70
     0
  9
$USERI2
 70
     0
  9
$USERI3
 70
     0
  9
$USERI4
 70
     0
  9
$USERI5
 70
     0
  9
$USERR1
 40
0.0
  9
$USERR2
 40
0.0
  9
$USERR3
 40
0.0
  9
$USERR4
 40
0.0
  9
$USERR5
 40
0.0
  9
$WORLDVIEW
 70
     1
  9
$SHADEDGE
 70
     3
  9
$SHADEDIF
 70
    70
  9
$TILEMODE
 70
     1
  9
$MAXACTVP
 70
    15
  9
$PINSBASE
 10
0.0
 20
0.0
 30
0.0
  9
$PLIMCHECK
 70
     0
  9
$PEXTMIN
 10
1.000000000000000E+20
 20
1.000000000000000E+20
 30
1.000000000000000E+20
  9
$PEXTMAX
 10
-1.000000000000000E+20
 20
-1.000000000000000E+20
 30
-1.000000000000000E+20
  9
$PLIMMIN
 10
0.0
 20
0.0
  9
$PLIMMAX
 10
12.0
 20
9.0
  9
$UNITMODE
 70
     0
  9
$VISRETAIN
 70
     0
  9
$PLINEGEN
 70
     0
  9
$PSLTSCALE
 70
     1
  9
$TREEDEPTH
 70
  3020
  9
$CMLSTYLE
  2
STANDARD
  9
$CMLJUST
 70
     0
  9
$CMLSCALE
 40
1.0
  9
$PROXYGRAPHICS
 70
     1
  9
$MEASUREMENT
 70
     0
  9
$CELWEIGHT
370
    -1
  9
$ENDCAPS
280
     0
  9
$JOINSTYLE
280
     0
  9
$LWDISPLAY
290
     0
  9
$INSUNITS
 70
     0
  9
$HYPERLINKBASE
  1

  9
$STYLESHEET
  1

  9
$XEDIT
290
     1
  9
$CEPSNTYPE
380
     0
  9
$PSTYLEMODE
290
     1
  9
$FINGERPRINTGUID
  2
{52EFBF5C-E2C9-4417-A075-6EDCBAA2DA4D}
  9
$VERSIONGUID
  2
{5EF41AB7-C8E7-4B45-8950-C1E7EF0C6A91}
  9
$EXTNAMES
290
     1
  9
$PSVPSCALE
 40
0.0
  9
$OLESTARTUP
290
     0
  0
ENDSEC
  0
SECTION
  2
CLASSES
  0
CLASS
  1
ACDBDICTIONARYWDFLT
  2
AcDbDictionaryWithDefault
  3
ObjectDBX Classes
 90
        0
280
     0
281
     0
  0
CLASS
  1
ACDBPLACEHOLDER
  2
AcDbPlaceHolder
  3
ObjectDBX Classes
 90
        0
280
     0
281
     0
  0
CLASS
  1
LAYOUT
  2
AcDbLayout
  3
ObjectDBX Classes
 90
        0
280
     0
281
     0
  0
CLASS
  1
DICTIONARYVAR
  2
AcDbDictionaryVar
  3
ObjectDBX Classes
 90
        0
280
     0
281
     0
  0
CLASS
  1
MATERIAL
  2
AcDbMaterial
  3
ObjectDBX Classes
 90
     1024
280
     0
281
     0
  0
CLASS
  1
VISUALSTYLE
  2
AcDbVisualStyle
  3
ObjectDBX Classes
 90
     4095
280
     0
281
     0
  0
CLASS
  1
TABLESTYLE
  2
AcDbTableStyle
  3
ObjectDBX Classes
 90
     4095
280
     0
281
     0
  0
ENDSEC
  0
SECTION
  2
TABLES
  0
TABLE
  2
VPORT
  5
8
330
0
100
AcDbSymbolTable
 70
     1
  0
VPORT
  5
413
330
8
100
AcDbSymbolTableRecord
100
AcDbViewportTableRecord
  2
*Active
 70
     0
 10
0.0
 20
0.0
 11
1.0
 21
1.0
 12
11.70483406086549
 22
1.679625110582179
 13
0.0
 23
0.0
 14
0.5740882589684922
 24
0.5740882589684922
 15
0.5
 25
0.5
 16
0.0
 26
0.0
 36
1.0
 17
0.0
 27
0.0
 37
0.0
 40
7.813487381001475
 41
1.726930320150659
 42
50.0
 43
0.0
 44
0.0
 50
0.0
 51
0.0
 71
     0
 72
   100
 73
     1
 74
     0
 75
     0
 76
     0
 77
     0
 78
     0
281
     0
 65
     1
110
0.0
120
0.0
130
0.0
111
1.0
121
0.0
131
0.0
112
0.0
122
1.0
132
0.0
 79
     0
146
0.0
  0
ENDTAB
  0
TABLE
  2
LTYPE
  5
5
330
0
100
AcDbSymbolTable
 70
     1
  0
LTYPE
  5
12
330
5
100
AcDbSymbolTableRecord
100
AcDbLinetypeTableRecord
  2
BYBLOCK
 70
     0
  3

 72
    65
 73
     0
 40
0.0
  0
LTYPE
  5
13
330
5
100
AcDbSymbolTableRecord
100
AcDbLinetypeTableRecord
  2
BYLAYER
 70
     0
  3

 72
    65
 73
     0
 40
0.0
  0
LTYPE
  5
14
330
5
100
AcDbSymbolTableRecord
100
AcDbLinetypeTableRecord
  2
CONTINUOUS
 70
     0
  3
Solid line
 72
    65
 73
     0
 40
0.0
  0
ENDTAB
  0
TABLE
  2
LAYER
  5
2
330
0
100
AcDbSymbolTable
 70
     4
  0
LAYER
  5
F
330
2
100
AcDbSymbolTableRecord
100
AcDbLayerTableRecord
  2
0
 70
     0
 62
     7
  6
CONTINUOUS
370
    -3
390
201
  0
LAYER
  5
45
330
2
100
AcDbSymbolTableRecord
100
AcDbLayerTableRecord
  2
ADPDIM
 70
     0
 62
     3
  6
CONTINUOUS
370
    -3
390
201
  0
LAYER
  5
47
330
2
100
AcDbSymbolTableRecord
100
AcDbLayerTableRecord
  2
ADP1DETAIL
 70
     0
 62
     7
  6
CONTINUOUS
370
    -3
390
201
  0
LAYER
  5
49
330
2
100
AcDbSymbolTableRecord
100
AcDbLayerTableRecord
  2
DEFPOINTS
 70
     0
 62
     7
  6
CONTINUOUS
290
     0
370
    -3
390
201
  0
ENDTAB
  0
TABLE
  2
STYLE
  5
3
330
0
100
AcDbSymbolTable
 70
     2
  0
STYLE
  5
10
330
3
100
AcDbSymbolTableRecord
100
AcDbTextStyleTableRecord
  2
STANDARD
 70
     0
 40
0.0
 41
1.0
 50
0.0
 71
     0
 42
0.2
  3
txt
  4

  0
STYLE
  5
208
330
3
100
AcDbSymbolTableRecord
100
AcDbTextStyleTableRecord
  2
ARIAL_WIDE
 70
     0
 40
0.0
 41
1.25
 50
0.0
 71
     0
 42
0.2
  3
ARIAL.TTF
  4

1001
ACAD
1000
Arial
1071
       34
  0
ENDTAB
  0
TABLE
  2
VIEW
  5
6
330
0
100
AcDbSymbolTable
 70
     0
  0
ENDTAB
  0
TABLE
  2
UCS
  5
7
330
0
100
AcDbSymbolTable
 70
     0
  0
ENDTAB
  0
TABLE
  2
APPID
  5
9
330
0
100
AcDbSymbolTable
 70
     1
  0
APPID
  5
11
330
9
100
AcDbSymbolTableRecord
100
AcDbRegAppTableRecord
  2
ACAD
 70
     0
  0
ENDTAB
  0
TABLE
  2
DIMSTYLE
  5
A
330
0
100
AcDbSymbolTable
 70
     1
100
AcDbDimStyleTable
 71
     0
  0
DIMSTYLE
105
C2
102
{ACAD_REACTORS
330
A2
330
C1
330
4B3
330
4B5
330
4B6
102
}
330
A
100
AcDbSymbolTableRecord
100
AcDbDimStyleTableRecord
  2
STANDARD
 70
     0
340
10
  0
ENDTAB
  0
TABLE
  2
BLOCK_RECORD
  5
1
330
0
100
AcDbSymbolTable
 70
    11
  0
BLOCK_RECORD
  5
18
102
{ACAD_XDICTIONARY
360
287
102
}
330
1
100
AcDbSymbolTableRecord
100
AcDbBlockTableRecord
  2
*MODEL_SPACE
340
204
  0
BLOCK_RECORD
  5
15
102
{ACAD_XDICTIONARY
360
285
102
}
330
1
100
AcDbSymbolTableRecord
100
AcDbBlockTableRecord
  2
*PAPER_SPACE
340
205
  0
BLOCK_RECORD
  5
1C8
330
1
100
AcDbSymbolTableRecord
100
AcDbBlockTableRecord
  2
*D0
340
0
  0
BLOCK_RECORD
  5
1D5
330
1
100
AcDbSymbolTableRecord
100
AcDbBlockTableRecord
  2
*D1
340
0
  0
BLOCK_RECORD
  5
1E2
330
1
100
AcDbSymbolTableRecord
100
AcDbBlockTableRecord
  2
*D2
340
0
  0
BLOCK_RECORD
  5
1EF
330
1
100
AcDbSymbolTableRecord
100
AcDbBlockTableRecord
  2
*D3
340
0
  0
BLOCK_RECORD
  5
483
330
1
100
AcDbSymbolTableRecord
100
AcDbBlockTableRecord
  2
*D4
340
0
  0
BLOCK_RECORD
  5
490
330
1
100
AcDbSymbolTableRecord
100
AcDbBlockTableRecord
  2
*D5
340
0
  0
BLOCK_RECORD
  5
49D
330
1
100
AcDbSymbolTableRecord
100
AcDbBlockTableRecord
  2
*D6
340
0
  0
BLOCK_RECORD
  5
4B7
330
1
100
AcDbSymbolTableRecord
100
AcDbBlockTableRecord
  2
*D8
340
0
  0
BLOCK_RECORD
  5
4C4
330
1
100
AcDbSymbolTableRecord
100
AcDbBlockTableRecord
  2
*D9
340
0
  0
BLOCK_RECORD
  5
4D1
330
1
100
AcDbSymbolTableRecord
100
AcDbBlockTableRecord
  2
*D10
340
0
  0
ENDTAB
  0
ENDSEC
  0
SECTION
  2
BLOCKS
  0
BLOCK
  5
4C
330
18
100
AcDbEntity
  8
0
100
AcDbBlockBegin
  2
*MODEL_SPACE
 70
     0
 10
0.0
 20
0.0
 30
0.0
  3
*MODEL_SPACE
  1

  0
ENDBLK
  5
4D
330
18
100
AcDbEntity
  8
0
100
AcDbBlockEnd
  0
BLOCK
  5
4A
330
15
100
AcDbEntity
 67
     1
  8
0
100
AcDbBlockBegin
  2
*PAPER_SPACE
 70
     0
 10
0.0
 20
0.0
 30
0.0
  3
*PAPER_SPACE
  1

  0
ENDBLK
  5
4B
330
15
100
AcDbEntity
 67
     1
  8
0
100
AcDbBlockEnd
  0
BLOCK
  5
1C9
330
1C8
100
AcDbEntity
  8
0
100
AcDbBlockBegin
  2
*D0
 70
     1
 10
0.0
 20
0.0
 30
0.0
  3
*D0
  1

  0
LINE
  5
45B
330
1C8
100
AcDbEntity
  8
ADPDIM
 62
     0
100
AcDbLine
 10
8.13133273872082
 20
2.951625297321063
 30
0.0
 11
8.13133273872082
 21
3.718420771716738
 31
0.0
  0
LINE
  5
45C
330
1C8
100
AcDbEntity
  8
ADPDIM
 62
     0
100
AcDbLine
 10
10.3752543194732
 20
2.951625297321063
 30
0.0
 11
10.3752543194732
 21
3.718420771716738
 31
0.0
  0
LINE
  5
45D
330
1C8
100
AcDbEntity
  8
ADPDIM
 62
     0
100
AcDbLine
 10
8.13133273872082
 20
3.538420771716738
 30
0.0
 11
8.857460195763675
 21
3.538420771716738
 31
0.0
  0
LINE
  5
45E
330
1C8
100
AcDbEntity
  8
ADPDIM
 62
     0
100
AcDbLine
 10
10.3752543194732
 20
3.538420771716738
 30
0.0
 11
9.649126862430343
 21
3.538420771716738
 31
0.0
  0
LINE
  5
45F
330
1C8
100
AcDbEntity
  8
ADPDIM
 62
     0
100
AcDbLine
 10
10.25025431947319
 20
3.413420771716738
 30
0.0
 11
10.5002543194732
 21
3.663420771716738
 31
0.0
  0
LINE
  5
460
330
1C8
100
AcDbEntity
  8
ADPDIM
 62
     0
100
AcDbLine
 10
8.00633273872082
 20
3.413420771716738
 30
0.0
 11
8.25633273872082
 21
3.663420771716738
 31
0.0
  0
MTEXT
  5
461
330
1C8
100
AcDbEntity
  8
ADPDIM
 62
     0
100
AcDbMText
 10
9.253293529097009
 20
3.538420771716738
 30
0.0
 40
0.125
 41
0.0
 71
     5
 72
     1
  1
\A1;2 1/4
 73
     1
 44
1.0
1001
ACAD
1000
MTEXTBEGIN
1070
    73
1070
     1
1070
    44
1040
1.0
1070
    74
1070
     0
1000
MTEXTEND
  0
POINT
  5
462
330
1C8
100
AcDbEntity
  8
DEFPOINTS
 62
     0
100
AcDbPoint
 10
8.13133273872082
 20
2.889125297321063
 30
0.0
  0
POINT
  5
463
330
1C8
100
AcDbEntity
  8
DEFPOINTS
 62
     0
100
AcDbPoint
 10
10.3752543194732
 20
2.889125297321063
 30
0.0
  0
POINT
  5
464
330
1C8
100
AcDbEntity
  8
DEFPOINTS
 62
     0
100
AcDbPoint
 10
10.3752543194732
 20
3.538420771716738
 30
0.0
  0
ENDBLK
  5
1D4
330
1C8
100
AcDbEntity
  8
0
100
AcDbBlockEnd
  0
BLOCK
  5
1D6
330
1D5
100
AcDbEntity
  8
0
100
AcDbBlockBegin
  2
*D1
 70
     1
 10
0.0
 20
0.0
 30
0.0
  3
*D1
  1

  0
LINE
  5
451
330
1D5
100
AcDbEntity
  8
ADPDIM
 62
     0
100
AcDbLine
 10
8.601074336071595
 20
2.545202516907702
 30
0.0
 11
8.601074336071595
 21
2.150698735034219
 31
0.0
  0
LINE
  5
452
330
1D5
100
AcDbEntity
  8
ADPDIM
 62
     0
100
AcDbLine
 10
9.905512722122418
 20
2.545202516907702
 30
0.0
 11
9.905512722122418
 21
2.150698735034219
 31
0.0
  0
LINE
  5
453
330
1D5
100
AcDbEntity
  8
ADPDIM
 62
     0
100
AcDbLine
 10
8.601074336071595
 20
2.33069873503422
 30
0.0
 11
8.815793529097007
 21
2.33069873503422
 31
0.0
  0
LINE
  5
454
330
1D5
100
AcDbEntity
  8
ADPDIM
 62
     0
100
AcDbLine
 10
9.905512722122418
 20
2.33069873503422
 30
0.0
 11
9.690793529097007
 21
2.33069873503422
 31
0.0
  0
LINE
  5
455
330
1D5
100
AcDbEntity
  8
ADPDIM
 62
     0
100
AcDbLine
 10
9.780512722122418
 20
2.20569873503422
 30
0.0
 11
10.03051272212242
 21
2.45569873503422
 31
0.0
  0
LINE
  5
456
330
1D5
100
AcDbEntity
  8
ADPDIM
 62
     0
100
AcDbLine
 10
8.476074336071595
 20
2.20569873503422
 30
0.0
 11
8.726074336071595
 21
2.45569873503422
 31
0.0
  0
MTEXT
  5
457
330
1D5
100
AcDbEntity
  8
ADPDIM
 62
     0
100
AcDbMText
 10
9.253293529097007
 20
2.33069873503422
 30
0.0
 40
0.125
 41
0.0
 71
     5
 72
     1
  1
\A1;1 5/16
 73
     1
 44
1.0
1001
ACAD
1000
MTEXTBEGIN
1070
    73
1070
     1
1070
    44
1040
1.0
1070
    74
1070
     0
1000
MTEXTEND
  0
POINT
  5
458
330
1D5
100
AcDbEntity
  8
DEFPOINTS
 62
     0
100
AcDbPoint
 10
8.601074336071595
 20
2.607702516907702
 30
0.0
  0
POINT
  5
459
330
1D5
100
AcDbEntity
  8
DEFPOINTS
 62
     0
100
AcDbPoint
 10
9.905512722122418
 20
2.607702516907702
 30
0.0
  0
POINT
  5
45A
330
1D5
100
AcDbEntity
  8
DEFPOINTS
 62
     0
100
AcDbPoint
 10
9.905512722122418
 20
2.33069873503422
 30
0.0
  0
ENDBLK
  5
1E1
330
1D5
100
AcDbEntity
  8
0
100
AcDbBlockEnd
  0
BLOCK
  5
1E3
330
1E2
100
AcDbEntity
  8
0
100
AcDbBlockBegin
  2
*D2
 70
     1
 10
0.0
 20
0.0
 30
0.0
  3
*D2
  1

  0
LINE
  5
447
330
1E2
100
AcDbEntity
  8
ADPDIM
 62
     0
100
AcDbLine
 10
13.16990912355761
 20
2.211354706821443
 30
0.0
 11
13.16990912355761
 21
0.2392867549434907
 31
0.0
  0
LINE
  5
448
330
1E2
100
AcDbEntity
  8
ADPDIM
 62
     0
100
AcDbLine
 10
14.6333257735584
 20
1.812868784776973
 30
0.0
 11
14.6333257735584
 21
0.2392867549434909
 31
0.0
  0
LINE
  5
449
330
1E2
100
AcDbEntity
  8
ADPDIM
 62
     0
100
AcDbLine
 10
13.16990912355761
 20
0.4192867549434908
 30
0.0
 11
13.464117448558
 21
0.4192867549434908
 31
0.0
  0
LINE
  5
44A
330
1E2
100
AcDbEntity
  8
ADPDIM
 62
     0
100
AcDbLine
 10
14.6333257735584
 20
0.4192867549434908
 30
0.0
 11
14.339117448558
 21
0.4192867549434908
 31
0.0
  0
LINE
  5
44B
330
1E2
100
AcDbEntity
  8
ADPDIM
 62
     0
100
AcDbLine
 10
14.50832577355839
 20
0.2942867549434908
 30
0.0
 11
14.7583257735584
 21
0.5442867549434908
 31
0.0
  0
LINE
  5
44C
330
1E2
100
AcDbEntity
  8
ADPDIM
 62
     0
100
AcDbLine
 10
13.04490912355761
 20
0.2942867549434908
 30
0.0
 11
13.29490912355761
 21
0.5442867549434908
 31
0.0
  0
MTEXT
  5
44D
330
1E2
100
AcDbEntity
  8
ADPDIM
 62
     0
100
AcDbMText
 10
13.901617448558
 20
0.4192867549434908
 30
0.0
 40
0.125
 41
0.0
 71
     5
 72
     1
  1
\A1;1 7/16
 73
     1
 44
1.0
1001
ACAD
1000
MTEXTBEGIN
1070
    73
1070
     1
1070
    44
1040
1.0
1070
    74
1070
     0
1000
MTEXTEND
  0
POINT
  5
44E
330
1E2
100
AcDbEntity
  8
DEFPOINTS
 62
     0
100
AcDbPoint
 10
13.16990912355761
 20
2.273854706821443
 30
0.0
  0
POINT
  5
44F
330
1E2
100
AcDbEntity
  8
DEFPOINTS
 62
     0
100
AcDbPoint
 10
14.6333257735584
 20
1.875368784776973
 30
0.0
  0
POINT
  5
450
330
1E2
100
AcDbEntity
  8
DEFPOINTS
 62
     0
100
AcDbPoint
 10
14.6333257735584
 20
0.4192867549434908
 30
0.0
  0
ENDBLK
  5
1EE
330
1E2
100
AcDbEntity
  8
0
100
AcDbBlockEnd
  0
BLOCK
  5
1F0
330
1EF
100
AcDbEntity
  8
0
100
AcDbBlockBegin
  2
*D3
 70
     1
 10
0.0
 20
0.0
 30
0.0
  3
*D3
  1

  0
LINE
  5
43D
330
1EF
100
AcDbEntity
  8
ADPDIM
 62
     0
100
AcDbLine
 10
10.66443960591097
 20
2.460378239641804
 30
0.0
 11
10.66443960591097
 21
0.2392867549434907
 31
0.0
  0
LINE
  5
43E
330
1EF
100
AcDbEntity
  8
ADPDIM
 62
     0
100
AcDbLine
 10
13.16990912355761
 20
2.211354706821443
 30
0.0
 11
13.16990912355761
 21
0.2392867549434907
 31
0.0
  0
LINE
  5
43F
330
1EF
100
AcDbEntity
  8
ADPDIM
 62
     0
100
AcDbLine
 10
10.66443960591097
 20
0.4192867549434908
 30
0.0
 11
11.52134103140095
 21
0.4192867549434908
 31
0.0
  0
LINE
  5
440
330
1EF
100
AcDbEntity
  8
ADPDIM
 62
     0
100
AcDbLine
 10
13.16990912355761
 20
0.4192867549434908
 30
0.0
 11
12.31300769806762
 21
0.4192867549434908
 31
0.0
  0
LINE
  5
441
330
1EF
100
AcDbEntity
  8
ADPDIM
 62
     0
100
AcDbLine
 10
13.04490912355761
 20
0.2942867549434908
 30
0.0
 11
13.29490912355761
 21
0.5442867549434908
 31
0.0
  0
LINE
  5
442
330
1EF
100
AcDbEntity
  8
ADPDIM
 62
     0
100
AcDbLine
 10
10.53943960591097
 20
0.2942867549434908
 30
0.0
 11
10.78943960591097
 21
0.5442867549434908
 31
0.0
  0
MTEXT
  5
443
330
1EF
100
AcDbEntity
  8
ADPDIM
 62
     0
100
AcDbMText
 10
11.91717436473429
 20
0.4192867549434908
 30
0.0
 40
0.125
 41
0.0
 71
     5
 72
     1
  1
\A1;2 1/2
 73
     1
 44
1.0
1001
ACAD
1000
MTEXTBEGIN
1070
    73
1070
     1
1070
    44
1040
1.0
1070
    74
1070
     0
1000
MTEXTEND
  0
POINT
  5
444
330
1EF
100
AcDbEntity
  8
DEFPOINTS
 62
     0
100
AcDbPoint
 10
10.66443960591097
 20
2.522878239641804
 30
0.0
  0
POINT
  5
445
330
1EF
100
AcDbEntity
  8
DEFPOINTS
 62
     0
100
AcDbPoint
 10
13.16990912355761
 20
2.273854706821443
 30
0.0
  0
POINT
  5
446
330
1EF
100
AcDbEntity
  8
DEFPOINTS
 62
     0
100
AcDbPoint
 10
13.16990912355761
 20
0.4192867549434908
 30
0.0
  0
ENDBLK
  5
1FB
330
1EF
100
AcDbEntity
  8
0
100
AcDbBlockEnd
  0
BLOCK
  5
484
330
483
100
AcDbEntity
  8
0
100
AcDbBlockBegin
  2
*D4
 70
     1
 10
0.0
 20
0.0
 30
0.0
  3
*D4
  1

  0
LINE
  5
485
330
483
100
AcDbEntity
  8
ADPDIM
 62
     0
370
    -2
100
AcDbLine
 10
-10.51013241093379
 20
-3.663356906613114
 30
0.0
 11
-10.51013241093379
 21
-2.896561432217439
 31
0.0
  0
LINE
  5
486
330
483
100
AcDbEntity
  8
ADPDIM
 62
     0
370
    -2
100
AcDbLine
 10
-8.266210830181414
 20
-3.663356906613114
 30
0.0
 11
-8.266210830181414
 21
-2.896561432217439
 31
0.0
  0
LINE
  5
487
330
483
100
AcDbEntity
  8
ADPDIM
 62
     0
370
    -2
100
AcDbLine
 10
-10.33013241093379
 20
-3.076561432217439
 30
0.0
 11
-9.749004953890937
 21
-3.076561432217439
 31
0.0
  0
LINE
  5
488
330
483
100
AcDbEntity
  8
ADPDIM
 62
     0
370
    -2
100
AcDbLine
 10
-8.446210830181414
 20
-3.076561432217439
 30
0.0
 11
-9.027338287224269
 21
-3.076561432217439
 31
0.0
  0
SOLID
  5
489
330
483
100
AcDbEntity
  8
ADPDIM
 62
     0
100
AcDbTrace
 10
-10.33013241093379
 20
-3.046561432217439
 30
0.0
 11
-10.33013241093379
 21
-3.106561432217439
 31
0.0
 12
-10.51013241093379
 22
-3.076561432217439
 32
0.0
 13
-10.51013241093379
 23
-3.076561432217439
 33
0.0
  0
SOLID
  5
48A
330
483
100
AcDbEntity
  8
ADPDIM
 62
     0
100
AcDbTrace
 10
-8.446210830181414
 20
-3.046561432217439
 30
0.0
 11
-8.446210830181414
 21
-3.106561432217439
 31
0.0
 12
-8.266210830181414
 22
-3.076561432217439
 32
0.0
 13
-8.266210830181414
 23
-3.076561432217439
 33
0.0
  0
MTEXT
  5
48B
330
483
100
AcDbEntity
  8
ADPDIM
 62
     0
100
AcDbMText
 10
-9.388171620557603
 20
-3.076561432217439
 30
0.0
 40
0.125
 41
0.0
 71
     5
 72
     1
  1
\A1;2 1/4
 73
     1
 44
1.0
1001
ACAD
1000
MTEXTBEGIN
1070
    73
1070
     1
1070
    44
1040
1.0
1070
    74
1070
     0
1000
MTEXTEND
  0
POINT
  5
48C
330
483
100
AcDbEntity
  8
DEFPOINTS
 62
     0
100
AcDbPoint
 10
-10.51013241093379
 20
-3.725856906613114
 30
0.0
  0
POINT
  5
48D
330
483
100
AcDbEntity
  8
DEFPOINTS
 62
     0
100
AcDbPoint
 10
-8.266210830181414
 20
-3.725856906613114
 30
0.0
  0
POINT
  5
48E
330
483
100
AcDbEntity
  8
DEFPOINTS
 62
     0
100
AcDbPoint
 10
-8.266210830181414
 20
-3.076561432217439
 30
0.0
  0
ENDBLK
  5
48F
330
483
100
AcDbEntity
  8
0
100
AcDbBlockEnd
  0
BLOCK
  5
491
330
490
100
AcDbEntity
  8
0
100
AcDbBlockBegin
  2
*D5
 70
     1
 10
0.0
 20
0.0
 30
0.0
  3
*D5
  1

  0
LINE
  5
492
330
490
100
AcDbEntity
  8
ADPDIM
 62
     0
370
    -2
100
AcDbLine
 10
-10.03008488984317
 20
-3.89428691078616
 30
0.0
 11
-10.03008488984317
 21
-4.212175990126976
 31
0.0
  0
LINE
  5
493
330
490
100
AcDbEntity
  8
ADPDIM
 62
     0
370
    -2
100
AcDbLine
 10
-8.717584889843173
 20
-3.89428691078616
 30
0.0
 11
-8.717584889843173
 21
-4.212175990126976
 31
0.0
  0
LINE
  5
494
330
490
100
AcDbEntity
  8
ADPDIM
 62
     0
370
    -2
100
AcDbLine
 10
-10.03008488984317
 20
-4.032175990126976
 30
0.0
 11
-9.811334889843173
 21
-4.032175990126976
 31
0.0
  0
LINE
  5
495
330
490
100
AcDbEntity
  8
ADPDIM
 62
     0
370
    -2
100
AcDbLine
 10
-8.717584889843173
 20
-4.032175990126976
 30
0.0
 11
-8.936334889843173
 21
-4.032175990126976
 31
0.0
  0
LINE
  5
496
330
490
100
AcDbEntity
  8
ADPDIM
 62
     0
370
    -2
100
AcDbLine
 10
-8.842584889843173
 20
-4.157175990126976
 30
0.0
 11
-8.592584889843173
 21
-3.907175990126976
 31
0.0
  0
LINE
  5
497
330
490
100
AcDbEntity
  8
ADPDIM
 62
     0
370
    -2
100
AcDbLine
 10
-10.15508488984317
 20
-4.157175990126976
 30
0.0
 11
-9.905084889843173
 21
-3.907175990126976
 31
0.0
  0
MTEXT
  5
498
330
490
100
AcDbEntity
  8
ADPDIM
 62
     0
100
AcDbMText
 10
-9.373834889843173
 20
-4.032175990126976
 30
0.0
 40
0.125
 41
0.0
 71
     5
 72
     1
  1
\A1;1 5/16
 73
     1
 44
1.0
1001
ACAD
1000
MTEXTBEGIN
1070
    73
1070
     1
1070
    44
1040
1.0
1070
    74
1070
     0
1000
MTEXTEND
  0
POINT
  5
499
330
490
100
AcDbEntity
  8
DEFPOINTS
 62
     0
100
AcDbPoint
 10
-10.03008488984317
 20
-3.83178691078616
 30
0.0
  0
POINT
  5
49A
330
490
100
AcDbEntity
  8
DEFPOINTS
 62
     0
100
AcDbPoint
 10
-8.717584889843173
 20
-3.83178691078616
 30
0.0
  0
POINT
  5
49B
330
490
100
AcDbEntity
  8
DEFPOINTS
 62
     0
100
AcDbPoint
 10
-8.717584889843173
 20
-4.032175990126976
 30
0.0
  0
ENDBLK
  5
49C
330
490
100
AcDbEntity
  8
0
100
AcDbBlockEnd
  0
BLOCK
  5
49E
330
49D
100
AcDbEntity
  8
0
100
AcDbBlockBegin
  2
*D6
 70
     1
 10
0.0
 20
0.0
 30
0.0
  3
*D6
  1

  0
LINE
  5
49F
330
49D
100
AcDbEntity
  8
ADPDIM
 62
     0
370
    -2
100
AcDbLine
 10
-10.15887895848968
 20
-4.080362485850745
 30
0.0
 11
-10.15887895848968
 21
-4.570013635979918
 31
0.0
  0
LINE
  5
4A0
330
49D
100
AcDbEntity
  8
ADPDIM
 62
     0
370
    -2
100
AcDbLine
 10
-8.59637895848968
 20
-4.080362485850745
 30
0.0
 11
-8.59637895848968
 21
-4.570013635979918
 31
0.0
  0
LINE
  5
4A1
330
49D
100
AcDbEntity
  8
ADPDIM
 62
     0
370
    -2
100
AcDbLine
 10
-10.15887895848968
 20
-4.390013635979919
 30
0.0
 11
-9.81512895848968
 21
-4.390013635979919
 31
0.0
  0
LINE
  5
4A2
330
49D
100
AcDbEntity
  8
ADPDIM
 62
     0
370
    -2
100
AcDbLine
 10
-8.59637895848968
 20
-4.390013635979919
 30
0.0
 11
-8.94012895848968
 21
-4.390013635979919
 31
0.0
  0
LINE
  5
4A3
330
49D
100
AcDbEntity
  8
ADPDIM
 62
     0
370
    -2
100
AcDbLine
 10
-8.72137895848968
 20
-4.515013635979919
 30
0.0
 11
-8.47137895848968
 21
-4.265013635979919
 31
0.0
  0
LINE
  5
4A4
330
49D
100
AcDbEntity
  8
ADPDIM
 62
     0
370
    -2
100
AcDbLine
 10
-10.28387895848968
 20
-4.515013635979919
 30
0.0
 11
-10.03387895848968
 21
-4.265013635979919
 31
0.0
  0
MTEXT
  5
4A5
330
49D
100
AcDbEntity
  8
ADPDIM
 62
     0
100
AcDbMText
 10
-9.37762895848968
 20
-4.390013635979919
 30
0.0
 40
0.125
 41
0.0
 71
     5
 72
     1
  1
\A1;1 9/16
 73
     1
 44
1.0
1001
ACAD
1000
MTEXTBEGIN
1070
    73
1070
     1
1070
    44
1040
1.0
1070
    74
1070
     0
1000
MTEXTEND
  0
POINT
  5
4A6
330
49D
100
AcDbEntity
  8
DEFPOINTS
 62
     0
100
AcDbPoint
 10
-10.15887895848968
 20
-4.017862485850745
 30
0.0
  0
POINT
  5
4A7
330
49D
100
AcDbEntity
  8
DEFPOINTS
 62
     0
100
AcDbPoint
 10
-8.59637895848968
 20
-4.017862485850745
 30
0.0
  0
POINT
  5
4A8
330
49D
100
AcDbEntity
  8
DEFPOINTS
 62
     0
100
AcDbPoint
 10
-8.59637895848968
 20
-4.390013635979919
 30
0.0
  0
ENDBLK
  5
4A9
330
49D
100
AcDbEntity
  8
0
100
AcDbBlockEnd
  0
BLOCK
  5
4C2
330
4B7
100
AcDbEntity
  8
0
100
AcDbBlockBegin
  2
*D8
 70
     1
 10
0.0
 20
0.0
 30
0.0
  3
*D8
  1

  0
LINE
  5
4DE
330
4B7
100
AcDbEntity
  8
ADPDIM
 62
     0
370
    -2
100
AcDbLine
 10
7.846441993848035
 20
2.931426479097601
 30
0.0
 11
7.846441993848035
 21
3.698221953493276
 31
0.0
  0
LINE
  5
4DF
330
4B7
100
AcDbEntity
  8
ADPDIM
 62
     0
370
    -2
100
AcDbLine
 10
10.09036357460041
 20
2.931426479097601
 30
0.0
 11
10.09036357460041
 21
3.698221953493276
 31
0.0
  0
LINE
  5
4E0
330
4B7
100
AcDbEntity
  8
ADPDIM
 62
     0
370
    -2
100
AcDbLine
 10
8.026441993848035
 20
3.518221953493276
 30
0.0
 11
8.60756945089089
 21
3.518221953493276
 31
0.0
  0
LINE
  5
4E1
330
4B7
100
AcDbEntity
  8
ADPDIM
 62
     0
370
    -2
100
AcDbLine
 10
9.910363574600413
 20
3.518221953493276
 30
0.0
 11
9.329236117557558
 21
3.518221953493276
 31
0.0
  0
SOLID
  5
4E2
330
4B7
100
AcDbEntity
  8
ADPDIM
 62
     0
100
AcDbTrace
 10
8.026441993848035
 20
3.548221953493276
 30
0.0
 11
8.026441993848035
 21
3.488221953493277
 31
0.0
 12
7.846441993848035
 22
3.518221953493276
 32
0.0
 13
7.846441993848035
 23
3.518221953493276
 33
0.0
  0
SOLID
  5
4E3
330
4B7
100
AcDbEntity
  8
ADPDIM
 62
     0
100
AcDbTrace
 10
9.910363574600413
 20
3.548221953493276
 30
0.0
 11
9.910363574600413
 21
3.488221953493277
 31
0.0
 12
10.09036357460041
 22
3.518221953493276
 32
0.0
 13
10.09036357460041
 23
3.518221953493276
 33
0.0
  0
MTEXT
  5
4E4
330
4B7
100
AcDbEntity
  8
ADPDIM
 62
     0
100
AcDbMText
 10
8.968402784224224
 20
3.518221953493276
 30
0.0
 40
0.125
 41
0.0
 71
     5
 72
     1
  1
\A1;2 1/4
 73
     1
 44
1.0
1001
ACAD
1000
MTEXTBEGIN
1070
    73
1070
     1
1070
    44
1040
1.0
1070
    74
1070
     0
1000
MTEXTEND
  0
POINT
  5
4E5
330
4B7
100
AcDbEntity
  8
DEFPOINTS
 62
     0
100
AcDbPoint
 10
7.846441993848035
 20
2.868926479097601
 30
0.0
  0
POINT
  5
4E6
330
4B7
100
AcDbEntity
  8
DEFPOINTS
 62
     0
100
AcDbPoint
 10
10.09036357460041
 20
2.868926479097601
 30
0.0
  0
POINT
  5
4E7
330
4B7
100
AcDbEntity
  8
DEFPOINTS
 62
     0
100
AcDbPoint
 10
10.09036357460041
 20
3.518221953493276
 30
0.0
  0
ENDBLK
  5
4C3
330
4B7
100
AcDbEntity
  8
0
100
AcDbBlockEnd
  0
BLOCK
  5
4CF
330
4C4
100
AcDbEntity
  8
0
100
AcDbBlockBegin
  2
*D9
 70
     1
 10
0.0
 20
0.0
 30
0.0
  3
*D9
  1

  0
LINE
  5
4E8
330
4C4
100
AcDbEntity
  8
ADPDIM
 62
     0
370
    -2
100
AcDbLine
 10
8.326489514938653
 20
2.700496474924555
 30
0.0
 11
8.326489514938653
 21
2.382607395583739
 31
0.0
  0
LINE
  5
4E9
330
4C4
100
AcDbEntity
  8
ADPDIM
 62
     0
370
    -2
100
AcDbLine
 10
9.638989514938653
 20
2.700496474924555
 30
0.0
 11
9.638989514938653
 21
2.382607395583739
 31
0.0
  0
LINE
  5
4EA
330
4C4
100
AcDbEntity
  8
ADPDIM
 62
     0
370
    -2
100
AcDbLine
 10
8.326489514938653
 20
2.562607395583739
 30
0.0
 11
8.545239514938653
 21
2.562607395583739
 31
0.0
  0
LINE
  5
4EB
330
4C4
100
AcDbEntity
  8
ADPDIM
 62
     0
370
    -2
100
AcDbLine
 10
9.638989514938653
 20
2.562607395583739
 30
0.0
 11
9.420239514938653
 21
2.562607395583739
 31
0.0
  0
LINE
  5
4EC
330
4C4
100
AcDbEntity
  8
ADPDIM
 62
     0
370
    -2
100
AcDbLine
 10
9.513989514938653
 20
2.437607395583739
 30
0.0
 11
9.763989514938653
 21
2.687607395583739
 31
0.0
  0
LINE
  5
4ED
330
4C4
100
AcDbEntity
  8
ADPDIM
 62
     0
370
    -2
100
AcDbLine
 10
8.201489514938653
 20
2.437607395583739
 30
0.0
 11
8.451489514938653
 21
2.687607395583739
 31
0.0
  0
MTEXT
  5
4EE
330
4C4
100
AcDbEntity
  8
ADPDIM
 62
     0
100
AcDbMText
 10
8.982739514938653
 20
2.562607395583739
 30
0.0
 40
0.125
 41
0.0
 71
     5
 72
     1
  1
\A1;1 5/16
 73
     1
 44
1.0
1001
ACAD
1000
MTEXTBEGIN
1070
    73
1070
     1
1070
    44
1040
1.0
1070
    74
1070
     0
1000
MTEXTEND
  0
POINT
  5
4EF
330
4C4
100
AcDbEntity
  8
DEFPOINTS
 62
     0
100
AcDbPoint
 10
8.326489514938653
 20
2.762996474924555
 30
0.0
  0
POINT
  5
4F0
330
4C4
100
AcDbEntity
  8
DEFPOINTS
 62
     0
100
AcDbPoint
 10
9.638989514938653
 20
2.762996474924555
 30
0.0
  0
POINT
  5
4F1
330
4C4
100
AcDbEntity
  8
DEFPOINTS
 62
     0
100
AcDbPoint
 10
9.638989514938653
 20
2.562607395583739
 30
0.0
  0
ENDBLK
  5
4D0
330
4C4
100
AcDbEntity
  8
0
100
AcDbBlockEnd
  0
BLOCK
  5
4DC
330
4D1
100
AcDbEntity
  8
0
100
AcDbBlockBegin
  2
*D10
 70
     1
 10
0.0
 20
0.0
 30
0.0
  3
*D10
  1

  0
LINE
  5
4F2
330
4D1
100
AcDbEntity
  8
ADPDIM
 62
     0
370
    -2
100
AcDbLine
 10
8.197695446292147
 20
2.51442089985997
 30
0.0
 11
8.197695446292147
 21
2.024769749730797
 31
0.0
  0
LINE
  5
4F3
330
4D1
100
AcDbEntity
  8
ADPDIM
 62
     0
370
    -2
100
AcDbLine
 10
9.760195446292147
 20
2.51442089985997
 30
0.0
 11
9.760195446292147
 21
2.024769749730797
 31
0.0
  0
LINE
  5
4F4
330
4D1
100
AcDbEntity
  8
ADPDIM
 62
     0
370
    -2
100
AcDbLine
 10
8.197695446292147
 20
2.204769749730797
 30
0.0
 11
8.541445446292147
 21
2.204769749730797
 31
0.0
  0
LINE
  5
4F5
330
4D1
100
AcDbEntity
  8
ADPDIM
 62
     0
370
    -2
100
AcDbLine
 10
9.760195446292147
 20
2.204769749730797
 30
0.0
 11
9.416445446292147
 21
2.204769749730797
 31
0.0
  0
LINE
  5
4F6
330
4D1
100
AcDbEntity
  8
ADPDIM
 62
     0
370
    -2
100
AcDbLine
 10
9.635195446292147
 20
2.079769749730797
 30
0.0
 11
9.885195446292147
 21
2.329769749730797
 31
0.0
  0
LINE
  5
4F7
330
4D1
100
AcDbEntity
  8
ADPDIM
 62
     0
370
    -2
100
AcDbLine
 10
8.072695446292147
 20
2.079769749730797
 30
0.0
 11
8.322695446292147
 21
2.329769749730797
 31
0.0
  0
MTEXT
  5
4F8
330
4D1
100
AcDbEntity
  8
ADPDIM
 62
     0
100
AcDbMText
 10
8.978945446292147
 20
2.204769749730797
 30
0.0
 40
0.125
 41
0.0
 71
     5
 72
     1
  1
\A1;1 9/16
 73
     1
 44
1.0
1001
ACAD
1000
MTEXTBEGIN
1070
    73
1070
     1
1070
    44
1040
1.0
1070
    74
1070
     0
1000
MTEXTEND
  0
POINT
  5
4F9
330
4D1
100
AcDbEntity
  8
DEFPOINTS
 62
     0
100
AcDbPoint
 10
8.197695446292147
 20
2.57692089985997
 30
0.0
  0
POINT
  5
4FA
330
4D1
100
AcDbEntity
  8
DEFPOINTS
 62
     0
100
AcDbPoint
 10
9.760195446292147
 20
2.57692089985997
 30
0.0
  0
POINT
  5
4FB
330
4D1
100
AcDbEntity
  8
DEFPOINTS
 62
     0
100
AcDbPoint
 10
9.760195446292147
 20
2.204769749730797
 30
0.0
  0
ENDBLK
  5
4DD
330
4D1
100
AcDbEntity
  8
0
100
AcDbBlockEnd
  0
ENDSEC
  0
SECTION
  2
ENTITIES
  0
DIMENSION
  5
A2
330
18
100
AcDbEntity
  8
ADPDIM
100
AcDbDimension
  2
*D3
 10
13.16990912355761
 20
0.4192867549434908
 30
0.0
 11
11.91717436473429
 21
0.4192867549434908
 31
0.0
 70
    32
 71
     5
 42
-1.0
  3
STANDARD
100
AcDbAlignedDimension
 13
10.66443960591097
 23
2.522878239641804
 33
0.0
 14
13.16990912355761
 24
2.273854706821443
 34
0.0
100
AcDbRotatedDimension
1001
ACAD
1000
DSTYLE
1002
{
1070
   270
1070
     7
1070
   270
1070
     7
1070
   270
1070
     7
1070
   270
1070
     7
1070
    41
1040
0.125
1070
    73
1070
     0
1070
    74
1070
     0
1070
    78
1070
     2
1070
   140
1040
0.125
1070
   141
1040
0.1875
1070
   142
1040
0.125
1070
   147
1040
0.125
1070
   171
1070
     1
1070
   276
1070
     2
1070
   277
1070
     5
1002
}
  0
DIMENSION
  5
C1
330
18
100
AcDbEntity
  8
ADPDIM
100
AcDbDimension
  2
*D2
 10
14.6333257735584
 20
0.4192867549434908
 30
0.0
 11
13.901617448558
 21
0.4192867549434908
 31
0.0
 70
    32
 71
     5
 42
-1.0
  3
STANDARD
100
AcDbAlignedDimension
 13
13.16990912355761
 23
2.273854706821443
 33
0.0
 14
14.6333257735584
 24
1.875368784776973
 34
0.0
100
AcDbRotatedDimension
1001
ACAD
1000
DSTYLE
1002
{
1070
   270
1070
     7
1070
   270
1070
     7
1070
   270
1070
     7
1070
   270
1070
     7
1070
    41
1040
0.125
1070
    73
1070
     0
1070
    74
1070
     0
1070
    78
1070
     2
1070
   140
1040
0.125
1070
   141
1040
0.1875
1070
   142
1040
0.125
1070
   147
1040
0.125
1070
   171
1070
     1
1070
   276
1070
     2
1070
   277
1070
     5
1002
}
  0
ARC
  5
17F
330
18
100
AcDbEntity
  8
ADP1DETAIL
100
AcDbCircle
 10
14.49294990659427
 20
1.833502409109319
 30
0.0
 40
0.3975053187198146
100
AcDbArc
 50
27.14636574431139
 51
152.141470462668
  0
ARC
  5
180
330
18
100
AcDbEntity
  8
ADP1DETAIL
100
AcDbCircle
 10
14.62337870437784
 20
1.731634666305254
 30
0.0
 40
0.5582860626665591
100
AcDbArc
 50
146.4390519213901
 51
260.5144166102078
  0
LINE
  5
181
330
18
100
AcDbEntity
  8
ADP1DETAIL
100
AcDbLine
 10
14.50408652521645
 20
2.815065851484361
 30
0.0
 11
10.66443960591097
 21
2.815065851484361
 31
0.0
  0
LINE
  5
182
330
18
100
AcDbEntity
  8
ADP1DETAIL
100
AcDbLine
 10
14.50408652521645
 20
2.974566296685516
 30
0.0
 11
10.66443960591097
 21
2.974566296685516
 31
0.0
  0
LWPOLYLINE
  5
183
330
18
100
AcDbEntity
  8
ADP1DETAIL
100
AcDbPolyline
 90
        8
 70
     0
 43
0.0
 10
13.16990912355761
 20
2.522878239641804
 10
14.43914150771434
 20
2.522878239641804
 42
-0.2077198848378289
 10
14.93963636346765
 20
2.190846862547989
 42
0.4933693770361702
 10
13.95350317349902
 20
2.179225764349705
 42
0.5434151326153771
 10
14.48807369062006
 20
0.9374284140188359
 42
0.5151842302334682
 10
15.61698037273903
 20
1.948463957269503
 42
0.3652264839808959
 10
14.50799557324569
 20
3.062429227419254
 10
10.66443960591097
 20
3.062429227419254
  0
ARC
  5
18D
330
18
100
AcDbEntity
  8
ADP1DETAIL
100
AcDbCircle
 10
14.52605569725725
 20
1.658107593868092
 30
0.0
 40
0.6870402257764614
100
AcDbArc
 50
54.02189029463622
 51
136.7971310082118
  0
ARC
  5
18E
330
18
100
AcDbEntity
  8
ADP1DETAIL
100
AcDbCircle
 10
14.62337870437784
 20
1.731634666305254
 30
0.0
 40
0.7177865078677144
100
AcDbArc
 50
146.4390519213901
 51
260.5144166102078
  0
LWPOLYLINE
  5
18F
330
18
100
AcDbEntity
  8
ADP1DETAIL
100
AcDbPolyline
 90
       10
 70
     0
 43
0.0
 10
13.9435422321862
 20
2.190846862547989
 42
0.2412146369779913
 10
13.70946011133506
 20
2.273854706821443
 10
13.16990912355761
 20
2.273854706821443
 10
13.16990912355761
 20
2.522878239641804
 10
10.66443960591097
 20
2.522878239641804
 10
10.66443960591097
 20
3.313112917125084
 10
14.27225329550908
 20
3.309792603354146
 42
-0.4260109852051598
 10
15.89588672949783
 20
1.901979564476369
 42
-0.8015776433328291
 10
13.56834677607019
 20
1.370729361126266
 42
-0.229610317422079
 10
13.69451869936584
 20
2.273854706821443
 42
-3.289715807696925
  0
ARC
  5
19B
330
18
100
AcDbEntity
  8
ADP1DETAIL
100
AcDbCircle
 10
14.69212597892095
 20
1.845364438313864
 30
0.0
 40
0.6832198608437925
100
AcDbArc
 50
257.176665354937
 51
6.444621329075149
  0
ARC
  5
19C
330
18
100
AcDbEntity
  8
ADP1DETAIL
100
AcDbCircle
 10
14.69212597892095
 20
1.845364438313864
 30
0.0
 40
0.8427203060449478
100
AcDbArc
 50
257.176665354937
 51
6.444621329075149
  0
CIRCLE
  5
19D
330
18
100
AcDbEntity
  8
ADP1DETAIL
100
AcDbCircle
 10
14.63332577355839
 20
1.875368784776973
 30
0.0
 40
0.2648035949625901
  0
ARC
  5
19E
330
18
100
AcDbEntity
  8
ADP1DETAIL
100
AcDbCircle
 10
14.40168361140151
 20
1.847596646677184
 30
0.0
 40
0.9721120983833055
100
AcDbArc
 50
4.681429934072113
 51
84.80803544371548
  0
ARC
  5
19F
330
18
100
AcDbEntity
  8
ADP1DETAIL
100
AcDbCircle
 10
14.40168361140151
 20
1.847596646677184
 30
0.0
 40
1.13161254358446
100
AcDbArc
 50
4.681429934072113
 51
84.80803544371548
  0
TEXT
  5
209
330
18
100
AcDbEntity
  8
ADPDIM
100
AcDbText
 10
5.009306012175841
 20
-0.3225469725451842
 30
0.0
 40
0.125
  1
J U L I U S  B L U M  &  C O . ,  I N C .      ( 8 0 0 )  5 2 6 - 6 2 9 3        W W W . J U L I U S B L U M . C O M        P A R T  N o .  6 9 3 0 - V
 41
1.25
  7
ARIAL_WIDE
 72
     1
 11
11.70482101899712
 21
-0.1975469725451842
 31
0.0
100
AcDbText
 73
     3
  0
DIMENSION
  5
4B3
330
18
100
AcDbEntity
  8
ADPDIM
100
AcDbDimension
  2
*D8
 10
10.09036357460041
 20
3.518221953493276
 30
0.0
 11
8.968402784224224
 21
3.518221953493276
 31
0.0
 70
    32
 71
     5
 42
2.243921580752378
  3
STANDARD
100
AcDbAlignedDimension
 13
7.846441993848035
 23
2.868926479097601
 33
0.0
 14
10.09036357460041
 24
2.868926479097601
 34
0.0
100
AcDbRotatedDimension
1001
ACAD
1000
DSTYLE
1002
{
1070
   276
1070
     2
1070
   277
1070
     5
1070
   140
1040
0.125
1002
}
  0
SPLINE
  5
4B4
330
18
100
AcDbEntity
  8
ADPDIM
 62
     7
100
AcDbSpline
210
0.0
220
0.0
230
1.0
 70
    11
 71
     3
 72
    68
 73
    64
 74
     0
 42
0.0000000001
 43
0.0000000001
 40
0.0
 40
0.0
 40
0.0
 40
0.0
 40
1.0
 40
1.0
 40
1.0
 40
2.0
 40
2.0
 40
2.0
 40
3.0
 40
3.0
 40
3.0
 40
4.0
 40
4.0
 40
4.0
 40
5.0
 40
5.0
 40
5.0
 40
6.0
 40
6.0
 40
6.0
 40
7.0
 40
7.0
 40
7.0
 40
8.0
 40
8.0
 40
8.0
 40
9.0
 40
9.0
 40
9.0
 40
10.0
 40
10.0
 40
10.0
 40
11.0
 40
11.0
 40
11.0
 40
12.0
 40
12.0
 40
12.0
 40
13.0
 40
13.0
 40
13.0
 40
14.0
 40
14.0
 40
14.0
 40
15.0
 40
15.0
 40
15.0
 40
16.0
 40
16.0
 40
16.0
 40
17.0
 40
17.0
 40
17.0
 40
18.0
 40
18.0
 40
18.0
 40
19.0
 40
19.0
 40
19.0
 40
20.0
 40
20.0
 40
20.0
 40
21.0
 40
21.0
 40
21.0
 40
21.0
 10
9.633383212651867
 20
2.950756401814211
 30
0.0
 10
9.633383212651867
 20
2.950756401814211
 30
0.0
 10
9.633383212651867
 20
2.762452935988496
 30
0.0
 10
9.633383212651867
 20
2.762452935988496
 30
0.0
 10
9.633383212651867
 20
2.762452935988496
 30
0.0
 10
9.758331354422313
 20
2.762452935988496
 30
0.0
 10
9.758331354422313
 20
2.762452935988496
 30
0.0
 10
9.758331354422313
 20
2.762452935988496
 30
0.0
 10
9.758331354422313
 20
2.579423431441942
 30
0.0
 10
9.758331354422313
 20
2.579423431441942
 30
0.0
 10
9.758331354422313
 20
2.579423431441942
 30
0.0
 10
9.885042002532831
 20
2.579423431441942
 30
0.0
 10
9.885042002532831
 20
2.579423431441942
 30
0.0
 10
9.885042002532831
 20
2.579423431441942
 30
0.0
 10
9.878005534913629
 20
2.677974651334456
 30
0.0
 10
9.950159832928186
 20
2.73076849509033
 30
0.0
 10
10.02231413094274
 20
2.783562338846206
 30
0.0
 10
10.10326740291667
 20
2.801160286764827
 30
0.0
 10
10.10326740291667
 20
2.903236519337488
 30
0.0
 10
10.10326740291667
 20
3.00531275191016
 30
0.0
 10
10.02407663728286
 20
3.024659648427785
 30
0.0
 10
9.967757780846827
 20
3.024659648427785
 30
0.0
 10
9.967757780846827
 20
3.024659648427785
 30
0.0
 10
9.967757780846827
 20
3.079215998523734
 30
0.0
 10
9.967757780846827
 20
3.079215998523734
 30
0.0
 10
9.967757780846827
 20
3.079215998523734
 30
0.0
 10
9.613155062964203
 20
3.069535771394386
 30
0.0
 10
9.480289200404474
 20
3.202415191695176
 30
0.0
 10
9.347423337844791
 20
3.335281054254905
 30
0.0
 10
9.135353151910159
 20
3.388956151180806
 30
0.0
 10
8.978734126982619
 20
3.388956151180806
 30
0.0
 10
8.822115102055079
 20
3.388956151180806
 30
0.0
 10
8.610044916120497
 20
3.335281054254905
 30
0.0
 10
8.477179053560764
 20
3.202415191695176
 30
0.0
 10
8.344313191001035
 20
3.069535771394386
 30
0.0
 10
7.989710473118453
 20
3.079215998523734
 30
0.0
 10
7.989710473118453
 20
3.079215998523734
 30
0.0
 10
7.989710473118453
 20
3.079215998523734
 30
0.0
 10
7.989710473118453
 20
3.024659648427785
 30
0.0
 10
7.989710473118453
 20
3.024659648427785
 30
0.0
 10
7.93339161668242
 20
3.024659648427785
 30
0.0
 10
7.854200851048613
 20
3.00531275191016
 30
0.0
 10
7.854200851048613
 20
2.903236519337488
 30
0.0
 10
7.854200851048613
 20
2.801160286764827
 30
0.0
 10
7.935154123022496
 20
2.783562338846206
 30
0.0
 10
8.007308421037055
 20
2.73076849509033
 30
0.0
 10
8.079462719051658
 20
2.677974651334456
 30
0.0
 10
8.072426251432407
 20
2.579423431441942
 30
0.0
 10
8.072426251432407
 20
2.579423431441942
 30
0.0
 10
8.072426251432407
 20
2.579423431441942
 30
0.0
 10
8.199123341801882
 20
2.579423431441942
 30
0.0
 10
8.199123341801882
 20
2.579423431441942
 30
0.0
 10
8.199123341801882
 20
2.579423431441942
 30
0.0
 10
8.199123341801882
 20
2.762452935988496
 30
0.0
 10
8.199123341801882
 20
2.762452935988496
 30
0.0
 10
8.199123341801882
 20
2.762452935988496
 30
0.0
 10
8.324071483572279
 20
2.762452935988496
 30
0.0
 10
8.324071483572279
 20
2.762452935988496
 30
0.0
 10
8.324071483572279
 20
2.762452935988496
 30
0.0
 10
8.324071483572279
 20
2.950756401814211
 30
0.0
 10
8.324071483572279
 20
2.950756401814211
 30
0.0
 10
8.324071483572279
 20
2.950756401814211
 30
0.0
 10
9.633383212651867
 20
2.950756401814211
 30
0.0
 10
9.633383212651867
 20
2.950756401814211
 30
0.0
  0
DIMENSION
  5
4B5
330
18
100
AcDbEntity
  8
ADPDIM
 62
     3
100
AcDbDimension
  2
*D9
 10
9.638989514938653
 20
2.562607395583739
 30
0.0
 11
8.982739514938653
 21
2.562607395583739
 31
0.0
 70
    32
 71
     5
 42
1.3125
  3
STANDARD
100
AcDbAlignedDimension
 13
8.326489514938653
 23
2.762996474924555
 33
0.0
 14
9.638989514938653
 24
2.762996474924555
 34
0.0
100
AcDbRotatedDimension
1001
ACAD
1000
DSTYLE
1002
{
1070
   276
1070
     2
1070
    41
1040
0.125
1070
    73
1070
     0
1070
    74
1070
     0
1070
    78
1070
     3
1070
   140
1040
0.125
1070
   141
1040
0.1875
1070
   142
1040
0.125
1070
   147
1040
0.125
1070
   171
1070
     1
1070
   273
1070
     5
1070
   274
1070
     1
1070
   277
1070
     5
1070
   279
1070
     2
1070
   284
1070
     3
1070
   285
1070
     3
1070
   286
1070
     3
1002
}
  0
DIMENSION
  5
4B6
330
18
100
AcDbEntity
  8
ADPDIM
 62
     3
100
AcDbDimension
  2
*D10
 10
9.760195446292147
 20
2.204769749730797
 30
0.0
 11
8.978945446292147
 21
2.204769749730797
 31
0.0
 70
    32
 71
     5
 42
1.5625
  3
STANDARD
100
AcDbAlignedDimension
 13
8.197695446292147
 23
2.57692089985997
 33
0.0
 14
9.760195446292147
 24
2.57692089985997
 34
0.0
100
AcDbRotatedDimension
1001
ACAD
1000
DSTYLE
1002
{
1070
   276
1070
     2
1070
    41
1040
0.125
1070
    73
1070
     0
1070
    74
1070
     0
1070
    78
1070
     3
1070
   140
1040
0.125
1070
   141
1040
0.1875
1070
   142
1040
0.125
1070
   147
1040
0.125
1070
   171
1070
     1
1070
   273
1070
     5
1070
   274
1070
     1
1070
   277
1070
     5
1070
   279
1070
     2
1070
   284
1070
     3
1070
   285
1070
     3
1070
   286
1070
     3
1002
}
  0
ENDSEC
  0
SECTION
  2
OBJECTS
  0
DICTIONARY
  5
C
330
0
100
AcDbDictionary
281
     1
  3
ACAD_COLOR
350
47D
  3
ACAD_GROUP
350
D
  3
ACAD_LAYOUT
350
202
  3
ACAD_MATERIAL
350
468
  3
ACAD_MLINESTYLE
350
E
  3
ACAD_PLOTSETTINGS
350
203
  3
ACAD_PLOTSTYLENAME
350
200
  3
ACAD_TABLESTYLE
350
47E
  3
ACAD_VISUALSTYLE
350
46C
  3
AcDbVariableDictionary
350
2B5
  3
DWGPROPS
350
519
  0
DICTIONARY
  5
287
330
18
100
AcDbDictionary
280
     1
281
     1
  3
ACAD_LAYOUTSELFREF
360
43A
  0
DICTIONARY
  5
285
330
15
100
AcDbDictionary
280
     1
281
     1
  3
ACAD_LAYOUTSELFREF
360
439
  0
DICTIONARY
  5
47D
102
{ACAD_REACTORS
330
C
102
}
330
C
100
AcDbDictionary
281
     1
  0
DICTIONARY
  5
D
102
{ACAD_REACTORS
330
C
102
}
330
C
100
AcDbDictionary
281
     1
  0
DICTIONARY
  5
202
102
{ACAD_REACTORS
330
C
102
}
330
C
100
AcDbDictionary
281
     1
  3
Layout1
350
205
  3
Model
350
204
  0
DICTIONARY
  5
468
102
{ACAD_REACTORS
330
C
102
}
330
C
100
AcDbDictionary
281
     1
  3
ByBlock
350
46A
  3
ByLayer
350
469
  3
Global
350
46B
  0
DICTIONARY
  5
E
102
{ACAD_REACTORS
330
C
102
}
330
C
100
AcDbDictionary
281
     1
  3
STANDARD
350
1B
  0
DICTIONARY
  5
203
102
{ACAD_REACTORS
330
C
102
}
330
C
100
AcDbDictionary
281
     1
  0
ACDBDICTIONARYWDFLT
  5
200
102
{ACAD_REACTORS
330
C
102
}
330
C
100
AcDbDictionary
281
     1
  3
Normal
350
201
100
AcDbDictionaryWithDefault
340
201
  0
DICTIONARY
  5
47E
102
{ACAD_REACTORS
330
C
102
}
330
C
100
AcDbDictionary
281
     1
  3
Standard
350
47F
  0
DICTIONARY
  5
46C
102
{ACAD_REACTORS
330
C
102
}
330
C
100
AcDbDictionary
281
     1
  3
2dWireframe
350
472
  3
3D Hidden
350
474
  3
3dWireframe
350
473
  3
Basic
350
471
  3
Brighten
350
478
  3
ColorChange
350
47C
  3
Conceptual
350
475
  3
Dim
350
477
  3
Facepattern
350
47B
  3
Flat
350
46D
  3
FlatWithEdges
350
46E
  3
Gouraud
350
46F
  3
GouraudWithEdges
350
470
  3
Linepattern
350
47A
  3
Realistic
350
476
  3
Thicken
350
479
  0
DICTIONARY
  5
2B5
102
{ACAD_REACTORS
330
C
102
}
330
C
100
AcDbDictionary
281
     1
  3
CTABLESTYLE
350
516
  3
DIMASSOC
350
2B6
  3
INDEXCTL
350
518
  3
SORTENTS
350
517
  0
XRECORD
  5
519
102
{ACAD_REACTORS
330
C
102
}
330
C
100
AcDbXrecord
280
     1
  1
DWGPROPS COOKIE
  2

  3

  4

  6

  7

  8
Yu Hu
  9

300
=
301
=
302
=
303
=
304
=
305
=
306
=
307
=
308
=
309
=
 40
0.0468708912037037
 41
2450353.004106667
 42
2453980.449403669
  1

 90
        0
  0
XRECORD
  5
43A
102
{ACAD_REACTORS
330
287
102
}
330
287
100
AcDbXrecord
280
     1
340
18
  0
XRECORD
  5
439
102
{ACAD_REACTORS
330
285
102
}
330
285
100
AcDbXrecord
280
     1
340
15
  0
LAYOUT
  5
205
102
{ACAD_XDICTIONARY
360
51C
102
}
102
{ACAD_REACTORS
330
202
102
}
330
202
100
AcDbPlotSettings
  1

  2
Fax
  4

  6

 40
0.0
 41
0.0
 42
0.0
 43
0.0
 44
0.0
 45
0.0
 46
0.0
 47
0.0
 48
0.0
 49
0.0
140
0.0
141
0.0
142
1.0
143
1.0
 70
   688
 72
     0
 73
     0
 74
     5
  7
Default R14 pen assignments.ctb
 75
    16
147
1.0
148
0.0
149
0.0
100
AcDbLayout
  1
Layout1
 70
     1
 71
     1
 10
0.0
 20
0.0
 11
12.0
 21
9.0
 12
0.0
 22
0.0
 32
0.0
 14
1.000000000000000E+20
 24
1.000000000000000E+20
 34
1.000000000000000E+20
 15
-1.000000000000000E+20
 25
-1.000000000000000E+20
 35
-1.000000000000000E+20
146
0.0
 13
0.0
 23
0.0
 33
0.0
 16
1.0
 26
0.0
 36
0.0
 17
0.0
 27
1.0
 37
0.0
 76
     0
330
15
  0
LAYOUT
  5
204
102
{ACAD_XDICTIONARY
360
51A
102
}
102
{ACAD_REACTORS
330
202
102
}
330
202
100
AcDbPlotSettings
  1

  2
Fax
  4

  6

 40
0.0
 41
0.0
 42
0.0
 43
0.0
 44
0.0
 45
0.0
 46
0.0
 47
0.0
 48
0.0
 49
0.0
140
0.0
141
0.0
142
1.0
143
1.0
 70
  1712
 72
     0
 73
     0
 74
     0
  7
Default R14 pen assignments.ctb
 75
     0
147
1.0
148
0.0
149
0.0
100
AcDbLayout
  1
Model
 70
     1
 71
     0
 10
0.0
 20
0.0
 11
12.0
 21
9.0
 12
0.0
 22
0.0
 32
0.0
 14
0.0
 24
0.0
 34
0.0
 15
0.0
 25
0.0
 35
0.0
146
0.0
 13
0.0
 23
0.0
 33
0.0
 16
1.0
 26
0.0
 36
0.0
 17
0.0
 27
1.0
 37
0.0
 76
     0
330
18
331
413
  0
MATERIAL
  5
46A
102
{ACAD_XDICTIONARY
360
520
102
}
102
{ACAD_REACTORS
330
468
102
}
330
468
100
AcDbMaterial
  1
ByBlock
  0
MATERIAL
  5
469
102
{ACAD_XDICTIONARY
360
51E
102
}
102
{ACAD_REACTORS
330
468
102
}
330
468
100
AcDbMaterial
  1
ByLayer
  0
MATERIAL
  5
46B
102
{ACAD_XDICTIONARY
360
522
102
}
102
{ACAD_REACTORS
330
468
102
}
330
468
100
AcDbMaterial
  1
Global
  0
MLINESTYLE
  5
1B
102
{ACAD_REACTORS
330
E
102
}
330
E
100
AcDbMlineStyle
  2
STANDARD
 70
     0
  3

 62
     0
 51
90.0
 52
90.0
 71
     2
 49
0.5
 62
   256
  6
BYLAYER
 49
-0.5
 62
   256
  6
BYLAYER
  0
ACDBPLACEHOLDER
  5
201
102
{ACAD_REACTORS
330
200
102
}
330
200
  0
TABLESTYLE
  5
47F
102
{ACAD_XDICTIONARY
360
524
102
}
102
{ACAD_REACTORS
330
47E
102
}
330
47E
100
AcDbTableStyle
  3
Standard
 70
     0
 71
     0
 40
0.06
 41
0.06
280
     0
281
     0
  7
STANDARD
140
0.18
170
     2
 62
     0
 63
     7
283
     0
274
    -2
284
     1
 64
     0
275
    -2
285
     1
 65
     0
276
    -2
286
     1
 66
     0
277
    -2
287
     1
 67
     0
278
    -2
288
     1
 68
     0
279
    -2
289
     1
 69
     0
  7
STANDARD
140
0.25
170
     5
 62
     0
 63
     7
283
     0
274
    -2
284
     1
 64
     0
275
    -2
285
     1
 65
     0
276
    -2
286
     1
 66
     0
277
    -2
287
     1
 67
     0
278
    -2
288
     1
 68
     0
279
    -2
289
     1
 69
     0
  7
STANDARD
140
0.18
170
     5
 62
     0
 63
     7
283
     0
274
    -2
284
     1
 64
     0
275
    -2
285
     1
 65
     0
276
    -2
286
     1
 66
     0
277
    -2
287
     1
 67
     0
278
    -2
288
     1
 68
     0
279
    -2
289
     1
 69
     0
  0
VISUALSTYLE
  5
472
102
{ACAD_REACTORS
330
46C
102
}
330
46C
100
AcDbVisualStyle
  2
2dWireframe
 70
     4
 71
     0
 72
     2
 73
     0
 90
        0
 40
-0.6
 41
-30.0
 62
     5
 63
     7
 74
     1
 91
        4
 64
     7
 65
   257
 75
     1
175
     1
 42
1.0
 92
        0
 66
   257
 43
1.0
 76
     1
 77
     6
 78
     2
 67
     7
 79
     5
170
     0
171
     0
290
     0
174
     0
 93
        1
 44
0.0
173
     0
291
     0
 45
0.0
1001
ACAD
1000
AcDbSavedByObjectVersion
1070
     0
  0
VISUALSTYLE
  5
474
102
{ACAD_REACTORS
330
46C
102
}
330
46C
100
AcDbVisualStyle
  2
3D Hidden
 70
     6
 71
     1
 72
     2
 73
     2
 90
        0
 40
-0.6
 41
-30.0
 62
     5
 63
     7
 74
     2
 91
        2
 64
     7
 65
   257
 75
     2
175
     1
 42
40.0
 92
        0
 66
   257
 43
1.0
 76
     1
 77
     6
 78
     2
 67
     7
 79
     3
170
     0
171
     0
290
     0
174
     0
 93
        1
 44
0.0
173
     0
291
     0
 45
0.0
1001
ACAD
1000
AcDbSavedByObjectVersion
1070
     0
  0
VISUALSTYLE
  5
473
102
{ACAD_REACTORS
330
46C
102
}
330
46C
100
AcDbVisualStyle
  2
3dWireframe
 70
     5
 71
     0
 72
     2
 73
     0
 90
        0
 40
-0.6
 41
-30.0
 62
     5
 63
     7
 74
     1
 91
        4
 64
     7
 65
   257
 75
     1
175
     1
 42
1.0
 92
        0
 66
   257
 43
1.0
 76
     1
 77
     6
 78
     2
 67
     7
 79
     5
170
     0
171
     0
290
     0
174
     0
 93
        1
 44
0.0
173
     0
291
     0
 45
0.0
1001
ACAD
1000
AcDbSavedByObjectVersion
1070
     0
  0
VISUALSTYLE
  5
471
102
{ACAD_REACTORS
330
46C
102
}
330
46C
100
AcDbVisualStyle
  2
Basic
 70
     7
 71
     1
 72
     0
 73
     1
 90
        0
 40
-0.6
 41
-30.0
 62
     5
 63
     7
 74
     0
 91
        4
 64
     7
 65
   257
 75
     1
175
     1
 42
1.0
 92
        8
 66
     7
 43
1.0
 76
     1
 77
     6
 78
     2
 67
     7
 79
     5
170
     0
171
     0
290
     0
174
     0
 93
        1
 44
0.0
173
     0
291
     1
 45
0.0
1001
ACAD
1000
AcDbSavedByObjectVersion
1070
     0
  0
VISUALSTYLE
  5
478
102
{ACAD_REACTORS
330
46C
102
}
330
46C
100
AcDbVisualStyle
  2
Brighten
 70
    12
 71
     2
 72
     2
 73
     0
 90
        0
 40
-0.6
 41
-30.0
 62
     5
 63
     7
 74
     1
 91
        4
 64
     7
 65
   257
 75
     1
175
     1
 42
1.0
 92
        8
 66
     7
 43
1.0
 76
     1
 77
     6
 78
     2
 67
     7
 79
     5
170
     0
171
     0
290
     0
174
     0
 93
        1
 44
50.0
173
     0
291
     1
 45
0.0
1001
ACAD
1000
AcDbSavedByObjectVersion
1070
     0
  0
VISUALSTYLE
  5
47C
102
{ACAD_REACTORS
330
46C
102
}
330
46C
100
AcDbVisualStyle
  2
ColorChange
 70
    16
 71
     2
 72
     2
 73
     3
 90
        0
 40
-0.6
 41
-30.0
 62
     5
 63
     8
 74
     1
 91
        4
 64
     7
 65
   257
 75
     1
175
     1
 42
1.0
 92
        8
 66
     8
 43
1.0
 76
     1
 77
     6
 78
     2
 67
     7
 79
     5
170
     0
171
     0
290
     0
174
     0
 93
        1
 44
0.0
173
     0
291
     1
 45
0.0
1001
ACAD
1000
AcDbSavedByObjectVersion
1070
     0
  0
VISUALSTYLE
  5
475
102
{ACAD_REACTORS
330
46C
102
}
330
46C
100
AcDbVisualStyle
  2
Conceptual
 70
     9
 71
     3
 72
     2
 73
     0
 90
        0
 40
-0.6
 41
-30.0
 62
     5
 63
     7
 74
     2
 91
        2
 64
     7
 65
   257
 75
     1
175
     1
 42
40.0
 92
        8
 66
     7
 43
1.0
 76
     1
 77
     6
 78
     2
 67
     7
 79
     3
170
     0
171
     0
290
     0
174
     0
 93
        1
 44
0.0
173
     0
291
     0
 45
0.0
1001
ACAD
1000
AcDbSavedByObjectVersion
1070
     0
  0
VISUALSTYLE
  5
477
102
{ACAD_REACTORS
330
46C
102
}
330
46C
100
AcDbVisualStyle
  2
Dim
 70
    11
 71
     2
 72
     2
 73
     0
 90
        0
 40
-0.6
 41
-30.0
 62
     5
 63
     7
 74
     1
 91
        4
 64
     7
 65
   257
 75
     1
175
     1
 42
1.0
 92
        8
 66
     7
 43
1.0
 76
     1
 77
     6
 78
     2
 67
     7
 79
     5
170
     0
171
     0
290
     0
174
     0
 93
        1
 44
-50.0
173
     0
291
     1
 45
0.0
1001
ACAD
1000
AcDbSavedByObjectVersion
1070
     0
  0
VISUALSTYLE
  5
47B
102
{ACAD_REACTORS
330
46C
102
}
330
46C
100
AcDbVisualStyle
  2
Facepattern
 70
    15
 71
     2
 72
     2
 73
     0
 90
        0
 40
-0.6
 41
-30.0
 62
     5
 63
     7
 74
     1
 91
        4
 64
     7
 65
   257
 75
     1
175
     1
 42
1.0
 92
        8
 66
     7
 43
1.0
 76
     1
 77
     6
 78
     2
 67
     7
 79
     5
170
     0
171
     0
290
     0
174
     0
 93
        1
 44
0.0
173
     0
291
     1
 45
0.0
1001
ACAD
1000
AcDbSavedByObjectVersion
1070
     0
  0
VISUALSTYLE
  5
46D
102
{ACAD_REACTORS
330
46C
102
}
330
46C
100
AcDbVisualStyle
  2
Flat
 70
     0
 71
     2
 72
     1
 73
     1
 90
        2
 40
-0.6
 41
30.0
 62
     5
 63
     7
 74
     0
 91
        4
 64
     7
 65
   257
 75
     1
175
     1
 42
1.0
 92
        8
 66
     7
 43
1.0
 76
     1
 77
     6
 78
     2
 67
     7
 79
     5
170
     0
171
     0
290
     0
174
     0
 93
       13
 44
0.0
173
     0
291
     1
 45
0.0
1001
ACAD
1000
AcDbSavedByObjectVersion
1070
     0
  0
VISUALSTYLE
  5
46E
102
{ACAD_REACTORS
330
46C
102
}
330
46C
100
AcDbVisualStyle
  2
FlatWithEdges
 70
     1
 71
     2
 72
     1
 73
     1
 90
        2
 40
-0.6
 41
30.0
 62
     5
 63
     7
 74
     1
 91
        4
 64
     7
 65
   257
 75
     1
175
     1
 42
1.0
 92
        0
 66
   257
 43
1.0
 76
     1
 77
     6
 78
     2
 67
     7
 79
     5
170
     0
171
     0
290
     0
174
     0
 93
       13
 44
0.0
173
     0
291
     1
 45
0.0
1001
ACAD
1000
AcDbSavedByObjectVersion
1070
     0
  0
VISUALSTYLE
  5
46F
102
{ACAD_REACTORS
330
46C
102
}
330
46C
100
AcDbVisualStyle
  2
Gouraud
 70
     2
 71
     2
 72
     2
 73
     1
 90
        2
 40
-0.6
 41
30.0
 62
     5
 63
     7
 74
     0
 91
        4
 64
     7
 65
   257
 75
     1
175
     1
 42
1.0
 92
        0
 66
     7
 43
1.0
 76
     1
 77
     6
 78
     2
 67
     7
 79
     5
170
     0
171
     0
290
     0
174
     0
 93
       13
 44
0.0
173
     0
291
     1
 45
0.0
1001
ACAD
1000
AcDbSavedByObjectVersion
1070
     0
  0
VISUALSTYLE
  5
470
102
{ACAD_REACTORS
330
46C
102
}
330
46C
100
AcDbVisualStyle
  2
GouraudWithEdges
 70
     3
 71
     2
 72
     2
 73
     1
 90
        2
 40
-0.6
 41
30.0
 62
     5
 63
     7
 74
     1
 91
        4
 64
     7
 65
   257
 75
     1
175
     1
 42
1.0
 92
        0
 66
   257
 43
1.0
 76
     1
 77
     6
 78
     2
 67
     7
 79
     5
170
     0
171
     0
290
     0
174
     0
 93
       13
 44
0.0
173
     0
291
     1
 45
0.0
1001
ACAD
1000
AcDbSavedByObjectVersion
1070
     0
  0
VISUALSTYLE
  5
47A
102
{ACAD_REACTORS
330
46C
102
}
330
46C
100
AcDbVisualStyle
  2
Linepattern
 70
    14
 71
     2
 72
     2
 73
     0
 90
        0
 40
-0.6
 41
-30.0
 62
     5
 63
     7
 74
     1
 91
        4
 64
     7
 65
   257
 75
     7
175
     7
 42
1.0
 92
        8
 66
     7
 43
1.0
 76
     1
 77
     6
 78
     2
 67
     7
 79
     5
170
     0
171
     0
290
     0
174
     0
 93
        1
 44
0.0
173
     0
291
     1
 45
0.0
1001
ACAD
1000
AcDbSavedByObjectVersion
1070
     0
  0
VISUALSTYLE
  5
476
102
{ACAD_REACTORS
330
46C
102
}
330
46C
100
AcDbVisualStyle
  2
Realistic
 70
     8
 71
     2
 72
     2
 73
     0
 90
        0
 40
-0.6
 41
-30.0
 62
     5
 63
     7
 74
     1
 91
        0
 64
     7
 65
   257
 75
     1
175
     1
 42
1.0
 92
        8
 66
     8
 43
1.0
 76
     1
 77
     6
 78
     2
 67
     7
 79
     5
170
     0
171
     0
290
     0
174
     0
 93
       13
 44
0.0
173
     0
291
     0
 45
0.0
1001
ACAD
1000
AcDbSavedByObjectVersion
1070
     0
  0
VISUALSTYLE
  5
479
102
{ACAD_REACTORS
330
46C
102
}
330
46C
100
AcDbVisualStyle
  2
Thicken
 70
    13
 71
     2
 72
     2
 73
     0
 90
        0
 40
-0.6
 41
-30.0
 62
     5
 63
     7
 74
     1
 91
        4
 64
     7
 65
   257
 75
     1
175
     1
 42
1.0
 92
       12
 66
     7
 43
1.0
 76
     1
 77
     6
 78
     2
 67
     7
 79
     5
170
     0
171
     0
290
     0
174
     0
 93
        1
 44
0.0
173
     0
291
     1
 45
0.0
1001
ACAD
1000
AcDbSavedByObjectVersion
1070
     0
  0
DICTIONARYVAR
  5
516
102
{ACAD_REACTORS
330
2B5
102
}
330
2B5
100
DictionaryVariables
280
     0
  1
STANDARD
  0
DICTIONARYVAR
  5
2B6
102
{ACAD_REACTORS
330
2B5
102
}
330
2B5
100
DictionaryVariables
280
     0
  1
1
  0
DICTIONARYVAR
  5
518
102
{ACAD_REACTORS
330
2B5
102
}
330
2B5
100
DictionaryVariables
280
     0
  1
0
  0
DICTIONARYVAR
  5
517
102
{ACAD_REACTORS
330
2B5
102
}
330
2B5
100
DictionaryVariables
280
     0
  1
127
  0
DICTIONARY
  5
51C
330
205
100
AcDbDictionary
280
     1
281
     1
  3
ACAD_XREC_ROUNDTRIP
360
51D
  0
DICTIONARY
  5
51A
330
204
100
AcDbDictionary
280
     1
281
     1
  3
ACAD_XREC_ROUNDTRIP
360
51B
  0
DICTIONARY
  5
520
330
46A
100
AcDbDictionary
280
     1
281
     1
  3
ACAD_XREC_ROUNDTRIP
360
521
  0
DICTIONARY
  5
51E
330
469
100
AcDbDictionary
280
     1
281
     1
  3
ACAD_XREC_ROUNDTRIP
360
51F
  0
DICTIONARY
  5
522
330
46B
100
AcDbDictionary
280
     1
281
     1
  3
ACAD_XREC_ROUNDTRIP
360
523
  0
DICTIONARY
  5
524
330
47F
100
AcDbDictionary
280
     1
281
     1
  3
ACAD_XREC_ROUNDTRIP
360
525
  0
XRECORD
  5
51D
102
{ACAD_REACTORS
330
51C
102
}
330
51C
100
AcDbXrecord
280
     1
102
SHADEPLOT
 70
     0
102
SHADEPLOTRESLEVEL
 70
     2
102
SHADEPLOTCUSTOMDPI
 70
   300
  0
XRECORD
  5
51B
102
{ACAD_REACTORS
330
51A
102
}
330
51A
100
AcDbXrecord
280
     1
102
SHADEPLOT
 70
     0
102
SHADEPLOTRESLEVEL
 70
     2
102
SHADEPLOTCUSTOMDPI
 70
   300
  0
XRECORD
  5
521
102
{ACAD_REACTORS
330
520
102
}
330
520
100
AcDbXrecord
280
     1
102
MATERIAL
148
0.0
149
0.0
149
0.0
 93
        0
 94
       63
282
     0
 72
     1
 77
     1
171
     1
175
     1
179
     1
273
     0
  0
XRECORD
  5
51F
102
{ACAD_REACTORS
330
51E
102
}
330
51E
100
AcDbXrecord
280
     1
102
MATERIAL
148
0.0
149
0.0
149
0.0
 93
        0
 94
       63
282
     0
 72
     1
 77
     1
171
     1
175
     1
179
     1
273
     0
  0
XRECORD
  5
523
102
{ACAD_REACTORS
330
522
102
}
330
522
100
AcDbXrecord
280
     1
102
MATERIAL
148
0.0
149
0.0
149
0.0
 93
        0
 94
       63
282
     0
 72
     1
 77
     1
171
     1
175
     1
179
     1
273
     0
  0
XRECORD
  5
525
102
{ACAD_REACTORS
330
524
102
}
330
524
100
AcDbXrecord
280
     1
102
ACAD_ROUNDTRIP_PRE2007_TABLESTYLE
 90
      512
 91
        0
  1

 92
      512
 93
        0
  2

 94
      512
 95
        0
  3

  0
ENDSEC
  0
EOF
