  0
SECTION
  2
HEADER
  9
$ACADVER
  1
AC1015
  9
$ACADMAINTVER
 70
    20
  9
$DWGCODEPAGE
  3
ANSI_1252
  9
$INSBASE
 10
27.4106234031305
 20
11.62827529705721
 30
0.0
  9
$EXTMIN
 10
14.13677914144085
 20
1.616638269294796
 30
-0.0015258207003583
  9
$EXTMAX
 10
40.87242924888225
 20
17.34082037459689
 30
0.0000000349246037
  9
$LIMMIN
 10
0.0
 20
0.0
  9
$LIMMAX
 10
36.0
 20
36.0
  9
$ORTHOMODE
 70
     1
  9
$REGENMODE
 70
     1
  9
$FILLMODE
 70
     1
  9
$QTEXTMODE
 70
     0
  9
$MIRRTEXT
 70
     1
  9
$LTSCALE
 40
1.0
  9
$ATTMODE
 70
     1
  9
$TEXTSIZE
 40
0.2
  9
$TRACEWID
 40
0.05
  9
$TEXTSTYLE
  7
STANDARD
  9
$CLAYER
  8
ADP1DETAIL
  9
$CELTYPE
  6
ByLayer
  9
$CECOLOR
 62
   256
  9
$CELTSCALE
 40
1.0
  9
$DISPSILH
 70
     0
  9
$DIMSCALE
 40
1.0
  9
$DIMASZ
 40
0.125
  9
$DIMEXO
 40
0.0625
  9
$DIMDLI
 40
0.38
  9
$DIMRND
 40
0.0
  9
$DIMDLE
 40
0.0
  9
$DIMEXE
 40
0.18
  9
$DIMTP
 40
0.0
  9
$DIMTM
 40
0.0
  9
$DIMTXT
 40
0.125
  9
$DIMCEN
 40
0.1875
  9
$DIMTSZ
 40
0.125
  9
$DIMTOL
 70
     0
  9
$DIMLIM
 70
     0
  9
$DIMTIH
 70
     0
  9
$DIMTOH
 70
     0
  9
$DIMSE1
 70
     0
  9
$DIMSE2
 70
     0
  9
$DIMTAD
 70
     0
  9
$DIMZIN
 70
     3
  9
$DIMBLK
  1

  9
$DIMASO
 70
     1
  9
$DIMSHO
 70
     1
  9
$DIMPOST
  1

  9
$DIMAPOST
  1

  9
$DIMALT
 70
     0
  9
$DIMALTD
 70
     1
  9
$DIMALTF
 40
25.4
  9
$DIMLFAC
 40
1.0
  9
$DIMTOFL
 70
     0
  9
$DIMTVP
 40
0.0
  9
$DIMTIX
 70
     0
  9
$DIMSOXD
 70
     0
  9
$DIMSAH
 70
     0
  9
$DIMBLK1
  1

  9
$DIMBLK2
  1

  9
$DIMSTYLE
  2
Standard
  9
$DIMCLRD
 70
     0
  9
$DIMCLRE
 70
     0
  9
$DIMCLRT
 70
     0
  9
$DIMTFAC
 40
1.0
  9
$DIMGAP
 40
0.125
  9
$DIMJUST
 70
     0
  9
$DIMSD1
 70
     0
  9
$DIMSD2
 70
     0
  9
$DIMTOLJ
 70
     1
  9
$DIMTZIN
 70
     3
  9
$DIMALTZ
 70
     3
  9
$DIMALTTZ
 70
     3
  9
$DIMUPT
 70
     0
  9
$DIMDEC
 70
     4
  9
$DIMTDEC
 70
     4
  9
$DIMALTU
 70
     5
  9
$DIMALTTD
 70
     1
  9
$DIMTXSTY
  7
STANDARD
  9
$DIMAUNIT
 70
     0
  9
$DIMADEC
 70
     0
  9
$DIMALTRND
 40
0.0
  9
$DIMAZIN
 70
     0
  9
$DIMDSEP
 70
    46
  9
$DIMATFIT
 70
     3
  9
$DIMFRAC
 70
     0
  9
$DIMLDRBLK
  1

  9
$DIMLUNIT
 70
     5
  9
$DIMLWD
 70
    -2
  9
$DIMLWE
 70
    -2
  9
$DIMTMOVE
 70
     2
  9
$LUNITS
 70
     5
  9
$LUPREC
 70
     4
  9
$SKETCHINC
 40
0.1
  9
$FILLETRAD
 40
0.062
  9
$AUNITS
 70
     0
  9
$AUPREC
 70
     0
  9
$MENU
  1
acad
  9
$ELEVATION
 40
0.0
  9
$PELEVATION
 40
0.0
  9
$THICKNESS
 40
0.0
  9
$LIMCHECK
 70
     0
  9
$CHAMFERA
 40
0.0
  9
$CHAMFERB
 40
0.0
  9
$CHAMFERC
 40
0.0
  9
$CHAMFERD
 40
0.0
  9
$SKPOLY
 70
     0
  9
$TDCREATE
 40
2450406.633340463
  9
$TDUCREATE
 40
2450406.800007129
  9
$TDUPDATE
 40
2453980.444838195
  9
$TDUUPDATE
 40
2453980.611504861
  9
$TDINDWG
 40
0.0425432755
  9
$TDUSRTIMER
 40
0.0425432755
  9
$USRTIMER
 70
     1
  9
$ANGBASE
 50
0.0
  9
$ANGDIR
 70
     0
  9
$PDMODE
 70
     0
  9
$PDSIZE
 40
0.0
  9
$PLINEWID
 40
0.0
  9
$SPLFRAME
 70
     0
  9
$SPLINETYPE
 70
     6
  9
$SPLINESEGS
 70
     8
  9
$HANDSEED
  5
3D5
  9
$SURFTAB1
 70
     6
  9
$SURFTAB2
 70
     6
  9
$SURFTYPE
 70
     6
  9
$SURFU
 70
     6
  9
$SURFV
 70
     6
  9
$UCSBASE
  2

  9
$UCSNAME
  2

  9
$UCSORG
 10
0.0
 20
0.0
 30
0.0
  9
$UCSXDIR
 10
1.0
 20
0.0
 30
0.0
  9
$UCSYDIR
 10
0.0
 20
1.0
 30
0.0
  9
$UCSORTHOREF
  2

  9
$UCSORTHOVIEW
 70
     0
  9
$UCSORGTOP
 10
0.0
 20
0.0
 30
0.0
  9
$UCSORGBOTTOM
 10
0.0
 20
0.0
 30
0.0
  9
$UCSORGLEFT
 10
0.0
 20
0.0
 30
0.0
  9
$UCSORGRIGHT
 10
0.0
 20
0.0
 30
0.0
  9
$UCSORGFRONT
 10
0.0
 20
0.0
 30
0.0
  9
$UCSORGBACK
 10
0.0
 20
0.0
 30
0.0
  9
$PUCSBASE
  2

  9
$PUCSNAME
  2

  9
$PUCSORG
 10
0.0
 20
0.0
 30
0.0
  9
$PUCSXDIR
 10
1.0
 20
0.0
 30
0.0
  9
$PUCSYDIR
 10
0.0
 20
1.0
 30
0.0
  9
$PUCSORTHOREF
  2

  9
$PUCSORTHOVIEW
 70
     0
  9
$PUCSORGTOP
 10
0.0
 20
0.0
 30
0.0
  9
$PUCSORGBOTTOM
 10
0.0
 20
0.0
 30
0.0
  9
$PUCSORGLEFT
 10
0.0
 20
0.0
 30
0.0
  9
$PUCSORGRIGHT
 10
0.0
 20
0.0
 30
0.0
  9
$PUCSORGFRONT
 10
0.0
 20
0.0
 30
0.0
  9
$PUCSORGBACK
 10
0.0
 20
0.0
 30
0.0
  9
$USERI1
 70
     0
  9
$USERI2
 70
     0
  9
$USERI3
 70
     0
  9
$USERI4
 70
     0
  9
$USERI5
 70
     0
  9
$USERR1
 40
0.0
  9
$USERR2
 40
0.0
  9
$USERR3
 40
0.0
  9
$USERR4
 40
0.0
  9
$USERR5
 40
0.0
  9
$WORLDVIEW
 70
     1
  9
$SHADEDGE
 70
     3
  9
$SHADEDIF
 70
    70
  9
$TILEMODE
 70
     1
  9
$MAXACTVP
 70
    15
  9
$PINSBASE
 10
0.0008545028977096
 20
1.250283272183907
 30
0.0
  9
$PLIMCHECK
 70
     0
  9
$PEXTMIN
 10
1.000000000000000E+20
 20
1.000000000000000E+20
 30
1.000000000000000E+20
  9
$PEXTMAX
 10
-1.000000000000000E+20
 20
-1.000000000000000E+20
 30
-1.000000000000000E+20
  9
$PLIMMIN
 10
0.0
 20
0.0
  9
$PLIMMAX
 10
12.0
 20
9.0
  9
$UNITMODE
 70
     0
  9
$VISRETAIN
 70
     0
  9
$PLINEGEN
 70
     0
  9
$PSLTSCALE
 70
     1
  9
$TREEDEPTH
 70
  3020
  9
$CMLSTYLE
  2
Standard
  9
$CMLJUST
 70
     0
  9
$CMLSCALE
 40
1.0
  9
$PROXYGRAPHICS
 70
     1
  9
$MEASUREMENT
 70
     0
  9
$CELWEIGHT
370
    -1
  9
$ENDCAPS
280
     0
  9
$JOINSTYLE
280
     0
  9
$LWDISPLAY
290
     0
  9
$INSUNITS
 70
     0
  9
$HYPERLINKBASE
  1

  9
$STYLESHEET
  1

  9
$XEDIT
290
     1
  9
$CEPSNTYPE
380
     0
  9
$PSTYLEMODE
290
     1
  9
$FINGERPRINTGUID
  2
{04F8275E-8964-486A-9B6F-D51E5D616F13}
  9
$VERSIONGUID
  2
{0CBB0444-3EA2-41B4-8552-E04B28DCD050}
  9
$EXTNAMES
290
     1
  9
$PSVPSCALE
 40
0.0
  9
$OLESTARTUP
290
     0
  0
ENDSEC
  0
SECTION
  2
CLASSES
  0
CLASS
  1
ACDBDICTIONARYWDFLT
  2
AcDbDictionaryWithDefault
  3
ObjectDBX Classes
 90
        0
280
     0
281
     0
  0
CLASS
  1
ACDBPLACEHOLDER
  2
AcDbPlaceHolder
  3
ObjectDBX Classes
 90
        0
280
     0
281
     0
  0
CLASS
  1
LAYOUT
  2
AcDbLayout
  3
ObjectDBX Classes
 90
        0
280
     0
281
     0
  0
CLASS
  1
DICTIONARYVAR
  2
AcDbDictionaryVar
  3
ObjectDBX Classes
 90
        0
280
     0
281
     0
  0
CLASS
  1
MATERIAL
  2
AcDbMaterial
  3
ObjectDBX Classes
 90
     1024
280
     0
281
     0
  0
CLASS
  1
VISUALSTYLE
  2
AcDbVisualStyle
  3
ObjectDBX Classes
 90
     4095
280
     0
281
     0
  0
CLASS
  1
TABLESTYLE
  2
AcDbTableStyle
  3
ObjectDBX Classes
 90
     4095
280
     0
281
     0
  0
ENDSEC
  0
SECTION
  2
TABLES
  0
TABLE
  2
VPORT
  5
8
330
0
100
AcDbSymbolTable
 70
     1
  0
VPORT
  5
2E0
330
8
100
AcDbSymbolTableRecord
100
AcDbViewportTableRecord
  2
*Active
 70
     0
 10
0.0
 20
0.0
 11
1.0
 21
1.0
 12
27.50460419516156
 22
9.478729321945841
 13
0.0
 23
0.0
 14
0.5740882589684922
 24
0.5740882589684922
 15
0.5
 25
0.5
 16
0.0
 26
0.0
 36
1.0
 17
0.0
 27
0.0
 37
0.0
 40
15.90152250498595
 41
1.726930320150659
 42
50.0
 43
0.0
 44
0.0
 50
0.0
 51
0.0
 71
     0
 72
   100
 73
     1
 74
     0
 75
     0
 76
     0
 77
     0
 78
     0
281
     0
 65
     1
110
0.0
120
0.0
130
0.0
111
1.0
121
0.0
131
0.0
112
0.0
122
1.0
132
0.0
 79
     0
146
0.0
  0
ENDTAB
  0
TABLE
  2
LTYPE
  5
5
330
0
100
AcDbSymbolTable
 70
     1
  0
LTYPE
  5
13
330
5
100
AcDbSymbolTableRecord
100
AcDbLinetypeTableRecord
  2
ByBlock
 70
     0
  3

 72
    65
 73
     0
 40
0.0
  0
LTYPE
  5
14
330
5
100
AcDbSymbolTableRecord
100
AcDbLinetypeTableRecord
  2
ByLayer
 70
     0
  3

 72
    65
 73
     0
 40
0.0
  0
LTYPE
  5
15
330
5
100
AcDbSymbolTableRecord
100
AcDbLinetypeTableRecord
  2
CONTINUOUS
 70
     0
  3
Solid line
 72
    65
 73
     0
 40
0.0
  0
ENDTAB
  0
TABLE
  2
LAYER
  5
2
330
0
100
AcDbSymbolTable
 70
     4
  0
LAYER
  5
10
330
2
100
AcDbSymbolTableRecord
100
AcDbLayerTableRecord
  2
0
 70
     0
 62
     7
  6
CONTINUOUS
370
    -3
390
F
  0
LAYER
  5
7E
330
2
100
AcDbSymbolTableRecord
100
AcDbLayerTableRecord
  2
ADP1DETAIL
 70
     0
 62
     7
  6
CONTINUOUS
370
    -3
390
F
  0
LAYER
  5
80
330
2
100
AcDbSymbolTableRecord
100
AcDbLayerTableRecord
  2
DEFPOINTS
 70
     0
 62
     7
  6
CONTINUOUS
290
     0
370
    -3
390
F
  0
LAYER
  5
81
330
2
100
AcDbSymbolTableRecord
100
AcDbLayerTableRecord
  2
ADPDIM
 70
     0
 62
     3
  6
CONTINUOUS
370
    -3
390
F
  0
ENDTAB
  0
TABLE
  2
STYLE
  5
3
330
0
100
AcDbSymbolTable
 70
     2
  0
STYLE
  5
11
330
3
100
AcDbSymbolTableRecord
100
AcDbTextStyleTableRecord
  2
STANDARD
 70
     0
 40
0.0
 41
1.0
 50
0.0
 71
     0
 42
0.2
  3
txt
  4

  0
STYLE
  5
14D
330
3
100
AcDbSymbolTableRecord
100
AcDbTextStyleTableRecord
  2
ARIAL_WIDE
 70
     0
 40
0.0
 41
1.25
 50
0.0
 71
     0
 42
0.2
  3
ARIAL.TTF
  4

1001
ACAD
1000
Arial
1071
       34
  0
ENDTAB
  0
TABLE
  2
VIEW
  5
6
330
0
100
AcDbSymbolTable
 70
     0
  0
ENDTAB
  0
TABLE
  2
UCS
  5
7
330
0
100
AcDbSymbolTable
 70
     0
  0
ENDTAB
  0
TABLE
  2
APPID
  5
9
330
0
100
AcDbSymbolTable
 70
     1
  0
APPID
  5
12
330
9
100
AcDbSymbolTableRecord
100
AcDbRegAppTableRecord
  2
ACAD
 70
     0
  0
ENDTAB
  0
TABLE
  2
DIMSTYLE
  5
A
330
0
100
AcDbSymbolTable
 70
     1
100
AcDbDimStyleTable
 71
     0
  0
DIMSTYLE
105
14B
102
{ACAD_REACTORS
330
362
330
364
330
365
102
}
330
A
100
AcDbSymbolTableRecord
100
AcDbDimStyleTableRecord
  2
Standard
 70
     0
340
11
  0
ENDTAB
  0
TABLE
  2
BLOCK_RECORD
  5
1
330
0
100
AcDbSymbolTable
 70
    13
  0
BLOCK_RECORD
  5
1E
102
{ACAD_XDICTIONARY
360
18A
102
}
330
1
100
AcDbSymbolTableRecord
100
AcDbBlockTableRecord
  2
*Model_Space
340
21
  0
BLOCK_RECORD
  5
1A
102
{ACAD_XDICTIONARY
360
18C
102
}
330
1
100
AcDbSymbolTableRecord
100
AcDbBlockTableRecord
  2
*Paper_Space
340
1D
  0
BLOCK_RECORD
  5
75
330
1
100
AcDbSymbolTableRecord
100
AcDbBlockTableRecord
  2
*D0
340
0
  0
BLOCK_RECORD
  5
76
330
1
100
AcDbSymbolTableRecord
100
AcDbBlockTableRecord
  2
*D1
340
0
  0
BLOCK_RECORD
  5
77
330
1
100
AcDbSymbolTableRecord
100
AcDbBlockTableRecord
  2
*D2
340
0
  0
BLOCK_RECORD
  5
78
330
1
100
AcDbSymbolTableRecord
100
AcDbBlockTableRecord
  2
*D3
340
0
  0
BLOCK_RECORD
  5
79
330
1
100
AcDbSymbolTableRecord
100
AcDbBlockTableRecord
  2
*D4
340
0
  0
BLOCK_RECORD
  5
7A
330
1
100
AcDbSymbolTableRecord
100
AcDbBlockTableRecord
  2
*D5
340
0
  0
BLOCK_RECORD
  5
332
330
1
100
AcDbSymbolTableRecord
100
AcDbBlockTableRecord
  2
*D6
340
0
  0
BLOCK_RECORD
  5
33F
330
1
100
AcDbSymbolTableRecord
100
AcDbBlockTableRecord
  2
*D7
340
0
  0
BLOCK_RECORD
  5
34C
330
1
100
AcDbSymbolTableRecord
100
AcDbBlockTableRecord
  2
*D8
340
0
  0
BLOCK_RECORD
  5
366
330
1
100
AcDbSymbolTableRecord
100
AcDbBlockTableRecord
  2
*D10
340
0
  0
BLOCK_RECORD
  5
373
330
1
100
AcDbSymbolTableRecord
100
AcDbBlockTableRecord
  2
*D11
340
0
  0
BLOCK_RECORD
  5
380
330
1
100
AcDbSymbolTableRecord
100
AcDbBlockTableRecord
  2
*D12
340
0
  0
ENDTAB
  0
ENDSEC
  0
SECTION
  2
BLOCKS
  0
BLOCK
  5
84
330
1E
100
AcDbEntity
  8
0
100
AcDbBlockBegin
  2
*Model_Space
 70
     0
 10
0.0
 20
0.0
 30
0.0
  3
*Model_Space
  1

  0
ENDBLK
  5
85
330
1E
100
AcDbEntity
  8
0
100
AcDbBlockEnd
  0
BLOCK
  5
82
330
1A
100
AcDbEntity
 67
     1
  8
0
100
AcDbBlockBegin
  2
*Paper_Space
 70
     0
 10
0.0
 20
0.0
 30
0.0
  3
*Paper_Space
  1

  0
ENDBLK
  5
83
330
1A
100
AcDbEntity
 67
     1
  8
0
100
AcDbBlockEnd
  0
BLOCK
  5
87
330
75
100
AcDbEntity
  8
0
100
AcDbBlockBegin
  2
*D0
 70
     1
 10
0.0
 20
0.0
 30
0.0
  3
*D0
  1

  0
LINE
  5
88
330
75
100
AcDbEntity
  8
0
  6
ByBlock
 62
     0
100
AcDbLine
 10
24.8793734031305
 20
3.48566499603643
 30
0.0
 11
24.8793734031305
 21
2.550609324345646
 31
0.0
  0
LINE
  5
89
330
75
100
AcDbEntity
  8
0
  6
ByBlock
 62
     0
100
AcDbLine
 10
27.6918734031305
 20
3.48566499603643
 30
0.0
 11
27.6918734031305
 21
2.550609324345646
 31
0.0
  0
LINE
  5
8A
330
75
100
AcDbEntity
  8
0
  6
ByBlock
 62
     0
100
AcDbLine
 10
24.8793734031305
 20
2.730609324345646
 30
0.0
 11
25.7856234031305
 21
2.730609324345646
 31
0.0
  0
LINE
  5
8B
330
75
100
AcDbEntity
  8
0
  6
ByBlock
 62
     0
100
AcDbLine
 10
27.6918734031305
 20
2.730609324345646
 30
0.0
 11
26.7856234031305
 21
2.730609324345646
 31
0.0
  0
LINE
  5
8C
330
75
100
AcDbEntity
  8
0
  6
ByBlock
 62
     0
100
AcDbLine
 10
24.7543734031305
 20
2.605609324345646
 30
0.0
 11
25.0043734031305
 21
2.855609324345646
 31
0.0
  0
LINE
  5
8D
330
75
100
AcDbEntity
  8
0
  6
ByBlock
 62
     0
100
AcDbLine
 10
27.5668734031305
 20
2.605609324345646
 30
0.0
 11
27.8168734031305
 21
2.855609324345646
 31
0.0
  0
TEXT
  5
8E
330
75
100
AcDbEntity
  8
0
  6
ByBlock
 62
     0
100
AcDbText
 10
25.9106234031305
 20
2.668109324345646
 30
0.0
 40
0.125
  1
2 13/16
 72
     1
 11
26.2856234031305
 21
2.730609324345646
 31
0.0
100
AcDbText
 73
     2
  0
POINT
  5
90
330
75
100
AcDbEntity
  8
DEFPOINTS
  6
ByBlock
 62
     0
100
AcDbPoint
 10
24.8793734031305
 20
3.54816499603643
 30
0.0
  0
POINT
  5
91
330
75
100
AcDbEntity
  8
DEFPOINTS
  6
ByBlock
 62
     0
100
AcDbPoint
 10
27.6918734031305
 20
3.54816499603643
 30
0.0
  0
POINT
  5
92
330
75
100
AcDbEntity
  8
DEFPOINTS
  6
ByBlock
 62
     0
100
AcDbPoint
 10
27.6918734031305
 20
2.730609324345646
 30
0.0
  0
ENDBLK
  5
93
330
75
100
AcDbEntity
  8
0
100
AcDbBlockEnd
  0
BLOCK
  5
94
330
76
100
AcDbEntity
  8
0
100
AcDbBlockBegin
  2
*D1
 70
     1
 10
0.0
 20
0.0
 30
0.0
  3
*D1
  1

  0
LINE
  5
95
330
76
100
AcDbEntity
  8
0
  6
ByBlock
 62
     0
100
AcDbLine
 10
25.16062340313049
 20
11.62827529705721
 30
0.0
 11
25.16062340313049
 21
10.90210288354242
 31
0.0
  0
LINE
  5
96
330
76
100
AcDbEntity
  8
0
  6
ByBlock
 62
     0
100
AcDbLine
 10
27.4106234031305
 20
11.62827529705721
 30
0.0
 11
27.4106234031305
 21
10.90210288354242
 31
0.0
  0
LINE
  5
97
330
76
100
AcDbEntity
  8
0
  6
ByBlock
 62
     0
100
AcDbLine
 10
25.16062340313049
 20
11.08210288354242
 30
0.0
 11
25.88979006979716
 21
11.08210288354242
 31
0.0
  0
LINE
  5
98
330
76
100
AcDbEntity
  8
0
  6
ByBlock
 62
     0
100
AcDbLine
 10
27.4106234031305
 20
11.08210288354242
 30
0.0
 11
26.68145673646383
 21
11.08210288354242
 31
0.0
  0
LINE
  5
99
330
76
100
AcDbEntity
  8
0
  6
ByBlock
 62
     0
100
AcDbLine
 10
25.03562340313049
 20
10.95710288354242
 30
0.0
 11
25.2856234031305
 21
11.20710288354242
 31
0.0
  0
LINE
  5
9A
330
76
100
AcDbEntity
  8
0
  6
ByBlock
 62
     0
100
AcDbLine
 10
27.28562340313049
 20
10.95710288354242
 30
0.0
 11
27.53562340313049
 21
11.20710288354242
 31
0.0
  0
TEXT
  5
9B
330
76
100
AcDbEntity
  8
0
  6
ByBlock
 62
     0
100
AcDbText
 10
26.01479006979716
 20
11.01960288354242
 30
0.0
 40
0.125
  1
2 1/4
 72
     1
 11
26.28562340313049
 21
11.08210288354242
 31
0.0
100
AcDbText
 73
     2
  0
POINT
  5
9C
330
76
100
AcDbEntity
  8
DEFPOINTS
  6
ByBlock
 62
     0
100
AcDbPoint
 10
25.16062340313049
 20
11.6907752970572
 30
0.0
  0
POINT
  5
9D
330
76
100
AcDbEntity
  8
DEFPOINTS
  6
ByBlock
 62
     0
100
AcDbPoint
 10
27.4106234031305
 20
11.6907752970572
 30
0.0
  0
POINT
  5
9E
330
76
100
AcDbEntity
  8
DEFPOINTS
  6
ByBlock
 62
     0
100
AcDbPoint
 10
27.4106234031305
 20
11.08210288354242
 30
0.0
  0
ENDBLK
  5
9F
330
76
100
AcDbEntity
  8
0
100
AcDbBlockEnd
  0
BLOCK
  5
A0
330
77
100
AcDbEntity
  8
0
100
AcDbBlockBegin
  2
*D2
 70
     1
 10
0.0
 20
0.0
 30
0.0
  3
*D2
  1

  0
LINE
  5
A1
330
77
100
AcDbEntity
  8
0
  6
ByBlock
 62
     0
100
AcDbLine
 10
24.53562340313049
 20
16.75327529705721
 30
0.0
 11
24.53562340313049
 21
17.33114645343219
 31
0.0
  0
LINE
  5
A2
330
77
100
AcDbEntity
  8
0
  6
ByBlock
 62
     0
100
AcDbLine
 10
28.0356234031305
 20
16.75327529705721
 30
0.0
 11
28.0356234031305
 21
17.33114645343219
 31
0.0
  0
LINE
  5
A3
330
77
100
AcDbEntity
  8
0
  6
ByBlock
 62
     0
100
AcDbLine
 10
24.53562340313049
 20
17.15114645343219
 30
0.0
 11
25.88979006979716
 21
17.15114645343219
 31
0.0
  0
LINE
  5
A4
330
77
100
AcDbEntity
  8
0
  6
ByBlock
 62
     0
100
AcDbLine
 10
28.0356234031305
 20
17.15114645343219
 30
0.0
 11
26.68145673646383
 21
17.15114645343219
 31
0.0
  0
LINE
  5
A5
330
77
100
AcDbEntity
  8
0
  6
ByBlock
 62
     0
100
AcDbLine
 10
24.41062340313049
 20
17.02614645343219
 30
0.0
 11
24.6606234031305
 21
17.27614645343219
 31
0.0
  0
LINE
  5
A6
330
77
100
AcDbEntity
  8
0
  6
ByBlock
 62
     0
100
AcDbLine
 10
27.91062340313049
 20
17.02614645343219
 30
0.0
 11
28.16062340313049
 21
17.27614645343219
 31
0.0
  0
TEXT
  5
A7
330
77
100
AcDbEntity
  8
0
  6
ByBlock
 62
     0
100
AcDbText
 10
26.01479006979716
 20
17.08864645343219
 30
0.0
 40
0.125
  1
3 1/2
 72
     1
 11
26.28562340313049
 21
17.15114645343219
 31
0.0
100
AcDbText
 73
     2
  0
POINT
  5
A8
330
77
100
AcDbEntity
  8
DEFPOINTS
  6
ByBlock
 62
     0
100
AcDbPoint
 10
24.53562340313049
 20
16.6907752970572
 30
0.0
  0
POINT
  5
A9
330
77
100
AcDbEntity
  8
DEFPOINTS
  6
ByBlock
 62
     0
100
AcDbPoint
 10
28.0356234031305
 20
16.6907752970572
 30
0.0
  0
POINT
  5
AA
330
77
100
AcDbEntity
  8
DEFPOINTS
  6
ByBlock
 62
     0
100
AcDbPoint
 10
28.0356234031305
 20
17.15114645343219
 30
0.0
  0
ENDBLK
  5
AB
330
77
100
AcDbEntity
  8
0
100
AcDbBlockEnd
  0
BLOCK
  5
AC
330
78
100
AcDbEntity
  8
0
100
AcDbBlockBegin
  2
*D3
 70
     1
 10
0.0
 20
0.0
 30
0.0
  3
*D3
  1

  0
LINE
  5
AD
330
78
100
AcDbEntity
  8
0
  6
ByBlock
 62
     0
100
AcDbLine
 10
25.63340421010508
 20
9.636212215218598
 30
0.0
 11
25.63340421010508
 21
9.328208433345114
 31
0.0
  0
LINE
  5
AE
330
78
100
AcDbEntity
  8
0
  6
ByBlock
 62
     0
100
AcDbLine
 10
26.9378425961559
 20
9.660212215218596
 30
0.0
 11
26.9378425961559
 21
9.328208433345114
 31
0.0
  0
LINE
  5
AF
330
78
100
AcDbEntity
  8
0
  6
ByBlock
 62
     0
100
AcDbLine
 10
25.63340421010508
 20
9.508208433345114
 30
0.0
 11
25.38340421010508
 21
9.508208433345114
 31
0.0
  0
LINE
  5
B0
330
78
100
AcDbEntity
  8
0
  6
ByBlock
 62
     0
100
AcDbLine
 10
26.9378425961559
 20
9.508208433345114
 30
0.0
 11
27.1878425961559
 21
9.508208433345114
 31
0.0
  0
LINE
  5
B1
330
78
100
AcDbEntity
  8
0
  6
ByBlock
 62
     0
100
AcDbLine
 10
25.50840421010508
 20
9.383208433345114
 30
0.0
 11
25.75840421010508
 21
9.633208433345114
 31
0.0
  0
LINE
  5
B2
330
78
100
AcDbEntity
  8
0
  6
ByBlock
 62
     0
100
AcDbLine
 10
26.8128425961559
 20
9.383208433345114
 30
0.0
 11
27.0628425961559
 21
9.633208433345114
 31
0.0
  0
TEXT
  5
B3
330
78
100
AcDbEntity
  8
0
  6
ByBlock
 62
     0
100
AcDbText
 10
27.3128425961559
 20
9.445708433345114
 30
0.0
 40
0.125
  1
1 5/16
 72
     1
 11
27.6253425961559
 21
9.508208433345114
 31
0.0
100
AcDbText
 73
     2
  0
POINT
  5
B4
330
78
100
AcDbEntity
  8
DEFPOINTS
  6
ByBlock
 62
     0
100
AcDbPoint
 10
25.63340421010508
 20
9.698712215218598
 30
0.0
  0
POINT
  5
B5
330
78
100
AcDbEntity
  8
DEFPOINTS
  6
ByBlock
 62
     0
100
AcDbPoint
 10
26.9378425961559
 20
9.722712215218596
 30
0.0
  0
POINT
  5
B6
330
78
100
AcDbEntity
  8
DEFPOINTS
  6
ByBlock
 62
     0
100
AcDbPoint
 10
26.9378425961559
 20
9.508208433345114
 30
0.0
  0
ENDBLK
  5
B7
330
78
100
AcDbEntity
  8
0
100
AcDbBlockEnd
  0
BLOCK
  5
B8
330
79
100
AcDbEntity
  8
0
100
AcDbBlockBegin
  2
*D4
 70
     1
 10
0.0
 20
0.0
 30
0.0
  3
*D4
  1

  0
LINE
  5
B9
330
79
100
AcDbEntity
  8
0
  6
ByBlock
 62
     0
100
AcDbLine
 10
27.47457123121739
 20
11.69533031831754
 30
0.0
 11
28.71368005853805
 21
11.69533031831754
 31
0.0
  0
LINE
  5
BA
330
79
100
AcDbEntity
  8
0
  6
ByBlock
 62
     0
100
AcDbLine
 10
28.0981234031305
 20
13.19077529705721
 30
0.0
 11
28.71368005853805
 21
13.19077529705721
 31
0.0
  0
LINE
  5
BB
330
79
100
AcDbEntity
  8
0
  6
ByBlock
 62
     0
100
AcDbLine
 10
28.53368005853805
 20
11.69533031831754
 30
0.0
 11
28.53368005853805
 21
12.06805280768737
 31
0.0
  0
LINE
  5
BC
330
79
100
AcDbEntity
  8
0
  6
ByBlock
 62
     0
100
AcDbLine
 10
28.53368005853805
 20
13.19077529705721
 30
0.0
 11
28.53368005853805
 21
12.81805280768737
 31
0.0
  0
LINE
  5
BD
330
79
100
AcDbEntity
  8
0
  6
ByBlock
 62
     0
100
AcDbLine
 10
28.65868005853805
 20
11.57033031831754
 30
0.0
 11
28.40868005853805
 21
11.82033031831754
 31
0.0
  0
LINE
  5
BE
330
79
100
AcDbEntity
  8
0
  6
ByBlock
 62
     0
100
AcDbLine
 10
28.65868005853805
 20
13.06577529705721
 30
0.0
 11
28.40868005853805
 21
13.31577529705721
 31
0.0
  0
TEXT
  5
BF
330
79
100
AcDbEntity
  8
0
  6
ByBlock
 62
     0
100
AcDbText
 10
28.59618005853805
 20
12.19305280768737
 30
0.0
 40
0.125
  1
1 1/2
 50
90.0
 72
     1
 11
28.53368005853805
 21
12.44305280768737
 31
0.0
100
AcDbText
 73
     2
  0
POINT
  5
C0
330
79
100
AcDbEntity
  8
DEFPOINTS
  6
ByBlock
 62
     0
100
AcDbPoint
 10
27.4120712312174
 20
11.69533031831754
 30
0.0
  0
POINT
  5
C1
330
79
100
AcDbEntity
  8
DEFPOINTS
  6
ByBlock
 62
     0
100
AcDbPoint
 10
28.0356234031305
 20
13.19077529705721
 30
0.0
  0
POINT
  5
C2
330
79
100
AcDbEntity
  8
DEFPOINTS
  6
ByBlock
 62
     0
100
AcDbPoint
 10
28.53368005853805
 20
13.19077529705721
 30
0.0
  0
ENDBLK
  5
C3
330
79
100
AcDbEntity
  8
0
100
AcDbBlockEnd
  0
BLOCK
  5
C4
330
7A
100
AcDbEntity
  8
0
100
AcDbBlockBegin
  2
*D5
 70
     1
 10
0.0
 20
0.0
 30
0.0
  3
*D5
  1

  0
LINE
  5
C5
330
7A
100
AcDbEntity
  8
0
  6
ByBlock
 62
     0
100
AcDbLine
 10
28.0356234031305
 20
16.75327529705721
 30
0.0
 11
28.0356234031305
 21
17.33965917217156
 31
0.0
  0
LINE
  5
C6
330
7A
100
AcDbEntity
  8
0
  6
ByBlock
 62
     0
100
AcDbLine
 10
29.53562340313049
 20
16.12827529705721
 30
0.0
 11
29.53562340313049
 21
17.33965917217156
 31
0.0
  0
LINE
  5
C7
330
7A
100
AcDbEntity
  8
0
  6
ByBlock
 62
     0
100
AcDbLine
 10
28.0356234031305
 20
17.15965917217156
 30
0.0
 11
28.4106234031305
 21
17.15965917217156
 31
0.0
  0
LINE
  5
C8
330
7A
100
AcDbEntity
  8
0
  6
ByBlock
 62
     0
100
AcDbLine
 10
29.53562340313049
 20
17.15965917217156
 30
0.0
 11
29.16062340313049
 21
17.15965917217156
 31
0.0
  0
LINE
  5
C9
330
7A
100
AcDbEntity
  8
0
  6
ByBlock
 62
     0
100
AcDbLine
 10
27.91062340313049
 20
17.03465917217156
 30
0.0
 11
28.16062340313049
 21
17.28465917217156
 31
0.0
  0
LINE
  5
CA
330
7A
100
AcDbEntity
  8
0
  6
ByBlock
 62
     0
100
AcDbLine
 10
29.41062340313049
 20
17.03465917217156
 30
0.0
 11
29.66062340313049
 21
17.28465917217156
 31
0.0
  0
TEXT
  5
CB
330
7A
100
AcDbEntity
  8
0
  6
ByBlock
 62
     0
100
AcDbText
 10
28.53562340313049
 20
17.09715917217156
 30
0.0
 40
0.125
  1
1 1/2
 72
     1
 11
28.78562340313049
 21
17.15965917217156
 31
0.0
100
AcDbText
 73
     2
  0
POINT
  5
CC
330
7A
100
AcDbEntity
  8
DEFPOINTS
  6
ByBlock
 62
     0
100
AcDbPoint
 10
28.0356234031305
 20
16.6907752970572
 30
0.0
  0
POINT
  5
CD
330
7A
100
AcDbEntity
  8
DEFPOINTS
  6
ByBlock
 62
     0
100
AcDbPoint
 10
29.53562340313049
 20
16.0657752970572
 30
0.0
  0
POINT
  5
CE
330
7A
100
AcDbEntity
  8
DEFPOINTS
  6
ByBlock
 62
     0
100
AcDbPoint
 10
29.53562340313049
 20
17.15965917217156
 30
0.0
  0
ENDBLK
  5
CF
330
7A
100
AcDbEntity
  8
0
100
AcDbBlockEnd
  0
BLOCK
  5
333
330
332
100
AcDbEntity
  8
0
100
AcDbBlockBegin
  2
*D6
 70
     1
 10
0.0
 20
0.0
 30
0.0
  3
*D6
  1

  0
LINE
  5
334
330
332
100
AcDbEntity
  8
ADPDIM
 62
     0
370
    -2
100
AcDbLine
 10
-10.51013241093379
 20
-3.663356906613114
 30
0.0
 11
-10.51013241093379
 21
-2.896561432217439
 31
0.0
  0
LINE
  5
335
330
332
100
AcDbEntity
  8
ADPDIM
 62
     0
370
    -2
100
AcDbLine
 10
-8.266210830181414
 20
-3.663356906613114
 30
0.0
 11
-8.266210830181414
 21
-2.896561432217439
 31
0.0
  0
LINE
  5
336
330
332
100
AcDbEntity
  8
ADPDIM
 62
     0
370
    -2
100
AcDbLine
 10
-10.33013241093379
 20
-3.076561432217439
 30
0.0
 11
-9.749004953890937
 21
-3.076561432217439
 31
0.0
  0
LINE
  5
337
330
332
100
AcDbEntity
  8
ADPDIM
 62
     0
370
    -2
100
AcDbLine
 10
-8.446210830181414
 20
-3.076561432217439
 30
0.0
 11
-9.027338287224269
 21
-3.076561432217439
 31
0.0
  0
SOLID
  5
338
330
332
100
AcDbEntity
  8
ADPDIM
 62
     0
100
AcDbTrace
 10
-10.33013241093379
 20
-3.046561432217439
 30
0.0
 11
-10.33013241093379
 21
-3.106561432217439
 31
0.0
 12
-10.51013241093379
 22
-3.076561432217439
 32
0.0
 13
-10.51013241093379
 23
-3.076561432217439
 33
0.0
  0
SOLID
  5
339
330
332
100
AcDbEntity
  8
ADPDIM
 62
     0
100
AcDbTrace
 10
-8.446210830181414
 20
-3.046561432217439
 30
0.0
 11
-8.446210830181414
 21
-3.106561432217439
 31
0.0
 12
-8.266210830181414
 22
-3.076561432217439
 32
0.0
 13
-8.266210830181414
 23
-3.076561432217439
 33
0.0
  0
MTEXT
  5
33A
330
332
100
AcDbEntity
  8
ADPDIM
 62
     0
100
AcDbMText
 10
-9.388171620557603
 20
-3.076561432217439
 30
0.0
 40
0.125
 41
0.0
 71
     5
 72
     1
  1
\A1;2 1/4
 73
     1
 44
1.0
1001
ACAD
1000
MTEXTBEGIN
1070
    73
1070
     1
1070
    44
1040
1.0
1070
    74
1070
     0
1000
MTEXTEND
  0
POINT
  5
33B
330
332
100
AcDbEntity
  8
DEFPOINTS
 62
     0
100
AcDbPoint
 10
-10.51013241093379
 20
-3.725856906613114
 30
0.0
  0
POINT
  5
33C
330
332
100
AcDbEntity
  8
DEFPOINTS
 62
     0
100
AcDbPoint
 10
-8.266210830181414
 20
-3.725856906613114
 30
0.0
  0
POINT
  5
33D
330
332
100
AcDbEntity
  8
DEFPOINTS
 62
     0
100
AcDbPoint
 10
-8.266210830181414
 20
-3.076561432217439
 30
0.0
  0
ENDBLK
  5
33E
330
332
100
AcDbEntity
  8
0
100
AcDbBlockEnd
  0
BLOCK
  5
340
330
33F
100
AcDbEntity
  8
0
100
AcDbBlockBegin
  2
*D7
 70
     1
 10
0.0
 20
0.0
 30
0.0
  3
*D7
  1

  0
LINE
  5
341
330
33F
100
AcDbEntity
  8
ADPDIM
 62
     0
370
    -2
100
AcDbLine
 10
-10.03008488984317
 20
-3.89428691078616
 30
0.0
 11
-10.03008488984317
 21
-4.212175990126976
 31
0.0
  0
LINE
  5
342
330
33F
100
AcDbEntity
  8
ADPDIM
 62
     0
370
    -2
100
AcDbLine
 10
-8.717584889843173
 20
-3.89428691078616
 30
0.0
 11
-8.717584889843173
 21
-4.212175990126976
 31
0.0
  0
LINE
  5
343
330
33F
100
AcDbEntity
  8
ADPDIM
 62
     0
370
    -2
100
AcDbLine
 10
-10.03008488984317
 20
-4.032175990126976
 30
0.0
 11
-9.811334889843173
 21
-4.032175990126976
 31
0.0
  0
LINE
  5
344
330
33F
100
AcDbEntity
  8
ADPDIM
 62
     0
370
    -2
100
AcDbLine
 10
-8.717584889843173
 20
-4.032175990126976
 30
0.0
 11
-8.936334889843173
 21
-4.032175990126976
 31
0.0
  0
LINE
  5
345
330
33F
100
AcDbEntity
  8
ADPDIM
 62
     0
370
    -2
100
AcDbLine
 10
-8.842584889843173
 20
-4.157175990126976
 30
0.0
 11
-8.592584889843173
 21
-3.907175990126976
 31
0.0
  0
LINE
  5
346
330
33F
100
AcDbEntity
  8
ADPDIM
 62
     0
370
    -2
100
AcDbLine
 10
-10.15508488984317
 20
-4.157175990126976
 30
0.0
 11
-9.905084889843173
 21
-3.907175990126976
 31
0.0
  0
MTEXT
  5
347
330
33F
100
AcDbEntity
  8
ADPDIM
 62
     0
100
AcDbMText
 10
-9.373834889843173
 20
-4.032175990126976
 30
0.0
 40
0.125
 41
0.0
 71
     5
 72
     1
  1
\A1;1 5/16
 73
     1
 44
1.0
1001
ACAD
1000
MTEXTBEGIN
1070
    73
1070
     1
1070
    44
1040
1.0
1070
    74
1070
     0
1000
MTEXTEND
  0
POINT
  5
348
330
33F
100
AcDbEntity
  8
DEFPOINTS
 62
     0
100
AcDbPoint
 10
-10.03008488984317
 20
-3.83178691078616
 30
0.0
  0
POINT
  5
349
330
33F
100
AcDbEntity
  8
DEFPOINTS
 62
     0
100
AcDbPoint
 10
-8.717584889843173
 20
-3.83178691078616
 30
0.0
  0
POINT
  5
34A
330
33F
100
AcDbEntity
  8
DEFPOINTS
 62
     0
100
AcDbPoint
 10
-8.717584889843173
 20
-4.032175990126976
 30
0.0
  0
ENDBLK
  5
34B
330
33F
100
AcDbEntity
  8
0
100
AcDbBlockEnd
  0
BLOCK
  5
34D
330
34C
100
AcDbEntity
  8
0
100
AcDbBlockBegin
  2
*D8
 70
     1
 10
0.0
 20
0.0
 30
0.0
  3
*D8
  1

  0
LINE
  5
34E
330
34C
100
AcDbEntity
  8
ADPDIM
 62
     0
370
    -2
100
AcDbLine
 10
-10.15887895848968
 20
-4.080362485850745
 30
0.0
 11
-10.15887895848968
 21
-4.570013635979918
 31
0.0
  0
LINE
  5
34F
330
34C
100
AcDbEntity
  8
ADPDIM
 62
     0
370
    -2
100
AcDbLine
 10
-8.59637895848968
 20
-4.080362485850745
 30
0.0
 11
-8.59637895848968
 21
-4.570013635979918
 31
0.0
  0
LINE
  5
350
330
34C
100
AcDbEntity
  8
ADPDIM
 62
     0
370
    -2
100
AcDbLine
 10
-10.15887895848968
 20
-4.390013635979919
 30
0.0
 11
-9.81512895848968
 21
-4.390013635979919
 31
0.0
  0
LINE
  5
351
330
34C
100
AcDbEntity
  8
ADPDIM
 62
     0
370
    -2
100
AcDbLine
 10
-8.59637895848968
 20
-4.390013635979919
 30
0.0
 11
-8.94012895848968
 21
-4.390013635979919
 31
0.0
  0
LINE
  5
352
330
34C
100
AcDbEntity
  8
ADPDIM
 62
     0
370
    -2
100
AcDbLine
 10
-8.72137895848968
 20
-4.515013635979919
 30
0.0
 11
-8.47137895848968
 21
-4.265013635979919
 31
0.0
  0
LINE
  5
353
330
34C
100
AcDbEntity
  8
ADPDIM
 62
     0
370
    -2
100
AcDbLine
 10
-10.28387895848968
 20
-4.515013635979919
 30
0.0
 11
-10.03387895848968
 21
-4.265013635979919
 31
0.0
  0
MTEXT
  5
354
330
34C
100
AcDbEntity
  8
ADPDIM
 62
     0
100
AcDbMText
 10
-9.37762895848968
 20
-4.390013635979919
 30
0.0
 40
0.125
 41
0.0
 71
     5
 72
     1
  1
\A1;1 9/16
 73
     1
 44
1.0
1001
ACAD
1000
MTEXTBEGIN
1070
    73
1070
     1
1070
    44
1040
1.0
1070
    74
1070
     0
1000
MTEXTEND
  0
POINT
  5
355
330
34C
100
AcDbEntity
  8
DEFPOINTS
 62
     0
100
AcDbPoint
 10
-10.15887895848968
 20
-4.017862485850745
 30
0.0
  0
POINT
  5
356
330
34C
100
AcDbEntity
  8
DEFPOINTS
 62
     0
100
AcDbPoint
 10
-8.59637895848968
 20
-4.017862485850745
 30
0.0
  0
POINT
  5
357
330
34C
100
AcDbEntity
  8
DEFPOINTS
 62
     0
100
AcDbPoint
 10
-8.59637895848968
 20
-4.390013635979919
 30
0.0
  0
ENDBLK
  5
358
330
34C
100
AcDbEntity
  8
0
100
AcDbBlockEnd
  0
BLOCK
  5
371
330
366
100
AcDbEntity
  8
0
100
AcDbBlockBegin
  2
*D10
 70
     1
 10
0.0
 20
0.0
 30
0.0
  3
*D10
  1

  0
LINE
  5
38D
330
366
100
AcDbEntity
  8
ADPDIM
 62
     0
370
    -2
100
AcDbLine
 10
25.1575061981937
 20
10.05928985939647
 30
0.0
 11
25.1575061981937
 21
10.82608533379215
 31
0.0
  0
LINE
  5
38E
330
366
100
AcDbEntity
  8
ADPDIM
 62
     0
370
    -2
100
AcDbLine
 10
27.40142777894608
 20
10.05928985939647
 30
0.0
 11
27.40142777894608
 21
10.82608533379215
 31
0.0
  0
LINE
  5
38F
330
366
100
AcDbEntity
  8
ADPDIM
 62
     0
370
    -2
100
AcDbLine
 10
25.3375061981937
 20
10.64608533379215
 30
0.0
 11
25.91863365523656
 21
10.64608533379215
 31
0.0
  0
LINE
  5
390
330
366
100
AcDbEntity
  8
ADPDIM
 62
     0
370
    -2
100
AcDbLine
 10
27.22142777894608
 20
10.64608533379215
 30
0.0
 11
26.64030032190322
 21
10.64608533379215
 31
0.0
  0
SOLID
  5
391
330
366
100
AcDbEntity
  8
ADPDIM
 62
     0
100
AcDbTrace
 10
25.3375061981937
 20
10.67608533379214
 30
0.0
 11
25.3375061981937
 21
10.61608533379215
 31
0.0
 12
25.1575061981937
 22
10.64608533379215
 32
0.0
 13
25.1575061981937
 23
10.64608533379215
 33
0.0
  0
SOLID
  5
392
330
366
100
AcDbEntity
  8
ADPDIM
 62
     0
100
AcDbTrace
 10
27.22142777894608
 20
10.67608533379214
 30
0.0
 11
27.22142777894608
 21
10.61608533379215
 31
0.0
 12
27.40142777894608
 22
10.64608533379215
 32
0.0
 13
27.40142777894608
 23
10.64608533379215
 33
0.0
  0
MTEXT
  5
393
330
366
100
AcDbEntity
  8
ADPDIM
 62
     0
100
AcDbMText
 10
26.27946698856989
 20
10.64608533379215
 30
0.0
 40
0.125
 41
0.0
 71
     5
 72
     1
  1
\A1;2 1/4
 73
     1
 44
1.0
1001
ACAD
1000
MTEXTBEGIN
1070
    73
1070
     1
1070
    44
1040
1.0
1070
    74
1070
     0
1000
MTEXTEND
  0
POINT
  5
394
330
366
100
AcDbEntity
  8
DEFPOINTS
 62
     0
100
AcDbPoint
 10
25.1575061981937
 20
9.996789859396471
 30
0.0
  0
POINT
  5
395
330
366
100
AcDbEntity
  8
DEFPOINTS
 62
     0
100
AcDbPoint
 10
27.40142777894608
 20
9.996789859396471
 30
0.0
  0
POINT
  5
396
330
366
100
AcDbEntity
  8
DEFPOINTS
 62
     0
100
AcDbPoint
 10
27.40142777894608
 20
10.64608533379215
 30
0.0
  0
ENDBLK
  5
372
330
366
100
AcDbEntity
  8
0
100
AcDbBlockEnd
  0
BLOCK
  5
37E
330
373
100
AcDbEntity
  8
0
100
AcDbBlockBegin
  2
*D11
 70
     1
 10
0.0
 20
0.0
 30
0.0
  3
*D11
  1

  0
LINE
  5
397
330
373
100
AcDbEntity
  8
ADPDIM
 62
     0
370
    -2
100
AcDbLine
 10
25.63755371928432
 20
9.828359855223425
 30
0.0
 11
25.63755371928432
 21
9.510470775882609
 31
0.0
  0
LINE
  5
398
330
373
100
AcDbEntity
  8
ADPDIM
 62
     0
370
    -2
100
AcDbLine
 10
26.95005371928432
 20
9.828359855223425
 30
0.0
 11
26.95005371928432
 21
9.510470775882609
 31
0.0
  0
LINE
  5
399
330
373
100
AcDbEntity
  8
ADPDIM
 62
     0
370
    -2
100
AcDbLine
 10
25.63755371928432
 20
9.690470775882609
 30
0.0
 11
25.85630371928432
 21
9.690470775882609
 31
0.0
  0
LINE
  5
39A
330
373
100
AcDbEntity
  8
ADPDIM
 62
     0
370
    -2
100
AcDbLine
 10
26.95005371928432
 20
9.690470775882609
 30
0.0
 11
26.73130371928432
 21
9.690470775882609
 31
0.0
  0
LINE
  5
39B
330
373
100
AcDbEntity
  8
ADPDIM
 62
     0
370
    -2
100
AcDbLine
 10
26.82505371928432
 20
9.565470775882609
 30
0.0
 11
27.07505371928432
 21
9.815470775882609
 31
0.0
  0
LINE
  5
39C
330
373
100
AcDbEntity
  8
ADPDIM
 62
     0
370
    -2
100
AcDbLine
 10
25.51255371928432
 20
9.565470775882609
 30
0.0
 11
25.76255371928432
 21
9.815470775882609
 31
0.0
  0
MTEXT
  5
39D
330
373
100
AcDbEntity
  8
ADPDIM
 62
     0
100
AcDbMText
 10
26.29380371928432
 20
9.690470775882609
 30
0.0
 40
0.125
 41
0.0
 71
     5
 72
     1
  1
\A1;1 5/16
 73
     1
 44
1.0
1001
ACAD
1000
MTEXTBEGIN
1070
    73
1070
     1
1070
    44
1040
1.0
1070
    74
1070
     0
1000
MTEXTEND
  0
POINT
  5
39E
330
373
100
AcDbEntity
  8
DEFPOINTS
 62
     0
100
AcDbPoint
 10
25.63755371928432
 20
9.890859855223425
 30
0.0
  0
POINT
  5
39F
330
373
100
AcDbEntity
  8
DEFPOINTS
 62
     0
100
AcDbPoint
 10
26.95005371928432
 20
9.890859855223425
 30
0.0
  0
POINT
  5
3A0
330
373
100
AcDbEntity
  8
DEFPOINTS
 62
     0
100
AcDbPoint
 10
26.95005371928432
 20
9.690470775882609
 30
0.0
  0
ENDBLK
  5
37F
330
373
100
AcDbEntity
  8
0
100
AcDbBlockEnd
  0
BLOCK
  5
38B
330
380
100
AcDbEntity
  8
0
100
AcDbBlockBegin
  2
*D12
 70
     1
 10
0.0
 20
0.0
 30
0.0
  3
*D12
  1

  0
LINE
  5
3A1
330
380
100
AcDbEntity
  8
ADPDIM
 62
     0
370
    -2
100
AcDbLine
 10
25.50875965063781
 20
9.64228428015884
 30
0.0
 11
25.50875965063781
 21
9.152633130029666
 31
0.0
  0
LINE
  5
3A2
330
380
100
AcDbEntity
  8
ADPDIM
 62
     0
370
    -2
100
AcDbLine
 10
27.07125965063781
 20
9.64228428015884
 30
0.0
 11
27.07125965063781
 21
9.152633130029666
 31
0.0
  0
LINE
  5
3A3
330
380
100
AcDbEntity
  8
ADPDIM
 62
     0
370
    -2
100
AcDbLine
 10
25.50875965063781
 20
9.332633130029666
 30
0.0
 11
25.85250965063782
 21
9.332633130029666
 31
0.0
  0
LINE
  5
3A4
330
380
100
AcDbEntity
  8
ADPDIM
 62
     0
370
    -2
100
AcDbLine
 10
27.07125965063781
 20
9.332633130029666
 30
0.0
 11
26.72750965063781
 21
9.332633130029666
 31
0.0
  0
LINE
  5
3A5
330
380
100
AcDbEntity
  8
ADPDIM
 62
     0
370
    -2
100
AcDbLine
 10
26.94625965063782
 20
9.207633130029666
 30
0.0
 11
27.19625965063781
 21
9.457633130029666
 31
0.0
  0
LINE
  5
3A6
330
380
100
AcDbEntity
  8
ADPDIM
 62
     0
370
    -2
100
AcDbLine
 10
25.38375965063782
 20
9.207633130029666
 30
0.0
 11
25.63375965063781
 21
9.457633130029666
 31
0.0
  0
MTEXT
  5
3A7
330
380
100
AcDbEntity
  8
ADPDIM
 62
     0
100
AcDbMText
 10
26.29000965063781
 20
9.332633130029666
 30
0.0
 40
0.125
 41
0.0
 71
     5
 72
     1
  1
\A1;1 9/16
 73
     1
 44
1.0
1001
ACAD
1000
MTEXTBEGIN
1070
    73
1070
     1
1070
    44
1040
1.0
1070
    74
1070
     0
1000
MTEXTEND
  0
POINT
  5
3A8
330
380
100
AcDbEntity
  8
DEFPOINTS
 62
     0
100
AcDbPoint
 10
25.50875965063781
 20
9.70478428015884
 30
0.0
  0
POINT
  5
3A9
330
380
100
AcDbEntity
  8
DEFPOINTS
 62
     0
100
AcDbPoint
 10
27.07125965063781
 20
9.70478428015884
 30
0.0
  0
POINT
  5
3AA
330
380
100
AcDbEntity
  8
DEFPOINTS
 62
     0
100
AcDbPoint
 10
27.07125965063781
 20
9.332633130029666
 30
0.0
  0
ENDBLK
  5
38C
330
380
100
AcDbEntity
  8
0
100
AcDbBlockEnd
  0
ENDSEC
  0
SECTION
  2
ENTITIES
  0
DIMENSION
  5
D1
330
1E
100
AcDbEntity
  8
ADPDIM
100
AcDbDimension
  2
*D0
 10
27.6918734031305
 20
2.730609324345646
 30
0.0
 11
26.2856234031305
 21
2.730609324345646
 31
0.0
 71
     5
 42
-1.0
100
AcDbAlignedDimension
 13
24.8793734031305
 23
3.54816499603643
 33
0.0
 14
27.6918734031305
 24
3.54816499603643
 34
0.0
100
AcDbRotatedDimension
  0
LINE
  5
D4
330
1E
100
AcDbEntity
  8
ADP1DETAIL
100
AcDbLine
 10
24.89298720890947
 20
9.698712215218595
 30
0.0
 11
27.67703982137257
 21
9.698712215218595
 31
0.0
  0
LINE
  5
D5
330
1E
100
AcDbEntity
  8
ADP1DETAIL
100
AcDbLine
 10
27.28562340313049
 20
10.52471864045847
 30
0.0
 11
25.28562340313049
 21
10.52471864045847
 31
0.0
  0
LINE
  5
D6
330
1E
100
AcDbEntity
  8
ADP1DETAIL
100
AcDbLine
 10
27.6918734031305
 20
3.54816499603643
 30
0.0
 11
24.8793734031305
 21
3.54816499603643
 31
0.0
  0
LINE
  5
D7
330
1E
100
AcDbEntity
  8
ADP1DETAIL
100
AcDbLine
 10
24.53562340313049
 20
3.199060156812976
 30
0.0
 11
28.0356234031305
 21
3.199060156812976
 31
0.0
  0
LINE
  5
D8
330
1E
100
AcDbEntity
  8
ADP1DETAIL
100
AcDbLine
 10
24.8793734031305
 20
6.36066499603643
 30
0.0
 11
27.6918734031305
 21
6.36066499603643
 31
0.0
  0
LINE
  5
D9
330
1E
100
AcDbEntity
  8
ADP1DETAIL
100
AcDbLine
 10
27.4106234031305
 20
8.199060156812976
 30
0.0
 11
25.16062340313049
 21
8.199060156812976
 31
0.0
  0
LINE
  5
DA
330
1E
100
AcDbEntity
  8
ADP1DETAIL
100
AcDbLine
 10
25.76155216995908
 20
8.199060156812976
 30
0.0
 11
25.76155216995908
 21
6.36066499603643
 31
0.0
  0
LINE
  5
DB
330
1E
100
AcDbEntity
  8
ADP1DETAIL
100
AcDbLine
 10
25.63655216995908
 20
8.199060156812976
 30
0.0
 11
25.63655216995908
 21
6.36066499603643
 31
0.0
  0
LINE
  5
DC
330
1E
100
AcDbEntity
  8
ADP1DETAIL
100
AcDbLine
 10
25.51155216995908
 20
8.199060156812976
 30
0.0
 11
25.51155216995908
 21
6.360664996036431
 31
0.0
  0
LINE
  5
DD
330
1E
100
AcDbEntity
  8
ADP1DETAIL
100
AcDbLine
 10
25.16062340313049
 20
8.199060156812976
 30
0.0
 11
25.16062340313049
 21
6.699060156812976
 31
0.0
  0
LINE
  5
DE
330
1E
100
AcDbEntity
  8
ADP1DETAIL
100
AcDbLine
 10
25.0043734031305
 20
3.87426225121576
 30
0.0
 11
25.0043734031305
 21
6.034567740857099
 31
0.0
  0
LINE
  5
DF
330
1E
100
AcDbEntity
  8
ADP1DETAIL
100
AcDbLine
 10
24.8793734031305
 20
3.54816499603643
 30
0.0
 11
24.8793734031305
 21
6.36066499603643
 31
0.0
  0
LINE
  5
E0
330
1E
100
AcDbEntity
  8
ADP1DETAIL
100
AcDbLine
 10
24.53562340313049
 20
6.699060156812976
 30
0.0
 11
24.53562340313049
 21
3.199060156812976
 31
0.0
  0
LINE
  5
E1
330
1E
100
AcDbEntity
  8
ADP1DETAIL
100
AcDbLine
 10
25.1918734031305
 20
3.87426225121576
 30
0.0
 11
25.1918734031305
 21
3.56176225121576
 31
0.0
  0
LINE
  5
E2
330
1E
100
AcDbEntity
  8
ADP1DETAIL
100
AcDbLine
 10
25.0043734031305
 20
3.87426225121576
 30
0.0
 11
25.1918734031305
 21
3.87426225121576
 31
0.0
  0
LINE
  5
E3
330
1E
100
AcDbEntity
  8
ADP1DETAIL
100
AcDbLine
 10
25.1606234031305
 20
6.699060156812976
 30
0.0
 11
24.53562340313049
 21
6.699060156812976
 31
0.0
  0
LINE
  5
E4
330
1E
100
AcDbEntity
  8
ADP1DETAIL
100
AcDbLine
 10
25.1918734031305
 20
6.034567740857099
 30
0.0
 11
25.0043734031305
 21
6.034567740857099
 31
0.0
  0
LINE
  5
E5
330
1E
100
AcDbEntity
  8
ADP1DETAIL
100
AcDbLine
 10
25.1918734031305
 20
6.347067740857099
 30
0.0
 11
25.1918734031305
 21
6.034567740857099
 31
0.0
  0
ARC
  5
E6
330
1E
100
AcDbEntity
  8
ADP1DETAIL
100
AcDbCircle
 10
24.6892819363855
 20
10.98174226165795
 30
0.0
 40
0.7513279811732399
100
AcDbArc
 50
266.4904592099828
 51
322.534199801749
  0
LINE
  5
E7
330
1E
100
AcDbEntity
  8
ADP1DETAIL
100
AcDbLine
 10
25.27199114623971
 20
10.18786349277294
 30
0.0
 11
24.64206980865339
 21
10.18769700896944
 31
0.0
  0
ARC
  5
E8
330
1E
100
AcDbEntity
  8
ADP1DETAIL
100
AcDbCircle
 10
24.61301966555669
 20
9.71272598705903
 30
0.0
 40
0.2649999999999998
100
AcDbArc
 50
0.0
 51
78.45730220113806
  0
LINE
  5
E9
330
1E
100
AcDbEntity
  8
ADP1DETAIL
100
AcDbLine
 10
25.36702307959741
 20
10.23114646980632
 30
0.0
 11
24.64154612950789
 21
10.23095473132281
 31
0.0
  0
ARC
  5
EA
330
1E
100
AcDbEntity
  8
ADP1DETAIL
100
AcDbCircle
 10
24.89298720890947
 20
9.713712215218595
 30
0.0
 40
0.015
100
AcDbArc
 50
183.7698334967862
 51
270.0
  0
ARC
  5
EB
330
1E
100
AcDbEntity
  8
ADP1DETAIL
100
AcDbCircle
 10
24.64206980865339
 20
10.07869700896944
 30
0.0
 40
0.1089999999999999
100
AcDbArc
 50
90.0
 51
282.7068037043093
  0
LINE
  5
EC
330
1E
100
AcDbEntity
  8
ADP1DETAIL
100
AcDbLine
 10
24.64206980865339
 20
10.18769700896944
 30
0.0
 11
24.64154612950789
 21
10.23095473132281
 31
0.0
  0
LINE
  5
FA
330
1E
100
AcDbEntity
  8
ADP1DETAIL
100
AcDbLine
 10
27.05804345843514
 20
6.36066499603643
 30
0.0
 11
27.05804345843514
 21
8.199060156812976
 31
0.0
  0
LINE
  5
FB
330
1E
100
AcDbEntity
  8
ADP1DETAIL
100
AcDbLine
 10
27.4106234031305
 20
6.699060156812979
 30
0.0
 11
27.4106234031305
 21
8.199060156812976
 31
0.0
  0
LINE
  5
FC
330
1E
100
AcDbEntity
  8
ADP1DETAIL
100
AcDbLine
 10
26.93304345843514
 20
6.36066499603643
 30
0.0
 11
26.93304345843514
 21
8.199060156812976
 31
0.0
  0
LINE
  5
FD
330
1E
100
AcDbEntity
  8
ADP1DETAIL
100
AcDbLine
 10
26.80804345843514
 20
6.36066499603643
 30
0.0
 11
26.80804345843514
 21
8.199060156812976
 31
0.0
  0
LINE
  5
FE
330
1E
100
AcDbEntity
  8
ADP1DETAIL
100
AcDbLine
 10
27.69722824235395
 20
4.301640101508329
 30
0.0
 11
29.5356234031305
 21
4.301640101508329
 31
0.0
  0
LINE
  5
FF
330
1E
100
AcDbEntity
  8
ADP1DETAIL
100
AcDbLine
 10
27.69722824235395
 20
4.426640101508329
 30
0.0
 11
29.5356234031305
 21
4.426640101508329
 31
0.0
  0
LINE
  5
100
330
1E
100
AcDbEntity
  8
ADP1DETAIL
100
AcDbLine
 10
27.69722824235395
 20
4.176640101508329
 30
0.0
 11
29.5356234031305
 21
4.176640101508329
 31
0.0
  0
LINE
  5
101
330
1E
100
AcDbEntity
  8
ADP1DETAIL
100
AcDbLine
 10
29.5356234031305
 20
6.074060156812976
 30
0.0
 11
28.0356234031305
 21
6.074060156812976
 31
0.0
  0
LINE
  5
102
330
1E
100
AcDbEntity
  8
ADP1DETAIL
100
AcDbLine
 10
29.5356234031305
 20
5.473131389984391
 30
0.0
 11
27.69722824235395
 21
5.473131389984391
 31
0.0
  0
LINE
  5
103
330
1E
100
AcDbEntity
  8
ADP1DETAIL
100
AcDbLine
 10
29.5356234031305
 20
5.598131389984391
 30
0.0
 11
27.69722824235395
 21
5.598131389984391
 31
0.0
  0
LINE
  5
104
330
1E
100
AcDbEntity
  8
ADP1DETAIL
100
AcDbLine
 10
29.5356234031305
 20
5.723131389984391
 30
0.0
 11
27.69722824235395
 21
5.723131389984391
 31
0.0
  0
LINE
  5
105
330
1E
100
AcDbEntity
  8
ADP1DETAIL
100
AcDbLine
 10
28.0356234031305
 20
3.824060156812976
 30
0.0
 11
29.5356234031305
 21
3.824060156812976
 31
0.0
  0
LINE
  5
106
330
1E
100
AcDbEntity
  8
ADP1DETAIL
100
AcDbLine
 10
27.6918734031305
 20
6.36066499603643
 30
0.0
 11
27.6918734031305
 21
3.54816499603643
 31
0.0
  0
LINE
  5
107
330
1E
100
AcDbEntity
  8
ADP1DETAIL
100
AcDbLine
 10
27.5668734031305
 20
3.87426225121576
 30
0.0
 11
27.5668734031305
 21
6.034567740857099
 31
0.0
  0
LINE
  5
108
330
1E
100
AcDbEntity
  8
ADP1DETAIL
100
AcDbLine
 10
28.0356234031305
 20
3.199060156812976
 30
0.0
 11
28.0356234031305
 21
3.824060156812976
 31
0.0
  0
LINE
  5
109
330
1E
100
AcDbEntity
  8
ADP1DETAIL
100
AcDbLine
 10
27.3793734031305
 20
3.87426225121576
 30
0.0
 11
27.3793734031305
 21
3.56176225121576
 31
0.0
  0
LINE
  5
10A
330
1E
100
AcDbEntity
  8
ADP1DETAIL
100
AcDbLine
 10
27.5668734031305
 20
3.87426225121576
 30
0.0
 11
27.3793734031305
 21
3.87426225121576
 31
0.0
  0
LINE
  5
10B
330
1E
100
AcDbEntity
  8
ADP1DETAIL
100
AcDbLine
 10
28.0356234031305
 20
6.699060156812976
 30
0.0
 11
27.4106234031305
 21
6.699060156812976
 31
0.0
  0
LINE
  5
10C
330
1E
100
AcDbEntity
  8
ADP1DETAIL
100
AcDbLine
 10
27.3793734031305
 20
6.034567740857099
 30
0.0
 11
27.5668734031305
 21
6.034567740857099
 31
0.0
  0
LINE
  5
10D
330
1E
100
AcDbEntity
  8
ADP1DETAIL
100
AcDbLine
 10
27.3793734031305
 20
6.347067740857099
 30
0.0
 11
27.3793734031305
 21
6.034567740857099
 31
0.0
  0
LINE
  5
10E
330
1E
100
AcDbEntity
  8
ADP1DETAIL
100
AcDbLine
 10
28.0356234031305
 20
6.074060156812972
 30
0.0
 11
28.0356234031305
 21
6.699060156812976
 31
0.0
  0
LINE
  5
10F
330
1E
100
AcDbEntity
  8
ADP1DETAIL
100
AcDbLine
 10
29.5356234031305
 20
3.824060156812976
 30
0.0
 11
29.5356234031305
 21
6.074060156812976
 31
0.0
  0
ARC
  5
11B
330
1E
100
AcDbEntity
  8
ADP1DETAIL
100
AcDbCircle
 10
27.67703982137257
 20
9.713712215218595
 30
0.0
 40
0.015
100
AcDbArc
 50
270.0
 51
356.2301665032137
  0
ARC
  5
11C
330
1E
100
AcDbEntity
  8
ADP1DETAIL
100
AcDbCircle
 10
27.88196486987548
 20
10.98174226165795
 30
0.0
 40
0.7513279811732399
100
AcDbArc
 50
217.465800198251
 51
273.5095407900173
  0
LINE
  5
11D
330
1E
100
AcDbEntity
  8
ADP1DETAIL
100
AcDbLine
 10
27.92848090077415
 20
10.18856558443408
 30
0.0
 11
27.29926214635229
 21
10.18839928631839
 31
0.0
  0
LINE
  5
11E
330
1E
100
AcDbEntity
  8
ADP1DETAIL
100
AcDbLine
 10
27.92795722162864
 20
10.23182330678745
 30
0.0
 11
27.20753195063093
 21
10.23163290342738
 31
0.0
  0
ARC
  5
122
330
1E
100
AcDbEntity
  8
ADP1DETAIL
100
AcDbCircle
 10
27.92795722162864
 20
10.07869700896944
 30
0.0
 40
0.1089999999999999
100
AcDbArc
 50
257.2931962956907
 51
90.0
  0
ARC
  5
123
330
1E
100
AcDbEntity
  8
ADP1DETAIL
100
AcDbCircle
 10
27.95700736472535
 20
9.71272598705903
 30
0.0
 40
0.2649999999999998
100
AcDbArc
 50
101.5426977988619
 51
180.0
  0
LINE
  5
124
330
1E
100
AcDbEntity
  8
ADP1DETAIL
100
AcDbLine
 10
27.92795722162864
 20
10.18769700896944
 30
0.0
 11
27.92848090077414
 21
10.23095473132281
 31
0.0
  0
DIMENSION
  5
125
330
1E
100
AcDbEntity
  8
ADPDIM
100
AcDbDimension
  2
*D2
 10
28.0356234031305
 20
17.15114645343219
 30
0.0
 11
26.28562340313049
 21
17.15114645343219
 31
0.0
 71
     5
 42
-1.0
100
AcDbAlignedDimension
 13
24.53562340313049
 23
16.6907752970572
 33
0.0
 14
28.0356234031305
 24
16.6907752970572
 34
0.0
100
AcDbRotatedDimension
  0
LINE
  5
127
330
1E
100
AcDbEntity
  8
ADP1DETAIL
100
AcDbLine
 10
27.28562340313049
 20
13.94077529705721
 30
0.0
 11
25.2856234031305
 21
13.94077529705721
 31
0.0
  0
LINE
  5
128
330
1E
100
AcDbEntity
  8
ADP1DETAIL
100
AcDbLine
 10
25.2856234031305
 20
15.94077529705721
 30
0.0
 11
27.28562340313049
 21
15.94077529705721
 31
0.0
  0
LINE
  5
129
330
1E
100
AcDbEntity
  8
ADP1DETAIL
100
AcDbLine
 10
24.6606234031305
 20
16.56577529705721
 30
0.0
 11
27.91062340313049
 21
16.56577529705721
 31
0.0
  0
LINE
  5
12A
330
1E
100
AcDbEntity
  8
ADP1DETAIL
100
AcDbLine
 10
27.4106234031305
 20
11.6907752970572
 30
0.0
 11
25.16062340313049
 21
11.6907752970572
 31
0.0
  0
LINE
  5
12B
330
1E
100
AcDbEntity
  8
ADP1DETAIL
100
AcDbLine
 10
24.53562340313049
 20
16.6907752970572
 30
0.0
 11
28.0356234031305
 21
16.6907752970572
 31
0.0
  0
LINE
  5
12C
330
1E
100
AcDbEntity
  8
ADP1DETAIL
100
AcDbLine
 10
25.2856234031305
 20
13.94077529705721
 30
0.0
 11
25.2856234031305
 21
15.94077529705721
 31
0.0
  0
LINE
  5
12D
330
1E
100
AcDbEntity
  8
ADP1DETAIL
100
AcDbLine
 10
24.53562340313049
 20
13.19077529705721
 30
0.0
 11
24.53562340313049
 21
16.6907752970572
 31
0.0
  0
LINE
  5
12E
330
1E
100
AcDbEntity
  8
ADP1DETAIL
100
AcDbLine
 10
24.6606234031305
 20
13.31577529705721
 30
0.0
 11
24.6606234031305
 21
16.56577529705721
 31
0.0
  0
LINE
  5
12F
330
1E
100
AcDbEntity
  8
ADP1DETAIL
100
AcDbLine
 10
25.27654240883377
 20
11.6907752970572
 30
0.0
 11
25.27654240883377
 21
13.31577529705721
 31
0.0
  0
LINE
  5
130
330
1E
100
AcDbEntity
  8
ADP1DETAIL
100
AcDbLine
 10
25.16062340313049
 20
11.6907752970572
 30
0.0
 11
25.16062340313049
 21
13.19077529705721
 31
0.0
  0
LINE
  5
131
330
1E
100
AcDbEntity
  8
ADP1DETAIL
100
AcDbLine
 10
24.53562340313049
 20
13.19077529705721
 30
0.0
 11
25.2856234031305
 21
13.94077529705721
 31
0.0
  0
LINE
  5
132
330
1E
100
AcDbEntity
  8
ADP1DETAIL
100
AcDbLine
 10
25.1606234031305
 20
13.19077529705721
 30
0.0
 11
24.53562340313049
 21
13.19077529705721
 31
0.0
  0
LINE
  5
133
330
1E
100
AcDbEntity
  8
ADP1DETAIL
100
AcDbLine
 10
25.27654240883377
 20
13.31577529705721
 30
0.0
 11
24.6606234031305
 21
13.31577529705721
 31
0.0
  0
LINE
  5
134
330
1E
100
AcDbEntity
  8
ADP1DETAIL
100
AcDbLine
 10
25.16062340313049
 20
13.19077529705721
 30
0.0
 11
25.9106234031305
 21
13.94077529705721
 31
0.0
  0
LINE
  5
135
330
1E
100
AcDbEntity
  8
ADP1DETAIL
100
AcDbLine
 10
25.2856234031305
 20
15.94077529705721
 30
0.0
 11
24.53562340313049
 21
16.6907752970572
 31
0.0
  0
LINE
  5
136
330
1E
100
AcDbEntity
  8
ADP1DETAIL
100
AcDbLine
 10
29.53562340313049
 20
16.0657752970572
 30
0.0
 11
29.53562340313049
 21
13.81577529705721
 31
0.0
  0
LINE
  5
137
330
1E
100
AcDbEntity
  8
ADP1DETAIL
100
AcDbLine
 10
27.28562340313049
 20
15.94077529705721
 30
0.0
 11
27.28562340313049
 21
13.94077529705721
 31
0.0
  0
DIMENSION
  5
138
330
1E
100
AcDbEntity
  8
ADPDIM
100
AcDbDimension
  2
*D4
 10
28.53368005853805
 20
13.19077529705721
 30
0.0
 11
28.53368005853805
 21
12.44305280768737
 31
0.0
 71
     5
 42
-1.0
100
AcDbAlignedDimension
 13
27.4120712312174
 23
11.69533031831754
 33
0.0
 14
28.0356234031305
 24
13.19077529705721
 34
0.0
 50
90.0
100
AcDbRotatedDimension
  0
LINE
  5
139
330
1E
100
AcDbEntity
  8
ADP1DETAIL
100
AcDbLine
 10
29.53562340313049
 20
13.81577529705721
 30
0.0
 11
28.03562340313049
 21
13.81577529705721
 31
0.0
  0
LINE
  5
13A
330
1E
100
AcDbEntity
  8
ADP1DETAIL
100
AcDbLine
 10
29.53562340313049
 20
13.93169430276049
 30
0.0
 11
27.91062340313049
 21
13.93169430276049
 31
0.0
  0
LINE
  5
13B
330
1E
100
AcDbEntity
  8
ADP1DETAIL
100
AcDbLine
 10
27.29470439742721
 20
13.31577529705721
 30
0.0
 11
27.29470439742721
 21
11.6907752970572
 31
0.0
  0
LINE
  5
13C
330
1E
100
AcDbEntity
  8
ADP1DETAIL
100
AcDbLine
 10
27.4106234031305
 20
13.1907752970572
 30
0.0
 11
27.4106234031305
 21
11.6907752970572
 31
0.0
  0
LINE
  5
13D
330
1E
100
AcDbEntity
  8
ADP1DETAIL
100
AcDbLine
 10
27.4106234031305
 20
13.1907752970572
 30
0.0
 11
26.66062340313049
 21
13.9407752970572
 31
0.0
  0
LINE
  5
13E
330
1E
100
AcDbEntity
  8
ADP1DETAIL
100
AcDbLine
 10
28.03562340313049
 20
13.81577529705721
 30
0.0
 11
28.03562340313049
 21
13.19077529705721
 31
0.0
  0
LINE
  5
13F
330
1E
100
AcDbEntity
  8
ADP1DETAIL
100
AcDbLine
 10
28.0356234031305
 20
13.19077529705721
 30
0.0
 11
27.28562340313049
 21
13.94077529705721
 31
0.0
  0
LINE
  5
140
330
1E
100
AcDbEntity
  8
ADP1DETAIL
100
AcDbLine
 10
27.91062340313049
 20
13.93169430276049
 30
0.0
 11
27.91062340313049
 21
13.31577529705721
 31
0.0
  0
LINE
  5
141
330
1E
100
AcDbEntity
  8
ADP1DETAIL
100
AcDbLine
 10
28.0356234031305
 20
13.19077529705721
 30
0.0
 11
27.4106234031305
 21
13.19077529705721
 31
0.0
  0
LINE
  5
142
330
1E
100
AcDbEntity
  8
ADP1DETAIL
100
AcDbLine
 10
27.91062340313049
 20
13.31577529705721
 30
0.0
 11
27.29470439742721
 21
13.31577529705721
 31
0.0
  0
LINE
  5
143
330
1E
100
AcDbEntity
  8
ADP1DETAIL
100
AcDbLine
 10
28.03562340313049
 20
13.81577529705721
 30
0.0
 11
27.28562340313049
 21
14.56577529705721
 31
0.0
  0
DIMENSION
  5
144
330
1E
100
AcDbEntity
  8
ADPDIM
100
AcDbDimension
  2
*D5
 10
29.53562340313049
 20
17.15965917217156
 30
0.0
 11
28.78562340313049
 21
17.15965917217156
 31
0.0
 71
     5
 42
-1.0
100
AcDbAlignedDimension
 13
28.0356234031305
 23
16.6907752970572
 33
0.0
 14
29.53562340313049
 24
16.0657752970572
 34
0.0
100
AcDbRotatedDimension
  0
LINE
  5
145
330
1E
100
AcDbEntity
  8
ADP1DETAIL
100
AcDbLine
 10
28.0356234031305
 20
16.0657752970572
 30
0.0
 11
29.53562340313049
 21
16.0657752970572
 31
0.0
  0
LINE
  5
146
330
1E
100
AcDbEntity
  8
ADP1DETAIL
100
AcDbLine
 10
27.91062340313049
 20
15.94985629135393
 30
0.0
 11
29.53562340313049
 21
15.94985629135393
 31
0.0
  0
LINE
  5
147
330
1E
100
AcDbEntity
  8
ADP1DETAIL
100
AcDbLine
 10
28.03562340313049
 20
16.6907752970572
 30
0.0
 11
28.03562340313049
 21
16.0657752970572
 31
0.0
  0
LINE
  5
148
330
1E
100
AcDbEntity
  8
ADP1DETAIL
100
AcDbLine
 10
27.28562340313049
 20
15.94077529705721
 30
0.0
 11
28.0356234031305
 21
16.6907752970572
 31
0.0
  0
LINE
  5
149
330
1E
100
AcDbEntity
  8
ADP1DETAIL
100
AcDbLine
 10
28.0356234031305
 20
16.0657752970572
 30
0.0
 11
27.28562340313049
 21
15.3157752970572
 31
0.0
  0
LINE
  5
14A
330
1E
100
AcDbEntity
  8
ADP1DETAIL
100
AcDbLine
 10
27.91062340313049
 20
16.56577529705721
 30
0.0
 11
27.91062340313049
 21
15.94985629135393
 31
0.0
  0
TEXT
  5
14E
330
1E
100
AcDbEntity
  8
ADPDIM
100
AcDbText
 10
14.13751030898217
 20
1.692591955962522
 30
0.0
 40
0.25
  1
J U L I U S  B L U M  &  C O . ,  I N C .      ( 8 0 0 )  5 2 6 - 6 2 9 3        W W W . J U L I U S B L U M . C O M        P A R T  N o .  6 9 3 0 - L
 41
1.25
  7
ARIAL_WIDE
 72
     1
 11
27.50434608660837
 21
1.942591955962522
 31
0.0
100
AcDbText
 73
     3
  0
DIMENSION
  5
362
330
1E
100
AcDbEntity
  8
ADPDIM
100
AcDbDimension
  2
*D10
 10
27.40142777894608
 20
10.64608533379215
 30
0.0
 11
26.27946698856989
 21
10.64608533379215
 31
0.0
 70
    32
 71
     5
 42
2.243921580752378
  3
Standard
100
AcDbAlignedDimension
 13
25.1575061981937
 23
9.996789859396471
 33
0.0
 14
27.40142777894608
 24
9.996789859396471
 34
0.0
100
AcDbRotatedDimension
1001
ACAD
1000
DSTYLE
1002
{
1070
   276
1070
     2
1070
   277
1070
     5
1070
   140
1040
0.125
1002
}
  0
SPLINE
  5
363
330
1E
100
AcDbEntity
  8
ADPDIM
 62
     7
100
AcDbSpline
210
0.0
220
0.0
230
1.0
 70
    11
 71
     3
 72
    68
 73
    64
 74
     0
 42
0.0000000001
 43
0.0000000001
 40
0.0
 40
0.0
 40
0.0
 40
0.0
 40
1.0
 40
1.0
 40
1.0
 40
2.0
 40
2.0
 40
2.0
 40
3.0
 40
3.0
 40
3.0
 40
4.0
 40
4.0
 40
4.0
 40
5.0
 40
5.0
 40
5.0
 40
6.0
 40
6.0
 40
6.0
 40
7.0
 40
7.0
 40
7.0
 40
8.0
 40
8.0
 40
8.0
 40
9.0
 40
9.0
 40
9.0
 40
10.0
 40
10.0
 40
10.0
 40
11.0
 40
11.0
 40
11.0
 40
12.0
 40
12.0
 40
12.0
 40
13.0
 40
13.0
 40
13.0
 40
14.0
 40
14.0
 40
14.0
 40
15.0
 40
15.0
 40
15.0
 40
16.0
 40
16.0
 40
16.0
 40
17.0
 40
17.0
 40
17.0
 40
18.0
 40
18.0
 40
18.0
 40
19.0
 40
19.0
 40
19.0
 40
20.0
 40
20.0
 40
20.0
 40
21.0
 40
21.0
 40
21.0
 40
21.0
 10
26.94444741699753
 20
10.07861978211308
 30
0.0
 10
26.94444741699753
 20
10.07861978211308
 30
0.0
 10
26.94444741699753
 20
9.890316316287364
 30
0.0
 10
26.94444741699753
 20
9.890316316287364
 30
0.0
 10
26.94444741699753
 20
9.890316316287364
 30
0.0
 10
27.06939555876798
 20
9.890316316287364
 30
0.0
 10
27.06939555876798
 20
9.890316316287364
 30
0.0
 10
27.06939555876798
 20
9.890316316287364
 30
0.0
 10
27.06939555876798
 20
9.707286811740811
 30
0.0
 10
27.06939555876798
 20
9.707286811740811
 30
0.0
 10
27.06939555876798
 20
9.707286811740811
 30
0.0
 10
27.1961062068785
 20
9.707286811740811
 30
0.0
 10
27.1961062068785
 20
9.707286811740811
 30
0.0
 10
27.1961062068785
 20
9.707286811740811
 30
0.0
 10
27.1890697392593
 20
9.805838031633324
 30
0.0
 10
27.26122403727385
 20
9.8586318753892
 30
0.0
 10
27.33337833528841
 20
9.911425719145075
 30
0.0
 10
27.41433160726234
 20
9.929023667063695
 30
0.0
 10
27.41433160726234
 20
10.03109989963635
 30
0.0
 10
27.41433160726234
 20
10.13317613220903
 30
0.0
 10
27.33514084162853
 20
10.15252302872665
 30
0.0
 10
27.2788219851925
 20
10.15252302872665
 30
0.0
 10
27.2788219851925
 20
10.15252302872665
 30
0.0
 10
27.2788219851925
 20
10.2070793788226
 30
0.0
 10
27.2788219851925
 20
10.2070793788226
 30
0.0
 10
27.2788219851925
 20
10.2070793788226
 30
0.0
 10
26.92421926730987
 20
10.19739915169325
 30
0.0
 10
26.79135340475014
 20
10.33027857199404
 30
0.0
 10
26.65848754219046
 20
10.46314443455377
 30
0.0
 10
26.44641735625583
 20
10.51681953147967
 30
0.0
 10
26.28979833132829
 20
10.51681953147967
 30
0.0
 10
26.13317930640075
 20
10.51681953147967
 30
0.0
 10
25.92110912046616
 20
10.46314443455377
 30
0.0
 10
25.78824325790643
 20
10.33027857199404
 30
0.0
 10
25.6553773953467
 20
10.19739915169325
 30
0.0
 10
25.30077467746412
 20
10.2070793788226
 30
0.0
 10
25.30077467746412
 20
10.2070793788226
 30
0.0
 10
25.30077467746412
 20
10.2070793788226
 30
0.0
 10
25.30077467746412
 20
10.15252302872665
 30
0.0
 10
25.30077467746412
 20
10.15252302872665
 30
0.0
 10
25.24445582102809
 20
10.15252302872665
 30
0.0
 10
25.16526505539428
 20
10.13317613220903
 30
0.0
 10
25.16526505539428
 20
10.03109989963635
 30
0.0
 10
25.16526505539428
 20
9.929023667063695
 30
0.0
 10
25.24621832736816
 20
9.911425719145075
 30
0.0
 10
25.31837262538272
 20
9.8586318753892
 30
0.0
 10
25.39052692339732
 20
9.805838031633324
 30
0.0
 10
25.38349045577807
 20
9.707286811740811
 30
0.0
 10
25.38349045577807
 20
9.707286811740811
 30
0.0
 10
25.38349045577807
 20
9.707286811740811
 30
0.0
 10
25.51018754614755
 20
9.707286811740811
 30
0.0
 10
25.51018754614755
 20
9.707286811740811
 30
0.0
 10
25.51018754614755
 20
9.707286811740811
 30
0.0
 10
25.51018754614755
 20
9.890316316287364
 30
0.0
 10
25.51018754614755
 20
9.890316316287364
 30
0.0
 10
25.51018754614755
 20
9.890316316287364
 30
0.0
 10
25.63513568791794
 20
9.890316316287364
 30
0.0
 10
25.63513568791794
 20
9.890316316287364
 30
0.0
 10
25.63513568791794
 20
9.890316316287364
 30
0.0
 10
25.63513568791794
 20
10.07861978211308
 30
0.0
 10
25.63513568791794
 20
10.07861978211308
 30
0.0
 10
25.63513568791794
 20
10.07861978211308
 30
0.0
 10
26.94444741699753
 20
10.07861978211308
 30
0.0
 10
26.94444741699753
 20
10.07861978211308
 30
0.0
  0
DIMENSION
  5
364
330
1E
100
AcDbEntity
  8
ADPDIM
 62
     3
100
AcDbDimension
  2
*D11
 10
26.95005371928432
 20
9.690470775882609
 30
0.0
 11
26.29380371928432
 21
9.690470775882609
 31
0.0
 70
    32
 71
     5
 42
1.3125
  3
Standard
100
AcDbAlignedDimension
 13
25.63755371928432
 23
9.890859855223425
 33
0.0
 14
26.95005371928432
 24
9.890859855223425
 34
0.0
100
AcDbRotatedDimension
1001
ACAD
1000
DSTYLE
1002
{
1070
   276
1070
     2
1070
    41
1040
0.125
1070
    73
1070
     0
1070
    74
1070
     0
1070
    78
1070
     3
1070
   140
1040
0.125
1070
   141
1040
0.1875
1070
   142
1040
0.125
1070
   147
1040
0.125
1070
   171
1070
     1
1070
   273
1070
     5
1070
   274
1070
     1
1070
   277
1070
     5
1070
   279
1070
     2
1070
   284
1070
     3
1070
   285
1070
     3
1070
   286
1070
     3
1002
}
  0
DIMENSION
  5
365
330
1E
100
AcDbEntity
  8
ADPDIM
 62
     3
100
AcDbDimension
  2
*D12
 10
27.07125965063781
 20
9.332633130029666
 30
0.0
 11
26.29000965063781
 21
9.332633130029666
 31
0.0
 70
    32
 71
     5
 42
1.5625
  3
Standard
100
AcDbAlignedDimension
 13
25.50875965063781
 23
9.70478428015884
 33
0.0
 14
27.07125965063781
 24
9.70478428015884
 34
0.0
100
AcDbRotatedDimension
1001
ACAD
1000
DSTYLE
1002
{
1070
   276
1070
     2
1070
    41
1040
0.125
1070
    73
1070
     0
1070
    74
1070
     0
1070
    78
1070
     3
1070
   140
1040
0.125
1070
   141
1040
0.1875
1070
   142
1040
0.125
1070
   147
1040
0.125
1070
   171
1070
     1
1070
   273
1070
     5
1070
   274
1070
     1
1070
   277
1070
     5
1070
   279
1070
     2
1070
   284
1070
     3
1070
   285
1070
     3
1070
   286
1070
     3
1002
}
  0
ENDSEC
  0
SECTION
  2
OBJECTS
  0
DICTIONARY
  5
C
330
0
100
AcDbDictionary
281
     1
  3
ACAD_COLOR
350
32C
  3
ACAD_GROUP
350
D
  3
ACAD_LAYOUT
350
19
  3
ACAD_MATERIAL
350
317
  3
ACAD_MLINESTYLE
350
16
  3
ACAD_PLOTSETTINGS
350
18
  3
ACAD_PLOTSTYLENAME
350
E
  3
ACAD_TABLESTYLE
350
32D
  3
ACAD_VISUALSTYLE
350
31B
  3
AcDbVariableDictionary
350
1BF
  3
DWGPROPS
350
3C8
  0
DICTIONARY
  5
18A
330
1E
100
AcDbDictionary
280
     1
281
     1
  3
ACAD_LAYOUTSELFREF
360
313
  0
DICTIONARY
  5
18C
330
1A
100
AcDbDictionary
280
     1
281
     1
  3
ACAD_LAYOUTSELFREF
360
312
  0
DICTIONARY
  5
32C
102
{ACAD_REACTORS
330
C
102
}
330
C
100
AcDbDictionary
281
     1
  0
DICTIONARY
  5
D
102
{ACAD_REACTORS
330
C
102
}
330
C
100
AcDbDictionary
281
     1
  0
DICTIONARY
  5
19
102
{ACAD_REACTORS
330
C
102
}
330
C
100
AcDbDictionary
281
     1
  3
Layout1
350
1D
  3
Model
350
21
  0
DICTIONARY
  5
317
102
{ACAD_REACTORS
330
C
102
}
330
C
100
AcDbDictionary
281
     1
  3
ByBlock
350
319
  3
ByLayer
350
318
  3
Global
350
31A
  0
DICTIONARY
  5
16
102
{ACAD_REACTORS
330
C
102
}
330
C
100
AcDbDictionary
281
     1
  3
Standard
350
17
  0
DICTIONARY
  5
18
102
{ACAD_REACTORS
330
C
102
}
330
C
100
AcDbDictionary
281
     1
  0
ACDBDICTIONARYWDFLT
  5
E
102
{ACAD_REACTORS
330
C
102
}
330
C
100
AcDbDictionary
281
     1
  3
Normal
350
F
100
AcDbDictionaryWithDefault
340
F
  0
DICTIONARY
  5
32D
102
{ACAD_REACTORS
330
C
102
}
330
C
100
AcDbDictionary
281
     1
  3
Standard
350
32E
  0
DICTIONARY
  5
31B
102
{ACAD_REACTORS
330
C
102
}
330
C
100
AcDbDictionary
281
     1
  3
2dWireframe
350
321
  3
3D Hidden
350
323
  3
3dWireframe
350
322
  3
Basic
350
320
  3
Brighten
350
327
  3
ColorChange
350
32B
  3
Conceptual
350
324
  3
Dim
350
326
  3
Facepattern
350
32A
  3
Flat
350
31C
  3
FlatWithEdges
350
31D
  3
Gouraud
350
31E
  3
GouraudWithEdges
350
31F
  3
Linepattern
350
329
  3
Realistic
350
325
  3
Thicken
350
328
  0
DICTIONARY
  5
1BF
102
{ACAD_REACTORS
330
C
102
}
330
C
100
AcDbDictionary
281
     1
  3
CTABLESTYLE
350
3C5
  3
DIMASSOC
350
1C1
  3
HIDETEXT
350
1C0
  3
INDEXCTL
350
3C7
  3
SORTENTS
350
3C6
  0
XRECORD
  5
3C8
102
{ACAD_REACTORS
330
C
102
}
330
C
100
AcDbXrecord
280
     1
  1
DWGPROPS COOKIE
  2

  3

  4

  6

  7

  8
Yu Hu
  9

300
=
301
=
302
=
303
=
304
=
305
=
306
=
307
=
308
=
309
=
 40
0.042543275462963
 41
2450406.633340463
 42
2453980.444838195
  1

 90
        0
  0
XRECORD
  5
313
102
{ACAD_REACTORS
330
18A
102
}
330
18A
100
AcDbXrecord
280
     1
340
1E
  0
XRECORD
  5
312
102
{ACAD_REACTORS
330
18C
102
}
330
18C
100
AcDbXrecord
280
     1
340
1A
  0
LAYOUT
  5
1D
102
{ACAD_XDICTIONARY
360
3C9
102
}
102
{ACAD_REACTORS
330
19
102
}
330
19
100
AcDbPlotSettings
  1

  2
Fax
  4

  6

 40
0.0
 41
0.0
 42
0.0
 43
0.0
 44
0.0
 45
0.0
 46
0.0
 47
0.0
 48
0.0
 49
0.0
140
0.0
141
0.0
142
1.0
143
1.0
 70
   688
 72
     0
 73
     0
 74
     5
  7
Default R14 pen assignments.ctb
 75
    16
147
1.0
148
0.0
149
0.0
100
AcDbLayout
  1
Layout1
 70
     1
 71
     1
 10
0.0
 20
0.0
 11
12.0
 21
9.0
 12
0.0008545028977096
 22
1.250283272183907
 32
0.0
 14
1.000000000000000E+20
 24
1.000000000000000E+20
 34
1.000000000000000E+20
 15
-1.000000000000000E+20
 25
-1.000000000000000E+20
 35
-1.000000000000000E+20
146
0.0
 13
0.0
 23
0.0
 33
0.0
 16
1.0
 26
0.0
 36
0.0
 17
0.0
 27
1.0
 37
0.0
 76
     0
330
1A
  0
LAYOUT
  5
21
102
{ACAD_XDICTIONARY
360
3CB
102
}
102
{ACAD_REACTORS
330
19
102
}
330
19
100
AcDbPlotSettings
  1

  2
Fax
  4

  6

 40
0.0
 41
0.0
 42
0.0
 43
0.0
 44
0.0
 45
0.0
 46
0.0
 47
0.0
 48
0.0
 49
0.0
140
0.0
141
0.0
142
1.0
143
1.0
 70
  1712
 72
     0
 73
     0
 74
     0
  7
Default R14 pen assignments.ctb
 75
     0
147
1.0
148
0.0
149
0.0
100
AcDbLayout
  1
Model
 70
     1
 71
     0
 10
0.0
 20
0.0
 11
12.0
 21
9.0
 12
0.0
 22
0.0
 32
0.0
 14
0.0
 24
0.0
 34
0.0
 15
0.0
 25
0.0
 35
0.0
146
0.0
 13
0.0
 23
0.0
 33
0.0
 16
1.0
 26
0.0
 36
0.0
 17
0.0
 27
1.0
 37
0.0
 76
     0
330
1E
331
2E0
  0
MATERIAL
  5
319
102
{ACAD_XDICTIONARY
360
3CF
102
}
102
{ACAD_REACTORS
330
317
102
}
330
317
100
AcDbMaterial
  1
ByBlock
  0
MATERIAL
  5
318
102
{ACAD_XDICTIONARY
360
3CD
102
}
102
{ACAD_REACTORS
330
317
102
}
330
317
100
AcDbMaterial
  1
ByLayer
  0
MATERIAL
  5
31A
102
{ACAD_XDICTIONARY
360
3D1
102
}
102
{ACAD_REACTORS
330
317
102
}
330
317
100
AcDbMaterial
  1
Global
  0
MLINESTYLE
  5
17
102
{ACAD_REACTORS
330
16
102
}
330
16
100
AcDbMlineStyle
  2
STANDARD
 70
     0
  3

 62
   256
 51
90.0
 52
90.0
 71
     2
 49
0.5
 62
   256
  6
BYLAYER
 49
-0.5
 62
   256
  6
BYLAYER
  0
ACDBPLACEHOLDER
  5
F
102
{ACAD_REACTORS
330
E
102
}
330
E
  0
TABLESTYLE
  5
32E
102
{ACAD_XDICTIONARY
360
3D3
102
}
102
{ACAD_REACTORS
330
32D
102
}
330
32D
100
AcDbTableStyle
  3
Standard
 70
     0
 71
     0
 40
0.06
 41
0.06
280
     0
281
     0
  7
STANDARD
140
0.18
170
     2
 62
     0
 63
     7
283
     0
274
    -2
284
     1
 64
     0
275
    -2
285
     1
 65
     0
276
    -2
286
     1
 66
     0
277
    -2
287
     1
 67
     0
278
    -2
288
     1
 68
     0
279
    -2
289
     1
 69
     0
  7
STANDARD
140
0.25
170
     5
 62
     0
 63
     7
283
     0
274
    -2
284
     1
 64
     0
275
    -2
285
     1
 65
     0
276
    -2
286
     1
 66
     0
277
    -2
287
     1
 67
     0
278
    -2
288
     1
 68
     0
279
    -2
289
     1
 69
     0
  7
STANDARD
140
0.18
170
     5
 62
     0
 63
     7
283
     0
274
    -2
284
     1
 64
     0
275
    -2
285
     1
 65
     0
276
    -2
286
     1
 66
     0
277
    -2
287
     1
 67
     0
278
    -2
288
     1
 68
     0
279
    -2
289
     1
 69
     0
  0
VISUALSTYLE
  5
321
102
{ACAD_REACTORS
330
31B
102
}
330
31B
100
AcDbVisualStyle
  2
2dWireframe
 70
     4
 71
     0
 72
     2
 73
     0
 90
        0
 40
-0.6
 41
-30.0
 62
     5
 63
     7
 74
     1
 91
        4
 64
     7
 65
   257
 75
     1
175
     1
 42
1.0
 92
        0
 66
   257
 43
1.0
 76
     1
 77
     6
 78
     2
 67
     7
 79
     5
170
     0
171
     0
290
     0
174
     0
 93
        1
 44
0.0
173
     0
291
     0
 45
0.0
1001
ACAD
1000
AcDbSavedByObjectVersion
1070
     0
  0
VISUALSTYLE
  5
323
102
{ACAD_REACTORS
330
31B
102
}
330
31B
100
AcDbVisualStyle
  2
3D Hidden
 70
     6
 71
     1
 72
     2
 73
     2
 90
        0
 40
-0.6
 41
-30.0
 62
     5
 63
     7
 74
     2
 91
        2
 64
     7
 65
   257
 75
     2
175
     1
 42
40.0
 92
        0
 66
   257
 43
1.0
 76
     1
 77
     6
 78
     2
 67
     7
 79
     3
170
     0
171
     0
290
     0
174
     0
 93
        1
 44
0.0
173
     0
291
     0
 45
0.0
1001
ACAD
1000
AcDbSavedByObjectVersion
1070
     0
  0
VISUALSTYLE
  5
322
102
{ACAD_REACTORS
330
31B
102
}
330
31B
100
AcDbVisualStyle
  2
3dWireframe
 70
     5
 71
     0
 72
     2
 73
     0
 90
        0
 40
-0.6
 41
-30.0
 62
     5
 63
     7
 74
     1
 91
        4
 64
     7
 65
   257
 75
     1
175
     1
 42
1.0
 92
        0
 66
   257
 43
1.0
 76
     1
 77
     6
 78
     2
 67
     7
 79
     5
170
     0
171
     0
290
     0
174
     0
 93
        1
 44
0.0
173
     0
291
     0
 45
0.0
1001
ACAD
1000
AcDbSavedByObjectVersion
1070
     0
  0
VISUALSTYLE
  5
320
102
{ACAD_REACTORS
330
31B
102
}
330
31B
100
AcDbVisualStyle
  2
Basic
 70
     7
 71
     1
 72
     0
 73
     1
 90
        0
 40
-0.6
 41
-30.0
 62
     5
 63
     7
 74
     0
 91
        4
 64
     7
 65
   257
 75
     1
175
     1
 42
1.0
 92
        8
 66
     7
 43
1.0
 76
     1
 77
     6
 78
     2
 67
     7
 79
     5
170
     0
171
     0
290
     0
174
     0
 93
        1
 44
0.0
173
     0
291
     1
 45
0.0
1001
ACAD
1000
AcDbSavedByObjectVersion
1070
     0
  0
VISUALSTYLE
  5
327
102
{ACAD_REACTORS
330
31B
102
}
330
31B
100
AcDbVisualStyle
  2
Brighten
 70
    12
 71
     2
 72
     2
 73
     0
 90
        0
 40
-0.6
 41
-30.0
 62
     5
 63
     7
 74
     1
 91
        4
 64
     7
 65
   257
 75
     1
175
     1
 42
1.0
 92
        8
 66
     7
 43
1.0
 76
     1
 77
     6
 78
     2
 67
     7
 79
     5
170
     0
171
     0
290
     0
174
     0
 93
        1
 44
50.0
173
     0
291
     1
 45
0.0
1001
ACAD
1000
AcDbSavedByObjectVersion
1070
     0
  0
VISUALSTYLE
  5
32B
102
{ACAD_REACTORS
330
31B
102
}
330
31B
100
AcDbVisualStyle
  2
ColorChange
 70
    16
 71
     2
 72
     2
 73
     3
 90
        0
 40
-0.6
 41
-30.0
 62
     5
 63
     8
 74
     1
 91
        4
 64
     7
 65
   257
 75
     1
175
     1
 42
1.0
 92
        8
 66
     8
 43
1.0
 76
     1
 77
     6
 78
     2
 67
     7
 79
     5
170
     0
171
     0
290
     0
174
     0
 93
        1
 44
0.0
173
     0
291
     1
 45
0.0
1001
ACAD
1000
AcDbSavedByObjectVersion
1070
     0
  0
VISUALSTYLE
  5
324
102
{ACAD_REACTORS
330
31B
102
}
330
31B
100
AcDbVisualStyle
  2
Conceptual
 70
     9
 71
     3
 72
     2
 73
     0
 90
        0
 40
-0.6
 41
-30.0
 62
     5
 63
     7
 74
     2
 91
        2
 64
     7
 65
   257
 75
     1
175
     1
 42
40.0
 92
        8
 66
     7
 43
1.0
 76
     1
 77
     6
 78
     2
 67
     7
 79
     3
170
     0
171
     0
290
     0
174
     0
 93
        1
 44
0.0
173
     0
291
     0
 45
0.0
1001
ACAD
1000
AcDbSavedByObjectVersion
1070
     0
  0
VISUALSTYLE
  5
326
102
{ACAD_REACTORS
330
31B
102
}
330
31B
100
AcDbVisualStyle
  2
Dim
 70
    11
 71
     2
 72
     2
 73
     0
 90
        0
 40
-0.6
 41
-30.0
 62
     5
 63
     7
 74
     1
 91
        4
 64
     7
 65
   257
 75
     1
175
     1
 42
1.0
 92
        8
 66
     7
 43
1.0
 76
     1
 77
     6
 78
     2
 67
     7
 79
     5
170
     0
171
     0
290
     0
174
     0
 93
        1
 44
-50.0
173
     0
291
     1
 45
0.0
1001
ACAD
1000
AcDbSavedByObjectVersion
1070
     0
  0
VISUALSTYLE
  5
32A
102
{ACAD_REACTORS
330
31B
102
}
330
31B
100
AcDbVisualStyle
  2
Facepattern
 70
    15
 71
     2
 72
     2
 73
     0
 90
        0
 40
-0.6
 41
-30.0
 62
     5
 63
     7
 74
     1
 91
        4
 64
     7
 65
   257
 75
     1
175
     1
 42
1.0
 92
        8
 66
     7
 43
1.0
 76
     1
 77
     6
 78
     2
 67
     7
 79
     5
170
     0
171
     0
290
     0
174
     0
 93
        1
 44
0.0
173
     0
291
     1
 45
0.0
1001
ACAD
1000
AcDbSavedByObjectVersion
1070
     0
  0
VISUALSTYLE
  5
31C
102
{ACAD_REACTORS
330
31B
102
}
330
31B
100
AcDbVisualStyle
  2
Flat
 70
     0
 71
     2
 72
     1
 73
     1
 90
        2
 40
-0.6
 41
30.0
 62
     5
 63
     7
 74
     0
 91
        4
 64
     7
 65
   257
 75
     1
175
     1
 42
1.0
 92
        8
 66
     7
 43
1.0
 76
     1
 77
     6
 78
     2
 67
     7
 79
     5
170
     0
171
     0
290
     0
174
     0
 93
       13
 44
0.0
173
     0
291
     1
 45
0.0
1001
ACAD
1000
AcDbSavedByObjectVersion
1070
     0
  0
VISUALSTYLE
  5
31D
102
{ACAD_REACTORS
330
31B
102
}
330
31B
100
AcDbVisualStyle
  2
FlatWithEdges
 70
     1
 71
     2
 72
     1
 73
     1
 90
        2
 40
-0.6
 41
30.0
 62
     5
 63
     7
 74
     1
 91
        4
 64
     7
 65
   257
 75
     1
175
     1
 42
1.0
 92
        0
 66
   257
 43
1.0
 76
     1
 77
     6
 78
     2
 67
     7
 79
     5
170
     0
171
     0
290
     0
174
     0
 93
       13
 44
0.0
173
     0
291
     1
 45
0.0
1001
ACAD
1000
AcDbSavedByObjectVersion
1070
     0
  0
VISUALSTYLE
  5
31E
102
{ACAD_REACTORS
330
31B
102
}
330
31B
100
AcDbVisualStyle
  2
Gouraud
 70
     2
 71
     2
 72
     2
 73
     1
 90
        2
 40
-0.6
 41
30.0
 62
     5
 63
     7
 74
     0
 91
        4
 64
     7
 65
   257
 75
     1
175
     1
 42
1.0
 92
        0
 66
     7
 43
1.0
 76
     1
 77
     6
 78
     2
 67
     7
 79
     5
170
     0
171
     0
290
     0
174
     0
 93
       13
 44
0.0
173
     0
291
     1
 45
0.0
1001
ACAD
1000
AcDbSavedByObjectVersion
1070
     0
  0
VISUALSTYLE
  5
31F
102
{ACAD_REACTORS
330
31B
102
}
330
31B
100
AcDbVisualStyle
  2
GouraudWithEdges
 70
     3
 71
     2
 72
     2
 73
     1
 90
        2
 40
-0.6
 41
30.0
 62
     5
 63
     7
 74
     1
 91
        4
 64
     7
 65
   257
 75
     1
175
     1
 42
1.0
 92
        0
 66
   257
 43
1.0
 76
     1
 77
     6
 78
     2
 67
     7
 79
     5
170
     0
171
     0
290
     0
174
     0
 93
       13
 44
0.0
173
     0
291
     1
 45
0.0
1001
ACAD
1000
AcDbSavedByObjectVersion
1070
     0
  0
VISUALSTYLE
  5
329
102
{ACAD_REACTORS
330
31B
102
}
330
31B
100
AcDbVisualStyle
  2
Linepattern
 70
    14
 71
     2
 72
     2
 73
     0
 90
        0
 40
-0.6
 41
-30.0
 62
     5
 63
     7
 74
     1
 91
        4
 64
     7
 65
   257
 75
     7
175
     7
 42
1.0
 92
        8
 66
     7
 43
1.0
 76
     1
 77
     6
 78
     2
 67
     7
 79
     5
170
     0
171
     0
290
     0
174
     0
 93
        1
 44
0.0
173
     0
291
     1
 45
0.0
1001
ACAD
1000
AcDbSavedByObjectVersion
1070
     0
  0
VISUALSTYLE
  5
325
102
{ACAD_REACTORS
330
31B
102
}
330
31B
100
AcDbVisualStyle
  2
Realistic
 70
     8
 71
     2
 72
     2
 73
     0
 90
        0
 40
-0.6
 41
-30.0
 62
     5
 63
     7
 74
     1
 91
        0
 64
     7
 65
   257
 75
     1
175
     1
 42
1.0
 92
        8
 66
     8
 43
1.0
 76
     1
 77
     6
 78
     2
 67
     7
 79
     5
170
     0
171
     0
290
     0
174
     0
 93
       13
 44
0.0
173
     0
291
     0
 45
0.0
1001
ACAD
1000
AcDbSavedByObjectVersion
1070
     0
  0
VISUALSTYLE
  5
328
102
{ACAD_REACTORS
330
31B
102
}
330
31B
100
AcDbVisualStyle
  2
Thicken
 70
    13
 71
     2
 72
     2
 73
     0
 90
        0
 40
-0.6
 41
-30.0
 62
     5
 63
     7
 74
     1
 91
        4
 64
     7
 65
   257
 75
     1
175
     1
 42
1.0
 92
       12
 66
     7
 43
1.0
 76
     1
 77
     6
 78
     2
 67
     7
 79
     5
170
     0
171
     0
290
     0
174
     0
 93
        1
 44
0.0
173
     0
291
     1
 45
0.0
1001
ACAD
1000
AcDbSavedByObjectVersion
1070
     0
  0
DICTIONARYVAR
  5
3C5
102
{ACAD_REACTORS
330
1BF
102
}
330
1BF
100
DictionaryVariables
280
     0
  1
STANDARD
  0
DICTIONARYVAR
  5
1C1
102
{ACAD_REACTORS
330
1BF
102
}
330
1BF
100
DictionaryVariables
280
     0
  1
2
  0
DICTIONARYVAR
  5
1C0
102
{ACAD_REACTORS
330
1BF
102
}
330
1BF
100
DictionaryVariables
280
     0
  1
1
  0
DICTIONARYVAR
  5
3C7
102
{ACAD_REACTORS
330
1BF
102
}
330
1BF
100
DictionaryVariables
280
     0
  1
0
  0
DICTIONARYVAR
  5
3C6
102
{ACAD_REACTORS
330
1BF
102
}
330
1BF
100
DictionaryVariables
280
     0
  1
127
  0
DICTIONARY
  5
3C9
330
1D
100
AcDbDictionary
280
     1
281
     1
  3
ACAD_XREC_ROUNDTRIP
360
3CA
  0
DICTIONARY
  5
3CB
330
21
100
AcDbDictionary
280
     1
281
     1
  3
ACAD_XREC_ROUNDTRIP
360
3CC
  0
DICTIONARY
  5
3CF
330
319
100
AcDbDictionary
280
     1
281
     1
  3
ACAD_XREC_ROUNDTRIP
360
3D0
  0
DICTIONARY
  5
3CD
330
318
100
AcDbDictionary
280
     1
281
     1
  3
ACAD_XREC_ROUNDTRIP
360
3CE
  0
DICTIONARY
  5
3D1
330
31A
100
AcDbDictionary
280
     1
281
     1
  3
ACAD_XREC_ROUNDTRIP
360
3D2
  0
DICTIONARY
  5
3D3
330
32E
100
AcDbDictionary
280
     1
281
     1
  3
ACAD_XREC_ROUNDTRIP
360
3D4
  0
XRECORD
  5
3CA
102
{ACAD_REACTORS
330
3C9
102
}
330
3C9
100
AcDbXrecord
280
     1
102
SHADEPLOT
 70
     0
102
SHADEPLOTRESLEVEL
 70
     2
102
SHADEPLOTCUSTOMDPI
 70
   300
  0
XRECORD
  5
3CC
102
{ACAD_REACTORS
330
3CB
102
}
330
3CB
100
AcDbXrecord
280
     1
102
SHADEPLOT
 70
     0
102
SHADEPLOTRESLEVEL
 70
     2
102
SHADEPLOTCUSTOMDPI
 70
   300
  0
XRECORD
  5
3D0
102
{ACAD_REACTORS
330
3CF
102
}
330
3CF
100
AcDbXrecord
280
     1
102
MATERIAL
148
0.0
149
0.0
149
0.0
 93
        0
 94
       63
282
     0
 72
     1
 77
     1
171
     1
175
     1
179
     1
273
     0
  0
XRECORD
  5
3CE
102
{ACAD_REACTORS
330
3CD
102
}
330
3CD
100
AcDbXrecord
280
     1
102
MATERIAL
148
0.0
149
0.0
149
0.0
 93
        0
 94
       63
282
     0
 72
     1
 77
     1
171
     1
175
     1
179
     1
273
     0
  0
XRECORD
  5
3D2
102
{ACAD_REACTORS
330
3D1
102
}
330
3D1
100
AcDbXrecord
280
     1
102
MATERIAL
148
0.0
149
0.0
149
0.0
 93
        0
 94
       63
282
     0
 72
     1
 77
     1
171
     1
175
     1
179
     1
273
     0
  0
XRECORD
  5
3D4
102
{ACAD_REACTORS
330
3D3
102
}
330
3D3
100
AcDbXrecord
280
     1
102
ACAD_ROUNDTRIP_PRE2007_TABLESTYLE
 90
      512
 91
        0
  1

 92
      512
 93
        0
  2

 94
      512
 95
        0
  3

  0
ENDSEC
  0
EOF
