  0
SECTION
  2
HEADER
  9
$ACADVER
  1
AC1015
  9
$ACADMAINTVER
 70
    20
  9
$DWGCODEPAGE
  3
ANSI_1252
  9
$INSBASE
 10
3.877203248987717
 20
11.60380165766932
 30
0.0
  9
$EXTMIN
 10
-10.70419973957732
 20
1.432617272986817
 30
-0.0015258207003583
  9
$EXTMAX
 10
16.07991557946145
 20
17.24194342135678
 30
0.0000000349246037
  9
$LIMMIN
 10
0.0
 20
0.0
  9
$LIMMAX
 10
36.0
 20
36.0
  9
$ORTHOMODE
 70
     1
  9
$REGENMODE
 70
     1
  9
$FILLMODE
 70
     1
  9
$QTEXTMODE
 70
     0
  9
$MIRRTEXT
 70
     1
  9
$LTSCALE
 40
1.0
  9
$ATTMODE
 70
     1
  9
$TEXTSIZE
 40
0.2
  9
$TRACEWID
 40
0.05
  9
$TEXTSTYLE
  7
STANDARD
  9
$CLAYER
  8
ADP1DETAIL
  9
$CELTYPE
  6
ByLayer
  9
$CECOLOR
 62
   256
  9
$CELTSCALE
 40
1.0
  9
$DISPSILH
 70
     0
  9
$DIMSCALE
 40
1.0
  9
$DIMASZ
 40
0.125
  9
$DIMEXO
 40
0.0625
  9
$DIMDLI
 40
0.38
  9
$DIMRND
 40
0.0
  9
$DIMDLE
 40
0.0
  9
$DIMEXE
 40
0.18
  9
$DIMTP
 40
0.0
  9
$DIMTM
 40
0.0
  9
$DIMTXT
 40
0.125
  9
$DIMCEN
 40
0.1875
  9
$DIMTSZ
 40
0.125
  9
$DIMTOL
 70
     0
  9
$DIMLIM
 70
     0
  9
$DIMTIH
 70
     0
  9
$DIMTOH
 70
     0
  9
$DIMSE1
 70
     0
  9
$DIMSE2
 70
     0
  9
$DIMTAD
 70
     0
  9
$DIMZIN
 70
     3
  9
$DIMBLK
  1

  9
$DIMASO
 70
     1
  9
$DIMSHO
 70
     1
  9
$DIMPOST
  1

  9
$DIMAPOST
  1

  9
$DIMALT
 70
     0
  9
$DIMALTD
 70
     1
  9
$DIMALTF
 40
25.4
  9
$DIMLFAC
 40
1.0
  9
$DIMTOFL
 70
     0
  9
$DIMTVP
 40
0.0
  9
$DIMTIX
 70
     0
  9
$DIMSOXD
 70
     0
  9
$DIMSAH
 70
     0
  9
$DIMBLK1
  1

  9
$DIMBLK2
  1

  9
$DIMSTYLE
  2
Standard
  9
$DIMCLRD
 70
     0
  9
$DIMCLRE
 70
     0
  9
$DIMCLRT
 70
     0
  9
$DIMTFAC
 40
1.0
  9
$DIMGAP
 40
0.125
  9
$DIMJUST
 70
     0
  9
$DIMSD1
 70
     0
  9
$DIMSD2
 70
     0
  9
$DIMTOLJ
 70
     1
  9
$DIMTZIN
 70
     3
  9
$DIMALTZ
 70
     3
  9
$DIMALTTZ
 70
     3
  9
$DIMUPT
 70
     0
  9
$DIMDEC
 70
     4
  9
$DIMTDEC
 70
     4
  9
$DIMALTU
 70
     5
  9
$DIMALTTD
 70
     1
  9
$DIMTXSTY
  7
STANDARD
  9
$DIMAUNIT
 70
     0
  9
$DIMADEC
 70
     0
  9
$DIMALTRND
 40
0.0
  9
$DIMAZIN
 70
     0
  9
$DIMDSEP
 70
    46
  9
$DIMATFIT
 70
     3
  9
$DIMFRAC
 70
     0
  9
$DIMLDRBLK
  1

  9
$DIMLUNIT
 70
     5
  9
$DIMLWD
 70
    -2
  9
$DIMLWE
 70
    -2
  9
$DIMTMOVE
 70
     2
  9
$LUNITS
 70
     5
  9
$LUPREC
 70
     4
  9
$SKETCHINC
 40
0.1
  9
$FILLETRAD
 40
0.062
  9
$AUNITS
 70
     0
  9
$AUPREC
 70
     0
  9
$MENU
  1
acad
  9
$ELEVATION
 40
0.0
  9
$PELEVATION
 40
0.0
  9
$THICKNESS
 40
0.0
  9
$LIMCHECK
 70
     0
  9
$CHAMFERA
 40
0.0
  9
$CHAMFERB
 40
0.0
  9
$CHAMFERC
 40
0.0
  9
$CHAMFERD
 40
0.0
  9
$SKPOLY
 70
     0
  9
$TDCREATE
 40
2450406.633182674
  9
$TDUCREATE
 40
2450406.799849340
  9
$TDUPDATE
 40
2453980.440421423
  9
$TDUUPDATE
 40
2453980.607088090
  9
$TDINDWG
 40
0.0439257176
  9
$TDUSRTIMER
 40
0.0439257176
  9
$USRTIMER
 70
     1
  9
$ANGBASE
 50
0.0
  9
$ANGDIR
 70
     0
  9
$PDMODE
 70
     0
  9
$PDSIZE
 40
0.0
  9
$PLINEWID
 40
0.0
  9
$SPLFRAME
 70
     0
  9
$SPLINETYPE
 70
     6
  9
$SPLINESEGS
 70
     8
  9
$HANDSEED
  5
396
  9
$SURFTAB1
 70
     6
  9
$SURFTAB2
 70
     6
  9
$SURFTYPE
 70
     6
  9
$SURFU
 70
     6
  9
$SURFV
 70
     6
  9
$UCSBASE
  2

  9
$UCSNAME
  2

  9
$UCSORG
 10
0.0
 20
0.0
 30
0.0
  9
$UCSXDIR
 10
1.0
 20
0.0
 30
0.0
  9
$UCSYDIR
 10
0.0
 20
1.0
 30
0.0
  9
$UCSORTHOREF
  2

  9
$UCSORTHOVIEW
 70
     0
  9
$UCSORGTOP
 10
0.0
 20
0.0
 30
0.0
  9
$UCSORGBOTTOM
 10
0.0
 20
0.0
 30
0.0
  9
$UCSORGLEFT
 10
0.0
 20
0.0
 30
0.0
  9
$UCSORGRIGHT
 10
0.0
 20
0.0
 30
0.0
  9
$UCSORGFRONT
 10
0.0
 20
0.0
 30
0.0
  9
$UCSORGBACK
 10
0.0
 20
0.0
 30
0.0
  9
$PUCSBASE
  2

  9
$PUCSNAME
  2

  9
$PUCSORG
 10
0.0
 20
0.0
 30
0.0
  9
$PUCSXDIR
 10
1.0
 20
0.0
 30
0.0
  9
$PUCSYDIR
 10
0.0
 20
1.0
 30
0.0
  9
$PUCSORTHOREF
  2

  9
$PUCSORTHOVIEW
 70
     0
  9
$PUCSORGTOP
 10
0.0
 20
0.0
 30
0.0
  9
$PUCSORGBOTTOM
 10
0.0
 20
0.0
 30
0.0
  9
$PUCSORGLEFT
 10
0.0
 20
0.0
 30
0.0
  9
$PUCSORGRIGHT
 10
0.0
 20
0.0
 30
0.0
  9
$PUCSORGFRONT
 10
0.0
 20
0.0
 30
0.0
  9
$PUCSORGBACK
 10
0.0
 20
0.0
 30
0.0
  9
$USERI1
 70
     0
  9
$USERI2
 70
     0
  9
$USERI3
 70
     0
  9
$USERI4
 70
     0
  9
$USERI5
 70
     0
  9
$USERR1
 40
0.0
  9
$USERR2
 40
0.0
  9
$USERR3
 40
0.0
  9
$USERR4
 40
0.0
  9
$USERR5
 40
0.0
  9
$WORLDVIEW
 70
     1
  9
$SHADEDGE
 70
     3
  9
$SHADEDIF
 70
    70
  9
$TILEMODE
 70
     1
  9
$MAXACTVP
 70
    15
  9
$PINSBASE
 10
0.0008545028977096
 20
1.250283272183907
 30
0.0
  9
$PLIMCHECK
 70
     0
  9
$PEXTMIN
 10
1.000000000000000E+20
 20
1.000000000000000E+20
 30
1.000000000000000E+20
  9
$PEXTMAX
 10
-1.000000000000000E+20
 20
-1.000000000000000E+20
 30
-1.000000000000000E+20
  9
$PLIMMIN
 10
0.0
 20
0.0
  9
$PLIMMAX
 10
12.0
 20
9.0
  9
$UNITMODE
 70
     0
  9
$VISRETAIN
 70
     0
  9
$PLINEGEN
 70
     0
  9
$PSLTSCALE
 70
     1
  9
$TREEDEPTH
 70
  3020
  9
$CMLSTYLE
  2
Standard
  9
$CMLJUST
 70
     0
  9
$CMLSCALE
 40
1.0
  9
$PROXYGRAPHICS
 70
     1
  9
$MEASUREMENT
 70
     0
  9
$CELWEIGHT
370
    -1
  9
$ENDCAPS
280
     0
  9
$JOINSTYLE
280
     0
  9
$LWDISPLAY
290
     0
  9
$INSUNITS
 70
     0
  9
$HYPERLINKBASE
  1

  9
$STYLESHEET
  1

  9
$XEDIT
290
     1
  9
$CEPSNTYPE
380
     0
  9
$PSTYLEMODE
290
     1
  9
$FINGERPRINTGUID
  2
{A72431B7-D519-48C0-A441-FDDFDDEEB097}
  9
$VERSIONGUID
  2
{0A376AC2-4811-476B-8401-A668D2117F89}
  9
$EXTNAMES
290
     1
  9
$PSVPSCALE
 40
0.0
  9
$OLESTARTUP
290
     0
  0
ENDSEC
  0
SECTION
  2
CLASSES
  0
CLASS
  1
ACDBDICTIONARYWDFLT
  2
AcDbDictionaryWithDefault
  3
ObjectDBX Classes
 90
        0
280
     0
281
     0
  0
CLASS
  1
ACDBPLACEHOLDER
  2
AcDbPlaceHolder
  3
ObjectDBX Classes
 90
        0
280
     0
281
     0
  0
CLASS
  1
LAYOUT
  2
AcDbLayout
  3
ObjectDBX Classes
 90
        0
280
     0
281
     0
  0
CLASS
  1
DICTIONARYVAR
  2
AcDbDictionaryVar
  3
ObjectDBX Classes
 90
        0
280
     0
281
     0
  0
CLASS
  1
MATERIAL
  2
AcDbMaterial
  3
ObjectDBX Classes
 90
     1024
280
     0
281
     0
  0
CLASS
  1
VISUALSTYLE
  2
AcDbVisualStyle
  3
ObjectDBX Classes
 90
     4095
280
     0
281
     0
  0
CLASS
  1
TABLESTYLE
  2
AcDbTableStyle
  3
ObjectDBX Classes
 90
     4095
280
     0
281
     0
  0
ENDSEC
  0
SECTION
  2
TABLES
  0
TABLE
  2
VPORT
  5
8
330
0
100
AcDbSymbolTable
 70
     1
  0
VPORT
  5
29B
330
8
100
AcDbSymbolTableRecord
100
AcDbViewportTableRecord
  2
*Active
 70
     0
 10
0.0
 20
0.0
 11
1.0
 21
1.0
 12
2.687857919942069
 22
9.337280347171798
 13
0.0
 23
0.0
 14
0.5740882589684922
 24
0.5740882589684922
 15
0.5
 25
0.5
 16
0.0
 26
0.0
 36
1.0
 17
0.0
 27
0.0
 37
0.0
 40
15.98762681921624
 41
1.726930320150659
 42
50.0
 43
0.0
 44
0.0
 50
0.0
 51
0.0
 71
     0
 72
   100
 73
     1
 74
     0
 75
     0
 76
     0
 77
     0
 78
     0
281
     0
 65
     1
110
0.0
120
0.0
130
0.0
111
1.0
121
0.0
131
0.0
112
0.0
122
1.0
132
0.0
 79
     0
146
0.0
  0
ENDTAB
  0
TABLE
  2
LTYPE
  5
5
330
0
100
AcDbSymbolTable
 70
     2
  0
LTYPE
  5
13
330
5
100
AcDbSymbolTableRecord
100
AcDbLinetypeTableRecord
  2
ByBlock
 70
     0
  3

 72
    65
 73
     0
 40
0.0
  0
LTYPE
  5
14
330
5
100
AcDbSymbolTableRecord
100
AcDbLinetypeTableRecord
  2
ByLayer
 70
     0
  3

 72
    65
 73
     0
 40
0.0
  0
LTYPE
  5
15
330
5
100
AcDbSymbolTableRecord
100
AcDbLinetypeTableRecord
  2
CONTINUOUS
 70
     0
  3
Solid line
 72
    65
 73
     0
 40
0.0
  0
ENDTAB
  0
TABLE
  2
LAYER
  5
2
330
0
100
AcDbSymbolTable
 70
     4
  0
LAYER
  5
10
330
2
100
AcDbSymbolTableRecord
100
AcDbLayerTableRecord
  2
0
 70
     0
 62
     7
  6
CONTINUOUS
370
    -3
390
F
  0
LAYER
  5
86
330
2
100
AcDbSymbolTableRecord
100
AcDbLayerTableRecord
  2
ADP1DETAIL
 70
     0
 62
     7
  6
CONTINUOUS
370
    -3
390
F
  0
LAYER
  5
88
330
2
100
AcDbSymbolTableRecord
100
AcDbLayerTableRecord
  2
DEFPOINTS
 70
     0
 62
     7
  6
CONTINUOUS
290
     0
370
    -3
390
F
  0
LAYER
  5
89
330
2
100
AcDbSymbolTableRecord
100
AcDbLayerTableRecord
  2
ADPDIM
 70
     0
 62
     3
  6
CONTINUOUS
370
    -3
390
F
  0
ENDTAB
  0
TABLE
  2
STYLE
  5
3
330
0
100
AcDbSymbolTable
 70
     2
  0
STYLE
  5
11
330
3
100
AcDbSymbolTableRecord
100
AcDbTextStyleTableRecord
  2
STANDARD
 70
     0
 40
0.0
 41
1.0
 50
0.0
 71
     0
 42
0.2
  3
txt
  4

  0
STYLE
  5
142
330
3
100
AcDbSymbolTableRecord
100
AcDbTextStyleTableRecord
  2
ARIAL_WIDE
 70
     0
 40
0.0
 41
1.25
 50
0.0
 71
     0
 42
0.2
  3
ARIAL.TTF
  4

1001
ACAD
1000
Arial
1071
       34
  0
ENDTAB
  0
TABLE
  2
VIEW
  5
6
330
0
100
AcDbSymbolTable
 70
     0
  0
ENDTAB
  0
TABLE
  2
UCS
  5
7
330
0
100
AcDbSymbolTable
 70
     0
  0
ENDTAB
  0
TABLE
  2
APPID
  5
9
330
0
100
AcDbSymbolTable
 70
     1
  0
APPID
  5
12
330
9
100
AcDbSymbolTableRecord
100
AcDbRegAppTableRecord
  2
ACAD
 70
     0
  0
ENDTAB
  0
TABLE
  2
DIMSTYLE
  5
A
330
0
100
AcDbSymbolTable
 70
     2
100
AcDbDimStyleTable
 71
     1
340
140
  0
DIMSTYLE
105
140
102
{ACAD_REACTORS
330
31D
330
31F
330
320
102
}
330
A
100
AcDbSymbolTableRecord
100
AcDbDimStyleTableRecord
  2
Standard
 70
     0
340
11
  0
ENDTAB
  0
TABLE
  2
BLOCK_RECORD
  5
1
330
0
100
AcDbSymbolTable
 70
    14
  0
BLOCK_RECORD
  5
1E
102
{ACAD_XDICTIONARY
360
17F
102
}
330
1
100
AcDbSymbolTableRecord
100
AcDbBlockTableRecord
  2
*Model_Space
340
21
  0
BLOCK_RECORD
  5
1A
102
{ACAD_XDICTIONARY
360
181
102
}
330
1
100
AcDbSymbolTableRecord
100
AcDbBlockTableRecord
  2
*Paper_Space
340
1D
  0
BLOCK_RECORD
  5
7D
330
1
100
AcDbSymbolTableRecord
100
AcDbBlockTableRecord
  2
*D0
340
0
  0
BLOCK_RECORD
  5
7E
330
1
100
AcDbSymbolTableRecord
100
AcDbBlockTableRecord
  2
*D1
340
0
  0
BLOCK_RECORD
  5
7F
330
1
100
AcDbSymbolTableRecord
100
AcDbBlockTableRecord
  2
*D2
340
0
  0
BLOCK_RECORD
  5
80
330
1
100
AcDbSymbolTableRecord
100
AcDbBlockTableRecord
  2
*D3
340
0
  0
BLOCK_RECORD
  5
81
330
1
100
AcDbSymbolTableRecord
100
AcDbBlockTableRecord
  2
*D4
340
0
  0
BLOCK_RECORD
  5
82
330
1
100
AcDbSymbolTableRecord
100
AcDbBlockTableRecord
  2
*D5
340
0
  0
BLOCK_RECORD
  5
2ED
330
1
100
AcDbSymbolTableRecord
100
AcDbBlockTableRecord
  2
*D6
340
0
  0
BLOCK_RECORD
  5
2FA
330
1
100
AcDbSymbolTableRecord
100
AcDbBlockTableRecord
  2
*D7
340
0
  0
BLOCK_RECORD
  5
307
330
1
100
AcDbSymbolTableRecord
100
AcDbBlockTableRecord
  2
*D8
340
0
  0
BLOCK_RECORD
  5
321
330
1
100
AcDbSymbolTableRecord
100
AcDbBlockTableRecord
  2
*D10
340
0
  0
BLOCK_RECORD
  5
32E
330
1
100
AcDbSymbolTableRecord
100
AcDbBlockTableRecord
  2
*D11
340
0
  0
BLOCK_RECORD
  5
33B
330
1
100
AcDbSymbolTableRecord
100
AcDbBlockTableRecord
  2
*D12
340
0
  0
ENDTAB
  0
ENDSEC
  0
SECTION
  2
BLOCKS
  0
BLOCK
  5
8C
330
1E
100
AcDbEntity
  8
0
100
AcDbBlockBegin
  2
*Model_Space
 70
     0
 10
0.0
 20
0.0
 30
0.0
  3
*Model_Space
  1

  0
ENDBLK
  5
8D
330
1E
100
AcDbEntity
  8
0
100
AcDbBlockEnd
  0
BLOCK
  5
8A
330
1A
100
AcDbEntity
 67
     1
  8
0
100
AcDbBlockBegin
  2
*Paper_Space
 70
     0
 10
0.0
 20
0.0
 30
0.0
  3
*Paper_Space
  1

  0
ENDBLK
  5
8B
330
1A
100
AcDbEntity
 67
     1
  8
0
100
AcDbBlockEnd
  0
BLOCK
  5
8F
330
7D
100
AcDbEntity
  8
0
100
AcDbBlockBegin
  2
*D0
 70
     1
 10
0.0
 20
0.0
 30
0.0
  3
*D0
  1

  0
LINE
  5
90
330
7D
100
AcDbEntity
  8
0
  6
ByBlock
 62
     0
100
AcDbLine
 10
1.282005420900821
 20
3.394136335388214
 30
0.0
 11
1.282005420900821
 21
2.459080663697431
 31
0.0
  0
LINE
  5
91
330
7D
100
AcDbEntity
  8
0
  6
ByBlock
 62
     0
100
AcDbLine
 10
4.094505420900821
 20
3.394136335388214
 30
0.0
 11
4.094505420900821
 21
2.459080663697431
 31
0.0
  0
LINE
  5
92
330
7D
100
AcDbEntity
  8
0
  6
ByBlock
 62
     0
100
AcDbLine
 10
1.282005420900821
 20
2.639080663697431
 30
0.0
 11
2.188255420900821
 21
2.639080663697431
 31
0.0
  0
LINE
  5
93
330
7D
100
AcDbEntity
  8
0
  6
ByBlock
 62
     0
100
AcDbLine
 10
4.094505420900821
 20
2.639080663697431
 30
0.0
 11
3.188255420900821
 21
2.639080663697431
 31
0.0
  0
LINE
  5
94
330
7D
100
AcDbEntity
  8
0
  6
ByBlock
 62
     0
100
AcDbLine
 10
1.157005420900821
 20
2.514080663697431
 30
0.0
 11
1.407005420900821
 21
2.764080663697431
 31
0.0
  0
LINE
  5
95
330
7D
100
AcDbEntity
  8
0
  6
ByBlock
 62
     0
100
AcDbLine
 10
3.969505420900821
 20
2.514080663697431
 30
0.0
 11
4.219505420900821
 21
2.764080663697431
 31
0.0
  0
TEXT
  5
96
330
7D
100
AcDbEntity
  8
0
  6
ByBlock
 62
     0
100
AcDbText
 10
2.313255420900821
 20
2.576580663697431
 30
0.0
 40
0.125
  1
2 13/16
 72
     1
 11
2.688255420900821
 21
2.639080663697431
 31
0.0
100
AcDbText
 73
     2
  0
POINT
  5
98
330
7D
100
AcDbEntity
  8
DEFPOINTS
  6
ByBlock
 62
     0
100
AcDbPoint
 10
1.282005420900821
 20
3.456636335388214
 30
0.0
  0
POINT
  5
99
330
7D
100
AcDbEntity
  8
DEFPOINTS
  6
ByBlock
 62
     0
100
AcDbPoint
 10
4.094505420900821
 20
3.456636335388214
 30
0.0
  0
POINT
  5
9A
330
7D
100
AcDbEntity
  8
DEFPOINTS
  6
ByBlock
 62
     0
100
AcDbPoint
 10
4.094505420900821
 20
2.639080663697431
 30
0.0
  0
ENDBLK
  5
9B
330
7D
100
AcDbEntity
  8
0
100
AcDbBlockEnd
  0
BLOCK
  5
9C
330
7E
100
AcDbEntity
  8
0
100
AcDbBlockBegin
  2
*D1
 70
     1
 10
0.0
 20
0.0
 30
0.0
  3
*D1
  1

  0
LINE
  5
9D
330
7E
100
AcDbEntity
  8
0
  6
ByBlock
 62
     0
100
AcDbLine
 10
0.9382554209008198
 20
16.66174663640899
 30
0.0
 11
0.9382554209008198
 21
17.23961779278398
 31
0.0
  0
LINE
  5
9E
330
7E
100
AcDbEntity
  8
0
  6
ByBlock
 62
     0
100
AcDbLine
 10
4.438255420900819
 20
16.66174663640899
 30
0.0
 11
4.438255420900819
 21
17.23961779278398
 31
0.0
  0
LINE
  5
9F
330
7E
100
AcDbEntity
  8
0
  6
ByBlock
 62
     0
100
AcDbLine
 10
0.9382554209008198
 20
17.05961779278398
 30
0.0
 11
2.292422087567486
 21
17.05961779278398
 31
0.0
  0
LINE
  5
A0
330
7E
100
AcDbEntity
  8
0
  6
ByBlock
 62
     0
100
AcDbLine
 10
4.438255420900819
 20
17.05961779278398
 30
0.0
 11
3.084088754234153
 21
17.05961779278398
 31
0.0
  0
LINE
  5
A1
330
7E
100
AcDbEntity
  8
0
  6
ByBlock
 62
     0
100
AcDbLine
 10
0.8132554209008198
 20
16.93461779278398
 30
0.0
 11
1.063255420900819
 21
17.18461779278398
 31
0.0
  0
LINE
  5
A2
330
7E
100
AcDbEntity
  8
0
  6
ByBlock
 62
     0
100
AcDbLine
 10
4.313255420900819
 20
16.93461779278398
 30
0.0
 11
4.563255420900819
 21
17.18461779278398
 31
0.0
  0
TEXT
  5
A3
330
7E
100
AcDbEntity
  8
0
  6
ByBlock
 62
     0
100
AcDbText
 10
2.417422087567486
 20
16.99711779278398
 30
0.0
 40
0.125
  1
3 1/2
 72
     1
 11
2.688255420900819
 21
17.05961779278398
 31
0.0
100
AcDbText
 73
     2
  0
POINT
  5
A4
330
7E
100
AcDbEntity
  8
DEFPOINTS
  6
ByBlock
 62
     0
100
AcDbPoint
 10
0.9382554209008198
 20
16.59924663640899
 30
0.0
  0
POINT
  5
A5
330
7E
100
AcDbEntity
  8
DEFPOINTS
  6
ByBlock
 62
     0
100
AcDbPoint
 10
4.438255420900819
 20
16.59924663640899
 30
0.0
  0
POINT
  5
A6
330
7E
100
AcDbEntity
  8
DEFPOINTS
  6
ByBlock
 62
     0
100
AcDbPoint
 10
4.438255420900819
 20
17.05961779278398
 30
0.0
  0
ENDBLK
  5
A7
330
7E
100
AcDbEntity
  8
0
100
AcDbBlockEnd
  0
BLOCK
  5
A8
330
7F
100
AcDbEntity
  8
0
100
AcDbBlockBegin
  2
*D2
 70
     1
 10
0.0
 20
0.0
 30
0.0
  3
*D2
  1

  0
LINE
  5
A9
330
7F
100
AcDbEntity
  8
0
  6
ByBlock
 62
     0
100
AcDbLine
 10
1.563255420900819
 20
11.53674663640899
 30
0.0
 11
1.563255420900819
 21
10.8105742228942
 31
0.0
  0
LINE
  5
AA
330
7F
100
AcDbEntity
  8
0
  6
ByBlock
 62
     0
100
AcDbLine
 10
3.813255420900819
 20
11.53674663640899
 30
0.0
 11
3.813255420900819
 21
10.8105742228942
 31
0.0
  0
LINE
  5
AB
330
7F
100
AcDbEntity
  8
0
  6
ByBlock
 62
     0
100
AcDbLine
 10
1.563255420900819
 20
10.9905742228942
 30
0.0
 11
2.292422087567486
 21
10.9905742228942
 31
0.0
  0
LINE
  5
AC
330
7F
100
AcDbEntity
  8
0
  6
ByBlock
 62
     0
100
AcDbLine
 10
3.813255420900819
 20
10.9905742228942
 30
0.0
 11
3.084088754234153
 21
10.9905742228942
 31
0.0
  0
LINE
  5
AD
330
7F
100
AcDbEntity
  8
0
  6
ByBlock
 62
     0
100
AcDbLine
 10
1.438255420900819
 20
10.8655742228942
 30
0.0
 11
1.688255420900819
 21
11.1155742228942
 31
0.0
  0
LINE
  5
AE
330
7F
100
AcDbEntity
  8
0
  6
ByBlock
 62
     0
100
AcDbLine
 10
3.688255420900819
 20
10.8655742228942
 30
0.0
 11
3.938255420900819
 21
11.1155742228942
 31
0.0
  0
TEXT
  5
AF
330
7F
100
AcDbEntity
  8
0
  6
ByBlock
 62
     0
100
AcDbText
 10
2.417422087567486
 20
10.9280742228942
 30
0.0
 40
0.125
  1
2 1/4
 72
     1
 11
2.688255420900819
 21
10.9905742228942
 31
0.0
100
AcDbText
 73
     2
  0
POINT
  5
B0
330
7F
100
AcDbEntity
  8
DEFPOINTS
  6
ByBlock
 62
     0
100
AcDbPoint
 10
1.563255420900819
 20
11.59924663640899
 30
0.0
  0
POINT
  5
B1
330
7F
100
AcDbEntity
  8
DEFPOINTS
  6
ByBlock
 62
     0
100
AcDbPoint
 10
3.813255420900819
 20
11.59924663640899
 30
0.0
  0
POINT
  5
B2
330
7F
100
AcDbEntity
  8
DEFPOINTS
  6
ByBlock
 62
     0
100
AcDbPoint
 10
3.813255420900819
 20
10.9905742228942
 30
0.0
  0
ENDBLK
  5
B3
330
7F
100
AcDbEntity
  8
0
100
AcDbBlockEnd
  0
BLOCK
  5
B4
330
80
100
AcDbEntity
  8
0
100
AcDbBlockBegin
  2
*D3
 70
     1
 10
0.0
 20
0.0
 30
0.0
  3
*D3
  1

  0
LINE
  5
B5
330
80
100
AcDbEntity
  8
0
  6
ByBlock
 62
     0
100
AcDbLine
 10
2.036036227875408
 20
9.544683554570383
 30
0.0
 11
2.036036227875408
 21
9.236679772696898
 31
0.0
  0
LINE
  5
B6
330
80
100
AcDbEntity
  8
0
  6
ByBlock
 62
     0
100
AcDbLine
 10
3.340474613926227
 20
9.56868355457038
 30
0.0
 11
3.340474613926227
 21
9.236679772696898
 31
0.0
  0
LINE
  5
B7
330
80
100
AcDbEntity
  8
0
  6
ByBlock
 62
     0
100
AcDbLine
 10
2.036036227875408
 20
9.416679772696898
 30
0.0
 11
1.786036227875408
 21
9.416679772696898
 31
0.0
  0
LINE
  5
B8
330
80
100
AcDbEntity
  8
0
  6
ByBlock
 62
     0
100
AcDbLine
 10
3.340474613926227
 20
9.416679772696898
 30
0.0
 11
3.590474613926227
 21
9.416679772696898
 31
0.0
  0
LINE
  5
B9
330
80
100
AcDbEntity
  8
0
  6
ByBlock
 62
     0
100
AcDbLine
 10
1.911036227875408
 20
9.291679772696898
 30
0.0
 11
2.161036227875408
 21
9.541679772696898
 31
0.0
  0
LINE
  5
BA
330
80
100
AcDbEntity
  8
0
  6
ByBlock
 62
     0
100
AcDbLine
 10
3.215474613926227
 20
9.291679772696898
 30
0.0
 11
3.465474613926227
 21
9.541679772696898
 31
0.0
  0
TEXT
  5
BB
330
80
100
AcDbEntity
  8
0
  6
ByBlock
 62
     0
100
AcDbText
 10
3.715474613926227
 20
9.354179772696898
 30
0.0
 40
0.125
  1
1 5/16
 72
     1
 11
4.027974613926227
 21
9.416679772696898
 31
0.0
100
AcDbText
 73
     2
  0
POINT
  5
BC
330
80
100
AcDbEntity
  8
DEFPOINTS
  6
ByBlock
 62
     0
100
AcDbPoint
 10
2.036036227875408
 20
9.607183554570383
 30
0.0
  0
POINT
  5
BD
330
80
100
AcDbEntity
  8
DEFPOINTS
  6
ByBlock
 62
     0
100
AcDbPoint
 10
3.340474613926227
 20
9.63118355457038
 30
0.0
  0
POINT
  5
BE
330
80
100
AcDbEntity
  8
DEFPOINTS
  6
ByBlock
 62
     0
100
AcDbPoint
 10
3.340474613926227
 20
9.416679772696898
 30
0.0
  0
ENDBLK
  5
BF
330
80
100
AcDbEntity
  8
0
100
AcDbBlockEnd
  0
BLOCK
  5
C0
330
81
100
AcDbEntity
  8
0
100
AcDbBlockBegin
  2
*D4
 70
     1
 10
0.0
 20
0.0
 30
0.0
  3
*D4
  1

  0
LINE
  5
C1
330
81
100
AcDbEntity
  8
0
  6
ByBlock
 62
     0
100
AcDbLine
 10
3.877203248987717
 20
11.60380165766932
 30
0.0
 11
5.116312076308371
 21
11.60380165766932
 31
0.0
  0
LINE
  5
C2
330
81
100
AcDbEntity
  8
0
  6
ByBlock
 62
     0
100
AcDbLine
 10
4.500755420900819
 20
13.09924663640899
 30
0.0
 11
5.116312076308371
 21
13.09924663640899
 31
0.0
  0
LINE
  5
C3
330
81
100
AcDbEntity
  8
0
  6
ByBlock
 62
     0
100
AcDbLine
 10
4.936312076308372
 20
11.60380165766932
 30
0.0
 11
4.936312076308372
 21
11.97652414703916
 31
0.0
  0
LINE
  5
C4
330
81
100
AcDbEntity
  8
0
  6
ByBlock
 62
     0
100
AcDbLine
 10
4.936312076308372
 20
13.09924663640899
 30
0.0
 11
4.936312076308372
 21
12.72652414703915
 31
0.0
  0
LINE
  5
C5
330
81
100
AcDbEntity
  8
0
  6
ByBlock
 62
     0
100
AcDbLine
 10
5.061312076308372
 20
11.47880165766932
 30
0.0
 11
4.811312076308372
 21
11.72880165766932
 31
0.0
  0
LINE
  5
C6
330
81
100
AcDbEntity
  8
0
  6
ByBlock
 62
     0
100
AcDbLine
 10
5.061312076308372
 20
12.97424663640899
 30
0.0
 11
4.811312076308372
 21
13.22424663640899
 31
0.0
  0
TEXT
  5
C7
330
81
100
AcDbEntity
  8
0
  6
ByBlock
 62
     0
100
AcDbText
 10
4.998812076308372
 20
12.10152414703915
 30
0.0
 40
0.125
  1
1 1/2
 50
90.0
 72
     1
 11
4.936312076308372
 21
12.35152414703916
 31
0.0
100
AcDbText
 73
     2
  0
POINT
  5
C8
330
81
100
AcDbEntity
  8
DEFPOINTS
  6
ByBlock
 62
     0
100
AcDbPoint
 10
3.814703248987717
 20
11.60380165766932
 30
0.0
  0
POINT
  5
C9
330
81
100
AcDbEntity
  8
DEFPOINTS
  6
ByBlock
 62
     0
100
AcDbPoint
 10
4.438255420900819
 20
13.09924663640899
 30
0.0
  0
POINT
  5
CA
330
81
100
AcDbEntity
  8
DEFPOINTS
  6
ByBlock
 62
     0
100
AcDbPoint
 10
4.936312076308372
 20
13.09924663640899
 30
0.0
  0
ENDBLK
  5
CB
330
81
100
AcDbEntity
  8
0
100
AcDbBlockEnd
  0
BLOCK
  5
CC
330
82
100
AcDbEntity
  8
0
100
AcDbBlockBegin
  2
*D5
 70
     1
 10
0.0
 20
0.0
 30
0.0
  3
*D5
  1

  0
LINE
  5
CD
330
82
100
AcDbEntity
  8
0
  6
ByBlock
 62
     0
100
AcDbLine
 10
4.500755420900819
 20
16.59924663640899
 30
0.0
 11
5.116312076308371
 21
16.59924663640899
 31
0.0
  0
LINE
  5
CE
330
82
100
AcDbEntity
  8
0
  6
ByBlock
 62
     0
100
AcDbLine
 10
4.500755420900819
 20
13.09924663640899
 30
0.0
 11
5.116312076308371
 21
13.09924663640899
 31
0.0
  0
LINE
  5
CF
330
82
100
AcDbEntity
  8
0
  6
ByBlock
 62
     0
100
AcDbLine
 10
4.936312076308372
 20
16.59924663640899
 30
0.0
 11
4.936312076308372
 21
15.24507996974232
 31
0.0
  0
LINE
  5
D0
330
82
100
AcDbEntity
  8
0
  6
ByBlock
 62
     0
100
AcDbLine
 10
4.936312076308372
 20
13.09924663640899
 30
0.0
 11
4.936312076308372
 21
14.45341330307566
 31
0.0
  0
LINE
  5
D1
330
82
100
AcDbEntity
  8
0
  6
ByBlock
 62
     0
100
AcDbLine
 10
5.061312076308372
 20
16.47424663640899
 30
0.0
 11
4.811312076308372
 21
16.72424663640899
 31
0.0
  0
LINE
  5
D2
330
82
100
AcDbEntity
  8
0
  6
ByBlock
 62
     0
100
AcDbLine
 10
5.061312076308372
 20
12.97424663640899
 30
0.0
 11
4.811312076308372
 21
13.22424663640899
 31
0.0
  0
TEXT
  5
D3
330
82
100
AcDbEntity
  8
0
  6
ByBlock
 62
     0
100
AcDbText
 10
4.998812076308372
 20
14.57841330307566
 30
0.0
 40
0.125
  1
3 1/2
 50
90.0
 72
     1
 11
4.936312076308372
 21
14.84924663640899
 31
0.0
100
AcDbText
 73
     2
  0
POINT
  5
D4
330
82
100
AcDbEntity
  8
DEFPOINTS
  6
ByBlock
 62
     0
100
AcDbPoint
 10
4.438255420900819
 20
16.59924663640899
 30
0.0
  0
POINT
  5
D5
330
82
100
AcDbEntity
  8
DEFPOINTS
  6
ByBlock
 62
     0
100
AcDbPoint
 10
4.438255420900819
 20
13.09924663640899
 30
0.0
  0
POINT
  5
D6
330
82
100
AcDbEntity
  8
DEFPOINTS
  6
ByBlock
 62
     0
100
AcDbPoint
 10
4.936312076308372
 20
13.09924663640899
 30
0.0
  0
ENDBLK
  5
D7
330
82
100
AcDbEntity
  8
0
100
AcDbBlockEnd
  0
BLOCK
  5
2EE
330
2ED
100
AcDbEntity
  8
0
100
AcDbBlockBegin
  2
*D6
 70
     1
 10
0.0
 20
0.0
 30
0.0
  3
*D6
  1

  0
LINE
  5
2EF
330
2ED
100
AcDbEntity
  8
ADPDIM
 62
     0
370
    -2
100
AcDbLine
 10
-10.51013241093379
 20
-3.663356906613114
 30
0.0
 11
-10.51013241093379
 21
-2.896561432217439
 31
0.0
  0
LINE
  5
2F0
330
2ED
100
AcDbEntity
  8
ADPDIM
 62
     0
370
    -2
100
AcDbLine
 10
-8.266210830181414
 20
-3.663356906613114
 30
0.0
 11
-8.266210830181414
 21
-2.896561432217439
 31
0.0
  0
LINE
  5
2F1
330
2ED
100
AcDbEntity
  8
ADPDIM
 62
     0
370
    -2
100
AcDbLine
 10
-10.33013241093379
 20
-3.076561432217439
 30
0.0
 11
-9.749004953890937
 21
-3.076561432217439
 31
0.0
  0
LINE
  5
2F2
330
2ED
100
AcDbEntity
  8
ADPDIM
 62
     0
370
    -2
100
AcDbLine
 10
-8.446210830181414
 20
-3.076561432217439
 30
0.0
 11
-9.027338287224269
 21
-3.076561432217439
 31
0.0
  0
SOLID
  5
2F3
330
2ED
100
AcDbEntity
  8
ADPDIM
 62
     0
100
AcDbTrace
 10
-10.33013241093379
 20
-3.046561432217439
 30
0.0
 11
-10.33013241093379
 21
-3.106561432217439
 31
0.0
 12
-10.51013241093379
 22
-3.076561432217439
 32
0.0
 13
-10.51013241093379
 23
-3.076561432217439
 33
0.0
  0
SOLID
  5
2F4
330
2ED
100
AcDbEntity
  8
ADPDIM
 62
     0
100
AcDbTrace
 10
-8.446210830181414
 20
-3.046561432217439
 30
0.0
 11
-8.446210830181414
 21
-3.106561432217439
 31
0.0
 12
-8.266210830181414
 22
-3.076561432217439
 32
0.0
 13
-8.266210830181414
 23
-3.076561432217439
 33
0.0
  0
MTEXT
  5
2F5
330
2ED
100
AcDbEntity
  8
ADPDIM
 62
     0
100
AcDbMText
 10
-9.388171620557603
 20
-3.076561432217439
 30
0.0
 40
0.125
 41
0.0
 71
     5
 72
     1
  1
\A1;2 1/4
 73
     1
 44
1.0
1001
ACAD
1000
MTEXTBEGIN
1070
    73
1070
     1
1070
    44
1040
1.0
1070
    74
1070
     0
1000
MTEXTEND
  0
POINT
  5
2F6
330
2ED
100
AcDbEntity
  8
DEFPOINTS
 62
     0
100
AcDbPoint
 10
-10.51013241093379
 20
-3.725856906613114
 30
0.0
  0
POINT
  5
2F7
330
2ED
100
AcDbEntity
  8
DEFPOINTS
 62
     0
100
AcDbPoint
 10
-8.266210830181414
 20
-3.725856906613114
 30
0.0
  0
POINT
  5
2F8
330
2ED
100
AcDbEntity
  8
DEFPOINTS
 62
     0
100
AcDbPoint
 10
-8.266210830181414
 20
-3.076561432217439
 30
0.0
  0
ENDBLK
  5
2F9
330
2ED
100
AcDbEntity
  8
0
100
AcDbBlockEnd
  0
BLOCK
  5
2FB
330
2FA
100
AcDbEntity
  8
0
100
AcDbBlockBegin
  2
*D7
 70
     1
 10
0.0
 20
0.0
 30
0.0
  3
*D7
  1

  0
LINE
  5
2FC
330
2FA
100
AcDbEntity
  8
ADPDIM
 62
     0
370
    -2
100
AcDbLine
 10
-10.03008488984317
 20
-3.89428691078616
 30
0.0
 11
-10.03008488984317
 21
-4.212175990126976
 31
0.0
  0
LINE
  5
2FD
330
2FA
100
AcDbEntity
  8
ADPDIM
 62
     0
370
    -2
100
AcDbLine
 10
-8.717584889843173
 20
-3.89428691078616
 30
0.0
 11
-8.717584889843173
 21
-4.212175990126976
 31
0.0
  0
LINE
  5
2FE
330
2FA
100
AcDbEntity
  8
ADPDIM
 62
     0
370
    -2
100
AcDbLine
 10
-10.03008488984317
 20
-4.032175990126976
 30
0.0
 11
-9.811334889843173
 21
-4.032175990126976
 31
0.0
  0
LINE
  5
2FF
330
2FA
100
AcDbEntity
  8
ADPDIM
 62
     0
370
    -2
100
AcDbLine
 10
-8.717584889843173
 20
-4.032175990126976
 30
0.0
 11
-8.936334889843173
 21
-4.032175990126976
 31
0.0
  0
LINE
  5
300
330
2FA
100
AcDbEntity
  8
ADPDIM
 62
     0
370
    -2
100
AcDbLine
 10
-8.842584889843173
 20
-4.157175990126976
 30
0.0
 11
-8.592584889843173
 21
-3.907175990126976
 31
0.0
  0
LINE
  5
301
330
2FA
100
AcDbEntity
  8
ADPDIM
 62
     0
370
    -2
100
AcDbLine
 10
-10.15508488984317
 20
-4.157175990126976
 30
0.0
 11
-9.905084889843173
 21
-3.907175990126976
 31
0.0
  0
MTEXT
  5
302
330
2FA
100
AcDbEntity
  8
ADPDIM
 62
     0
100
AcDbMText
 10
-9.373834889843173
 20
-4.032175990126976
 30
0.0
 40
0.125
 41
0.0
 71
     5
 72
     1
  1
\A1;1 5/16
 73
     1
 44
1.0
1001
ACAD
1000
MTEXTBEGIN
1070
    73
1070
     1
1070
    44
1040
1.0
1070
    74
1070
     0
1000
MTEXTEND
  0
POINT
  5
303
330
2FA
100
AcDbEntity
  8
DEFPOINTS
 62
     0
100
AcDbPoint
 10
-10.03008488984317
 20
-3.83178691078616
 30
0.0
  0
POINT
  5
304
330
2FA
100
AcDbEntity
  8
DEFPOINTS
 62
     0
100
AcDbPoint
 10
-8.717584889843173
 20
-3.83178691078616
 30
0.0
  0
POINT
  5
305
330
2FA
100
AcDbEntity
  8
DEFPOINTS
 62
     0
100
AcDbPoint
 10
-8.717584889843173
 20
-4.032175990126976
 30
0.0
  0
ENDBLK
  5
306
330
2FA
100
AcDbEntity
  8
0
100
AcDbBlockEnd
  0
BLOCK
  5
308
330
307
100
AcDbEntity
  8
0
100
AcDbBlockBegin
  2
*D8
 70
     1
 10
0.0
 20
0.0
 30
0.0
  3
*D8
  1

  0
LINE
  5
309
330
307
100
AcDbEntity
  8
ADPDIM
 62
     0
370
    -2
100
AcDbLine
 10
-10.15887895848968
 20
-4.080362485850745
 30
0.0
 11
-10.15887895848968
 21
-4.570013635979918
 31
0.0
  0
LINE
  5
30A
330
307
100
AcDbEntity
  8
ADPDIM
 62
     0
370
    -2
100
AcDbLine
 10
-8.59637895848968
 20
-4.080362485850745
 30
0.0
 11
-8.59637895848968
 21
-4.570013635979918
 31
0.0
  0
LINE
  5
30B
330
307
100
AcDbEntity
  8
ADPDIM
 62
     0
370
    -2
100
AcDbLine
 10
-10.15887895848968
 20
-4.390013635979919
 30
0.0
 11
-9.81512895848968
 21
-4.390013635979919
 31
0.0
  0
LINE
  5
30C
330
307
100
AcDbEntity
  8
ADPDIM
 62
     0
370
    -2
100
AcDbLine
 10
-8.59637895848968
 20
-4.390013635979919
 30
0.0
 11
-8.94012895848968
 21
-4.390013635979919
 31
0.0
  0
LINE
  5
30D
330
307
100
AcDbEntity
  8
ADPDIM
 62
     0
370
    -2
100
AcDbLine
 10
-8.72137895848968
 20
-4.515013635979919
 30
0.0
 11
-8.47137895848968
 21
-4.265013635979919
 31
0.0
  0
LINE
  5
30E
330
307
100
AcDbEntity
  8
ADPDIM
 62
     0
370
    -2
100
AcDbLine
 10
-10.28387895848968
 20
-4.515013635979919
 30
0.0
 11
-10.03387895848968
 21
-4.265013635979919
 31
0.0
  0
MTEXT
  5
30F
330
307
100
AcDbEntity
  8
ADPDIM
 62
     0
100
AcDbMText
 10
-9.37762895848968
 20
-4.390013635979919
 30
0.0
 40
0.125
 41
0.0
 71
     5
 72
     1
  1
\A1;1 9/16
 73
     1
 44
1.0
1001
ACAD
1000
MTEXTBEGIN
1070
    73
1070
     1
1070
    44
1040
1.0
1070
    74
1070
     0
1000
MTEXTEND
  0
POINT
  5
310
330
307
100
AcDbEntity
  8
DEFPOINTS
 62
     0
100
AcDbPoint
 10
-10.15887895848968
 20
-4.017862485850745
 30
0.0
  0
POINT
  5
311
330
307
100
AcDbEntity
  8
DEFPOINTS
 62
     0
100
AcDbPoint
 10
-8.59637895848968
 20
-4.017862485850745
 30
0.0
  0
POINT
  5
312
330
307
100
AcDbEntity
  8
DEFPOINTS
 62
     0
100
AcDbPoint
 10
-8.59637895848968
 20
-4.390013635979919
 30
0.0
  0
ENDBLK
  5
313
330
307
100
AcDbEntity
  8
0
100
AcDbBlockEnd
  0
BLOCK
  5
32C
330
321
100
AcDbEntity
  8
0
100
AcDbBlockBegin
  2
*D10
 70
     1
 10
0.0
 20
0.0
 30
0.0
  3
*D10
  1

  0
LINE
  5
348
330
321
100
AcDbEntity
  8
ADPDIM
 62
     0
370
    -2
100
AcDbLine
 10
1.556597969194093
 20
9.959136342285525
 30
0.0
 11
1.556597969194093
 21
10.7259318166812
 31
0.0
  0
LINE
  5
349
330
321
100
AcDbEntity
  8
ADPDIM
 62
     0
370
    -2
100
AcDbLine
 10
3.800519549946471
 20
9.959136342285525
 30
0.0
 11
3.800519549946471
 21
10.7259318166812
 31
0.0
  0
LINE
  5
34A
330
321
100
AcDbEntity
  8
ADPDIM
 62
     0
370
    -2
100
AcDbLine
 10
1.736597969194093
 20
10.5459318166812
 30
0.0
 11
2.317725426236949
 21
10.5459318166812
 31
0.0
  0
LINE
  5
34B
330
321
100
AcDbEntity
  8
ADPDIM
 62
     0
370
    -2
100
AcDbLine
 10
3.620519549946471
 20
10.5459318166812
 30
0.0
 11
3.039392092903616
 21
10.5459318166812
 31
0.0
  0
SOLID
  5
34C
330
321
100
AcDbEntity
  8
ADPDIM
 62
     0
100
AcDbTrace
 10
1.736597969194093
 20
10.5759318166812
 30
0.0
 11
1.736597969194093
 21
10.5159318166812
 31
0.0
 12
1.556597969194093
 22
10.5459318166812
 32
0.0
 13
1.556597969194093
 23
10.5459318166812
 33
0.0
  0
SOLID
  5
34D
330
321
100
AcDbEntity
  8
ADPDIM
 62
     0
100
AcDbTrace
 10
3.620519549946471
 20
10.5759318166812
 30
0.0
 11
3.620519549946471
 21
10.5159318166812
 31
0.0
 12
3.800519549946471
 22
10.5459318166812
 32
0.0
 13
3.800519549946471
 23
10.5459318166812
 33
0.0
  0
MTEXT
  5
34E
330
321
100
AcDbEntity
  8
ADPDIM
 62
     0
100
AcDbMText
 10
2.678558759570282
 20
10.5459318166812
 30
0.0
 40
0.125
 41
0.0
 71
     5
 72
     1
  1
\A1;2 1/4
 73
     1
 44
1.0
1001
ACAD
1000
MTEXTBEGIN
1070
    73
1070
     1
1070
    44
1040
1.0
1070
    74
1070
     0
1000
MTEXTEND
  0
POINT
  5
34F
330
321
100
AcDbEntity
  8
DEFPOINTS
 62
     0
100
AcDbPoint
 10
1.556597969194093
 20
9.896636342285525
 30
0.0
  0
POINT
  5
350
330
321
100
AcDbEntity
  8
DEFPOINTS
 62
     0
100
AcDbPoint
 10
3.800519549946471
 20
9.896636342285525
 30
0.0
  0
POINT
  5
351
330
321
100
AcDbEntity
  8
DEFPOINTS
 62
     0
100
AcDbPoint
 10
3.800519549946471
 20
10.5459318166812
 30
0.0
  0
ENDBLK
  5
32D
330
321
100
AcDbEntity
  8
0
100
AcDbBlockEnd
  0
BLOCK
  5
339
330
32E
100
AcDbEntity
  8
0
100
AcDbBlockBegin
  2
*D11
 70
     1
 10
0.0
 20
0.0
 30
0.0
  3
*D11
  1

  0
LINE
  5
352
330
32E
100
AcDbEntity
  8
ADPDIM
 62
     0
370
    -2
100
AcDbLine
 10
2.036645490284712
 20
9.728206338112478
 30
0.0
 11
2.036645490284712
 21
9.410317258771662
 31
0.0
  0
LINE
  5
353
330
32E
100
AcDbEntity
  8
ADPDIM
 62
     0
370
    -2
100
AcDbLine
 10
3.349145490284712
 20
9.728206338112478
 30
0.0
 11
3.349145490284712
 21
9.410317258771662
 31
0.0
  0
LINE
  5
354
330
32E
100
AcDbEntity
  8
ADPDIM
 62
     0
370
    -2
100
AcDbLine
 10
2.036645490284712
 20
9.590317258771662
 30
0.0
 11
2.255395490284712
 21
9.590317258771662
 31
0.0
  0
LINE
  5
355
330
32E
100
AcDbEntity
  8
ADPDIM
 62
     0
370
    -2
100
AcDbLine
 10
3.349145490284712
 20
9.590317258771662
 30
0.0
 11
3.130395490284712
 21
9.590317258771662
 31
0.0
  0
LINE
  5
356
330
32E
100
AcDbEntity
  8
ADPDIM
 62
     0
370
    -2
100
AcDbLine
 10
3.224145490284712
 20
9.465317258771662
 30
0.0
 11
3.474145490284712
 21
9.715317258771662
 31
0.0
  0
LINE
  5
357
330
32E
100
AcDbEntity
  8
ADPDIM
 62
     0
370
    -2
100
AcDbLine
 10
1.911645490284712
 20
9.465317258771662
 30
0.0
 11
2.161645490284712
 21
9.715317258771662
 31
0.0
  0
MTEXT
  5
358
330
32E
100
AcDbEntity
  8
ADPDIM
 62
     0
100
AcDbMText
 10
2.692895490284712
 20
9.590317258771662
 30
0.0
 40
0.125
 41
0.0
 71
     5
 72
     1
  1
\A1;1 5/16
 73
     1
 44
1.0
1001
ACAD
1000
MTEXTBEGIN
1070
    73
1070
     1
1070
    44
1040
1.0
1070
    74
1070
     0
1000
MTEXTEND
  0
POINT
  5
359
330
32E
100
AcDbEntity
  8
DEFPOINTS
 62
     0
100
AcDbPoint
 10
2.036645490284712
 20
9.790706338112478
 30
0.0
  0
POINT
  5
35A
330
32E
100
AcDbEntity
  8
DEFPOINTS
 62
     0
100
AcDbPoint
 10
3.349145490284712
 20
9.790706338112478
 30
0.0
  0
POINT
  5
35B
330
32E
100
AcDbEntity
  8
DEFPOINTS
 62
     0
100
AcDbPoint
 10
3.349145490284712
 20
9.590317258771662
 30
0.0
  0
ENDBLK
  5
33A
330
32E
100
AcDbEntity
  8
0
100
AcDbBlockEnd
  0
BLOCK
  5
346
330
33B
100
AcDbEntity
  8
0
100
AcDbBlockBegin
  2
*D12
 70
     1
 10
0.0
 20
0.0
 30
0.0
  3
*D12
  1

  0
LINE
  5
35C
330
33B
100
AcDbEntity
  8
ADPDIM
 62
     0
370
    -2
100
AcDbLine
 10
1.907851421638206
 20
9.542130763047893
 30
0.0
 11
1.907851421638206
 21
9.05247961291872
 31
0.0
  0
LINE
  5
35D
330
33B
100
AcDbEntity
  8
ADPDIM
 62
     0
370
    -2
100
AcDbLine
 10
3.470351421638206
 20
9.542130763047893
 30
0.0
 11
3.470351421638206
 21
9.05247961291872
 31
0.0
  0
LINE
  5
35E
330
33B
100
AcDbEntity
  8
ADPDIM
 62
     0
370
    -2
100
AcDbLine
 10
1.907851421638206
 20
9.232479612918719
 30
0.0
 11
2.251601421638206
 21
9.232479612918719
 31
0.0
  0
LINE
  5
35F
330
33B
100
AcDbEntity
  8
ADPDIM
 62
     0
370
    -2
100
AcDbLine
 10
3.470351421638206
 20
9.232479612918719
 30
0.0
 11
3.126601421638206
 21
9.232479612918719
 31
0.0
  0
LINE
  5
360
330
33B
100
AcDbEntity
  8
ADPDIM
 62
     0
370
    -2
100
AcDbLine
 10
3.345351421638206
 20
9.107479612918719
 30
0.0
 11
3.595351421638206
 21
9.357479612918719
 31
0.0
  0
LINE
  5
361
330
33B
100
AcDbEntity
  8
ADPDIM
 62
     0
370
    -2
100
AcDbLine
 10
1.782851421638206
 20
9.107479612918719
 30
0.0
 11
2.032851421638206
 21
9.357479612918719
 31
0.0
  0
MTEXT
  5
362
330
33B
100
AcDbEntity
  8
ADPDIM
 62
     0
100
AcDbMText
 10
2.689101421638206
 20
9.232479612918719
 30
0.0
 40
0.125
 41
0.0
 71
     5
 72
     1
  1
\A1;1 9/16
 73
     1
 44
1.0
1001
ACAD
1000
MTEXTBEGIN
1070
    73
1070
     1
1070
    44
1040
1.0
1070
    74
1070
     0
1000
MTEXTEND
  0
POINT
  5
363
330
33B
100
AcDbEntity
  8
DEFPOINTS
 62
     0
100
AcDbPoint
 10
1.907851421638206
 20
9.604630763047893
 30
0.0
  0
POINT
  5
364
330
33B
100
AcDbEntity
  8
DEFPOINTS
 62
     0
100
AcDbPoint
 10
3.470351421638206
 20
9.604630763047893
 30
0.0
  0
POINT
  5
365
330
33B
100
AcDbEntity
  8
DEFPOINTS
 62
     0
100
AcDbPoint
 10
3.470351421638206
 20
9.232479612918719
 30
0.0
  0
ENDBLK
  5
347
330
33B
100
AcDbEntity
  8
0
100
AcDbBlockEnd
  0
ENDSEC
  0
SECTION
  2
ENTITIES
  0
DIMENSION
  5
D8
330
1E
100
AcDbEntity
  8
ADPDIM
100
AcDbDimension
  2
*D0
 10
4.094505420900821
 20
2.639080663697431
 30
0.0
 11
2.688255420900821
 21
2.639080663697431
 31
0.0
 71
     5
 42
-1.0
100
AcDbAlignedDimension
 13
1.282005420900821
 23
3.456636335388214
 33
0.0
 14
4.094505420900821
 24
3.456636335388214
 34
0.0
100
AcDbRotatedDimension
  0
LINE
  5
D9
330
1E
100
AcDbEntity
  8
ADP1DETAIL
100
AcDbLine
 10
3.335675476205466
 20
6.269136335388214
 30
0.0
 11
3.335675476205466
 21
8.10753149616476
 31
0.0
  0
LINE
  5
DA
330
1E
100
AcDbEntity
  8
ADP1DETAIL
100
AcDbLine
 10
3.460675476205466
 20
6.269136335388214
 30
0.0
 11
3.460675476205466
 21
8.10753149616476
 31
0.0
  0
LINE
  5
DB
330
1E
100
AcDbEntity
  8
ADP1DETAIL
100
AcDbLine
 10
3.210675476205466
 20
6.269136335388214
 30
0.0
 11
3.210675476205466
 21
8.10753149616476
 31
0.0
  0
LINE
  5
DC
330
1E
100
AcDbEntity
  8
ADP1DETAIL
100
AcDbLine
 10
3.813255420900819
 20
6.607531496164764
 30
0.0
 11
3.813255420900819
 21
8.10753149616476
 31
0.0
  0
LINE
  5
DD
330
1E
100
AcDbEntity
  8
ADP1DETAIL
100
AcDbLine
 10
2.164184187729405
 20
8.10753149616476
 30
0.0
 11
2.164184187729405
 21
6.269136335388214
 31
0.0
  0
LINE
  5
DE
330
1E
100
AcDbEntity
  8
ADP1DETAIL
100
AcDbLine
 10
2.039184187729405
 20
8.10753149616476
 30
0.0
 11
2.039184187729405
 21
6.269136335388214
 31
0.0
  0
LINE
  5
DF
330
1E
100
AcDbEntity
  8
ADP1DETAIL
100
AcDbLine
 10
1.914184187729405
 20
8.10753149616476
 30
0.0
 11
1.914184187729405
 21
6.269136335388216
 31
0.0
  0
LINE
  5
E0
330
1E
100
AcDbEntity
  8
ADP1DETAIL
100
AcDbLine
 10
1.563255420900819
 20
8.10753149616476
 30
0.0
 11
1.563255420900819
 21
6.60753149616476
 31
0.0
  0
LINE
  5
E1
330
1E
100
AcDbEntity
  8
ADP1DETAIL
100
AcDbLine
 10
1.282005420900821
 20
6.269136335388214
 30
0.0
 11
4.094505420900821
 21
6.269136335388214
 31
0.0
  0
LINE
  5
E2
330
1E
100
AcDbEntity
  8
ADP1DETAIL
100
AcDbLine
 10
4.094505420900821
 20
3.456636335388214
 30
0.0
 11
1.282005420900821
 21
3.456636335388214
 31
0.0
  0
LINE
  5
E3
330
1E
100
AcDbEntity
  8
ADP1DETAIL
100
AcDbLine
 10
0.9382554209008198
 20
3.10753149616476
 30
0.0
 11
4.438255420900819
 21
3.10753149616476
 31
0.0
  0
LINE
  5
E4
330
1E
100
AcDbEntity
  8
ADP1DETAIL
100
AcDbLine
 10
1.407005420900821
 20
3.782733590567545
 30
0.0
 11
1.407005420900821
 21
5.943039080208883
 31
0.0
  0
LINE
  5
E5
330
1E
100
AcDbEntity
  8
ADP1DETAIL
100
AcDbLine
 10
1.282005420900821
 20
3.456636335388214
 30
0.0
 11
1.282005420900821
 21
6.269136335388214
 31
0.0
  0
LINE
  5
E6
330
1E
100
AcDbEntity
  8
ADP1DETAIL
100
AcDbLine
 10
0.9382554209008198
 20
6.60753149616476
 30
0.0
 11
0.9382554209008198
 21
3.10753149616476
 31
0.0
  0
LINE
  5
E7
330
1E
100
AcDbEntity
  8
ADP1DETAIL
100
AcDbLine
 10
1.407005420900821
 20
3.782733590567545
 30
0.0
 11
1.594505420900821
 21
3.782733590567545
 31
0.0
  0
LINE
  5
E8
330
1E
100
AcDbEntity
  8
ADP1DETAIL
100
AcDbLine
 10
1.594505420900821
 20
3.782733590567545
 30
0.0
 11
1.594505420900821
 21
3.470233590567545
 31
0.0
  0
LINE
  5
E9
330
1E
100
AcDbEntity
  8
ADP1DETAIL
100
AcDbLine
 10
1.563255420900821
 20
6.60753149616476
 30
0.0
 11
0.9382554209008198
 21
6.60753149616476
 31
0.0
  0
LINE
  5
EA
330
1E
100
AcDbEntity
  8
ADP1DETAIL
100
AcDbLine
 10
1.594505420900821
 20
5.943039080208883
 30
0.0
 11
1.407005420900821
 21
5.943039080208883
 31
0.0
  0
LINE
  5
EB
330
1E
100
AcDbEntity
  8
ADP1DETAIL
100
AcDbLine
 10
1.594505420900821
 20
6.255539080208883
 30
0.0
 11
1.594505420900821
 21
5.943039080208883
 31
0.0
  0
LINE
  5
EC
330
1E
100
AcDbEntity
  8
ADP1DETAIL
100
AcDbLine
 10
4.094505420900821
 20
6.269136335388214
 30
0.0
 11
4.094505420900821
 21
3.456636335388214
 31
0.0
  0
LINE
  5
ED
330
1E
100
AcDbEntity
  8
ADP1DETAIL
100
AcDbLine
 10
3.969505420900821
 20
3.782733590567545
 30
0.0
 11
3.969505420900821
 21
5.943039080208883
 31
0.0
  0
LINE
  5
EE
330
1E
100
AcDbEntity
  8
ADP1DETAIL
100
AcDbLine
 10
4.438255420900819
 20
3.10753149616476
 30
0.0
 11
4.438255420900819
 21
6.60753149616476
 31
0.0
  0
LINE
  5
EF
330
1E
100
AcDbEntity
  8
ADP1DETAIL
100
AcDbLine
 10
3.782005420900821
 20
3.782733590567545
 30
0.0
 11
3.782005420900821
 21
3.470233590567545
 31
0.0
  0
LINE
  5
F0
330
1E
100
AcDbEntity
  8
ADP1DETAIL
100
AcDbLine
 10
3.969505420900821
 20
3.782733590567545
 30
0.0
 11
3.782005420900821
 21
3.782733590567545
 31
0.0
  0
LINE
  5
F1
330
1E
100
AcDbEntity
  8
ADP1DETAIL
100
AcDbLine
 10
4.438255420900819
 20
6.60753149616476
 30
0.0
 11
3.813255420900819
 21
6.60753149616476
 31
0.0
  0
LINE
  5
F2
330
1E
100
AcDbEntity
  8
ADP1DETAIL
100
AcDbLine
 10
3.782005420900821
 20
5.943039080208883
 30
0.0
 11
3.969505420900821
 21
5.943039080208883
 31
0.0
  0
LINE
  5
F3
330
1E
100
AcDbEntity
  8
ADP1DETAIL
100
AcDbLine
 10
3.782005420900821
 20
6.255539080208883
 30
0.0
 11
3.782005420900821
 21
5.943039080208883
 31
0.0
  0
LINE
  5
F6
330
1E
100
AcDbEntity
  8
ADP1DETAIL
100
AcDbLine
 10
1.295619226679791
 20
9.607183554570379
 30
0.0
 11
4.079671839142893
 21
9.607183554570379
 31
0.0
  0
LINE
  5
F7
330
1E
100
AcDbEntity
  8
ADP1DETAIL
100
AcDbLine
 10
3.688255420900816
 20
10.43318997981025
 30
0.0
 11
1.688255420900818
 21
10.43318997981026
 31
0.0
  0
LINE
  5
F9
330
1E
100
AcDbEntity
  8
ADP1DETAIL
100
AcDbLine
 10
3.813255420900819
 20
8.10753149616476
 30
0.0
 11
1.563255420900819
 21
8.10753149616476
 31
0.0
  0
ARC
  5
FA
330
1E
100
AcDbEntity
  8
ADP1DETAIL
100
AcDbCircle
 10
1.091913954155826
 20
10.89021360100974
 30
0.0
 40
0.7513279811732399
100
AcDbArc
 50
266.4904592099828
 51
322.534199801749
  0
LINE
  5
FB
330
1E
100
AcDbEntity
  8
ADP1DETAIL
100
AcDbLine
 10
1.972258747963351
 20
10.13961780915811
 30
0.0
 11
1.044178147278215
 21
10.13942607067459
 31
0.0
  0
LINE
  5
FC
330
1E
100
AcDbEntity
  8
ADP1DETAIL
100
AcDbLine
 10
1.700283162734294
 20
10.09633483212472
 30
0.0
 11
1.044701826423716
 21
10.09616834832123
 31
0.0
  0
ARC
  5
FD
330
1E
100
AcDbEntity
  8
ADP1DETAIL
100
AcDbCircle
 10
1.015651683327012
 20
9.621197326410815
 30
0.0
 40
0.2649999999999998
100
AcDbArc
 50
0.0
 51
78.45730220113806
  0
ARC
  5
FE
330
1E
100
AcDbEntity
  8
ADP1DETAIL
100
AcDbCircle
 10
1.295619226679791
 20
9.62218355457038
 30
0.0
 40
0.015
100
AcDbArc
 50
183.7698334967862
 51
270.0
  0
ARC
  5
FF
330
1E
100
AcDbEntity
  8
ADP1DETAIL
100
AcDbCircle
 10
1.044701826423716
 20
9.987168348321226
 30
0.0
 40
0.1089999999999999
100
AcDbArc
 50
90.0
 51
282.7068037043093
  0
LINE
  5
100
330
1E
100
AcDbEntity
  8
ADP1DETAIL
100
AcDbLine
 10
1.044701826423716
 20
10.09616834832123
 30
0.0
 11
1.044178147278215
 21
10.13942607067459
 31
0.0
  0
LINE
  5
111
330
1E
100
AcDbEntity
  8
ADP1DETAIL
100
AcDbLine
 10
4.330589239398968
 20
10.14029464613923
 30
0.0
 11
3.321873715325409
 21
10.14010424277916
 31
0.0
  0
ARC
  5
11C
330
1E
100
AcDbEntity
  8
ADP1DETAIL
100
AcDbCircle
 10
4.359639382495668
 20
9.621197326410815
 30
0.0
 40
0.2649999999999998
100
AcDbArc
 50
101.5426977988619
 51
180.0
  0
ARC
  5
11D
330
1E
100
AcDbEntity
  8
ADP1DETAIL
100
AcDbCircle
 10
4.079671839142893
 20
9.62218355457038
 30
0.0
 40
0.015
100
AcDbArc
 50
270.0
 51
356.2301665032137
  0
ARC
  5
11E
330
1E
100
AcDbEntity
  8
ADP1DETAIL
100
AcDbCircle
 10
4.284596887645808
 20
10.89021360100973
 30
0.0
 40
0.7513279811732399
100
AcDbArc
 50
217.465800198251
 51
273.5095407900173
  0
LINE
  5
11F
330
1E
100
AcDbEntity
  8
ADP1DETAIL
100
AcDbLine
 10
4.331112918544469
 20
10.09703692378586
 30
0.0
 11
3.675955179273671
 21
10.09687062567018
 31
0.0
  0
ARC
  5
121
330
1E
100
AcDbEntity
  8
ADP1DETAIL
100
AcDbCircle
 10
4.330589239398968
 20
9.987168348321226
 30
0.0
 40
0.1089999999999999
100
AcDbArc
 50
257.2931962956907
 51
90.0
  0
LINE
  5
122
330
1E
100
AcDbEntity
  8
ADP1DETAIL
100
AcDbLine
 10
4.330589239398968
 20
10.09616834832123
 30
0.0
 11
4.331112918544466
 21
10.13942607067459
 31
0.0
  0
DIMENSION
  5
123
330
1E
100
AcDbEntity
  8
ADPDIM
100
AcDbDimension
  2
*D5
 10
4.936312076308372
 20
13.09924663640899
 30
0.0
 11
4.936312076308372
 21
14.84924663640899
 31
0.0
 71
     5
 42
-1.0
100
AcDbAlignedDimension
 13
4.438255420900819
 23
16.59924663640899
 33
0.0
 14
4.438255420900819
 24
13.09924663640899
 34
0.0
 50
90.0
100
AcDbRotatedDimension
  0
DIMENSION
  5
124
330
1E
100
AcDbEntity
  8
ADPDIM
100
AcDbDimension
  2
*D4
 10
4.936312076308372
 20
13.09924663640899
 30
0.0
 11
4.936312076308372
 21
12.35152414703916
 31
0.0
 71
     5
 42
-1.0
100
AcDbAlignedDimension
 13
3.814703248987717
 23
11.60380165766932
 33
0.0
 14
4.438255420900819
 24
13.09924663640899
 34
0.0
 50
90.0
100
AcDbRotatedDimension
  0
LINE
  5
125
330
1E
100
AcDbEntity
  8
ADP1DETAIL
100
AcDbLine
 10
3.688255420900819
 20
15.84924663640899
 30
0.0
 11
3.688255420900818
 21
13.84924663640899
 31
0.0
  0
LINE
  5
126
330
1E
100
AcDbEntity
  8
ADP1DETAIL
100
AcDbLine
 10
4.313255420900819
 20
16.47424663640899
 30
0.0
 11
4.313255420900819
 21
13.22424663640899
 31
0.0
  0
LINE
  5
127
330
1E
100
AcDbEntity
  8
ADP1DETAIL
100
AcDbLine
 10
4.438255420900819
 20
16.59924663640899
 30
0.0
 11
4.438255420900819
 21
13.09924663640899
 31
0.0
  0
LINE
  5
128
330
1E
100
AcDbEntity
  8
ADP1DETAIL
100
AcDbLine
 10
1.688255420900819
 20
13.84924663640899
 30
0.0
 11
1.688255420900819
 21
15.84924663640899
 31
0.0
  0
LINE
  5
129
330
1E
100
AcDbEntity
  8
ADP1DETAIL
100
AcDbLine
 10
1.063255420900821
 20
13.22424663640899
 30
0.0
 11
1.063255420900819
 21
16.47424663640899
 31
0.0
  0
LINE
  5
12A
330
1E
100
AcDbEntity
  8
ADP1DETAIL
100
AcDbLine
 10
0.9382554209008198
 20
13.09924663640899
 30
0.0
 11
0.9382554209008198
 21
16.59924663640899
 31
0.0
  0
LINE
  5
12C
330
1E
100
AcDbEntity
  8
ADP1DETAIL
100
AcDbLine
 10
3.688255420900818
 20
13.84924663640899
 30
0.0
 11
1.688255420900819
 21
13.84924663640899
 31
0.0
  0
LINE
  5
12D
330
1E
100
AcDbEntity
  8
ADP1DETAIL
100
AcDbLine
 10
3.813255420900819
 20
11.59924663640899
 30
0.0
 11
1.563255420900819
 21
11.59924663640899
 31
0.0
  0
LINE
  5
12E
330
1E
100
AcDbEntity
  8
ADP1DETAIL
100
AcDbLine
 10
1.563255420900819
 20
11.59924663640899
 30
0.0
 11
1.563255420900819
 21
13.09924663640899
 31
0.0
  0
LINE
  5
12F
330
1E
100
AcDbEntity
  8
ADP1DETAIL
100
AcDbLine
 10
1.679174426604097
 20
11.59924663640899
 30
0.0
 11
1.679174426604097
 21
13.22424663640899
 31
0.0
  0
LINE
  5
130
330
1E
100
AcDbEntity
  8
ADP1DETAIL
100
AcDbLine
 10
1.679174426604097
 20
13.22424663640899
 30
0.0
 11
1.063255420900821
 21
13.22424663640899
 31
0.0
  0
LINE
  5
131
330
1E
100
AcDbEntity
  8
ADP1DETAIL
100
AcDbLine
 10
1.563255420900821
 20
13.09924663640899
 30
0.0
 11
0.9382554209008198
 21
13.09924663640899
 31
0.0
  0
LINE
  5
132
330
1E
100
AcDbEntity
  8
ADP1DETAIL
100
AcDbLine
 10
0.9382554209008198
 20
13.09924663640899
 30
0.0
 11
1.688255420900819
 21
13.84924663640899
 31
0.0
  0
LINE
  5
133
330
1E
100
AcDbEntity
  8
ADP1DETAIL
100
AcDbLine
 10
1.563255420900819
 20
13.09924663640899
 30
0.0
 11
2.313255420900819
 21
13.84924663640899
 31
0.0
  0
LINE
  5
134
330
1E
100
AcDbEntity
  8
ADP1DETAIL
100
AcDbLine
 10
3.813255420900819
 20
13.09924663640899
 30
0.0
 11
3.813255420900819
 21
11.59924663640899
 31
0.0
  0
LINE
  5
135
330
1E
100
AcDbEntity
  8
ADP1DETAIL
100
AcDbLine
 10
3.697336415197542
 20
13.22424663640899
 30
0.0
 11
3.697336415197542
 21
11.59924663640899
 31
0.0
  0
LINE
  5
136
330
1E
100
AcDbEntity
  8
ADP1DETAIL
100
AcDbLine
 10
3.813255420900819
 20
13.09924663640899
 30
0.0
 11
3.063255420900818
 21
13.84924663640899
 31
0.0
  0
LINE
  5
137
330
1E
100
AcDbEntity
  8
ADP1DETAIL
100
AcDbLine
 10
4.438255420900819
 20
13.09924663640899
 30
0.0
 11
3.688255420900818
 21
13.84924663640899
 31
0.0
  0
LINE
  5
138
330
1E
100
AcDbEntity
  8
ADP1DETAIL
100
AcDbLine
 10
4.313255420900819
 20
13.22424663640899
 30
0.0
 11
3.697336415197542
 21
13.22424663640899
 31
0.0
  0
LINE
  5
139
330
1E
100
AcDbEntity
  8
ADP1DETAIL
100
AcDbLine
 10
4.438255420900819
 20
13.09924663640899
 30
0.0
 11
3.813255420900819
 21
13.09924663640899
 31
0.0
  0
DIMENSION
  5
13A
330
1E
100
AcDbEntity
  8
ADPDIM
100
AcDbDimension
  2
*D1
 10
4.438255420900819
 20
17.05961779278398
 30
0.0
 11
2.688255420900819
 21
17.05961779278398
 31
0.0
 71
     5
 42
-1.0
100
AcDbAlignedDimension
 13
0.9382554209008198
 23
16.59924663640899
 33
0.0
 14
4.438255420900819
 24
16.59924663640899
 34
0.0
100
AcDbRotatedDimension
  0
LINE
  5
13B
330
1E
100
AcDbEntity
  8
ADP1DETAIL
100
AcDbLine
 10
1.688255420900819
 20
15.84924663640899
 30
0.0
 11
3.688255420900819
 21
15.84924663640899
 31
0.0
  0
LINE
  5
13C
330
1E
100
AcDbEntity
  8
ADP1DETAIL
100
AcDbLine
 10
1.063255420900819
 20
16.47424663640899
 30
0.0
 11
4.313255420900819
 21
16.47424663640899
 31
0.0
  0
LINE
  5
13D
330
1E
100
AcDbEntity
  8
ADP1DETAIL
100
AcDbLine
 10
0.9382554209008198
 20
16.59924663640899
 30
0.0
 11
4.438255420900819
 21
16.59924663640899
 31
0.0
  0
LINE
  5
13E
330
1E
100
AcDbEntity
  8
ADP1DETAIL
100
AcDbLine
 10
1.688255420900819
 20
15.84924663640899
 30
0.0
 11
0.9382554209008198
 21
16.59924663640899
 31
0.0
  0
LINE
  5
13F
330
1E
100
AcDbEntity
  8
ADP1DETAIL
100
AcDbLine
 10
3.688255420900819
 20
15.84924663640899
 30
0.0
 11
4.438255420900819
 21
16.59924663640899
 31
0.0
  0
TEXT
  5
143
330
1E
100
AcDbEntity
  8
ADPDIM
100
AcDbText
 10
-10.70277459274174
 20
1.507764018824325
 30
0.0
 40
0.25
  1
J U L I U S  B L U M  &  C O . ,  I N C .      ( 8 0 0 )  5 2 6 - 6 2 9 3        W W W . J U L I U S B L U M . C O M        P A R T  N o .  6 9 3 0 - E
 41
1.25
  7
ARIAL_WIDE
 72
     1
 11
2.688255420900819
 21
1.757764018824325
 31
0.0
100
AcDbText
 73
     3
  0
DIMENSION
  5
31D
330
1E
100
AcDbEntity
  8
ADPDIM
100
AcDbDimension
  2
*D10
 10
3.800519549946471
 20
10.5459318166812
 30
0.0
 11
2.678558759570282
 21
10.5459318166812
 31
0.0
 70
    32
 71
     5
 42
2.243921580752378
  3
Standard
100
AcDbAlignedDimension
 13
1.556597969194093
 23
9.896636342285525
 33
0.0
 14
3.800519549946471
 24
9.896636342285525
 34
0.0
100
AcDbRotatedDimension
1001
ACAD
1000
DSTYLE
1002
{
1070
   276
1070
     2
1070
   277
1070
     5
1070
   140
1040
0.125
1002
}
  0
SPLINE
  5
31E
330
1E
100
AcDbEntity
  8
ADPDIM
 62
     7
100
AcDbSpline
210
0.0
220
0.0
230
1.0
 70
    11
 71
     3
 72
    68
 73
    64
 74
     0
 42
0.0000000001
 43
0.0000000001
 40
0.0
 40
0.0
 40
0.0
 40
0.0
 40
1.0
 40
1.0
 40
1.0
 40
2.0
 40
2.0
 40
2.0
 40
3.0
 40
3.0
 40
3.0
 40
4.0
 40
4.0
 40
4.0
 40
5.0
 40
5.0
 40
5.0
 40
6.0
 40
6.0
 40
6.0
 40
7.0
 40
7.0
 40
7.0
 40
8.0
 40
8.0
 40
8.0
 40
9.0
 40
9.0
 40
9.0
 40
10.0
 40
10.0
 40
10.0
 40
11.0
 40
11.0
 40
11.0
 40
12.0
 40
12.0
 40
12.0
 40
13.0
 40
13.0
 40
13.0
 40
14.0
 40
14.0
 40
14.0
 40
15.0
 40
15.0
 40
15.0
 40
16.0
 40
16.0
 40
16.0
 40
17.0
 40
17.0
 40
17.0
 40
18.0
 40
18.0
 40
18.0
 40
19.0
 40
19.0
 40
19.0
 40
20.0
 40
20.0
 40
20.0
 40
21.0
 40
21.0
 40
21.0
 40
21.0
 10
3.343539187997926
 20
9.978466265002133
 30
0.0
 10
3.343539187997926
 20
9.978466265002133
 30
0.0
 10
3.343539187997926
 20
9.790162799176417
 30
0.0
 10
3.343539187997926
 20
9.790162799176417
 30
0.0
 10
3.343539187997926
 20
9.790162799176417
 30
0.0
 10
3.468487329768372
 20
9.790162799176417
 30
0.0
 10
3.468487329768372
 20
9.790162799176417
 30
0.0
 10
3.468487329768372
 20
9.790162799176417
 30
0.0
 10
3.468487329768372
 20
9.607133294629864
 30
0.0
 10
3.468487329768372
 20
9.607133294629864
 30
0.0
 10
3.468487329768372
 20
9.607133294629864
 30
0.0
 10
3.595197977878889
 20
9.607133294629864
 30
0.0
 10
3.595197977878889
 20
9.607133294629864
 30
0.0
 10
3.595197977878889
 20
9.607133294629864
 30
0.0
 10
3.588161510259688
 20
9.705684514522378
 30
0.0
 10
3.660315808274244
 20
9.758478358278253
 30
0.0
 10
3.732470106288804
 20
9.811272202034128
 30
0.0
 10
3.813423378262729
 20
9.828870149952749
 30
0.0
 10
3.813423378262729
 20
9.93094638252541
 30
0.0
 10
3.813423378262729
 20
10.03302261509808
 30
0.0
 10
3.734232612628922
 20
10.05236951161571
 30
0.0
 10
3.677913756192886
 20
10.05236951161571
 30
0.0
 10
3.677913756192886
 20
10.05236951161571
 30
0.0
 10
3.677913756192886
 20
10.10692586171165
 30
0.0
 10
3.677913756192886
 20
10.10692586171165
 30
0.0
 10
3.677913756192886
 20
10.10692586171165
 30
0.0
 10
3.323311038310261
 20
10.09724563458231
 30
0.0
 10
3.190445175750532
 20
10.2301250548831
 30
0.0
 10
3.057579313190849
 20
10.36299091744283
 30
0.0
 10
2.845509127256217
 20
10.41666601436873
 30
0.0
 10
2.688890102328677
 20
10.41666601436873
 30
0.0
 10
2.532271077401137
 20
10.41666601436873
 30
0.0
 10
2.320200891466555
 20
10.36299091744283
 30
0.0
 10
2.187335028906822
 20
10.2301250548831
 30
0.0
 10
2.054469166347093
 20
10.09724563458231
 30
0.0
 10
1.699866448464511
 20
10.10692586171165
 30
0.0
 10
1.699866448464511
 20
10.10692586171165
 30
0.0
 10
1.699866448464511
 20
10.10692586171165
 30
0.0
 10
1.699866448464511
 20
10.05236951161571
 30
0.0
 10
1.699866448464511
 20
10.05236951161571
 30
0.0
 10
1.643547592028479
 20
10.05236951161571
 30
0.0
 10
1.564356826394671
 20
10.03302261509808
 30
0.0
 10
1.564356826394671
 20
9.93094638252541
 30
0.0
 10
1.564356826394671
 20
9.828870149952749
 30
0.0
 10
1.645310098368554
 20
9.811272202034128
 30
0.0
 10
1.717464396383114
 20
9.758478358278253
 30
0.0
 10
1.789618694397717
 20
9.705684514522378
 30
0.0
 10
1.782582226778465
 20
9.607133294629864
 30
0.0
 10
1.782582226778465
 20
9.607133294629864
 30
0.0
 10
1.782582226778465
 20
9.607133294629864
 30
0.0
 10
1.909279317147941
 20
9.607133294629864
 30
0.0
 10
1.909279317147941
 20
9.607133294629864
 30
0.0
 10
1.909279317147941
 20
9.607133294629864
 30
0.0
 10
1.909279317147941
 20
9.790162799176417
 30
0.0
 10
1.909279317147941
 20
9.790162799176417
 30
0.0
 10
1.909279317147941
 20
9.790162799176417
 30
0.0
 10
2.034227458918337
 20
9.790162799176417
 30
0.0
 10
2.034227458918337
 20
9.790162799176417
 30
0.0
 10
2.034227458918337
 20
9.790162799176417
 30
0.0
 10
2.034227458918337
 20
9.978466265002133
 30
0.0
 10
2.034227458918337
 20
9.978466265002133
 30
0.0
 10
2.034227458918337
 20
9.978466265002133
 30
0.0
 10
3.343539187997926
 20
9.978466265002133
 30
0.0
 10
3.343539187997926
 20
9.978466265002133
 30
0.0
  0
DIMENSION
  5
31F
330
1E
100
AcDbEntity
  8
ADPDIM
 62
     3
100
AcDbDimension
  2
*D11
 10
3.349145490284712
 20
9.590317258771662
 30
0.0
 11
2.692895490284712
 21
9.590317258771662
 31
0.0
 70
    32
 71
     5
 42
1.3125
  3
Standard
100
AcDbAlignedDimension
 13
2.036645490284712
 23
9.790706338112478
 33
0.0
 14
3.349145490284712
 24
9.790706338112478
 34
0.0
100
AcDbRotatedDimension
1001
ACAD
1000
DSTYLE
1002
{
1070
   276
1070
     2
1070
    41
1040
0.125
1070
    73
1070
     0
1070
    74
1070
     0
1070
    78
1070
     3
1070
   140
1040
0.125
1070
   141
1040
0.1875
1070
   142
1040
0.125
1070
   147
1040
0.125
1070
   171
1070
     1
1070
   273
1070
     5
1070
   274
1070
     1
1070
   277
1070
     5
1070
   279
1070
     2
1070
   284
1070
     3
1070
   285
1070
     3
1070
   286
1070
     3
1002
}
  0
DIMENSION
  5
320
330
1E
100
AcDbEntity
  8
ADPDIM
 62
     3
100
AcDbDimension
  2
*D12
 10
3.470351421638206
 20
9.232479612918719
 30
0.0
 11
2.689101421638206
 21
9.232479612918719
 31
0.0
 70
    32
 71
     5
 42
1.5625
  3
Standard
100
AcDbAlignedDimension
 13
1.907851421638206
 23
9.604630763047893
 33
0.0
 14
3.470351421638206
 24
9.604630763047893
 34
0.0
100
AcDbRotatedDimension
1001
ACAD
1000
DSTYLE
1002
{
1070
   276
1070
     2
1070
    41
1040
0.125
1070
    73
1070
     0
1070
    74
1070
     0
1070
    78
1070
     3
1070
   140
1040
0.125
1070
   141
1040
0.1875
1070
   142
1040
0.125
1070
   147
1040
0.125
1070
   171
1070
     1
1070
   273
1070
     5
1070
   274
1070
     1
1070
   277
1070
     5
1070
   279
1070
     2
1070
   284
1070
     3
1070
   285
1070
     3
1070
   286
1070
     3
1002
}
  0
ENDSEC
  0
SECTION
  2
OBJECTS
  0
DICTIONARY
  5
C
330
0
100
AcDbDictionary
281
     1
  3
ACAD_COLOR
350
2E7
  3
ACAD_GROUP
350
D
  3
ACAD_LAYOUT
350
19
  3
ACAD_MATERIAL
350
2D2
  3
ACAD_MLINESTYLE
350
16
  3
ACAD_PLOTSETTINGS
350
18
  3
ACAD_PLOTSTYLENAME
350
E
  3
ACAD_TABLESTYLE
350
2E8
  3
ACAD_VISUALSTYLE
350
2D6
  3
AcDbVariableDictionary
350
1B4
  3
DWGPROPS
350
389
  0
DICTIONARY
  5
17F
330
1E
100
AcDbDictionary
280
     1
281
     1
  3
ACAD_LAYOUTSELFREF
360
2CE
  0
DICTIONARY
  5
181
330
1A
100
AcDbDictionary
280
     1
281
     1
  3
ACAD_LAYOUTSELFREF
360
2CD
  0
DICTIONARY
  5
2E7
102
{ACAD_REACTORS
330
C
102
}
330
C
100
AcDbDictionary
281
     1
  0
DICTIONARY
  5
D
102
{ACAD_REACTORS
330
C
102
}
330
C
100
AcDbDictionary
281
     1
  0
DICTIONARY
  5
19
102
{ACAD_REACTORS
330
C
102
}
330
C
100
AcDbDictionary
281
     1
  3
Layout1
350
1D
  3
Model
350
21
  0
DICTIONARY
  5
2D2
102
{ACAD_REACTORS
330
C
102
}
330
C
100
AcDbDictionary
281
     1
  3
ByBlock
350
2D4
  3
ByLayer
350
2D3
  3
Global
350
2D5
  0
DICTIONARY
  5
16
102
{ACAD_REACTORS
330
C
102
}
330
C
100
AcDbDictionary
281
     1
  3
Standard
350
17
  0
DICTIONARY
  5
18
102
{ACAD_REACTORS
330
C
102
}
330
C
100
AcDbDictionary
281
     1
  0
ACDBDICTIONARYWDFLT
  5
E
102
{ACAD_REACTORS
330
C
102
}
330
C
100
AcDbDictionary
281
     1
  3
Normal
350
F
100
AcDbDictionaryWithDefault
340
F
  0
DICTIONARY
  5
2E8
102
{ACAD_REACTORS
330
C
102
}
330
C
100
AcDbDictionary
281
     1
  3
Standard
350
2E9
  0
DICTIONARY
  5
2D6
102
{ACAD_REACTORS
330
C
102
}
330
C
100
AcDbDictionary
281
     1
  3
2dWireframe
350
2DC
  3
3D Hidden
350
2DE
  3
3dWireframe
350
2DD
  3
Basic
350
2DB
  3
Brighten
350
2E2
  3
ColorChange
350
2E6
  3
Conceptual
350
2DF
  3
Dim
350
2E1
  3
Facepattern
350
2E5
  3
Flat
350
2D7
  3
FlatWithEdges
350
2D8
  3
Gouraud
350
2D9
  3
GouraudWithEdges
350
2DA
  3
Linepattern
350
2E4
  3
Realistic
350
2E0
  3
Thicken
350
2E3
  0
DICTIONARY
  5
1B4
102
{ACAD_REACTORS
330
C
102
}
330
C
100
AcDbDictionary
281
     1
  3
CTABLESTYLE
350
386
  3
DIMASSOC
350
1B6
  3
HIDETEXT
350
1B5
  3
INDEXCTL
350
388
  3
SORTENTS
350
387
  0
XRECORD
  5
389
102
{ACAD_REACTORS
330
C
102
}
330
C
100
AcDbXrecord
280
     1
  1
DWGPROPS COOKIE
  2

  3

  4

  6

  7

  8
Yu Hu
  9

300
=
301
=
302
=
303
=
304
=
305
=
306
=
307
=
308
=
309
=
 40
0.0439257175925926
 41
2450406.633182674
 42
2453980.440421423
  1

 90
        0
  0
XRECORD
  5
2CE
102
{ACAD_REACTORS
330
17F
102
}
330
17F
100
AcDbXrecord
280
     1
340
1E
  0
XRECORD
  5
2CD
102
{ACAD_REACTORS
330
181
102
}
330
181
100
AcDbXrecord
280
     1
340
1A
  0
LAYOUT
  5
1D
102
{ACAD_XDICTIONARY
360
38A
102
}
102
{ACAD_REACTORS
330
19
102
}
330
19
100
AcDbPlotSettings
  1

  2
Fax
  4

  6

 40
0.0
 41
0.0
 42
0.0
 43
0.0
 44
0.0
 45
0.0
 46
0.0
 47
0.0
 48
0.0
 49
0.0
140
0.0
141
0.0
142
1.0
143
1.0
 70
   688
 72
     0
 73
     0
 74
     5
  7
Default R14 pen assignments.ctb
 75
    16
147
1.0
148
0.0
149
0.0
100
AcDbLayout
  1
Layout1
 70
     1
 71
     1
 10
0.0
 20
0.0
 11
12.0
 21
9.0
 12
0.0008545028977096
 22
1.250283272183907
 32
0.0
 14
1.000000000000000E+20
 24
1.000000000000000E+20
 34
1.000000000000000E+20
 15
-1.000000000000000E+20
 25
-1.000000000000000E+20
 35
-1.000000000000000E+20
146
0.0
 13
0.0
 23
0.0
 33
0.0
 16
1.0
 26
0.0
 36
0.0
 17
0.0
 27
1.0
 37
0.0
 76
     0
330
1A
  0
LAYOUT
  5
21
102
{ACAD_XDICTIONARY
360
38C
102
}
102
{ACAD_REACTORS
330
19
102
}
330
19
100
AcDbPlotSettings
  1

  2
Fax
  4

  6

 40
0.0
 41
0.0
 42
0.0
 43
0.0
 44
0.0
 45
0.0
 46
0.0
 47
0.0
 48
0.0
 49
0.0
140
0.0
141
0.0
142
1.0
143
1.0
 70
  1712
 72
     0
 73
     0
 74
     0
  7
Default R14 pen assignments.ctb
 75
     0
147
1.0
148
0.0
149
0.0
100
AcDbLayout
  1
Model
 70
     1
 71
     0
 10
0.0
 20
0.0
 11
12.0
 21
9.0
 12
0.0
 22
0.0
 32
0.0
 14
0.0
 24
0.0
 34
0.0
 15
0.0
 25
0.0
 35
0.0
146
0.0
 13
0.0
 23
0.0
 33
0.0
 16
1.0
 26
0.0
 36
0.0
 17
0.0
 27
1.0
 37
0.0
 76
     0
330
1E
331
29B
  0
MATERIAL
  5
2D4
102
{ACAD_XDICTIONARY
360
390
102
}
102
{ACAD_REACTORS
330
2D2
102
}
330
2D2
100
AcDbMaterial
  1
ByBlock
  0
MATERIAL
  5
2D3
102
{ACAD_XDICTIONARY
360
38E
102
}
102
{ACAD_REACTORS
330
2D2
102
}
330
2D2
100
AcDbMaterial
  1
ByLayer
  0
MATERIAL
  5
2D5
102
{ACAD_XDICTIONARY
360
392
102
}
102
{ACAD_REACTORS
330
2D2
102
}
330
2D2
100
AcDbMaterial
  1
Global
  0
MLINESTYLE
  5
17
102
{ACAD_REACTORS
330
16
102
}
330
16
100
AcDbMlineStyle
  2
STANDARD
 70
     0
  3

 62
   256
 51
90.0
 52
90.0
 71
     2
 49
0.5
 62
   256
  6
BYLAYER
 49
-0.5
 62
   256
  6
BYLAYER
  0
ACDBPLACEHOLDER
  5
F
102
{ACAD_REACTORS
330
E
102
}
330
E
  0
TABLESTYLE
  5
2E9
102
{ACAD_XDICTIONARY
360
394
102
}
102
{ACAD_REACTORS
330
2E8
102
}
330
2E8
100
AcDbTableStyle
  3
Standard
 70
     0
 71
     0
 40
0.06
 41
0.06
280
     0
281
     0
  7
STANDARD
140
0.18
170
     2
 62
     0
 63
     7
283
     0
274
    -2
284
     1
 64
     0
275
    -2
285
     1
 65
     0
276
    -2
286
     1
 66
     0
277
    -2
287
     1
 67
     0
278
    -2
288
     1
 68
     0
279
    -2
289
     1
 69
     0
  7
STANDARD
140
0.25
170
     5
 62
     0
 63
     7
283
     0
274
    -2
284
     1
 64
     0
275
    -2
285
     1
 65
     0
276
    -2
286
     1
 66
     0
277
    -2
287
     1
 67
     0
278
    -2
288
     1
 68
     0
279
    -2
289
     1
 69
     0
  7
STANDARD
140
0.18
170
     5
 62
     0
 63
     7
283
     0
274
    -2
284
     1
 64
     0
275
    -2
285
     1
 65
     0
276
    -2
286
     1
 66
     0
277
    -2
287
     1
 67
     0
278
    -2
288
     1
 68
     0
279
    -2
289
     1
 69
     0
  0
VISUALSTYLE
  5
2DC
102
{ACAD_REACTORS
330
2D6
102
}
330
2D6
100
AcDbVisualStyle
  2
2dWireframe
 70
     4
 71
     0
 72
     2
 73
     0
 90
        0
 40
-0.6
 41
-30.0
 62
     5
 63
     7
 74
     1
 91
        4
 64
     7
 65
   257
 75
     1
175
     1
 42
1.0
 92
        0
 66
   257
 43
1.0
 76
     1
 77
     6
 78
     2
 67
     7
 79
     5
170
     0
171
     0
290
     0
174
     0
 93
        1
 44
0.0
173
     0
291
     0
 45
0.0
1001
ACAD
1000
AcDbSavedByObjectVersion
1070
     0
  0
VISUALSTYLE
  5
2DE
102
{ACAD_REACTORS
330
2D6
102
}
330
2D6
100
AcDbVisualStyle
  2
3D Hidden
 70
     6
 71
     1
 72
     2
 73
     2
 90
        0
 40
-0.6
 41
-30.0
 62
     5
 63
     7
 74
     2
 91
        2
 64
     7
 65
   257
 75
     2
175
     1
 42
40.0
 92
        0
 66
   257
 43
1.0
 76
     1
 77
     6
 78
     2
 67
     7
 79
     3
170
     0
171
     0
290
     0
174
     0
 93
        1
 44
0.0
173
     0
291
     0
 45
0.0
1001
ACAD
1000
AcDbSavedByObjectVersion
1070
     0
  0
VISUALSTYLE
  5
2DD
102
{ACAD_REACTORS
330
2D6
102
}
330
2D6
100
AcDbVisualStyle
  2
3dWireframe
 70
     5
 71
     0
 72
     2
 73
     0
 90
        0
 40
-0.6
 41
-30.0
 62
     5
 63
     7
 74
     1
 91
        4
 64
     7
 65
   257
 75
     1
175
     1
 42
1.0
 92
        0
 66
   257
 43
1.0
 76
     1
 77
     6
 78
     2
 67
     7
 79
     5
170
     0
171
     0
290
     0
174
     0
 93
        1
 44
0.0
173
     0
291
     0
 45
0.0
1001
ACAD
1000
AcDbSavedByObjectVersion
1070
     0
  0
VISUALSTYLE
  5
2DB
102
{ACAD_REACTORS
330
2D6
102
}
330
2D6
100
AcDbVisualStyle
  2
Basic
 70
     7
 71
     1
 72
     0
 73
     1
 90
        0
 40
-0.6
 41
-30.0
 62
     5
 63
     7
 74
     0
 91
        4
 64
     7
 65
   257
 75
     1
175
     1
 42
1.0
 92
        8
 66
     7
 43
1.0
 76
     1
 77
     6
 78
     2
 67
     7
 79
     5
170
     0
171
     0
290
     0
174
     0
 93
        1
 44
0.0
173
     0
291
     1
 45
0.0
1001
ACAD
1000
AcDbSavedByObjectVersion
1070
     0
  0
VISUALSTYLE
  5
2E2
102
{ACAD_REACTORS
330
2D6
102
}
330
2D6
100
AcDbVisualStyle
  2
Brighten
 70
    12
 71
     2
 72
     2
 73
     0
 90
        0
 40
-0.6
 41
-30.0
 62
     5
 63
     7
 74
     1
 91
        4
 64
     7
 65
   257
 75
     1
175
     1
 42
1.0
 92
        8
 66
     7
 43
1.0
 76
     1
 77
     6
 78
     2
 67
     7
 79
     5
170
     0
171
     0
290
     0
174
     0
 93
        1
 44
50.0
173
     0
291
     1
 45
0.0
1001
ACAD
1000
AcDbSavedByObjectVersion
1070
     0
  0
VISUALSTYLE
  5
2E6
102
{ACAD_REACTORS
330
2D6
102
}
330
2D6
100
AcDbVisualStyle
  2
ColorChange
 70
    16
 71
     2
 72
     2
 73
     3
 90
        0
 40
-0.6
 41
-30.0
 62
     5
 63
     8
 74
     1
 91
        4
 64
     7
 65
   257
 75
     1
175
     1
 42
1.0
 92
        8
 66
     8
 43
1.0
 76
     1
 77
     6
 78
     2
 67
     7
 79
     5
170
     0
171
     0
290
     0
174
     0
 93
        1
 44
0.0
173
     0
291
     1
 45
0.0
1001
ACAD
1000
AcDbSavedByObjectVersion
1070
     0
  0
VISUALSTYLE
  5
2DF
102
{ACAD_REACTORS
330
2D6
102
}
330
2D6
100
AcDbVisualStyle
  2
Conceptual
 70
     9
 71
     3
 72
     2
 73
     0
 90
        0
 40
-0.6
 41
-30.0
 62
     5
 63
     7
 74
     2
 91
        2
 64
     7
 65
   257
 75
     1
175
     1
 42
40.0
 92
        8
 66
     7
 43
1.0
 76
     1
 77
     6
 78
     2
 67
     7
 79
     3
170
     0
171
     0
290
     0
174
     0
 93
        1
 44
0.0
173
     0
291
     0
 45
0.0
1001
ACAD
1000
AcDbSavedByObjectVersion
1070
     0
  0
VISUALSTYLE
  5
2E1
102
{ACAD_REACTORS
330
2D6
102
}
330
2D6
100
AcDbVisualStyle
  2
Dim
 70
    11
 71
     2
 72
     2
 73
     0
 90
        0
 40
-0.6
 41
-30.0
 62
     5
 63
     7
 74
     1
 91
        4
 64
     7
 65
   257
 75
     1
175
     1
 42
1.0
 92
        8
 66
     7
 43
1.0
 76
     1
 77
     6
 78
     2
 67
     7
 79
     5
170
     0
171
     0
290
     0
174
     0
 93
        1
 44
-50.0
173
     0
291
     1
 45
0.0
1001
ACAD
1000
AcDbSavedByObjectVersion
1070
     0
  0
VISUALSTYLE
  5
2E5
102
{ACAD_REACTORS
330
2D6
102
}
330
2D6
100
AcDbVisualStyle
  2
Facepattern
 70
    15
 71
     2
 72
     2
 73
     0
 90
        0
 40
-0.6
 41
-30.0
 62
     5
 63
     7
 74
     1
 91
        4
 64
     7
 65
   257
 75
     1
175
     1
 42
1.0
 92
        8
 66
     7
 43
1.0
 76
     1
 77
     6
 78
     2
 67
     7
 79
     5
170
     0
171
     0
290
     0
174
     0
 93
        1
 44
0.0
173
     0
291
     1
 45
0.0
1001
ACAD
1000
AcDbSavedByObjectVersion
1070
     0
  0
VISUALSTYLE
  5
2D7
102
{ACAD_REACTORS
330
2D6
102
}
330
2D6
100
AcDbVisualStyle
  2
Flat
 70
     0
 71
     2
 72
     1
 73
     1
 90
        2
 40
-0.6
 41
30.0
 62
     5
 63
     7
 74
     0
 91
        4
 64
     7
 65
   257
 75
     1
175
     1
 42
1.0
 92
        8
 66
     7
 43
1.0
 76
     1
 77
     6
 78
     2
 67
     7
 79
     5
170
     0
171
     0
290
     0
174
     0
 93
       13
 44
0.0
173
     0
291
     1
 45
0.0
1001
ACAD
1000
AcDbSavedByObjectVersion
1070
     0
  0
VISUALSTYLE
  5
2D8
102
{ACAD_REACTORS
330
2D6
102
}
330
2D6
100
AcDbVisualStyle
  2
FlatWithEdges
 70
     1
 71
     2
 72
     1
 73
     1
 90
        2
 40
-0.6
 41
30.0
 62
     5
 63
     7
 74
     1
 91
        4
 64
     7
 65
   257
 75
     1
175
     1
 42
1.0
 92
        0
 66
   257
 43
1.0
 76
     1
 77
     6
 78
     2
 67
     7
 79
     5
170
     0
171
     0
290
     0
174
     0
 93
       13
 44
0.0
173
     0
291
     1
 45
0.0
1001
ACAD
1000
AcDbSavedByObjectVersion
1070
     0
  0
VISUALSTYLE
  5
2D9
102
{ACAD_REACTORS
330
2D6
102
}
330
2D6
100
AcDbVisualStyle
  2
Gouraud
 70
     2
 71
     2
 72
     2
 73
     1
 90
        2
 40
-0.6
 41
30.0
 62
     5
 63
     7
 74
     0
 91
        4
 64
     7
 65
   257
 75
     1
175
     1
 42
1.0
 92
        0
 66
     7
 43
1.0
 76
     1
 77
     6
 78
     2
 67
     7
 79
     5
170
     0
171
     0
290
     0
174
     0
 93
       13
 44
0.0
173
     0
291
     1
 45
0.0
1001
ACAD
1000
AcDbSavedByObjectVersion
1070
     0
  0
VISUALSTYLE
  5
2DA
102
{ACAD_REACTORS
330
2D6
102
}
330
2D6
100
AcDbVisualStyle
  2
GouraudWithEdges
 70
     3
 71
     2
 72
     2
 73
     1
 90
        2
 40
-0.6
 41
30.0
 62
     5
 63
     7
 74
     1
 91
        4
 64
     7
 65
   257
 75
     1
175
     1
 42
1.0
 92
        0
 66
   257
 43
1.0
 76
     1
 77
     6
 78
     2
 67
     7
 79
     5
170
     0
171
     0
290
     0
174
     0
 93
       13
 44
0.0
173
     0
291
     1
 45
0.0
1001
ACAD
1000
AcDbSavedByObjectVersion
1070
     0
  0
VISUALSTYLE
  5
2E4
102
{ACAD_REACTORS
330
2D6
102
}
330
2D6
100
AcDbVisualStyle
  2
Linepattern
 70
    14
 71
     2
 72
     2
 73
     0
 90
        0
 40
-0.6
 41
-30.0
 62
     5
 63
     7
 74
     1
 91
        4
 64
     7
 65
   257
 75
     7
175
     7
 42
1.0
 92
        8
 66
     7
 43
1.0
 76
     1
 77
     6
 78
     2
 67
     7
 79
     5
170
     0
171
     0
290
     0
174
     0
 93
        1
 44
0.0
173
     0
291
     1
 45
0.0
1001
ACAD
1000
AcDbSavedByObjectVersion
1070
     0
  0
VISUALSTYLE
  5
2E0
102
{ACAD_REACTORS
330
2D6
102
}
330
2D6
100
AcDbVisualStyle
  2
Realistic
 70
     8
 71
     2
 72
     2
 73
     0
 90
        0
 40
-0.6
 41
-30.0
 62
     5
 63
     7
 74
     1
 91
        0
 64
     7
 65
   257
 75
     1
175
     1
 42
1.0
 92
        8
 66
     8
 43
1.0
 76
     1
 77
     6
 78
     2
 67
     7
 79
     5
170
     0
171
     0
290
     0
174
     0
 93
       13
 44
0.0
173
     0
291
     0
 45
0.0
1001
ACAD
1000
AcDbSavedByObjectVersion
1070
     0
  0
VISUALSTYLE
  5
2E3
102
{ACAD_REACTORS
330
2D6
102
}
330
2D6
100
AcDbVisualStyle
  2
Thicken
 70
    13
 71
     2
 72
     2
 73
     0
 90
        0
 40
-0.6
 41
-30.0
 62
     5
 63
     7
 74
     1
 91
        4
 64
     7
 65
   257
 75
     1
175
     1
 42
1.0
 92
       12
 66
     7
 43
1.0
 76
     1
 77
     6
 78
     2
 67
     7
 79
     5
170
     0
171
     0
290
     0
174
     0
 93
        1
 44
0.0
173
     0
291
     1
 45
0.0
1001
ACAD
1000
AcDbSavedByObjectVersion
1070
     0
  0
DICTIONARYVAR
  5
386
102
{ACAD_REACTORS
330
1B4
102
}
330
1B4
100
DictionaryVariables
280
     0
  1
STANDARD
  0
DICTIONARYVAR
  5
1B6
102
{ACAD_REACTORS
330
1B4
102
}
330
1B4
100
DictionaryVariables
280
     0
  1
2
  0
DICTIONARYVAR
  5
1B5
102
{ACAD_REACTORS
330
1B4
102
}
330
1B4
100
DictionaryVariables
280
     0
  1
1
  0
DICTIONARYVAR
  5
388
102
{ACAD_REACTORS
330
1B4
102
}
330
1B4
100
DictionaryVariables
280
     0
  1
0
  0
DICTIONARYVAR
  5
387
102
{ACAD_REACTORS
330
1B4
102
}
330
1B4
100
DictionaryVariables
280
     0
  1
127
  0
DICTIONARY
  5
38A
330
1D
100
AcDbDictionary
280
     1
281
     1
  3
ACAD_XREC_ROUNDTRIP
360
38B
  0
DICTIONARY
  5
38C
330
21
100
AcDbDictionary
280
     1
281
     1
  3
ACAD_XREC_ROUNDTRIP
360
38D
  0
DICTIONARY
  5
390
330
2D4
100
AcDbDictionary
280
     1
281
     1
  3
ACAD_XREC_ROUNDTRIP
360
391
  0
DICTIONARY
  5
38E
330
2D3
100
AcDbDictionary
280
     1
281
     1
  3
ACAD_XREC_ROUNDTRIP
360
38F
  0
DICTIONARY
  5
392
330
2D5
100
AcDbDictionary
280
     1
281
     1
  3
ACAD_XREC_ROUNDTRIP
360
393
  0
DICTIONARY
  5
394
330
2E9
100
AcDbDictionary
280
     1
281
     1
  3
ACAD_XREC_ROUNDTRIP
360
395
  0
XRECORD
  5
38B
102
{ACAD_REACTORS
330
38A
102
}
330
38A
100
AcDbXrecord
280
     1
102
SHADEPLOT
 70
     0
102
SHADEPLOTRESLEVEL
 70
     2
102
SHADEPLOTCUSTOMDPI
 70
   300
  0
XRECORD
  5
38D
102
{ACAD_REACTORS
330
38C
102
}
330
38C
100
AcDbXrecord
280
     1
102
SHADEPLOT
 70
     0
102
SHADEPLOTRESLEVEL
 70
     2
102
SHADEPLOTCUSTOMDPI
 70
   300
  0
XRECORD
  5
391
102
{ACAD_REACTORS
330
390
102
}
330
390
100
AcDbXrecord
280
     1
102
MATERIAL
148
0.0
149
0.0
149
0.0
 93
        0
 94
       63
282
     0
 72
     1
 77
     1
171
     1
175
     1
179
     1
273
     0
  0
XRECORD
  5
38F
102
{ACAD_REACTORS
330
38E
102
}
330
38E
100
AcDbXrecord
280
     1
102
MATERIAL
148
0.0
149
0.0
149
0.0
 93
        0
 94
       63
282
     0
 72
     1
 77
     1
171
     1
175
     1
179
     1
273
     0
  0
XRECORD
  5
393
102
{ACAD_REACTORS
330
392
102
}
330
392
100
AcDbXrecord
280
     1
102
MATERIAL
148
0.0
149
0.0
149
0.0
 93
        0
 94
       63
282
     0
 72
     1
 77
     1
171
     1
175
     1
179
     1
273
     0
  0
XRECORD
  5
395
102
{ACAD_REACTORS
330
394
102
}
330
394
100
AcDbXrecord
280
     1
102
ACAD_ROUNDTRIP_PRE2007_TABLESTYLE
 90
      512
 91
        0
  1

 92
      512
 93
        0
  2

 94
      512
 95
        0
  3

  0
ENDSEC
  0
EOF
