  0
SECTION
  2
HEADER
  9
$ACADVER
  1
AC1014
  9
$ACADMAINTVER
 70
     9
  9
$DWGCODEPAGE
  3
ANSI_1252
  9
$INSBASE
 10
3.950460909621269
 20
7.177296783389384
 30
0.0
  9
$EXTMIN
 10
-5.846099558909852
 20
3.418120114005709
 30
0.0
  9
$EXTMAX
 10
14.25851120166313
 20
15.26016564637716
 30
0.0
  9
$LIMMIN
 10
0.0
 20
0.0
  9
$LIMMAX
 10
36.0
 20
36.0
  9
$ORTHOMODE
 70
     1
  9
$REGENMODE
 70
     1
  9
$FILLMODE
 70
     1
  9
$QTEXTMODE
 70
     0
  9
$MIRRTEXT
 70
     1
  9
$DRAGMODE
 70
     0
  9
$LTSCALE
 40
1.0
  9
$OSMODE
 70
    37
  9
$ATTMODE
 70
     1
  9
$TEXTSIZE
 40
0.2
  9
$TRACEWID
 40
0.05
  9
$TEXTSTYLE
  7
STANDARD
  9
$CLAYER
  8
0
  9
$CELTYPE
  6
BYLAYER
  9
$CECOLOR
 62
   256
  9
$CELTSCALE
 40
1.0
  9
$DELOBJ
 70
     1
  9
$DISPSILH
 70
     0
  9
$DIMSCALE
 40
1.0
  9
$DIMASZ
 40
0.125
  9
$DIMEXO
 40
0.0625
  9
$DIMDLI
 40
0.38
  9
$DIMRND
 40
0.0
  9
$DIMDLE
 40
0.0
  9
$DIMEXE
 40
0.18
  9
$DIMTP
 40
0.0
  9
$DIMTM
 40
0.0
  9
$DIMTXT
 40
0.125
  9
$DIMCEN
 40
0.1875
  9
$DIMTSZ
 40
0.125
  9
$DIMTOL
 70
     0
  9
$DIMLIM
 70
     0
  9
$DIMTIH
 70
     0
  9
$DIMTOH
 70
     0
  9
$DIMSE1
 70
     0
  9
$DIMSE2
 70
     0
  9
$DIMTAD
 70
     0
  9
$DIMZIN
 70
     3
  9
$DIMBLK
  1

  9
$DIMASO
 70
     1
  9
$DIMSHO
 70
     1
  9
$DIMPOST
  1

  9
$DIMAPOST
  1

  9
$DIMALT
 70
     0
  9
$DIMALTD
 70
     1
  9
$DIMALTF
 40
25.4
  9
$DIMLFAC
 40
1.0
  9
$DIMTOFL
 70
     0
  9
$DIMTVP
 40
0.0
  9
$DIMTIX
 70
     0
  9
$DIMSOXD
 70
     0
  9
$DIMSAH
 70
     0
  9
$DIMBLK1
  1

  9
$DIMBLK2
  1

  9
$DIMSTYLE
  2
STANDARD
  9
$DIMCLRD
 70
     0
  9
$DIMCLRE
 70
     0
  9
$DIMCLRT
 70
     0
  9
$DIMTFAC
 40
1.0
  9
$DIMGAP
 40
0.125
  9
$DIMJUST
 70
     0
  9
$DIMSD1
 70
     0
  9
$DIMSD2
 70
     0
  9
$DIMTOLJ
 70
     1
  9
$DIMTZIN
 70
     3
  9
$DIMALTZ
 70
     3
  9
$DIMALTTZ
 70
     3
  9
$DIMFIT
 70
     5
  9
$DIMUPT
 70
     0
  9
$DIMUNIT
 70
     5
  9
$DIMDEC
 70
     4
  9
$DIMTDEC
 70
     4
  9
$DIMALTU
 70
     5
  9
$DIMALTTD
 70
     1
  9
$DIMTXSTY
  7
STANDARD
  9
$DIMAUNIT
 70
     0
  9
$LUNITS
 70
     5
  9
$LUPREC
 70
     4
  9
$SKETCHINC
 40
0.1
  9
$FILLETRAD
 40
0.187
  9
$AUNITS
 70
     0
  9
$AUPREC
 70
     0
  9
$MENU
  1
acad
  9
$ELEVATION
 40
0.0
  9
$PELEVATION
 40
0.0
  9
$THICKNESS
 40
0.0
  9
$LIMCHECK
 70
     0
  9
$BLIPMODE
 70
     0
  9
$CHAMFERA
 40
0.0
  9
$CHAMFERB
 40
0.0
  9
$CHAMFERC
 40
0.0
  9
$CHAMFERD
 40
0.0
  9
$SKPOLY
 70
     0
  9
$TDCREATE
 40
2450399.650472407
  9
$TDUPDATE
 40
2452297.095434386
  9
$TDINDWG
 40
0.0495377546
  9
$TDUSRTIMER
 40
0.0495377546
  9
$USRTIMER
 70
     1
  9
$ANGBASE
 50
0.0
  9
$ANGDIR
 70
     0
  9
$PDMODE
 70
     0
  9
$PDSIZE
 40
0.0
  9
$PLINEWID
 40
0.0
  9
$COORDS
 70
     2
  9
$SPLFRAME
 70
     0
  9
$SPLINETYPE
 70
     6
  9
$SPLINESEGS
 70
     8
  9
$ATTDIA
 70
     0
  9
$ATTREQ
 70
     1
  9
$HANDLING
 70
 22529
  9
$HANDSEED
  5
2A5
  9
$SURFTAB1
 70
     6
  9
$SURFTAB2
 70
     6
  9
$SURFTYPE
 70
     6
  9
$SURFU
 70
     6
  9
$SURFV
 70
     6
  9
$UCSNAME
  2

  9
$UCSORG
 10
0.0
 20
0.0
 30
0.0
  9
$UCSXDIR
 10
1.0
 20
0.0
 30
0.0
  9
$UCSYDIR
 10
0.0
 20
1.0
 30
0.0
  9
$PUCSNAME
  2

  9
$PUCSORG
 10
0.0
 20
0.0
 30
0.0
  9
$PUCSXDIR
 10
1.0
 20
0.0
 30
0.0
  9
$PUCSYDIR
 10
0.0
 20
1.0
 30
0.0
  9
$USERI1
 70
     0
  9
$USERI2
 70
     0
  9
$USERI3
 70
     0
  9
$USERI4
 70
     0
  9
$USERI5
 70
     0
  9
$USERR1
 40
0.0
  9
$USERR2
 40
0.0
  9
$USERR3
 40
0.0
  9
$USERR4
 40
0.0
  9
$USERR5
 40
0.0
  9
$WORLDVIEW
 70
     1
  9
$SHADEDGE
 70
     3
  9
$SHADEDIF
 70
    70
  9
$TILEMODE
 70
     1
  9
$MAXACTVP
 70
    15
  9
$PINSBASE
 10
0.0004882914945483
 20
0.7501408034022604
 30
0.0
  9
$PLIMCHECK
 70
     0
  9
$PEXTMIN
 10
1.000000000000000E+20
 20
1.000000000000000E+20
 30
1.000000000000000E+20
  9
$PEXTMAX
 10
-1.000000000000000E+20
 20
-1.000000000000000E+20
 30
-1.000000000000000E+20
  9
$PLIMMIN
 10
0.0
 20
0.0
  9
$PLIMMAX
 10
12.0
 20
9.0
  9
$UNITMODE
 70
     0
  9
$VISRETAIN
 70
     0
  9
$PLINEGEN
 70
     0
  9
$PSLTSCALE
 70
     1
  9
$TREEDEPTH
 70
  3020
  9
$PICKSTYLE
 70
     1
  9
$CMLSTYLE
  2
STANDARD
  9
$CMLJUST
 70
     0
  9
$CMLSCALE
 40
1.0
  9
$PROXYGRAPHICS
 70
     1
  9
$MEASUREMENT
 70
     0
  0
ENDSEC
  0
SECTION
  2
CLASSES
  0
CLASS
  1
ACDBDICTIONARYWDFLT
  2
AcDbDictionaryWithDefault
  3
AutoCAD 2000
 90
        0
280
     0
281
     0
  0
CLASS
  1
ACDBPLACEHOLDER
  2
AcDbPlaceHolder
  3
AutoCAD 2000
 90
        0
280
     0
281
     0
  0
CLASS
  1
LAYOUT
  2
AcDbLayout
  3
AutoCAD 2000
 90
        0
280
     0
281
     0
  0
CLASS
  1
DICTIONARYVAR
  2
AcDbDictionaryVar
  3
AutoCAD 2000
 90
        0
280
     0
281
     0
  0
CLASS
  1
LONG_TRANSACTION
  2
AcDbLongTransaction
  3
AutoCAD 2000
 90
        0
280
     0
281
     0
  0
CLASS
  1
LWPOLYLINE
  2
AcDbPolyline
  3
AutoCAD 2000
 90
        0
280
     0
281
     1
  0
CLASS
  1
HATCH
  2
AcDbHatch
  3
AutoCAD 2000
 90
        0
280
     0
281
     1
  0
CLASS
  1
XRECORD
  2
AcDbXrecord
  3
AutoCAD 2000
 90
        0
280
     0
281
     0
  0
CLASS
  1
LONG_TRANSACTION
  2
AcDbLongTransaction
  3
AutoCAD 2000
 90
        0
280
     0
281
     0
  0
CLASS
  1
LWPOLYLINE
  2
AcDbPolyline
  3
AutoCAD 2000
 90
        0
280
     0
281
     1
  0
CLASS
  1
HATCH
  2
AcDbHatch
  3
AutoCAD 2000
 90
        0
280
     0
281
     1
  0
CLASS
  1
XRECORD
  2
AcDbXrecord
  3
AutoCAD 2000
 90
        0
280
     0
281
     0
  0
CLASS
  1
LONG_TRANSACTION
  2
AcDbLongTransaction
  3
AutoCAD 2000
 90
        0
280
     0
281
     0
  0
CLASS
  1
LWPOLYLINE
  2
AcDbPolyline
  3
AutoCAD 2000
 90
        0
280
     0
281
     1
  0
CLASS
  1
HATCH
  2
AcDbHatch
  3
AutoCAD 2000
 90
        0
280
     0
281
     1
  0
CLASS
  1
XRECORD
  2
AcDbXrecord
  3
AutoCAD 2000
 90
        0
280
     0
281
     0
  0
CLASS
  1
LONG_TRANSACTION
  2
AcDbLongTransaction
  3
AutoCAD 2000
 90
        0
280
     0
281
     0
  0
CLASS
  1
LWPOLYLINE
  2
AcDbPolyline
  3
AutoCAD 2000
 90
        0
280
     0
281
     1
  0
CLASS
  1
HATCH
  2
AcDbHatch
  3
AutoCAD 2000
 90
        0
280
     0
281
     1
  0
CLASS
  1
XRECORD
  2
AcDbXrecord
  3
AutoCAD 2000
 90
        0
280
     0
281
     0
  0
CLASS
  1
LONG_TRANSACTION
  2
AcDbLongTransaction
  3
AutoCAD 2000
 90
        0
280
     0
281
     0
  0
CLASS
  1
LWPOLYLINE
  2
AcDbPolyline
  3
AutoCAD 2000
 90
        0
280
     0
281
     1
  0
CLASS
  1
HATCH
  2
AcDbHatch
  3
AutoCAD 2000
 90
        0
280
     0
281
     1
  0
CLASS
  1
XRECORD
  2
AcDbXrecord
  3
AutoCAD 2000
 90
        0
280
     0
281
     0
  0
ENDSEC
  0
SECTION
  2
TABLES
  0
TABLE
  2
VPORT
  5
8
330
0
100
AcDbSymbolTable
 70
     2
  0
VPORT
  5
281
330
8
100
AcDbSymbolTableRecord
100
AcDbViewportTableRecord
  2
*ACTIVE
 70
     0
 10
0.0
 20
0.0
 11
1.0
 21
1.0
 12
4.223819717240923
 22
9.338653638189024
 13
0.0
 23
0.0
 14
0.5740882589684922
 24
0.5740882589684922
 15
0.5
 25
0.5
 16
0.0
 26
0.0
 36
1.0
 17
0.0
 27
0.0
 37
0.0
 40
12.88569679635493
 41
1.570528967254408
 42
50.0
 43
0.0
 44
0.0
 50
0.0
 51
0.0
 71
     0
 72
   100
 73
     1
 74
     0
 75
     0
 76
     0
 77
     0
 78
     0
  0
ENDTAB
  0
TABLE
  2
LTYPE
  5
5
330
0
100
AcDbSymbolTable
 70
     2
  0
LTYPE
  5
13
330
5
100
AcDbSymbolTableRecord
100
AcDbLinetypeTableRecord
  2
BYBLOCK
 70
     0
  3

 72
    65
 73
     0
 40
0.0
  0
LTYPE
  5
14
330
5
100
AcDbSymbolTableRecord
100
AcDbLinetypeTableRecord
  2
BYLAYER
 70
     0
  3

 72
    65
 73
     0
 40
0.0
  0
LTYPE
  5
15
330
5
100
AcDbSymbolTableRecord
100
AcDbLinetypeTableRecord
  2
CONTINUOUS
 70
     0
  3
Solid line
 72
    65
 73
     0
 40
0.0
  0
LTYPE
  5
8A
330
5
100
AcDbSymbolTableRecord
100
AcDbLinetypeTableRecord
  2
DASHDOT
 70
     0
  3
__ . __ . __ . __ . __ . __ . __ . __ . __ . __
 72
    65
 73
     4
 40
1.0
 49
0.5
 74
     0
 49
-0.25
 74
     0
 49
0.0
 74
     0
 49
-0.25
 74
     0
  0
ENDTAB
  0
TABLE
  2
LAYER
  5
2
330
0
100
AcDbSymbolTable
 70
     5
  0
LAYER
  5
10
330
2
100
AcDbSymbolTableRecord
100
AcDbLayerTableRecord
  2
0
 70
     0
 62
     7
  6
CONTINUOUS
  0
LAYER
  5
8E
330
2
100
AcDbSymbolTableRecord
100
AcDbLayerTableRecord
  2
ADP1DETAIL
 70
     0
 62
     7
  6
CONTINUOUS
  0
LAYER
  5
8F
330
2
100
AcDbSymbolTableRecord
100
AcDbLayerTableRecord
  2
ADP3DETAIL
 70
     0
 62
     1
  6
CONTINUOUS
  0
LAYER
  5
90
330
2
100
AcDbSymbolTableRecord
100
AcDbLayerTableRecord
  2
DEFPOINTS
 70
     0
 62
     7
  6
CONTINUOUS
  0
LAYER
  5
91
330
2
100
AcDbSymbolTableRecord
100
AcDbLayerTableRecord
  2
ADPDIM
 70
     0
 62
     3
  6
CONTINUOUS
  0
ENDTAB
  0
TABLE
  2
STYLE
  5
3
330
0
100
AcDbSymbolTable
 70
     2
  0
STYLE
  5
11
330
3
100
AcDbSymbolTableRecord
100
AcDbTextStyleTableRecord
  2
STANDARD
 70
     0
 40
0.0
 41
1.0
 50
0.0
 71
     0
 42
0.2
  3
txt
  4

  0
STYLE
  5
EE
330
3
100
AcDbSymbolTableRecord
100
AcDbTextStyleTableRecord
  2
ARIAL_WIDE
 70
     0
 40
0.0
 41
1.25
 50
0.0
 71
     0
 42
0.2
  3
ARIAL.TTF
  4

1001
ACAD
1000
Arial
1071
       34
  0
ENDTAB
  0
TABLE
  2
VIEW
  5
6
330
0
100
AcDbSymbolTable
 70
     0
  0
ENDTAB
  0
TABLE
  2
UCS
  5
7
330
0
100
AcDbSymbolTable
 70
     0
  0
ENDTAB
  0
TABLE
  2
APPID
  5
9
330
0
100
AcDbSymbolTable
 70
     1
  0
APPID
  5
12
330
9
100
AcDbSymbolTableRecord
100
AcDbRegAppTableRecord
  2
ACAD
 70
     0
  0
ENDTAB
  0
TABLE
  2
DIMSTYLE
  5
A
330
0
100
AcDbSymbolTable
 70
     1
  0
DIMSTYLE
105
EC
330
A
100
AcDbSymbolTableRecord
100
AcDbDimStyleTableRecord
  2
STANDARD
 70
     0
  3

  4

  5

  6

  7

 40
1.0
 41
0.18
 42
0.0625
 43
0.38
 44
0.18
 45
0.0
 46
0.0
 47
0.0
 48
0.0
140
0.18
141
0.09
142
0.0
143
25.4
144
1.0
145
0.0
146
1.0
147
0.09
 71
     0
 72
     0
 73
     1
 74
     1
 75
     0
 76
     0
 77
     0
 78
     0
170
     0
171
     2
172
     0
173
     0
174
     0
175
     0
176
     0
177
     0
178
     0
270
     2
271
     4
272
     4
273
     2
274
     2
340
11
275
     0
280
     0
281
     0
282
     0
283
     1
284
     0
285
     0
286
     0
287
     3
288
     0
  0
ENDTAB
  0
TABLE
  2
BLOCK_RECORD
  5
1
330
0
100
AcDbSymbolTable
 70
     4
  0
BLOCK_RECORD
  5
1E
102
{ACAD_XDICTIONARY
360
12B
102
}
330
1
100
AcDbSymbolTableRecord
100
AcDbBlockTableRecord
  2
*MODEL_SPACE
  0
BLOCK_RECORD
  5
1A
102
{ACAD_XDICTIONARY
360
12D
102
}
330
1
100
AcDbSymbolTableRecord
100
AcDbBlockTableRecord
  2
*PAPER_SPACE
  0
BLOCK_RECORD
  5
76
330
1
100
AcDbSymbolTableRecord
100
AcDbBlockTableRecord
  2
*D0
  0
BLOCK_RECORD
  5
79
330
1
100
AcDbSymbolTableRecord
100
AcDbBlockTableRecord
  2
*D1
  0
BLOCK_RECORD
  5
82
330
1
100
AcDbSymbolTableRecord
100
AcDbBlockTableRecord
  2
*D2
  0
BLOCK_RECORD
  5
83
330
1
100
AcDbSymbolTableRecord
100
AcDbBlockTableRecord
  2
*D3
  0
ENDTAB
  0
ENDSEC
  0
SECTION
  2
BLOCKS
  0
BLOCK
  5
94
330
1E
100
AcDbEntity
  8
0
100
AcDbBlockBegin
  2
*MODEL_SPACE
 70
     0
 10
0.0
 20
0.0
 30
0.0
  3
*MODEL_SPACE
  1

  0
ENDBLK
  5
95
330
1E
100
AcDbEntity
  8
0
100
AcDbBlockEnd
  0
BLOCK
  5
92
330
1A
100
AcDbEntity
 67
     1
  8
0
100
AcDbBlockBegin
  2
*PAPER_SPACE
 70
     0
 10
0.0
 20
0.0
 30
0.0
  3
*PAPER_SPACE
  1

  0
ENDBLK
  5
93
330
1A
100
AcDbEntity
 67
     1
  8
0
100
AcDbBlockEnd
  0
BLOCK
  5
97
330
76
100
AcDbEntity
  8
0
100
AcDbBlockBegin
  2
*D0
 70
     1
 10
0.0
 20
0.0
 30
0.0
  3
*D0
  1

  0
LINE
  5
98
330
76
100
AcDbEntity
  8
0
  6
BYBLOCK
 62
     0
100
AcDbLine
 10
3.203284563979301
 20
11.79776077931049
 30
0.0
 11
5.316901768312205
 21
9.685849018465956
 31
0.0
  0
LINE
  5
99
330
76
100
AcDbEntity
  8
0
  6
BYBLOCK
 62
     0
100
AcDbLine
 10
3.02650788308084
 20
11.79768943140545
 30
0.0
 11
3.380061244877762
 21
11.79783212721552
 31
0.0
  0
TEXT
  5
9A
330
76
100
AcDbEntity
  8
0
  6
BYBLOCK
 62
     0
100
AcDbText
 10
5.361149449465598
 20
9.553284344768369
 30
0.0
 40
0.125
  1
R3
 50
315.0231248465177
 72
     1
 11
5.479012461382078
 21
9.52386912988865
 31
0.0
100
AcDbText
 73
     2
  0
POINT
  5
9C
330
76
100
AcDbEntity
  8
DEFPOINTS
  6
BYBLOCK
 62
     0
100
AcDbPoint
 10
3.203284563979301
 20
11.79776077931049
 30
0.0
  0
POINT
  5
9D
330
76
100
AcDbEntity
  8
DEFPOINTS
  6
BYBLOCK
 62
     0
100
AcDbPoint
 10
5.325460909621269
 20
9.677296783389385
 30
0.0
  0
ENDBLK
  5
9E
330
76
100
AcDbEntity
  8
0
100
AcDbBlockEnd
  0
BLOCK
  5
9F
330
79
100
AcDbEntity
  8
0
100
AcDbBlockBegin
  2
*D1
 70
     1
 10
0.0
 20
0.0
 30
0.0
  3
*D1
  1

  0
LINE
  5
A0
330
79
100
AcDbEntity
  8
0
  6
BYBLOCK
 62
     0
100
AcDbLine
 10
4.012960909621268
 20
7.177296783389384
 30
0.0
 11
5.153340047220192
 21
7.177296783389384
 31
0.0
  0
LINE
  5
A1
330
79
100
AcDbEntity
  8
0
  6
BYBLOCK
 62
     0
100
AcDbLine
 10
5.254401768312205
 20
9.685849018465956
 30
0.0
 11
4.793340047220193
 21
9.685849018465956
 31
0.0
  0
LINE
  5
A2
330
79
100
AcDbEntity
  8
0
  6
BYBLOCK
 62
     0
100
AcDbLine
 10
4.973340047220192
 20
7.177296783389384
 30
0.0
 11
4.973340047220193
 21
8.035739567594337
 31
0.0
  0
LINE
  5
A3
330
79
100
AcDbEntity
  8
0
  6
BYBLOCK
 62
     0
100
AcDbLine
 10
4.973340047220193
 20
9.685849018465956
 30
0.0
 11
4.973340047220193
 21
8.827406234261005
 31
0.0
  0
LINE
  5
A4
330
79
100
AcDbEntity
  8
0
  6
BYBLOCK
 62
     0
100
AcDbLine
 10
5.098340047220192
 20
7.052296783389384
 30
0.0
 11
4.848340047220193
 21
7.302296783389384
 31
0.0
  0
LINE
  5
A5
330
79
100
AcDbEntity
  8
0
  6
BYBLOCK
 62
     0
100
AcDbLine
 10
5.098340047220193
 20
9.560849018465956
 30
0.0
 11
4.848340047220193
 21
9.810849018465956
 31
0.0
  0
TEXT
  5
A6
330
79
100
AcDbEntity
  8
0
  6
BYBLOCK
 62
     0
100
AcDbText
 10
5.035840047220193
 20
8.160739567594337
 30
0.0
 40
0.125
  1
2 1/2
 50
90.0
 72
     1
 11
4.973340047220193
 21
8.431572900927671
 31
0.0
100
AcDbText
 73
     2
  0
POINT
  5
A7
330
79
100
AcDbEntity
  8
DEFPOINTS
  6
BYBLOCK
 62
     0
100
AcDbPoint
 10
3.950460909621269
 20
7.177296783389384
 30
0.0
  0
POINT
  5
A8
330
79
100
AcDbEntity
  8
DEFPOINTS
  6
BYBLOCK
 62
     0
100
AcDbPoint
 10
5.316901768312205
 20
9.685849018465956
 30
0.0
  0
POINT
  5
A9
330
79
100
AcDbEntity
  8
DEFPOINTS
  6
BYBLOCK
 62
     0
100
AcDbPoint
 10
4.973340047220193
 20
9.685849018465956
 30
0.0
  0
ENDBLK
  5
AA
330
79
100
AcDbEntity
  8
0
100
AcDbBlockEnd
  0
BLOCK
  5
AB
330
82
100
AcDbEntity
  8
0
100
AcDbBlockBegin
  2
*D2
 70
     1
 10
0.0
 20
0.0
 30
0.0
  3
*D2
  1

  0
LINE
  5
AC
330
82
100
AcDbEntity
  8
0
  6
BYBLOCK
 62
     0
100
AcDbLine
 10
3.932553194744239
 20
5.058962619212838
 30
0.0
 11
3.932553194744239
 21
5.806348873237489
 31
0.0
  0
LINE
  5
AD
330
82
100
AcDbEntity
  8
0
  6
BYBLOCK
 62
     0
100
AcDbLine
 10
0.7257174322072748
 20
5.059068636008378
 30
0.0
 11
0.7257174322072748
 21
5.806348873237489
 31
0.0
  0
LINE
  5
AE
330
82
100
AcDbEntity
  8
0
  6
BYBLOCK
 62
     0
100
AcDbLine
 10
3.932553194744239
 20
5.626348873237489
 30
0.0
 11
2.72496864680909
 21
5.626348873237489
 31
0.0
  0
LINE
  5
AF
330
82
100
AcDbEntity
  8
0
  6
BYBLOCK
 62
     0
100
AcDbLine
 10
0.7257174322072748
 20
5.626348873237489
 30
0.0
 11
1.933301980142424
 21
5.626348873237489
 31
0.0
  0
LINE
  5
B0
330
82
100
AcDbEntity
  8
0
  6
BYBLOCK
 62
     0
100
AcDbLine
 10
3.807553194744239
 20
5.501348873237489
 30
0.0
 11
4.057553194744239
 21
5.751348873237489
 31
0.0
  0
LINE
  5
B1
330
82
100
AcDbEntity
  8
0
  6
BYBLOCK
 62
     0
100
AcDbLine
 10
0.6007174322072748
 20
5.501348873237489
 30
0.0
 11
0.8507174322072746
 21
5.751348873237489
 31
0.0
  0
TEXT
  5
B2
330
82
100
AcDbEntity
  8
0
  6
BYBLOCK
 62
     0
100
AcDbText
 10
2.058301980142423
 20
5.563848873237489
 30
0.0
 40
0.125
  1
3 1/4
 72
     1
 11
2.329135313475757
 21
5.626348873237489
 31
0.0
100
AcDbText
 73
     2
  0
POINT
  5
B3
330
82
100
AcDbEntity
  8
DEFPOINTS
  6
BYBLOCK
 62
     0
100
AcDbPoint
 10
3.932553194744239
 20
4.996462619212838
 30
0.0
  0
POINT
  5
B4
330
82
100
AcDbEntity
  8
DEFPOINTS
  6
BYBLOCK
 62
     0
100
AcDbPoint
 10
0.7257174322072748
 20
4.996568636008378
 30
0.0
  0
POINT
  5
B5
330
82
100
AcDbEntity
  8
DEFPOINTS
  6
BYBLOCK
 62
     0
100
AcDbPoint
 10
0.7257174322072748
 20
5.626348873237489
 30
0.0
  0
ENDBLK
  5
B6
330
82
100
AcDbEntity
  8
0
100
AcDbBlockEnd
  0
BLOCK
  5
B7
330
83
100
AcDbEntity
  8
0
100
AcDbBlockBegin
  2
*D3
 70
     1
 10
0.0
 20
0.0
 30
0.0
  3
*D3
  1

  0
LINE
  5
B8
330
83
100
AcDbEntity
  8
0
  6
BYBLOCK
 62
     0
100
AcDbLine
 10
1.937425623277889
 20
4.669597340099465
 30
0.0
 11
1.937425623277889
 21
4.340016985131635
 31
0.0
  0
LINE
  5
B9
330
83
100
AcDbEntity
  8
0
  6
BYBLOCK
 62
     0
100
AcDbLine
 10
2.718675623277889
 20
4.669597340099465
 30
0.0
 11
2.718675623277889
 21
4.340016985131635
 31
0.0
  0
LINE
  5
BA
330
83
100
AcDbEntity
  8
0
  6
BYBLOCK
 62
     0
100
AcDbLine
 10
1.937425623277889
 20
4.520016985131634
 30
0.0
 11
1.687425623277889
 21
4.520016985131634
 31
0.0
  0
LINE
  5
BB
330
83
100
AcDbEntity
  8
0
  6
BYBLOCK
 62
     0
100
AcDbLine
 10
2.718675623277889
 20
4.520016985131634
 30
0.0
 11
2.968675623277889
 21
4.520016985131634
 31
0.0
  0
LINE
  5
BC
330
83
100
AcDbEntity
  8
0
  6
BYBLOCK
 62
     0
100
AcDbLine
 10
1.812425623277889
 20
4.395016985131634
 30
0.0
 11
2.062425623277889
 21
4.645016985131634
 31
0.0
  0
LINE
  5
BD
330
83
100
AcDbEntity
  8
0
  6
BYBLOCK
 62
     0
100
AcDbLine
 10
2.593675623277889
 20
4.395016985131634
 30
0.0
 11
2.843675623277889
 21
4.645016985131634
 31
0.0
  0
TEXT
  5
BE
330
83
100
AcDbEntity
  8
0
  6
BYBLOCK
 62
     0
100
AcDbText
 10
3.093675623277889
 20
4.457516985131634
 30
0.0
 40
0.125
  1
13/16
 72
     1
 11
3.343675623277889
 21
4.520016985131634
 31
0.0
100
AcDbText
 73
     2
  0
POINT
  5
BF
330
83
100
AcDbEntity
  8
DEFPOINTS
  6
BYBLOCK
 62
     0
100
AcDbPoint
 10
1.937425623277889
 20
4.732097340099465
 30
0.0
  0
POINT
  5
C0
330
83
100
AcDbEntity
  8
DEFPOINTS
  6
BYBLOCK
 62
     0
100
AcDbPoint
 10
2.718675623277889
 20
4.732097340099465
 30
0.0
  0
POINT
  5
C1
330
83
100
AcDbEntity
  8
DEFPOINTS
  6
BYBLOCK
 62
     0
100
AcDbPoint
 10
2.718675623277889
 20
4.520016985131634
 30
0.0
  0
ENDBLK
  5
C2
330
83
100
AcDbEntity
  8
0
100
AcDbBlockEnd
  0
ENDSEC
  0
SECTION
  2
ENTITIES
  0
ARC
  5
C3
330
1E
100
AcDbEntity
  8
ADP3DETAIL
  6
DASHDOT
100
AcDbCircle
 10
5.325460909621269
 20
9.677296783389385
 30
0.0
 40
3.0
100
AcDbArc
 50
90.0
 51
180.0
  0
ARC
  5
C4
330
1E
100
AcDbEntity
  8
ADP1DETAIL
100
AcDbCircle
 10
5.325460909621269
 20
9.677296783389385
 30
0.0
 40
4.4460491081064
100
AcDbArc
 50
90.0
 51
180.0
  0
ARC
  5
C5
330
1E
100
AcDbEntity
  8
ADP1DETAIL
100
AcDbCircle
 10
5.325460909621269
 20
9.677296783389385
 30
0.0
 40
4.625
100
AcDbArc
 50
90.0
 51
180.0
  0
LINE
  5
C6
330
1E
100
AcDbEntity
  8
ADP1DETAIL
100
AcDbLine
 10
7.825460909621269
 20
14.29465216379064
 30
0.0
 11
7.825460909621269
 21
11.04465216379064
 31
0.0
  0
LINE
  5
C7
330
1E
100
AcDbEntity
  8
ADP1DETAIL
100
AcDbLine
 10
3.932553194744241
 20
4.996462619212837
 30
0.0
 11
3.808074710461071
 21
5.450489982745343
 31
0.0
  0
DIMENSION
  5
C8
330
1E
100
AcDbEntity
  8
ADPDIM
100
AcDbDimension
  2
*D2
 10
0.7257174322072748
 20
5.626348873237489
 30
0.0
 11
2.329135313475757
 21
5.626348873237489
 31
0.0
  1
3 1/4
100
AcDbAlignedDimension
 13
3.932553194744239
 23
4.996462619212838
 33
0.0
 14
0.7257174322072748
 24
4.996568636008378
 34
0.0
100
AcDbRotatedDimension
  0
DIMENSION
  5
C9
330
1E
100
AcDbEntity
  8
ADPDIM
100
AcDbDimension
  2
*D0
 10
5.325460909621269
 20
9.677296783389385
 30
0.0
 11
5.479012461382078
 21
9.52386912988865
 31
0.0
 70
     4
100
AcDbRadialDimension
 15
3.203284563979301
 25
11.79776077931049
 35
0.0
 40
-2.98790042873679
  0
LINE
  5
CA
330
1E
100
AcDbEntity
  8
ADP1DETAIL
100
AcDbLine
 10
3.950460909621269
 20
7.177296783389384
 30
0.0
 11
0.7004609096212695
 21
7.177296783389385
 31
0.0
  0
ARC
  5
CB
330
1E
100
AcDbEntity
  8
ADP1DETAIL
100
AcDbCircle
 10
5.325460909621269
 20
9.677296783389385
 30
0.0
 40
1.55156482254036
100
AcDbArc
 50
90.0
 51
179.9999999999999
  0
ARC
  5
CC
330
1E
100
AcDbEntity
  8
ADP1DETAIL
100
AcDbCircle
 10
5.325460909621269
 20
9.677296783389385
 30
0.0
 40
1.375
100
AcDbArc
 50
90.0
 51
179.9999999999999
  0
LINE
  5
CD
330
1E
100
AcDbEntity
  8
ADP3DETAIL
  6
DASHDOT
100
AcDbLine
 10
2.329529548918968
 20
9.677296783389385
 30
0.0
 11
2.329529548918968
 21
6.697420735317431
 31
0.0
  0
LINE
  5
CE
330
1E
100
AcDbEntity
  8
ADP1DETAIL
100
AcDbLine
 10
0.8794118015148686
 20
9.677296783389385
 30
0.0
 11
0.8794118015148686
 21
7.177296783389384
 31
0.0
  0
LINE
  5
CF
330
1E
100
AcDbEntity
  8
ADP1DETAIL
100
AcDbLine
 10
0.7004609096212695
 20
7.177296783389385
 30
0.0
 11
0.7004609096212695
 21
9.677296783389385
 31
0.0
  0
LINE
  5
D0
330
1E
100
AcDbEntity
  8
ADP1DETAIL
100
AcDbLine
 10
3.773896087080909
 20
9.677296783389385
 30
0.0
 11
3.773896087080909
 21
7.177296783389384
 31
0.0
  0
ARC
  5
D1
330
1E
100
AcDbEntity
  8
ADP1DETAIL
100
AcDbCircle
 10
2.329045903166695
 20
10.29306933063437
 30
0.0
 40
5.0
100
AcDbArc
 50
253.7287674793836
 51
286.2823168647874
  0
ARC
  5
D2
330
1E
100
AcDbEntity
  8
ADP1DETAIL
100
AcDbCircle
 10
0.9107506096708817
 20
5.433822222239128
 30
0.0
 40
0.062
100
AcDbArc
 50
73.7287674793837
 51
164.5666150659
  0
LINE
  5
D3
330
1E
100
AcDbEntity
  8
ADP1DETAIL
100
AcDbLine
 10
0.7257174322072765
 20
4.996568636008377
 30
0.0
 11
0.8509862982285561
 21
5.450321527613129
 31
0.0
  0
ARC
  5
D4
330
1E
100
AcDbEntity
  8
ADP1DETAIL
100
AcDbCircle
 10
3.748281231806761
 20
5.434096694166881
 30
0.0
 40
0.062
100
AcDbArc
 50
15.33177192594777
 51
106.2823168647908
  0
LINE
  5
D5
330
1E
100
AcDbEntity
  8
ADP1DETAIL
100
AcDbLine
 10
5.325460909621269
 20
11.22360305568424
 30
0.0
 11
7.825460909621273
 21
11.22360305568424
 31
0.0
  0
LINE
  5
D6
330
1E
100
AcDbEntity
  8
ADP1DETAIL
100
AcDbLine
 10
7.825460909621269
 20
11.04465216379064
 30
0.0
 11
5.325460909621269
 21
11.04465216379064
 31
0.0
  0
DIMENSION
  5
D7
330
1E
100
AcDbEntity
  8
ADPDIM
100
AcDbDimension
  2
*D1
 10
4.973340047220193
 20
9.685849018465956
 30
0.0
 11
4.973340047220193
 21
8.431572900927671
 31
0.0
100
AcDbAlignedDimension
 13
3.950460909621269
 23
7.177296783389384
 33
0.0
 14
5.316901768312205
 24
9.685849018465956
 34
0.0
 50
90.0
100
AcDbRotatedDimension
  0
LINE
  5
D8
330
1E
100
AcDbEntity
  8
ADP1DETAIL
100
AcDbLine
 10
3.950460909621269
 20
9.677296783389385
 30
0.0
 11
3.950460909621269
 21
7.177296783389384
 31
0.0
  0
LINE
  5
D9
330
1E
100
AcDbEntity
  8
ADP3DETAIL
  6
DASHDOT
100
AcDbLine
 10
8.38705541988356
 20
12.67729678338938
 30
0.0
 11
5.325460909621269
 21
12.67729678338938
 31
0.0
  0
LINE
  5
DA
330
1E
100
AcDbEntity
  8
ADP1DETAIL
100
AcDbLine
 10
5.325460909621265
 20
14.29465216379064
 30
0.0
 11
7.825460909621269
 21
14.29465216379064
 31
0.0
  0
LINE
  5
DB
330
1E
100
AcDbEntity
  8
ADP1DETAIL
100
AcDbLine
 10
5.325460909621269
 20
14.11808734125028
 30
0.0
 11
7.825460909621273
 21
14.11808734125028
 31
0.0
  0
ARC
  5
DC
330
1E
100
AcDbEntity
  8
ADP1DETAIL
100
AcDbCircle
 10
3.872759716089931
 20
4.980069330634376
 30
0.0
 40
0.062
100
AcDbArc
 50
270.0
 51
15.33177192594802
  0
DIMENSION
  5
DD
330
1E
100
AcDbEntity
  8
ADPDIM
100
AcDbDimension
  2
*D3
 10
2.718675623277889
 20
4.520016985131634
 30
0.0
 11
3.343675623277889
 21
4.520016985131634
 31
0.0
100
AcDbAlignedDimension
 13
1.937425623277889
 23
4.732097340099465
 33
0.0
 14
2.718675623277889
 24
4.732097340099465
 34
0.0
100
AcDbRotatedDimension
  0
LINE
  5
DE
330
1E
100
AcDbEntity
  8
ADP1DETAIL
100
AcDbLine
 10
2.70867562327789
 20
4.918069330634378
 30
0.0
 11
1.947425623277889
 21
4.918069330634377
 31
0.0
  0
LINE
  5
DF
330
1E
100
AcDbEntity
  8
ADP1DETAIL
100
AcDbLine
 10
1.80242562327789
 20
4.918069330634377
 30
0.0
 11
0.7854817436496022
 21
4.918069330634376
 31
0.0
  0
ARC
  5
E0
330
1E
100
AcDbEntity
  8
ADP1DETAIL
100
AcDbCircle
 10
0.7854817436496022
 20
4.980069330634376
 30
0.0
 40
0.062
100
AcDbArc
 50
164.5666150659001
 51
270.0
  0
ARC
  5
E1
330
1E
100
AcDbEntity
  8
ADP1DETAIL
100
AcDbCircle
 10
1.947425623277889
 20
4.908069330634377
 30
0.0
 40
0.01
100
AcDbArc
 50
90.00000000000007
 51
180.0
  0
LINE
  5
E2
330
1E
100
AcDbEntity
  8
ADP1DETAIL
100
AcDbLine
 10
1.937425623277889
 20
4.908069330634377
 30
0.0
 11
1.937425623277889
 21
4.732097340099465
 31
0.0
  0
LINE
  5
E3
330
1E
100
AcDbEntity
  8
ADP1DETAIL
100
AcDbLine
 10
1.812425623277889
 20
4.732097340099465
 30
0.0
 11
1.812425623277889
 21
4.908069330634377
 31
0.0
  0
ARC
  5
E4
330
1E
100
AcDbEntity
  8
ADP1DETAIL
100
AcDbCircle
 10
1.80242562327789
 20
4.908069330634377
 30
0.0
 40
0.01
100
AcDbArc
 50
0.0
 51
90.00000000000005
  0
LINE
  5
E5
330
1E
100
AcDbEntity
  8
ADP1DETAIL
100
AcDbLine
 10
1.937425623277889
 20
4.732097340099465
 30
0.0
 11
1.812425623277889
 21
4.732097340099465
 31
0.0
  0
LINE
  5
E6
330
1E
100
AcDbEntity
  8
ADP1DETAIL
100
AcDbLine
 10
3.872759716089931
 20
4.918069330634376
 30
0.0
 11
2.853675623277889
 21
4.918069330634376
 31
0.0
  0
ARC
  5
E7
330
1E
100
AcDbEntity
  8
ADP1DETAIL
100
AcDbCircle
 10
2.853675623277889
 20
4.908069330634377
 30
0.0
 40
0.01
100
AcDbArc
 50
90.0
 51
180.0
  0
LINE
  5
E8
330
1E
100
AcDbEntity
  8
ADP1DETAIL
100
AcDbLine
 10
2.843675623277889
 20
4.908069330634377
 30
0.0
 11
2.843675623277889
 21
4.732097340099465
 31
0.0
  0
ARC
  5
E9
330
1E
100
AcDbEntity
  8
ADP1DETAIL
100
AcDbCircle
 10
2.70867562327789
 20
4.908069330634378
 30
0.0
 40
0.01
100
AcDbArc
 50
0.0
 51
90.00000000000005
  0
LINE
  5
EA
330
1E
100
AcDbEntity
  8
ADP1DETAIL
100
AcDbLine
 10
2.718675623277889
 20
4.732097340099465
 30
0.0
 11
2.718675623277889
 21
4.908069330634378
 31
0.0
  0
LINE
  5
EB
330
1E
100
AcDbEntity
  8
ADP1DETAIL
100
AcDbLine
 10
2.843675623277889
 20
4.732097340099465
 30
0.0
 11
2.718675623277889
 21
4.732097340099465
 31
0.0
  0
TEXT
  5
EF
330
1E
100
AcDbEntity
  8
ADPDIM
100
AcDbText
 10
-5.846099558909852
 20
3.47362829954459
 30
0.0
 40
0.1875
  1
J U L I U S  B L U M  &  C O . ,  I N C .      ( 8 0 0 )  5 2 6 - 6 2 9 3        W W W . J U L I U S B L U M . C O M        P A R T  N o .  6 9 0 7 - C
 41
1.25
  7
ARIAL_WIDE
 72
     1
 11
4.206205821376642
 21
3.66112829954459
 31
0.0
100
AcDbText
 73
     3
  0
ENDSEC
  0
SECTION
  2
OBJECTS
  0
DICTIONARY
  5
C
330
0
100
AcDbDictionary
  3
ACAD_GROUP
350
D
  3
ACAD_LAYOUT
350
19
  3
ACAD_MLINESTYLE
350
16
  3
ACAD_PLOTSETTINGS
350
18
  3
ACAD_PLOTSTYLENAME
350
E
  3
ACDBHEADERROUNDTRIPXREC
350
282
  3
ACDBVARIABLEDICTIONARY
350
160
  0
DICTIONARY
  5
12B
330
1E
100
AcDbDictionary
280
     1
  3
ACAD_LAYOUTSELFREF
360
2A4
  0
DICTIONARY
  5
12D
330
1A
100
AcDbDictionary
280
     1
  3
ACAD_LAYOUTSELFREF
360
2A3
  0
DICTIONARY
  5
D
102
{ACAD_REACTORS
330
C
102
}
330
C
100
AcDbDictionary
  0
DICTIONARY
  5
19
102
{ACAD_REACTORS
330
C
102
}
330
C
100
AcDbDictionary
  0
DICTIONARY
  5
16
102
{ACAD_REACTORS
330
C
102
}
330
C
100
AcDbDictionary
  3
STANDARD
350
17
  0
DICTIONARY
  5
18
102
{ACAD_REACTORS
330
C
102
}
330
C
100
AcDbDictionary
  0
ACDBDICTIONARYWDFLT
  5
E
102
{ACAD_REACTORS
330
C
102
}
330
C
100
AcDbDictionary
281
     1
  3
Normal
350
F
100
AcDbDictionaryWithDefault
340
F
  0
DICTIONARY
  5
282
102
{ACAD_REACTORS
330
C
102
}
330
C
100
AcDbDictionary
  3
CEPSNTYPE
350
28C
  3
DIMSTYLEDATA
350
290
  3
FINGERPRINTGUID
350
28D
  3
HYPERLINKBASE
350
285
  3
INSUNITS
350
28B
  3
LAYOUTDICT
350
287
  3
LWETCUNION
350
28A
  3
PLOTSETDICT
350
288
  3
PLOTSTYLNAMDICT
350
289
  3
PSVPSCALE
350
28F
  3
PUCSBASE
350
293
  3
PUCSORGBACK
350
299
  3
PUCSORGBOTTOM
350
295
  3
PUCSORGFRONT
350
298
  3
PUCSORGLEFT
350
296
  3
PUCSORGRIGHT
350
297
  3
PUCSORGTOP
350
294
  3
PUCSORTHOREF
350
291
  3
PUCSORTHOVIEW
350
292
  3
STYLESHEET
350
286
  3
TSTACKALIGN
350
283
  3
TSTACKSIZE
350
284
  3
UCSBASE
350
29C
  3
UCSORGBACK
350
2A2
  3
UCSORGBOTTOM
350
29E
  3
UCSORGFRONT
350
2A1
  3
UCSORGLEFT
350
29F
  3
UCSORGRIGHT
350
2A0
  3
UCSORGTOP
350
29D
  3
UCSORTHOREF
350
29A
  3
UCSORTHOVIEW
350
29B
  3
VERSIONGUID
350
28E
  0
DICTIONARY
  5
160
102
{ACAD_REACTORS
330
C
102
}
330
C
100
AcDbDictionary
  3
DIMASSOC
350
162
  3
HIDETEXT
350
161
  0
XRECORD
  5
2A4
102
{ACAD_REACTORS
330
12B
102
}
330
12B
100
AcDbXrecord
340
1E
  0
XRECORD
  5
2A3
102
{ACAD_REACTORS
330
12D
102
}
330
12D
100
AcDbXrecord
340
1A
  0
MLINESTYLE
  5
17
102
{ACAD_REACTORS
330
16
102
}
330
16
100
AcDbMlineStyle
  2
STANDARD
 70
     0
  3

 62
   256
 51
90.0
 52
90.0
 71
     2
 49
0.5
 62
   256
  6
BYLAYER
 49
-0.5
 62
   256
  6
BYLAYER
  0
ACDBPLACEHOLDER
  5
F
102
{ACAD_REACTORS
330
E
102
}
330
E
100
AcDbPlaceHolder
280
     0
  0
XRECORD
  5
28C
102
{ACAD_REACTORS
330
282
102
}
330
282
100
AcDbXrecord
 90
        0
  0
XRECORD
  5
290
102
{ACAD_REACTORS
330
282
102
}
330
282
100
AcDbXrecord
1000
DSTYLE
1002
{
1070
   277
 70
     5
1070
   279
 70
     2
1002
}
  0
XRECORD
  5
28D
102
{ACAD_REACTORS
330
282
102
}
330
282
100
AcDbXrecord
  1
{06A060BA-0A1E-4523-8043-91D6C1061BF5}
  0
XRECORD
  5
285
102
{ACAD_REACTORS
330
282
102
}
330
282
100
AcDbXrecord
  1

  0
XRECORD
  5
28B
102
{ACAD_REACTORS
330
282
102
}
330
282
100
AcDbXrecord
 90
        0
  0
XRECORD
  5
287
102
{ACAD_REACTORS
330
282
102
}
330
282
100
AcDbXrecord
340
19
  0
XRECORD
  5
28A
102
{ACAD_REACTORS
330
282
102
}
330
282
100
AcDbXrecord
 90
    14877
  0
XRECORD
  5
288
102
{ACAD_REACTORS
330
282
102
}
330
282
100
AcDbXrecord
340
18
  0
XRECORD
  5
289
102
{ACAD_REACTORS
330
282
102
}
330
282
100
AcDbXrecord
340
E
  0
XRECORD
  5
28F
102
{ACAD_REACTORS
330
282
102
}
330
282
100
AcDbXrecord
 40
0.0
  0
XRECORD
  5
293
102
{ACAD_REACTORS
330
282
102
}
330
282
100
AcDbXrecord
340
0
  0
XRECORD
  5
299
102
{ACAD_REACTORS
330
282
102
}
330
282
100
AcDbXrecord
 10
0.0
 20
0.0
 30
0.0
  0
XRECORD
  5
295
102
{ACAD_REACTORS
330
282
102
}
330
282
100
AcDbXrecord
 10
0.0
 20
0.0
 30
0.0
  0
XRECORD
  5
298
102
{ACAD_REACTORS
330
282
102
}
330
282
100
AcDbXrecord
 10
0.0
 20
0.0
 30
0.0
  0
XRECORD
  5
296
102
{ACAD_REACTORS
330
282
102
}
330
282
100
AcDbXrecord
 10
0.0
 20
0.0
 30
0.0
  0
XRECORD
  5
297
102
{ACAD_REACTORS
330
282
102
}
330
282
100
AcDbXrecord
 10
0.0
 20
0.0
 30
0.0
  0
XRECORD
  5
294
102
{ACAD_REACTORS
330
282
102
}
330
282
100
AcDbXrecord
 10
0.0
 20
0.0
 30
0.0
  0
XRECORD
  5
291
102
{ACAD_REACTORS
330
282
102
}
330
282
100
AcDbXrecord
340
0
  0
XRECORD
  5
292
102
{ACAD_REACTORS
330
282
102
}
330
282
100
AcDbXrecord
 70
     0
  0
XRECORD
  5
286
102
{ACAD_REACTORS
330
282
102
}
330
282
100
AcDbXrecord
  1

  0
XRECORD
  5
283
102
{ACAD_REACTORS
330
282
102
}
330
282
100
AcDbXrecord
 90
        1
  0
XRECORD
  5
284
102
{ACAD_REACTORS
330
282
102
}
330
282
100
AcDbXrecord
 90
       70
  0
XRECORD
  5
29C
102
{ACAD_REACTORS
330
282
102
}
330
282
100
AcDbXrecord
340
0
  0
XRECORD
  5
2A2
102
{ACAD_REACTORS
330
282
102
}
330
282
100
AcDbXrecord
 10
0.0
 20
0.0
 30
0.0
  0
XRECORD
  5
29E
102
{ACAD_REACTORS
330
282
102
}
330
282
100
AcDbXrecord
 10
0.0
 20
0.0
 30
0.0
  0
XRECORD
  5
2A1
102
{ACAD_REACTORS
330
282
102
}
330
282
100
AcDbXrecord
 10
0.0
 20
0.0
 30
0.0
  0
XRECORD
  5
29F
102
{ACAD_REACTORS
330
282
102
}
330
282
100
AcDbXrecord
 10
0.0
 20
0.0
 30
0.0
  0
XRECORD
  5
2A0
102
{ACAD_REACTORS
330
282
102
}
330
282
100
AcDbXrecord
 10
0.0
 20
0.0
 30
0.0
  0
XRECORD
  5
29D
102
{ACAD_REACTORS
330
282
102
}
330
282
100
AcDbXrecord
 10
0.0
 20
0.0
 30
0.0
  0
XRECORD
  5
29A
102
{ACAD_REACTORS
330
282
102
}
330
282
100
AcDbXrecord
340
0
  0
XRECORD
  5
29B
102
{ACAD_REACTORS
330
282
102
}
330
282
100
AcDbXrecord
 70
     0
  0
XRECORD
  5
28E
102
{ACAD_REACTORS
330
282
102
}
330
282
100
AcDbXrecord
  1
{DD8FC227-07F1-44C2-9F6E-615D9724D57F}
  0
DICTIONARYVAR
  5
162
102
{ACAD_REACTORS
330
160
102
}
330
160
100
DictionaryVariables
280
     0
  1
2
  0
DICTIONARYVAR
  5
161
102
{ACAD_REACTORS
330
160
102
}
330
160
100
DictionaryVariables
280
     0
  1
1
  0
ENDSEC
  0
EOF
