  0
SECTION
  2
HEADER
  9
$ACADVER
  1
AC1014
  9
$ACADMAINTVER
 70
     9
  9
$DWGCODEPAGE
  3
ANSI_1252
  9
$INSBASE
 10
19.17019638276644
 20
-23.8227491615024
 30
0.0
  9
$EXTMIN
 10
11.99807395992763
 20
-24.7704490388609
 30
0.0
  9
$EXTMAX
 10
25.04953200904086
 20
-22.5163802653829
 30
0.0
  9
$LIMMIN
 10
0.0
 20
0.0
  9
$LIMMAX
 10
36.0
 20
36.0
  9
$ORTHOMODE
 70
     1
  9
$REGENMODE
 70
     1
  9
$FILLMODE
 70
     1
  9
$QTEXTMODE
 70
     0
  9
$MIRRTEXT
 70
     1
  9
$DRAGMODE
 70
     0
  9
$LTSCALE
 40
1.0
  9
$OSMODE
 70
    37
  9
$ATTMODE
 70
     1
  9
$TEXTSIZE
 40
0.2
  9
$TRACEWID
 40
0.05
  9
$TEXTSTYLE
  7
STANDARD
  9
$CLAYER
  8
0
  9
$CELTYPE
  6
BYLAYER
  9
$CECOLOR
 62
   256
  9
$CELTSCALE
 40
1.0
  9
$DELOBJ
 70
     1
  9
$DISPSILH
 70
     0
  9
$DIMSCALE
 40
1.0
  9
$DIMASZ
 40
0.125
  9
$DIMEXO
 40
0.0625
  9
$DIMDLI
 40
0.38
  9
$DIMRND
 40
0.0
  9
$DIMDLE
 40
0.0
  9
$DIMEXE
 40
0.18
  9
$DIMTP
 40
0.0
  9
$DIMTM
 40
0.0
  9
$DIMTXT
 40
0.125
  9
$DIMCEN
 40
0.1875
  9
$DIMTSZ
 40
0.125
  9
$DIMTOL
 70
     0
  9
$DIMLIM
 70
     0
  9
$DIMTIH
 70
     0
  9
$DIMTOH
 70
     0
  9
$DIMSE1
 70
     0
  9
$DIMSE2
 70
     0
  9
$DIMTAD
 70
     0
  9
$DIMZIN
 70
     3
  9
$DIMBLK
  1

  9
$DIMASO
 70
     1
  9
$DIMSHO
 70
     1
  9
$DIMPOST
  1

  9
$DIMAPOST
  1

  9
$DIMALT
 70
     0
  9
$DIMALTD
 70
     1
  9
$DIMALTF
 40
25.4
  9
$DIMLFAC
 40
1.0
  9
$DIMTOFL
 70
     0
  9
$DIMTVP
 40
0.0
  9
$DIMTIX
 70
     0
  9
$DIMSOXD
 70
     0
  9
$DIMSAH
 70
     0
  9
$DIMBLK1
  1

  9
$DIMBLK2
  1

  9
$DIMSTYLE
  2
STANDARD
  9
$DIMCLRD
 70
     0
  9
$DIMCLRE
 70
     0
  9
$DIMCLRT
 70
     0
  9
$DIMTFAC
 40
1.0
  9
$DIMGAP
 40
0.125
  9
$DIMJUST
 70
     0
  9
$DIMSD1
 70
     0
  9
$DIMSD2
 70
     0
  9
$DIMTOLJ
 70
     1
  9
$DIMTZIN
 70
     3
  9
$DIMALTZ
 70
     3
  9
$DIMALTTZ
 70
     3
  9
$DIMFIT
 70
     5
  9
$DIMUPT
 70
     0
  9
$DIMUNIT
 70
     5
  9
$DIMDEC
 70
     4
  9
$DIMTDEC
 70
     4
  9
$DIMALTU
 70
     5
  9
$DIMALTTD
 70
     1
  9
$DIMTXSTY
  7
STANDARD
  9
$DIMAUNIT
 70
     0
  9
$LUNITS
 70
     5
  9
$LUPREC
 70
     4
  9
$SKETCHINC
 40
0.1
  9
$FILLETRAD
 40
0.187
  9
$AUNITS
 70
     0
  9
$AUPREC
 70
     0
  9
$MENU
  1
acad
  9
$ELEVATION
 40
0.0
  9
$PELEVATION
 40
0.0
  9
$THICKNESS
 40
0.0
  9
$LIMCHECK
 70
     0
  9
$BLIPMODE
 70
     0
  9
$CHAMFERA
 40
0.0
  9
$CHAMFERB
 40
0.0
  9
$CHAMFERC
 40
0.0
  9
$CHAMFERD
 40
0.0
  9
$SKPOLY
 70
     0
  9
$TDCREATE
 40
2450399.634834872
  9
$TDUPDATE
 40
2452297.095214838
  9
$TDINDWG
 40
0.0518760648
  9
$TDUSRTIMER
 40
0.0518760648
  9
$USRTIMER
 70
     1
  9
$ANGBASE
 50
0.0
  9
$ANGDIR
 70
     0
  9
$PDMODE
 70
     0
  9
$PDSIZE
 40
0.0
  9
$PLINEWID
 40
0.0
  9
$COORDS
 70
     2
  9
$SPLFRAME
 70
     0
  9
$SPLINETYPE
 70
     6
  9
$SPLINESEGS
 70
     8
  9
$ATTDIA
 70
     0
  9
$ATTREQ
 70
     1
  9
$HANDLING
 70
 22529
  9
$HANDSEED
  5
379
  9
$SURFTAB1
 70
     6
  9
$SURFTAB2
 70
     6
  9
$SURFTYPE
 70
     6
  9
$SURFU
 70
     6
  9
$SURFV
 70
     6
  9
$UCSNAME
  2

  9
$UCSORG
 10
0.0
 20
0.0
 30
0.0
  9
$UCSXDIR
 10
1.0
 20
0.0
 30
0.0
  9
$UCSYDIR
 10
0.0
 20
1.0
 30
0.0
  9
$PUCSNAME
  2

  9
$PUCSORG
 10
0.0
 20
0.0
 30
0.0
  9
$PUCSXDIR
 10
1.0
 20
0.0
 30
0.0
  9
$PUCSYDIR
 10
0.0
 20
1.0
 30
0.0
  9
$USERI1
 70
     0
  9
$USERI2
 70
     0
  9
$USERI3
 70
     0
  9
$USERI4
 70
     0
  9
$USERI5
 70
     0
  9
$USERR1
 40
0.0
  9
$USERR2
 40
0.0
  9
$USERR3
 40
0.0
  9
$USERR4
 40
0.0
  9
$USERR5
 40
0.0
  9
$WORLDVIEW
 70
     1
  9
$SHADEDGE
 70
     3
  9
$SHADEDIF
 70
    70
  9
$TILEMODE
 70
     1
  9
$MAXACTVP
 70
    15
  9
$PINSBASE
 10
0.0004882914945483
 20
0.7501408034022604
 30
0.0
  9
$PLIMCHECK
 70
     0
  9
$PEXTMIN
 10
1.000000000000000E+20
 20
1.000000000000000E+20
 30
1.000000000000000E+20
  9
$PEXTMAX
 10
-1.000000000000000E+20
 20
-1.000000000000000E+20
 30
-1.000000000000000E+20
  9
$PLIMMIN
 10
0.0
 20
0.0
  9
$PLIMMAX
 10
12.0
 20
9.0
  9
$UNITMODE
 70
     0
  9
$VISRETAIN
 70
     0
  9
$PLINEGEN
 70
     0
  9
$PSLTSCALE
 70
     1
  9
$TREEDEPTH
 70
  3020
  9
$PICKSTYLE
 70
     1
  9
$CMLSTYLE
  2
STANDARD
  9
$CMLJUST
 70
     0
  9
$CMLSCALE
 40
1.0
  9
$PROXYGRAPHICS
 70
     1
  9
$MEASUREMENT
 70
     0
  0
ENDSEC
  0
SECTION
  2
CLASSES
  0
CLASS
  1
ACDBDICTIONARYWDFLT
  2
AcDbDictionaryWithDefault
  3
AutoCAD 2000
 90
        0
280
     0
281
     0
  0
CLASS
  1
ACDBPLACEHOLDER
  2
AcDbPlaceHolder
  3
AutoCAD 2000
 90
        0
280
     0
281
     0
  0
CLASS
  1
LAYOUT
  2
AcDbLayout
  3
AutoCAD 2000
 90
        0
280
     0
281
     0
  0
CLASS
  1
DICTIONARYVAR
  2
AcDbDictionaryVar
  3
AutoCAD 2000
 90
        0
280
     0
281
     0
  0
CLASS
  1
LONG_TRANSACTION
  2
AcDbLongTransaction
  3
AutoCAD 2000
 90
        0
280
     0
281
     0
  0
CLASS
  1
LWPOLYLINE
  2
AcDbPolyline
  3
AutoCAD 2000
 90
        0
280
     0
281
     1
  0
CLASS
  1
HATCH
  2
AcDbHatch
  3
AutoCAD 2000
 90
        0
280
     0
281
     1
  0
CLASS
  1
XRECORD
  2
AcDbXrecord
  3
AutoCAD 2000
 90
        0
280
     0
281
     0
  0
CLASS
  1
LONG_TRANSACTION
  2
AcDbLongTransaction
  3
AutoCAD 2000
 90
        0
280
     0
281
     0
  0
CLASS
  1
LWPOLYLINE
  2
AcDbPolyline
  3
AutoCAD 2000
 90
        0
280
     0
281
     1
  0
CLASS
  1
HATCH
  2
AcDbHatch
  3
AutoCAD 2000
 90
        0
280
     0
281
     1
  0
CLASS
  1
XRECORD
  2
AcDbXrecord
  3
AutoCAD 2000
 90
        0
280
     0
281
     0
  0
CLASS
  1
LONG_TRANSACTION
  2
AcDbLongTransaction
  3
AutoCAD 2000
 90
        0
280
     0
281
     0
  0
CLASS
  1
LWPOLYLINE
  2
AcDbPolyline
  3
AutoCAD 2000
 90
        0
280
     0
281
     1
  0
CLASS
  1
HATCH
  2
AcDbHatch
  3
AutoCAD 2000
 90
        0
280
     0
281
     1
  0
CLASS
  1
XRECORD
  2
AcDbXrecord
  3
AutoCAD 2000
 90
        0
280
     0
281
     0
  0
CLASS
  1
LONG_TRANSACTION
  2
AcDbLongTransaction
  3
AutoCAD 2000
 90
        0
280
     0
281
     0
  0
CLASS
  1
LWPOLYLINE
  2
AcDbPolyline
  3
AutoCAD 2000
 90
        0
280
     0
281
     1
  0
CLASS
  1
HATCH
  2
AcDbHatch
  3
AutoCAD 2000
 90
        0
280
     0
281
     1
  0
CLASS
  1
XRECORD
  2
AcDbXrecord
  3
AutoCAD 2000
 90
        0
280
     0
281
     0
  0
CLASS
  1
LONG_TRANSACTION
  2
AcDbLongTransaction
  3
AutoCAD 2000
 90
        0
280
     0
281
     0
  0
CLASS
  1
LWPOLYLINE
  2
AcDbPolyline
  3
AutoCAD 2000
 90
        0
280
     0
281
     1
  0
CLASS
  1
HATCH
  2
AcDbHatch
  3
AutoCAD 2000
 90
        0
280
     0
281
     1
  0
CLASS
  1
XRECORD
  2
AcDbXrecord
  3
AutoCAD 2000
 90
        0
280
     0
281
     0
  0
ENDSEC
  0
SECTION
  2
TABLES
  0
TABLE
  2
VPORT
  5
8
330
0
100
AcDbSymbolTable
 70
     2
  0
VPORT
  5
355
330
8
100
AcDbSymbolTableRecord
100
AcDbViewportTableRecord
  2
*ACTIVE
 70
     0
 10
0.0
 20
0.0
 11
1.0
 21
1.0
 12
18.53375997624527
 22
-23.6448409945335
 13
0.0
 23
0.0
 14
0.5740882589684922
 24
0.5740882589684922
 15
0.5
 25
0.5
 16
0.0
 26
0.0
 36
1.0
 17
0.0
 27
0.0
 37
0.0
 40
8.365595802020571
 41
1.570528967254408
 42
50.0
 43
0.0
 44
0.0
 50
0.0
 51
0.0
 71
     0
 72
   100
 73
     1
 74
     0
 75
     0
 76
     0
 77
     0
 78
     0
  0
ENDTAB
  0
TABLE
  2
LTYPE
  5
5
330
0
100
AcDbSymbolTable
 70
     1
  0
LTYPE
  5
13
330
5
100
AcDbSymbolTableRecord
100
AcDbLinetypeTableRecord
  2
BYBLOCK
 70
     0
  3

 72
    65
 73
     0
 40
0.0
  0
LTYPE
  5
14
330
5
100
AcDbSymbolTableRecord
100
AcDbLinetypeTableRecord
  2
BYLAYER
 70
     0
  3

 72
    65
 73
     0
 40
0.0
  0
LTYPE
  5
15
330
5
100
AcDbSymbolTableRecord
100
AcDbLinetypeTableRecord
  2
CONTINUOUS
 70
     0
  3
Solid line
 72
    65
 73
     0
 40
0.0
  0
ENDTAB
  0
TABLE
  2
LAYER
  5
2
330
0
100
AcDbSymbolTable
 70
     4
  0
LAYER
  5
10
330
2
100
AcDbSymbolTableRecord
100
AcDbLayerTableRecord
  2
0
 70
     0
 62
     7
  6
CONTINUOUS
  0
LAYER
  5
165
330
2
100
AcDbSymbolTableRecord
100
AcDbLayerTableRecord
  2
ADP1DETAIL
 70
     0
 62
     7
  6
CONTINUOUS
  0
LAYER
  5
167
330
2
100
AcDbSymbolTableRecord
100
AcDbLayerTableRecord
  2
DEFPOINTS
 70
     0
 62
     7
  6
CONTINUOUS
  0
LAYER
  5
16A
330
2
100
AcDbSymbolTableRecord
100
AcDbLayerTableRecord
  2
ADPDIM
 70
     0
 62
     3
  6
CONTINUOUS
  0
ENDTAB
  0
TABLE
  2
STYLE
  5
3
330
0
100
AcDbSymbolTable
 70
     2
  0
STYLE
  5
11
330
3
100
AcDbSymbolTableRecord
100
AcDbTextStyleTableRecord
  2
STANDARD
 70
     0
 40
0.0
 41
1.0
 50
0.0
 71
     0
 42
0.2
  3
txt
  4

  0
STYLE
  5
1C2
330
3
100
AcDbSymbolTableRecord
100
AcDbTextStyleTableRecord
  2
ARIAL_WIDE
 70
     0
 40
0.0
 41
1.25
 50
0.0
 71
     0
 42
0.2
  3
ARIAL.TTF
  4

1001
ACAD
1000
Arial
1071
       34
  0
ENDTAB
  0
TABLE
  2
VIEW
  5
6
330
0
100
AcDbSymbolTable
 70
     0
  0
ENDTAB
  0
TABLE
  2
UCS
  5
7
330
0
100
AcDbSymbolTable
 70
     0
  0
ENDTAB
  0
TABLE
  2
APPID
  5
9
330
0
100
AcDbSymbolTable
 70
     1
  0
APPID
  5
12
330
9
100
AcDbSymbolTableRecord
100
AcDbRegAppTableRecord
  2
ACAD
 70
     0
  0
ENDTAB
  0
TABLE
  2
DIMSTYLE
  5
A
330
0
100
AcDbSymbolTable
 70
     1
  0
DIMSTYLE
105
1C0
330
A
100
AcDbSymbolTableRecord
100
AcDbDimStyleTableRecord
  2
STANDARD
 70
     0
  3

  4

  5

  6

  7

 40
1.0
 41
0.18
 42
0.0625
 43
0.38
 44
0.18
 45
0.0
 46
0.0
 47
0.0
 48
0.0
140
0.18
141
0.09
142
0.0
143
25.4
144
1.0
145
0.0
146
1.0
147
0.09
 71
     0
 72
     0
 73
     1
 74
     1
 75
     0
 76
     0
 77
     0
 78
     0
170
     0
171
     2
172
     0
173
     0
174
     0
175
     0
176
     0
177
     0
178
     0
270
     2
271
     4
272
     4
273
     2
274
     2
340
11
275
     0
280
     0
281
     0
282
     0
283
     1
284
     0
285
     0
286
     0
287
     3
288
     0
  0
ENDTAB
  0
TABLE
  2
BLOCK_RECORD
  5
1
330
0
100
AcDbSymbolTable
 70
     2
  0
BLOCK_RECORD
  5
1E
102
{ACAD_XDICTIONARY
360
1FF
102
}
330
1
100
AcDbSymbolTableRecord
100
AcDbBlockTableRecord
  2
*MODEL_SPACE
  0
BLOCK_RECORD
  5
1A
102
{ACAD_XDICTIONARY
360
201
102
}
330
1
100
AcDbSymbolTableRecord
100
AcDbBlockTableRecord
  2
*PAPER_SPACE
  0
BLOCK_RECORD
  5
160
330
1
100
AcDbSymbolTableRecord
100
AcDbBlockTableRecord
  2
*D0
  0
BLOCK_RECORD
  5
161
330
1
100
AcDbSymbolTableRecord
100
AcDbBlockTableRecord
  2
*D1
  0
ENDTAB
  0
ENDSEC
  0
SECTION
  2
BLOCKS
  0
BLOCK
  5
16D
330
1E
100
AcDbEntity
  8
0
100
AcDbBlockBegin
  2
*MODEL_SPACE
 70
     0
 10
0.0
 20
0.0
 30
0.0
  3
*MODEL_SPACE
  1

  0
ENDBLK
  5
16E
330
1E
100
AcDbEntity
  8
0
100
AcDbBlockEnd
  0
BLOCK
  5
16B
330
1A
100
AcDbEntity
 67
     1
  8
0
100
AcDbBlockBegin
  2
*PAPER_SPACE
 70
     0
 10
0.0
 20
0.0
 30
0.0
  3
*PAPER_SPACE
  1

  0
ENDBLK
  5
16C
330
1A
100
AcDbEntity
 67
     1
  8
0
100
AcDbBlockEnd
  0
BLOCK
  5
170
330
160
100
AcDbEntity
  8
0
100
AcDbBlockBegin
  2
*D0
 70
     1
 10
0.0
 20
0.0
 30
0.0
  3
*D0
  1

  0
LINE
  5
171
330
160
100
AcDbEntity
  8
0
  6
BYBLOCK
 62
     0
100
AcDbLine
 10
17.87740958620204
 20
-23.8852491615024
 30
0.0
 11
17.87740958620204
 21
-24.20294252730442
 31
0.0
  0
LINE
  5
172
330
160
100
AcDbEntity
  8
0
  6
BYBLOCK
 62
     0
100
AcDbLine
 10
19.15865958620204
 20
-23.8852491615024
 30
0.0
 11
19.15865958620204
 21
-24.20294252730442
 31
0.0
  0
LINE
  5
173
330
160
100
AcDbEntity
  8
0
  6
BYBLOCK
 62
     0
100
AcDbLine
 10
17.87740958620204
 20
-24.02294252730442
 30
0.0
 11
17.62740958620204
 21
-24.02294252730442
 31
0.0
  0
LINE
  5
174
330
160
100
AcDbEntity
  8
0
  6
BYBLOCK
 62
     0
100
AcDbLine
 10
19.15865958620204
 20
-24.02294252730442
 30
0.0
 11
19.40865958620204
 21
-24.02294252730442
 31
0.0
  0
LINE
  5
175
330
160
100
AcDbEntity
  8
0
  6
BYBLOCK
 62
     0
100
AcDbLine
 10
17.75240958620204
 20
-24.14794252730442
 30
0.0
 11
18.00240958620204
 21
-23.89794252730442
 31
0.0
  0
LINE
  5
176
330
160
100
AcDbEntity
  8
0
  6
BYBLOCK
 62
     0
100
AcDbLine
 10
19.03365958620204
 20
-24.14794252730442
 30
0.0
 11
19.28365958620204
 21
-23.89794252730442
 31
0.0
  0
TEXT
  5
177
330
160
100
AcDbEntity
  8
0
  6
BYBLOCK
 62
     0
100
AcDbText
 10
19.53365958620204
 20
-24.08544252730441
 30
0.0
 40
0.125
  1
1 5/16
 72
     1
 11
19.84615958620204
 21
-24.02294252730442
 31
0.0
100
AcDbText
 73
     2
  0
POINT
  5
179
330
160
100
AcDbEntity
  8
DEFPOINTS
  6
BYBLOCK
 62
     0
100
AcDbPoint
 10
17.87740958620204
 20
-23.8227491615024
 30
0.0
  0
POINT
  5
17A
330
160
100
AcDbEntity
  8
DEFPOINTS
  6
BYBLOCK
 62
     0
100
AcDbPoint
 10
19.15865958620204
 20
-23.8227491615024
 30
0.0
  0
POINT
  5
17B
330
160
100
AcDbEntity
  8
DEFPOINTS
  6
BYBLOCK
 62
     0
100
AcDbPoint
 10
19.15865958620204
 20
-24.02294252730442
 30
0.0
  0
ENDBLK
  5
17C
330
160
100
AcDbEntity
  8
0
100
AcDbBlockEnd
  0
BLOCK
  5
17D
330
161
100
AcDbEntity
  8
0
100
AcDbBlockBegin
  2
*D1
 70
     1
 10
0.0
 20
0.0
 30
0.0
  3
*D1
  1

  0
LINE
  5
17E
330
161
100
AcDbEntity
  8
0
  6
BYBLOCK
 62
     0
100
AcDbLine
 10
17.15525409194395
 20
-23.14661462726702
 30
0.0
 11
17.15525409194395
 21
-22.5163802653829
 31
0.0
  0
LINE
  5
17F
330
161
100
AcDbEntity
  8
0
  6
BYBLOCK
 62
     0
100
AcDbLine
 10
19.89235187702453
 20
-23.14661462726702
 30
0.0
 11
19.89235187702453
 21
-22.5163802653829
 31
0.0
  0
LINE
  5
180
330
161
100
AcDbEntity
  8
0
  6
BYBLOCK
 62
     0
100
AcDbLine
 10
17.15525409194395
 20
-22.6963802653829
 30
0.0
 11
18.10713631781757
 21
-22.6963802653829
 31
0.0
  0
LINE
  5
181
330
161
100
AcDbEntity
  8
0
  6
BYBLOCK
 62
     0
100
AcDbLine
 10
19.89235187702453
 20
-22.6963802653829
 30
0.0
 11
18.94046965115091
 21
-22.6963802653829
 31
0.0
  0
LINE
  5
182
330
161
100
AcDbEntity
  8
0
  6
BYBLOCK
 62
     0
100
AcDbLine
 10
17.03025409194395
 20
-22.8213802653829
 30
0.0
 11
17.28025409194395
 21
-22.5713802653829
 31
0.0
  0
LINE
  5
183
330
161
100
AcDbEntity
  8
0
  6
BYBLOCK
 62
     0
100
AcDbLine
 10
19.76735187702453
 20
-22.8213802653829
 30
0.0
 11
20.01735187702454
 21
-22.5713802653829
 31
0.0
  0
TEXT
  5
184
330
161
100
AcDbEntity
  8
0
  6
BYBLOCK
 62
     0
100
AcDbText
 10
18.23213631781757
 20
-22.7588802653829
 30
0.0
 40
0.125
  1
2 3/4
 72
     1
 11
18.52380298448424
 21
-22.6963802653829
 31
0.0
100
AcDbText
 73
     2
  0
POINT
  5
185
330
161
100
AcDbEntity
  8
DEFPOINTS
  6
BYBLOCK
 62
     0
100
AcDbPoint
 10
17.15525409194395
 20
-23.20911462726702
 30
0.0
  0
POINT
  5
186
330
161
100
AcDbEntity
  8
DEFPOINTS
  6
BYBLOCK
 62
     0
100
AcDbPoint
 10
19.89235187702453
 20
-23.20911462726702
 30
0.0
  0
POINT
  5
187
330
161
100
AcDbEntity
  8
DEFPOINTS
  6
BYBLOCK
 62
     0
100
AcDbPoint
 10
19.89235187702453
 20
-22.6963802653829
 30
0.0
  0
ENDBLK
  5
188
330
161
100
AcDbEntity
  8
0
100
AcDbBlockEnd
  0
ENDSEC
  0
SECTION
  2
ENTITIES
  0
ARC
  5
189
330
1E
100
AcDbEntity
  8
ADP1DETAIL
100
AcDbCircle
 10
18.52380298448424
 20
-26.3891425597846
 30
0.0
 40
3.375
100
AcDbArc
 50
94.51192981190333
 51
98.51962425414303
  0
ARC
  5
18A
330
1E
100
AcDbEntity
  8
ADP1DETAIL
100
AcDbCircle
 10
18.52380298448424
 20
-26.3891425597846
 30
0.0
 40
3.5
100
AcDbArc
 50
90.0
 51
111.6640152994203
  0
DIMENSION
  5
18B
330
1E
100
AcDbEntity
  8
ADPDIM
100
AcDbDimension
  2
*D1
 10
19.89235187702453
 20
-22.6963802653829
 30
0.0
 11
18.52380298448424
 21
-22.6963802653829
 31
0.0
100
AcDbAlignedDimension
 13
17.15525409194395
 23
-23.20911462726702
 33
0.0
 14
19.89235187702453
 24
-23.20911462726702
 34
0.0
100
AcDbRotatedDimension
  0
DIMENSION
  5
18C
330
1E
100
AcDbEntity
  8
ADPDIM
100
AcDbDimension
  2
*D0
 10
19.15865958620204
 20
-24.02294252730442
 30
0.0
 11
19.84615958620204
 21
-24.02294252730442
 31
0.0
100
AcDbAlignedDimension
 13
17.87740958620204
 23
-23.8227491615024
 33
0.0
 14
19.15865958620204
 24
-23.8227491615024
 34
0.0
100
AcDbRotatedDimension
  0
LINE
  5
18D
330
1E
100
AcDbEntity
  8
ADP1DETAIL
100
AcDbLine
 10
17.15784676261655
 20
-23.31386680271783
 30
0.0
 11
17.25003655356623
 21
-23.58160539640456
 31
0.0
  0
ARC
  5
18E
330
1E
100
AcDbEntity
  8
ADP1DETAIL
100
AcDbCircle
 10
17.70500381385014
 20
-23.35130154943798
 30
0.0
 40
0.5099363390246374
100
AcDbArc
 50
206.8484747277605
 51
249.3776008857856
  0
ARC
  5
18F
330
1E
100
AcDbEntity
  8
ADP1DETAIL
100
AcDbCircle
 10
17.27113746022249
 20
-23.25597660499333
 30
0.0
 40
0.125
100
AcDbArc
 50
108.3755300887213
 51
207.5887216377847
  0
ARC
  5
190
330
1E
100
AcDbEntity
  8
ADP1DETAIL
100
AcDbCircle
 10
17.42875924744829
 20
-23.32982192215682
 30
0.0
 40
0.125
100
AcDbArc
 50
106.011963130652
 51
195.4383178999628
  0
LINE
  5
191
330
1E
100
AcDbEntity
  8
ADP1DETAIL
100
AcDbLine
 10
17.66983637531887
 20
-23.73438644800232
 30
0.0
 11
17.55624206702756
 21
-23.71040776018304
 31
0.0
  0
LINE
  5
192
330
1E
100
AcDbEntity
  8
ADP1DETAIL
100
AcDbLine
 10
17.78780298448424
 20
-23.8891425597846
 30
0.0
 11
17.52540037858409
 21
-23.8285621448138
 31
0.0
  0
ARC
  5
193
330
1E
100
AcDbEntity
  8
ADP1DETAIL
100
AcDbCircle
 10
17.61010508264891
 20
-23.46154780013994
 30
0.0
 40
0.254622277431651
100
AcDbArc
 50
197.5294126576016
 51
257.787334109406
  0
LINE
  5
194
330
1E
100
AcDbEntity
  8
ADP1DETAIL
100
AcDbLine
 10
17.30700067256648
 20
-23.36309702459766
 30
0.0
 11
17.36730683780382
 21
-23.53823884567084
 31
0.0
  0
LINE
  5
195
330
1E
100
AcDbEntity
  8
ADP1DETAIL
100
AcDbLine
 10
17.88180298448424
 20
-23.7171425597846
 30
0.0
 11
17.88180298448424
 21
-23.8121425597846
 31
0.0
  0
ARC
  5
196
330
1E
100
AcDbEntity
  8
ADP1DETAIL
100
AcDbCircle
 10
17.86680298448424
 20
-23.8121425597846
 30
0.0
 40
0.0150000000000006
100
AcDbArc
 50
270.0000000000033
 51
0.0
  0
ARC
  5
197
330
1E
100
AcDbEntity
  8
ADP1DETAIL
100
AcDbCircle
 10
17.80280298448424
 20
-23.8421425597846
 30
0.0
 40
0.0149999999999997
100
AcDbArc
 50
90.0
 51
180.0
  0
LINE
  5
198
330
1E
100
AcDbEntity
  8
ADP1DETAIL
100
AcDbLine
 10
17.78780298448424
 20
-23.8421425597846
 30
0.0
 11
17.78780298448424
 21
-23.8891425597846
 31
0.0
  0
LINE
  5
199
330
1E
100
AcDbEntity
  8
ADP1DETAIL
100
AcDbLine
 10
17.86680298448424
 20
-23.8271425597846
 30
0.0
 11
17.80280298448424
 21
-23.8271425597846
 31
0.0
  0
ARC
  5
19A
330
1E
100
AcDbEntity
  8
ADP1DETAIL
100
AcDbCircle
 10
17.86680298448424
 20
-23.7171425597846
 30
0.0
 40
0.0149999999999997
100
AcDbArc
 50
0.0
 51
90.0
  0
LINE
  5
19B
330
1E
100
AcDbEntity
  8
ADP1DETAIL
100
AcDbLine
 10
17.78780298448424
 20
-23.7021425597846
 30
0.0
 11
17.86680298448424
 21
-23.7021425597846
 31
0.0
  0
ARC
  5
19C
330
1E
100
AcDbEntity
  8
ADP1DETAIL
100
AcDbCircle
 10
17.69926991701439
 20
-23.6134000766478
 30
0.0
 40
0.125
100
AcDbArc
 50
256.3807689661636
 51
314.9431942989265
  0
ARC
  5
19D
330
1E
100
AcDbEntity
  8
ADP1DETAIL
100
AcDbCircle
 10
18.52380298448424
 20
-26.3891425597846
 30
0.0
 40
3.375
100
AcDbArc
 50
100.6719292857621
 51
109.5526926543758
  0
LINE
  5
19E
330
1E
100
AcDbEntity
  8
ADP1DETAIL
100
AcDbLine
 10
18.02380298448424
 20
-23.05138507907993
 30
0.0
 11
18.02380298448424
 21
-23.1391425597846
 31
0.0
  0
LINE
  5
19F
330
1E
100
AcDbEntity
  8
ADP1DETAIL
100
AcDbLine
 10
17.89880298448424
 20
-23.1391425597846
 30
0.0
 11
17.89880298448424
 21
-23.0725177694292
 31
0.0
  0
LINE
  5
1A0
330
1E
100
AcDbEntity
  8
ADP1DETAIL
100
AcDbLine
 10
18.02380298448424
 20
-23.1391425597846
 30
0.0
 11
17.89880298448424
 21
-23.1391425597846
 31
0.0
  0
ARC
  5
1A1
330
1E
100
AcDbEntity
  8
ADP1DETAIL
100
AcDbCircle
 10
19.34260215511835
 20
-23.35130154943798
 30
0.0
 40
0.5099363390246374
100
AcDbArc
 50
290.6223991142143
 51
333.1515252722395
  0
ARC
  5
1A2
330
1E
100
AcDbEntity
  8
ADP1DETAIL
100
AcDbCircle
 10
19.61884672152019
 20
-23.32982192215682
 30
0.0
 40
0.125
100
AcDbArc
 50
344.5616821000371
 51
73.98803686934792
  0
ARC
  5
1A3
330
1E
100
AcDbEntity
  8
ADP1DETAIL
100
AcDbCircle
 10
18.52380298448424
 20
-26.3891425597846
 30
0.0
 40
3.5
100
AcDbArc
 50
68.33598470057967
 51
90.0
  0
ARC
  5
1A4
330
1E
100
AcDbEntity
  8
ADP1DETAIL
100
AcDbCircle
 10
18.52380298448424
 20
-26.3891425597846
 30
0.0
 40
3.375
100
AcDbArc
 50
81.48037574585696
 51
90.0
  0
LINE
  5
1A5
330
1E
100
AcDbEntity
  8
ADP1DETAIL
100
AcDbLine
 10
18.38330298448424
 20
-23.3261425597846
 30
0.0
 11
18.38330298448424
 21
-23.01706830941585
 31
0.0
  0
LINE
  5
1A6
330
1E
100
AcDbEntity
  8
ADP1DETAIL
100
AcDbLine
 10
18.25830298448424
 20
-23.02460176645188
 30
0.0
 11
18.25830298448424
 21
-23.4511425597846
 31
0.0
  0
LINE
  5
1A7
330
1E
100
AcDbEntity
  8
ADP1DETAIL
100
AcDbLine
 10
18.50380298448424
 20
-23.4511425597846
 30
0.0
 11
18.52380298448424
 21
-23.4311425597846
 31
0.0
  0
LINE
  5
1A8
330
1E
100
AcDbEntity
  8
ADP1DETAIL
100
AcDbLine
 10
18.78930298448424
 20
-23.3261425597846
 30
0.0
 11
18.38330298448424
 21
-23.3261425597846
 31
0.0
  0
LINE
  5
1A9
330
1E
100
AcDbEntity
  8
ADP1DETAIL
100
AcDbLine
 10
18.25830298448424
 20
-23.4511425597846
 30
0.0
 11
18.50380298448424
 21
-23.4511425597846
 31
0.0
  0
LINE
  5
1AA
330
1E
100
AcDbEntity
  8
ADP1DETAIL
100
AcDbLine
 10
18.78930298448424
 20
-23.4511425597846
 30
0.0
 11
18.78930298448424
 21
-23.3261425597846
 31
0.0
  0
LINE
  5
1AB
330
1E
100
AcDbEntity
  8
ADP1DETAIL
100
AcDbLine
 10
18.52380298448424
 20
-23.4311425597846
 30
0.0
 11
18.54380298448424
 21
-23.4511425597846
 31
0.0
  0
LINE
  5
1AC
330
1E
100
AcDbEntity
  8
ADP1DETAIL
100
AcDbLine
 10
18.54380298448424
 20
-23.4511425597846
 30
0.0
 11
18.78930298448424
 21
-23.4511425597846
 31
0.0
  0
ARC
  5
1AD
330
1E
100
AcDbEntity
  8
ADP1DETAIL
100
AcDbCircle
 10
18.52380298448424
 20
-26.3891425597846
 30
0.0
 40
3.375
100
AcDbArc
 50
90.0
 51
92.38589155452894
  0
ARC
  5
1AE
330
1E
100
AcDbEntity
  8
ADP1DETAIL
100
AcDbCircle
 10
19.34833605195409
 20
-23.6134000766478
 30
0.0
 40
0.125
100
AcDbArc
 50
225.0568057010735
 51
283.6192310338363
  0
LINE
  5
1AF
330
1E
100
AcDbEntity
  8
ADP1DETAIL
100
AcDbLine
 10
19.25980298448424
 20
-23.8891425597846
 30
0.0
 11
19.52220559038439
 21
-23.8285621448138
 31
0.0
  0
LINE
  5
1B0
330
1E
100
AcDbEntity
  8
ADP1DETAIL
100
AcDbLine
 10
19.16580298448424
 20
-23.7171425597846
 30
0.0
 11
19.16580298448424
 21
-23.8121425597846
 31
0.0
  0
LINE
  5
1B1
330
1E
100
AcDbEntity
  8
ADP1DETAIL
100
AcDbLine
 10
19.25980298448424
 20
-23.8421425597846
 30
0.0
 11
19.25980298448424
 21
-23.8891425597846
 31
0.0
  0
ARC
  5
1B2
330
1E
100
AcDbEntity
  8
ADP1DETAIL
100
AcDbCircle
 10
19.18080298448424
 20
-23.8121425597846
 30
0.0
 40
0.0150000000000006
100
AcDbArc
 50
180.0
 51
270.0
  0
LINE
  5
1B3
330
1E
100
AcDbEntity
  8
ADP1DETAIL
100
AcDbLine
 10
19.18080298448424
 20
-23.8271425597846
 30
0.0
 11
19.24480298448424
 21
-23.8271425597846
 31
0.0
  0
ARC
  5
1B4
330
1E
100
AcDbEntity
  8
ADP1DETAIL
100
AcDbCircle
 10
19.24480298448424
 20
-23.8421425597846
 30
0.0
 40
0.0149999999999997
100
AcDbArc
 50
0.0
 51
90.0
  0
ARC
  5
1B5
330
1E
100
AcDbEntity
  8
ADP1DETAIL
100
AcDbCircle
 10
19.18080298448424
 20
-23.7171425597846
 30
0.0
 40
0.0150000000000006
100
AcDbArc
 50
89.99999999999662
 51
179.9999999999966
  0
LINE
  5
1B6
330
1E
100
AcDbEntity
  8
ADP1DETAIL
100
AcDbLine
 10
19.25980298448424
 20
-23.7021425597846
 30
0.0
 11
19.18080298448424
 21
-23.7021425597846
 31
0.0
  0
LINE
  5
1B7
330
1E
100
AcDbEntity
  8
ADP1DETAIL
100
AcDbLine
 10
19.740605296402
 20
-23.36309702459766
 30
0.0
 11
19.68029913116467
 21
-23.53823884567084
 31
0.0
  0
ARC
  5
1B8
330
1E
100
AcDbEntity
  8
ADP1DETAIL
100
AcDbCircle
 10
19.43750088631958
 20
-23.46154780013994
 30
0.0
 40
0.254622277431651
100
AcDbArc
 50
282.2126658905939
 51
342.4705873423984
  0
LINE
  5
1B9
330
1E
100
AcDbEntity
  8
ADP1DETAIL
100
AcDbLine
 10
19.37776959364962
 20
-23.73438644800232
 30
0.0
 11
19.49136390194093
 21
-23.71040776018304
 31
0.0
  0
ARC
  5
1BA
330
1E
100
AcDbEntity
  8
ADP1DETAIL
100
AcDbCircle
 10
18.52380298448424
 20
-26.3891425597846
 30
0.0
 40
3.375
100
AcDbArc
 50
70.44730734562413
 51
79.32807071423785
  0
LINE
  5
1BB
330
1E
100
AcDbEntity
  8
ADP1DETAIL
100
AcDbLine
 10
19.14880298448424
 20
-23.0725177694292
 30
0.0
 11
19.14880298448424
 21
-23.1391425597846
 31
0.0
  0
LINE
  5
1BC
330
1E
100
AcDbEntity
  8
ADP1DETAIL
100
AcDbLine
 10
19.02380298448424
 20
-23.1391425597846
 30
0.0
 11
19.02380298448424
 21
-23.05138507907993
 31
0.0
  0
LINE
  5
1BD
330
1E
100
AcDbEntity
  8
ADP1DETAIL
100
AcDbLine
 10
19.14880298448424
 20
-23.1391425597846
 30
0.0
 11
19.02380298448424
 21
-23.1391425597846
 31
0.0
  0
LINE
  5
1BE
330
1E
100
AcDbEntity
  8
ADP1DETAIL
100
AcDbLine
 10
19.88975920635193
 20
-23.31386680271783
 30
0.0
 11
19.79756941540225
 21
-23.58160539640456
 31
0.0
  0
ARC
  5
1BF
330
1E
100
AcDbEntity
  8
ADP1DETAIL
100
AcDbCircle
 10
19.776468508746
 20
-23.25597660499333
 30
0.0
 40
0.125
100
AcDbArc
 50
332.4112783622152
 51
71.62446991127864
  0
TEXT
  5
1C3
330
1E
100
AcDbEntity
  8
ADPDIM
100
AcDbText
 10
11.99807395992763
 20
-24.73344358183498
 30
0.0
 40
0.125
  1
J U L I U S  B L U M  &  C O . ,  I N C .      ( 8 0 0 )  5 2 6 - 6 2 9 3        W W W . J U L I U S B L U M . C O M        P A R T  N o .  6 9 0 4
 41
1.25
  7
ARIAL_WIDE
 72
     1
 11
18.52380298448425
 21
-24.60844358183498
 31
0.0
100
AcDbText
 73
     3
  0
ENDSEC
  0
SECTION
  2
OBJECTS
  0
DICTIONARY
  5
C
330
0
100
AcDbDictionary
  3
ACAD_GROUP
350
D
  3
ACAD_LAYOUT
350
19
  3
ACAD_MLINESTYLE
350
16
  3
ACAD_PLOTSETTINGS
350
18
  3
ACAD_PLOTSTYLENAME
350
E
  3
ACDBHEADERROUNDTRIPXREC
350
356
  3
ACDBVARIABLEDICTIONARY
350
234
  0
DICTIONARY
  5
1FF
330
1E
100
AcDbDictionary
280
     1
  3
ACAD_LAYOUTSELFREF
360
378
  0
DICTIONARY
  5
201
330
1A
100
AcDbDictionary
280
     1
  3
ACAD_LAYOUTSELFREF
360
377
  0
DICTIONARY
  5
D
102
{ACAD_REACTORS
330
C
102
}
330
C
100
AcDbDictionary
  0
DICTIONARY
  5
19
102
{ACAD_REACTORS
330
C
102
}
330
C
100
AcDbDictionary
  0
DICTIONARY
  5
16
102
{ACAD_REACTORS
330
C
102
}
330
C
100
AcDbDictionary
  3
STANDARD
350
17
  0
DICTIONARY
  5
18
102
{ACAD_REACTORS
330
C
102
}
330
C
100
AcDbDictionary
  0
ACDBDICTIONARYWDFLT
  5
E
102
{ACAD_REACTORS
330
C
102
}
330
C
100
AcDbDictionary
281
     1
  3
Normal
350
F
100
AcDbDictionaryWithDefault
340
F
  0
DICTIONARY
  5
356
102
{ACAD_REACTORS
330
C
102
}
330
C
100
AcDbDictionary
  3
CEPSNTYPE
350
360
  3
DIMSTYLEDATA
350
364
  3
FINGERPRINTGUID
350
361
  3
HYPERLINKBASE
350
359
  3
INSUNITS
350
35F
  3
LAYOUTDICT
350
35B
  3
LWETCUNION
350
35E
  3
PLOTSETDICT
350
35C
  3
PLOTSTYLNAMDICT
350
35D
  3
PSVPSCALE
350
363
  3
PUCSBASE
350
367
  3
PUCSORGBACK
350
36D
  3
PUCSORGBOTTOM
350
369
  3
PUCSORGFRONT
350
36C
  3
PUCSORGLEFT
350
36A
  3
PUCSORGRIGHT
350
36B
  3
PUCSORGTOP
350
368
  3
PUCSORTHOREF
350
365
  3
PUCSORTHOVIEW
350
366
  3
STYLESHEET
350
35A
  3
TSTACKALIGN
350
357
  3
TSTACKSIZE
350
358
  3
UCSBASE
350
370
  3
UCSORGBACK
350
376
  3
UCSORGBOTTOM
350
372
  3
UCSORGFRONT
350
375
  3
UCSORGLEFT
350
373
  3
UCSORGRIGHT
350
374
  3
UCSORGTOP
350
371
  3
UCSORTHOREF
350
36E
  3
UCSORTHOVIEW
350
36F
  3
VERSIONGUID
350
362
  0
DICTIONARY
  5
234
102
{ACAD_REACTORS
330
C
102
}
330
C
100
AcDbDictionary
  3
DIMASSOC
350
236
  3
HIDETEXT
350
235
  0
XRECORD
  5
378
102
{ACAD_REACTORS
330
1FF
102
}
330
1FF
100
AcDbXrecord
340
1E
  0
XRECORD
  5
377
102
{ACAD_REACTORS
330
201
102
}
330
201
100
AcDbXrecord
340
1A
  0
MLINESTYLE
  5
17
102
{ACAD_REACTORS
330
16
102
}
330
16
100
AcDbMlineStyle
  2
STANDARD
 70
     0
  3

 62
   256
 51
90.0
 52
90.0
 71
     2
 49
0.5
 62
   256
  6
BYLAYER
 49
-0.5
 62
   256
  6
BYLAYER
  0
ACDBPLACEHOLDER
  5
F
102
{ACAD_REACTORS
330
E
102
}
330
E
100
AcDbPlaceHolder
280
     0
  0
XRECORD
  5
360
102
{ACAD_REACTORS
330
356
102
}
330
356
100
AcDbXrecord
 90
        0
  0
XRECORD
  5
364
102
{ACAD_REACTORS
330
356
102
}
330
356
100
AcDbXrecord
1000
DSTYLE
1002
{
1070
   277
 70
     5
1070
   279
 70
     2
1002
}
  0
XRECORD
  5
361
102
{ACAD_REACTORS
330
356
102
}
330
356
100
AcDbXrecord
  1
{23570512-88EC-45C4-B70D-192B5E8256EB}
  0
XRECORD
  5
359
102
{ACAD_REACTORS
330
356
102
}
330
356
100
AcDbXrecord
  1

  0
XRECORD
  5
35F
102
{ACAD_REACTORS
330
356
102
}
330
356
100
AcDbXrecord
 90
        0
  0
XRECORD
  5
35B
102
{ACAD_REACTORS
330
356
102
}
330
356
100
AcDbXrecord
340
19
  0
XRECORD
  5
35E
102
{ACAD_REACTORS
330
356
102
}
330
356
100
AcDbXrecord
 90
    14877
  0
XRECORD
  5
35C
102
{ACAD_REACTORS
330
356
102
}
330
356
100
AcDbXrecord
340
18
  0
XRECORD
  5
35D
102
{ACAD_REACTORS
330
356
102
}
330
356
100
AcDbXrecord
340
E
  0
XRECORD
  5
363
102
{ACAD_REACTORS
330
356
102
}
330
356
100
AcDbXrecord
 40
0.0
  0
XRECORD
  5
367
102
{ACAD_REACTORS
330
356
102
}
330
356
100
AcDbXrecord
340
0
  0
XRECORD
  5
36D
102
{ACAD_REACTORS
330
356
102
}
330
356
100
AcDbXrecord
 10
0.0
 20
0.0
 30
0.0
  0
XRECORD
  5
369
102
{ACAD_REACTORS
330
356
102
}
330
356
100
AcDbXrecord
 10
0.0
 20
0.0
 30
0.0
  0
XRECORD
  5
36C
102
{ACAD_REACTORS
330
356
102
}
330
356
100
AcDbXrecord
 10
0.0
 20
0.0
 30
0.0
  0
XRECORD
  5
36A
102
{ACAD_REACTORS
330
356
102
}
330
356
100
AcDbXrecord
 10
0.0
 20
0.0
 30
0.0
  0
XRECORD
  5
36B
102
{ACAD_REACTORS
330
356
102
}
330
356
100
AcDbXrecord
 10
0.0
 20
0.0
 30
0.0
  0
XRECORD
  5
368
102
{ACAD_REACTORS
330
356
102
}
330
356
100
AcDbXrecord
 10
0.0
 20
0.0
 30
0.0
  0
XRECORD
  5
365
102
{ACAD_REACTORS
330
356
102
}
330
356
100
AcDbXrecord
340
0
  0
XRECORD
  5
366
102
{ACAD_REACTORS
330
356
102
}
330
356
100
AcDbXrecord
 70
     0
  0
XRECORD
  5
35A
102
{ACAD_REACTORS
330
356
102
}
330
356
100
AcDbXrecord
  1

  0
XRECORD
  5
357
102
{ACAD_REACTORS
330
356
102
}
330
356
100
AcDbXrecord
 90
        1
  0
XRECORD
  5
358
102
{ACAD_REACTORS
330
356
102
}
330
356
100
AcDbXrecord
 90
       70
  0
XRECORD
  5
370
102
{ACAD_REACTORS
330
356
102
}
330
356
100
AcDbXrecord
340
0
  0
XRECORD
  5
376
102
{ACAD_REACTORS
330
356
102
}
330
356
100
AcDbXrecord
 10
0.0
 20
0.0
 30
0.0
  0
XRECORD
  5
372
102
{ACAD_REACTORS
330
356
102
}
330
356
100
AcDbXrecord
 10
0.0
 20
0.0
 30
0.0
  0
XRECORD
  5
375
102
{ACAD_REACTORS
330
356
102
}
330
356
100
AcDbXrecord
 10
0.0
 20
0.0
 30
0.0
  0
XRECORD
  5
373
102
{ACAD_REACTORS
330
356
102
}
330
356
100
AcDbXrecord
 10
0.0
 20
0.0
 30
0.0
  0
XRECORD
  5
374
102
{ACAD_REACTORS
330
356
102
}
330
356
100
AcDbXrecord
 10
0.0
 20
0.0
 30
0.0
  0
XRECORD
  5
371
102
{ACAD_REACTORS
330
356
102
}
330
356
100
AcDbXrecord
 10
0.0
 20
0.0
 30
0.0
  0
XRECORD
  5
36E
102
{ACAD_REACTORS
330
356
102
}
330
356
100
AcDbXrecord
340
0
  0
XRECORD
  5
36F
102
{ACAD_REACTORS
330
356
102
}
330
356
100
AcDbXrecord
 70
     0
  0
XRECORD
  5
362
102
{ACAD_REACTORS
330
356
102
}
330
356
100
AcDbXrecord
  1
{54F359F7-BBFC-419A-968B-A3829A44588C}
  0
DICTIONARYVAR
  5
236
102
{ACAD_REACTORS
330
234
102
}
330
234
100
DictionaryVariables
280
     0
  1
2
  0
DICTIONARYVAR
  5
235
102
{ACAD_REACTORS
330
234
102
}
330
234
100
DictionaryVariables
280
     0
  1
1
  0
ENDSEC
  0
EOF
