  0
SECTION
  2
HEADER
  9
$ACADVER
  1
AC1014
  9
$ACADMAINTVER
 70
     9
  9
$DWGCODEPAGE
  3
ANSI_1252
  9
$INSBASE
 10
-0.0059701492537323
 20
26.2225873505486
 30
0.0
  9
$EXTMIN
 10
-5.081872551678229
 20
22.17343345818988
 30
0.0
  9
$EXTMAX
 10
8.321201288703761
 20
26.9960879588422
 30
0.0
  9
$LIMMIN
 10
0.0
 20
0.0
  9
$LIMMAX
 10
36.0
 20
36.0
  9
$ORTHOMODE
 70
     1
  9
$REGENMODE
 70
     1
  9
$FILLMODE
 70
     1
  9
$QTEXTMODE
 70
     0
  9
$MIRRTEXT
 70
     1
  9
$DRAGMODE
 70
     0
  9
$LTSCALE
 40
1.0
  9
$OSMODE
 70
    37
  9
$ATTMODE
 70
     1
  9
$TEXTSIZE
 40
0.2
  9
$TRACEWID
 40
0.05
  9
$TEXTSTYLE
  7
STANDARD
  9
$CLAYER
  8
ADPDIM
  9
$CELTYPE
  6
BYLAYER
  9
$CECOLOR
 62
   256
  9
$CELTSCALE
 40
1.0
  9
$DELOBJ
 70
     1
  9
$DISPSILH
 70
     0
  9
$DIMSCALE
 40
1.0
  9
$DIMASZ
 40
0.125
  9
$DIMEXO
 40
0.0625
  9
$DIMDLI
 40
0.38
  9
$DIMRND
 40
0.0
  9
$DIMDLE
 40
0.0
  9
$DIMEXE
 40
0.18
  9
$DIMTP
 40
0.0
  9
$DIMTM
 40
0.0
  9
$DIMTXT
 40
0.125
  9
$DIMCEN
 40
0.1875
  9
$DIMTSZ
 40
0.125
  9
$DIMTOL
 70
     0
  9
$DIMLIM
 70
     0
  9
$DIMTIH
 70
     0
  9
$DIMTOH
 70
     0
  9
$DIMSE1
 70
     0
  9
$DIMSE2
 70
     0
  9
$DIMTAD
 70
     0
  9
$DIMZIN
 70
     3
  9
$DIMBLK
  1

  9
$DIMASO
 70
     1
  9
$DIMSHO
 70
     1
  9
$DIMPOST
  1

  9
$DIMAPOST
  1

  9
$DIMALT
 70
     0
  9
$DIMALTD
 70
     1
  9
$DIMALTF
 40
25.4
  9
$DIMLFAC
 40
1.0
  9
$DIMTOFL
 70
     0
  9
$DIMTVP
 40
0.0
  9
$DIMTIX
 70
     0
  9
$DIMSOXD
 70
     0
  9
$DIMSAH
 70
     0
  9
$DIMBLK1
  1

  9
$DIMBLK2
  1

  9
$DIMSTYLE
  2
STANDARD
  9
$DIMCLRD
 70
     0
  9
$DIMCLRE
 70
     0
  9
$DIMCLRT
 70
     0
  9
$DIMTFAC
 40
1.0
  9
$DIMGAP
 40
0.125
  9
$DIMJUST
 70
     0
  9
$DIMSD1
 70
     0
  9
$DIMSD2
 70
     0
  9
$DIMTOLJ
 70
     1
  9
$DIMTZIN
 70
     3
  9
$DIMALTZ
 70
     3
  9
$DIMALTTZ
 70
     3
  9
$DIMFIT
 70
     5
  9
$DIMUPT
 70
     0
  9
$DIMUNIT
 70
     5
  9
$DIMDEC
 70
     4
  9
$DIMTDEC
 70
     4
  9
$DIMALTU
 70
     5
  9
$DIMALTTD
 70
     1
  9
$DIMTXSTY
  7
STANDARD
  9
$DIMAUNIT
 70
     0
  9
$LUNITS
 70
     5
  9
$LUPREC
 70
     4
  9
$SKETCHINC
 40
0.1
  9
$FILLETRAD
 40
0.0
  9
$AUNITS
 70
     0
  9
$AUPREC
 70
     0
  9
$MENU
  1
acad
  9
$ELEVATION
 40
0.0
  9
$PELEVATION
 40
0.0
  9
$THICKNESS
 40
0.0
  9
$LIMCHECK
 70
     0
  9
$BLIPMODE
 70
     0
  9
$CHAMFERA
 40
0.0
  9
$CHAMFERB
 40
0.0
  9
$CHAMFERC
 40
0.0
  9
$CHAMFERD
 40
0.0
  9
$SKPOLY
 70
     0
  9
$TDCREATE
 40
2450366.612005208
  9
$TDUPDATE
 40
2452297.095075949
  9
$TDINDWG
 40
0.0536718750
  9
$TDUSRTIMER
 40
0.0536718750
  9
$USRTIMER
 70
     1
  9
$ANGBASE
 50
0.0
  9
$ANGDIR
 70
     0
  9
$PDMODE
 70
     0
  9
$PDSIZE
 40
0.0
  9
$PLINEWID
 40
0.0
  9
$COORDS
 70
     2
  9
$SPLFRAME
 70
     0
  9
$SPLINETYPE
 70
     6
  9
$SPLINESEGS
 70
     8
  9
$ATTDIA
 70
     0
  9
$ATTREQ
 70
     1
  9
$HANDLING
 70
 22529
  9
$HANDSEED
  5
276
  9
$SURFTAB1
 70
     6
  9
$SURFTAB2
 70
     6
  9
$SURFTYPE
 70
     6
  9
$SURFU
 70
     6
  9
$SURFV
 70
     6
  9
$UCSNAME
  2

  9
$UCSORG
 10
0.0
 20
0.0
 30
0.0
  9
$UCSXDIR
 10
1.0
 20
0.0
 30
0.0
  9
$UCSYDIR
 10
0.0
 20
1.0
 30
0.0
  9
$PUCSNAME
  2

  9
$PUCSORG
 10
0.0
 20
0.0
 30
0.0
  9
$PUCSXDIR
 10
1.0
 20
0.0
 30
0.0
  9
$PUCSYDIR
 10
0.0
 20
1.0
 30
0.0
  9
$USERI1
 70
     0
  9
$USERI2
 70
     0
  9
$USERI3
 70
     0
  9
$USERI4
 70
     0
  9
$USERI5
 70
     0
  9
$USERR1
 40
0.0
  9
$USERR2
 40
0.0
  9
$USERR3
 40
0.0
  9
$USERR4
 40
0.0
  9
$USERR5
 40
0.0
  9
$WORLDVIEW
 70
     1
  9
$SHADEDGE
 70
     3
  9
$SHADEDIF
 70
    70
  9
$TILEMODE
 70
     1
  9
$MAXACTVP
 70
    15
  9
$PINSBASE
 10
0.1250013113021854
 20
0.0
 30
0.0
  9
$PLIMCHECK
 70
     0
  9
$PEXTMIN
 10
1.000000000000000E+20
 20
1.000000000000000E+20
 30
1.000000000000000E+20
  9
$PEXTMAX
 10
-1.000000000000000E+20
 20
-1.000000000000000E+20
 30
-1.000000000000000E+20
  9
$PLIMMIN
 10
0.0
 20
0.0
  9
$PLIMMAX
 10
12.0
 20
9.0
  9
$UNITMODE
 70
     0
  9
$VISRETAIN
 70
     0
  9
$PLINEGEN
 70
     0
  9
$PSLTSCALE
 70
     1
  9
$TREEDEPTH
 70
  3020
  9
$PICKSTYLE
 70
     1
  9
$CMLSTYLE
  2
STANDARD
  9
$CMLJUST
 70
     0
  9
$CMLSCALE
 40
1.0
  9
$PROXYGRAPHICS
 70
     1
  9
$MEASUREMENT
 70
     0
  0
ENDSEC
  0
SECTION
  2
CLASSES
  0
CLASS
  1
ACDBDICTIONARYWDFLT
  2
AcDbDictionaryWithDefault
  3
AutoCAD 2000
 90
        0
280
     0
281
     0
  0
CLASS
  1
ACDBPLACEHOLDER
  2
AcDbPlaceHolder
  3
AutoCAD 2000
 90
        0
280
     0
281
     0
  0
CLASS
  1
LAYOUT
  2
AcDbLayout
  3
AutoCAD 2000
 90
        0
280
     0
281
     0
  0
CLASS
  1
DICTIONARYVAR
  2
AcDbDictionaryVar
  3
AutoCAD 2000
 90
        0
280
     0
281
     0
  0
CLASS
  1
LONG_TRANSACTION
  2
AcDbLongTransaction
  3
AutoCAD 2000
 90
        0
280
     0
281
     0
  0
CLASS
  1
LWPOLYLINE
  2
AcDbPolyline
  3
AutoCAD 2000
 90
        0
280
     0
281
     1
  0
CLASS
  1
HATCH
  2
AcDbHatch
  3
AutoCAD 2000
 90
        0
280
     0
281
     1
  0
CLASS
  1
XRECORD
  2
AcDbXrecord
  3
AutoCAD 2000
 90
        0
280
     0
281
     0
  0
CLASS
  1
LONG_TRANSACTION
  2
AcDbLongTransaction
  3
AutoCAD 2000
 90
        0
280
     0
281
     0
  0
CLASS
  1
LWPOLYLINE
  2
AcDbPolyline
  3
AutoCAD 2000
 90
        0
280
     0
281
     1
  0
CLASS
  1
HATCH
  2
AcDbHatch
  3
AutoCAD 2000
 90
        0
280
     0
281
     1
  0
CLASS
  1
XRECORD
  2
AcDbXrecord
  3
AutoCAD 2000
 90
        0
280
     0
281
     0
  0
CLASS
  1
LONG_TRANSACTION
  2
AcDbLongTransaction
  3
AutoCAD 2000
 90
        0
280
     0
281
     0
  0
CLASS
  1
LWPOLYLINE
  2
AcDbPolyline
  3
AutoCAD 2000
 90
        0
280
     0
281
     1
  0
CLASS
  1
HATCH
  2
AcDbHatch
  3
AutoCAD 2000
 90
        0
280
     0
281
     1
  0
CLASS
  1
XRECORD
  2
AcDbXrecord
  3
AutoCAD 2000
 90
        0
280
     0
281
     0
  0
CLASS
  1
LONG_TRANSACTION
  2
AcDbLongTransaction
  3
AutoCAD 2000
 90
        0
280
     0
281
     0
  0
CLASS
  1
LWPOLYLINE
  2
AcDbPolyline
  3
AutoCAD 2000
 90
        0
280
     0
281
     1
  0
CLASS
  1
HATCH
  2
AcDbHatch
  3
AutoCAD 2000
 90
        0
280
     0
281
     1
  0
CLASS
  1
XRECORD
  2
AcDbXrecord
  3
AutoCAD 2000
 90
        0
280
     0
281
     0
  0
CLASS
  1
LONG_TRANSACTION
  2
AcDbLongTransaction
  3
AutoCAD 2000
 90
        0
280
     0
281
     0
  0
CLASS
  1
LWPOLYLINE
  2
AcDbPolyline
  3
AutoCAD 2000
 90
        0
280
     0
281
     1
  0
CLASS
  1
HATCH
  2
AcDbHatch
  3
AutoCAD 2000
 90
        0
280
     0
281
     1
  0
CLASS
  1
XRECORD
  2
AcDbXrecord
  3
AutoCAD 2000
 90
        0
280
     0
281
     0
  0
ENDSEC
  0
SECTION
  2
TABLES
  0
TABLE
  2
VPORT
  5
8
330
0
100
AcDbSymbolTable
 70
     2
  0
VPORT
  5
252
330
8
100
AcDbSymbolTableRecord
100
AcDbViewportTableRecord
  2
*ACTIVE
 70
     0
 10
0.0
 20
0.0
 11
1.0
 21
1.0
 12
1.631261992860457
 22
24.58493051140677
 13
0.0
 23
0.0
 14
0.5740882589684922
 24
0.5740882589684922
 15
0.5
 25
0.5
 16
0.0
 26
0.0
 36
1.0
 17
0.0
 27
0.0
 37
0.0
 40
8.5908132712437
 41
1.570528967254408
 42
50.0
 43
0.0
 44
0.0
 50
0.0
 51
0.0
 71
     0
 72
   100
 73
     1
 74
     1
 75
     0
 76
     0
 77
     0
 78
     0
  0
ENDTAB
  0
TABLE
  2
LTYPE
  5
5
330
0
100
AcDbSymbolTable
 70
     2
  0
LTYPE
  5
13
330
5
100
AcDbSymbolTableRecord
100
AcDbLinetypeTableRecord
  2
BYBLOCK
 70
     0
  3

 72
    65
 73
     0
 40
0.0
  0
LTYPE
  5
14
330
5
100
AcDbSymbolTableRecord
100
AcDbLinetypeTableRecord
  2
BYLAYER
 70
     0
  3

 72
    65
 73
     0
 40
0.0
  0
LTYPE
  5
15
330
5
100
AcDbSymbolTableRecord
100
AcDbLinetypeTableRecord
  2
CONTINUOUS
 70
     0
  3
Solid line
 72
    65
 73
     0
 40
0.0
  0
LTYPE
  5
7D
330
5
100
AcDbSymbolTableRecord
100
AcDbLinetypeTableRecord
  2
HIDDEN2
 70
     0
  3
_ _ _ _ _ _ _ _ _ _ _ _ _ _ _ _ _ _ _ _ _ _ _ _
 72
    65
 73
     2
 40
0.1875
 49
0.125
 74
     0
 49
-0.0625
 74
     0
  0
ENDTAB
  0
TABLE
  2
LAYER
  5
2
330
0
100
AcDbSymbolTable
 70
     5
  0
LAYER
  5
10
330
2
100
AcDbSymbolTableRecord
100
AcDbLayerTableRecord
  2
0
 70
     0
 62
     7
  6
CONTINUOUS
  0
LAYER
  5
7F
330
2
100
AcDbSymbolTableRecord
100
AcDbLayerTableRecord
  2
ADP2DETAIL
 70
     0
 62
     5
  6
CONTINUOUS
  0
LAYER
  5
80
330
2
100
AcDbSymbolTableRecord
100
AcDbLayerTableRecord
  2
ADPDIM
 70
     0
 62
     3
  6
CONTINUOUS
  0
LAYER
  5
82
330
2
100
AcDbSymbolTableRecord
100
AcDbLayerTableRecord
  2
ADP1DETAIL
 70
     0
 62
     7
  6
CONTINUOUS
  0
LAYER
  5
84
330
2
100
AcDbSymbolTableRecord
100
AcDbLayerTableRecord
  2
DEFPOINTS
 70
     0
 62
     7
  6
CONTINUOUS
  0
ENDTAB
  0
TABLE
  2
STYLE
  5
3
330
0
100
AcDbSymbolTable
 70
     2
  0
STYLE
  5
11
330
3
100
AcDbSymbolTableRecord
100
AcDbTextStyleTableRecord
  2
STANDARD
 70
     0
 40
0.0
 41
1.0
 50
0.0
 71
     0
 42
0.2
  3
txt
  4

  0
STYLE
  5
BF
330
3
100
AcDbSymbolTableRecord
100
AcDbTextStyleTableRecord
  2
ARIAL_WIDE
 70
     0
 40
0.0
 41
1.25
 50
0.0
 71
     0
 42
0.2
  3
ARIAL.TTF
  4

1001
ACAD
1000
Arial
1071
       34
  0
ENDTAB
  0
TABLE
  2
VIEW
  5
6
330
0
100
AcDbSymbolTable
 70
     0
  0
ENDTAB
  0
TABLE
  2
UCS
  5
7
330
0
100
AcDbSymbolTable
 70
     0
  0
ENDTAB
  0
TABLE
  2
APPID
  5
9
330
0
100
AcDbSymbolTable
 70
     2
  0
APPID
  5
12
330
9
100
AcDbSymbolTableRecord
100
AcDbRegAppTableRecord
  2
ACAD
 70
     0
  0
APPID
  5
7E
330
9
100
AcDbSymbolTableRecord
100
AcDbRegAppTableRecord
  2
AUTOCAD_POSTSCRIPT_FIGURE
 70
     0
  0
ENDTAB
  0
TABLE
  2
DIMSTYLE
  5
A
330
0
100
AcDbSymbolTable
 70
     1
  0
DIMSTYLE
105
BD
330
A
100
AcDbSymbolTableRecord
100
AcDbDimStyleTableRecord
  2
STANDARD
 70
     0
  3

  4

  5

  6

  7

 40
1.0
 41
0.18
 42
0.0625
 43
0.38
 44
0.18
 45
0.0
 46
0.0
 47
0.0
 48
0.0
140
0.18
141
0.09
142
0.0
143
25.4
144
1.0
145
0.0
146
1.0
147
0.09
 71
     0
 72
     0
 73
     1
 74
     1
 75
     0
 76
     0
 77
     0
 78
     0
170
     0
171
     2
172
     0
173
     0
174
     0
175
     0
176
     0
177
     0
178
     0
270
     2
271
     4
272
     4
273
     2
274
     2
340
11
275
     0
280
     0
281
     0
282
     0
283
     1
284
     0
285
     0
286
     0
287
     3
288
     0
  0
ENDTAB
  0
TABLE
  2
BLOCK_RECORD
  5
1
330
0
100
AcDbSymbolTable
 70
     2
  0
BLOCK_RECORD
  5
1E
102
{ACAD_XDICTIONARY
360
FC
102
}
330
1
100
AcDbSymbolTableRecord
100
AcDbBlockTableRecord
  2
*MODEL_SPACE
  0
BLOCK_RECORD
  5
1A
102
{ACAD_XDICTIONARY
360
FE
102
}
330
1
100
AcDbSymbolTableRecord
100
AcDbBlockTableRecord
  2
*PAPER_SPACE
  0
BLOCK_RECORD
  5
68
330
1
100
AcDbSymbolTableRecord
100
AcDbBlockTableRecord
  2
*D0
  0
BLOCK_RECORD
  5
69
330
1
100
AcDbSymbolTableRecord
100
AcDbBlockTableRecord
  2
*D1
  0
ENDTAB
  0
ENDSEC
  0
SECTION
  2
BLOCKS
  0
BLOCK
  5
87
330
1E
100
AcDbEntity
  8
0
100
AcDbBlockBegin
  2
*MODEL_SPACE
 70
     0
 10
0.0
 20
0.0
 30
0.0
  3
*MODEL_SPACE
  1

  0
ENDBLK
  5
88
330
1E
100
AcDbEntity
  8
0
100
AcDbBlockEnd
  0
BLOCK
  5
85
330
1A
100
AcDbEntity
 67
     1
  8
0
100
AcDbBlockBegin
  2
*PAPER_SPACE
 70
     0
 10
0.0
 20
0.0
 30
0.0
  3
*PAPER_SPACE
  1

  0
ENDBLK
  5
86
330
1A
100
AcDbEntity
 67
     1
  8
0
100
AcDbBlockEnd
  0
BLOCK
  5
8A
330
68
100
AcDbEntity
  8
0
100
AcDbBlockBegin
  2
*D0
 70
     1
 10
0.0
 20
0.0
 30
0.0
  3
*D0
  1
*U
  0
LINE
  5
8B
330
68
100
AcDbEntity
  8
0
  6
BYBLOCK
 62
     0
100
AcDbLine
 10
-0.0059701492537323
 20
23.21529039623388
 30
0.0
 11
-0.0059701492537323
 21
22.67659739945894
 31
0.0
  0
LINE
  5
8C
330
68
100
AcDbEntity
  8
0
  6
BYBLOCK
 62
     0
100
AcDbLine
 10
3.245298886279264
 20
23.21529039623388
 30
0.0
 11
3.245298886279264
 21
22.67659739945894
 31
0.0
  0
LINE
  5
8D
330
68
100
AcDbEntity
  8
0
  6
BYBLOCK
 62
     0
100
AcDbLine
 10
-0.0059701492537323
 20
22.85659739945895
 30
0.0
 11
1.223831035179433
 21
22.85659739945895
 31
0.0
  0
LINE
  5
8E
330
68
100
AcDbEntity
  8
0
  6
BYBLOCK
 62
     0
100
AcDbLine
 10
3.245298886279264
 20
22.85659739945895
 30
0.0
 11
2.015497701846099
 21
22.85659739945895
 31
0.0
  0
LINE
  5
8F
330
68
100
AcDbEntity
  8
0
  6
BYBLOCK
 62
     0
100
AcDbLine
 10
-0.1309701492537323
 20
22.73159739945894
 30
0.0
 11
0.1190298507462677
 21
22.98159739945894
 31
0.0
  0
LINE
  5
90
330
68
100
AcDbEntity
  8
0
  6
BYBLOCK
 62
     0
100
AcDbLine
 10
3.120298886279264
 20
22.73159739945894
 30
0.0
 11
3.370298886279264
 21
22.98159739945894
 31
0.0
  0
TEXT
  5
91
330
68
100
AcDbEntity
  8
0
  6
BYBLOCK
 62
     0
100
AcDbText
 10
1.348831035179433
 20
22.79409739945895
 30
0.0
 40
0.125
  1
3 1/4
 72
     1
 11
1.619664368512766
 21
22.85659739945895
 31
0.0
100
AcDbText
 73
     2
  0
POINT
  5
93
330
68
100
AcDbEntity
  8
DEFPOINTS
  6
BYBLOCK
 62
     0
100
AcDbPoint
 10
-0.0059701492537323
 20
23.27779039623388
 30
0.0
  0
POINT
  5
94
330
68
100
AcDbEntity
  8
DEFPOINTS
  6
BYBLOCK
 62
     0
100
AcDbPoint
 10
3.245298886279264
 20
23.27779039623388
 30
0.0
  0
POINT
  5
95
330
68
100
AcDbEntity
  8
DEFPOINTS
  6
BYBLOCK
 62
     0
100
AcDbPoint
 10
3.245298886279264
 20
22.85659739945895
 30
0.0
  0
ENDBLK
  5
96
330
68
100
AcDbEntity
  8
0
100
AcDbBlockEnd
  0
BLOCK
  5
97
330
69
100
AcDbEntity
  8
0
100
AcDbBlockBegin
  2
*D1
 70
     1
 10
0.0
 20
0.0
 30
0.0
  3
*D1
  1
*U
  0
LINE
  5
98
330
69
100
AcDbEntity
  8
0
  6
BYBLOCK
 62
     0
100
AcDbLine
 10
-0.0684701492537323
 20
25.90279039623387
 30
0.0
 11
-0.4433457438979123
 21
25.90279039623387
 31
0.0
  0
LINE
  5
99
330
69
100
AcDbEntity
  8
0
  6
BYBLOCK
 62
     0
100
AcDbLine
 10
-0.0684701492537323
 20
23.27779039623388
 30
0.0
 11
-0.4433457438979124
 21
23.27779039623388
 31
0.0
  0
LINE
  5
9A
330
69
100
AcDbEntity
  8
0
  6
BYBLOCK
 62
     0
100
AcDbLine
 10
-0.2633457438979122
 20
25.90279039623387
 30
0.0
 11
-0.2633457438979123
 21
25.00695706290054
 31
0.0
  0
LINE
  5
9B
330
69
100
AcDbEntity
  8
0
  6
BYBLOCK
 62
     0
100
AcDbLine
 10
-0.2633457438979124
 20
23.27779039623388
 30
0.0
 11
-0.2633457438979123
 21
24.17362372956721
 31
0.0
  0
LINE
  5
9C
330
69
100
AcDbEntity
  8
0
  6
BYBLOCK
 62
     0
100
AcDbLine
 10
-0.1383457438979122
 20
25.77779039623388
 30
0.0
 11
-0.3883457438979122
 21
26.02779039623388
 31
0.0
  0
LINE
  5
9D
330
69
100
AcDbEntity
  8
0
  6
BYBLOCK
 62
     0
100
AcDbLine
 10
-0.1383457438979124
 20
23.15279039623387
 30
0.0
 11
-0.3883457438979124
 21
23.40279039623387
 31
0.0
  0
TEXT
  5
9E
330
69
100
AcDbEntity
  8
0
  6
BYBLOCK
 62
     0
100
AcDbText
 10
-0.2008457438979123
 20
24.29862372956721
 30
0.0
 40
0.125
  1
2 5/8
 50
90.0
 72
     1
 11
-0.2633457438979123
 21
24.59029039623388
 31
0.0
100
AcDbText
 73
     2
  0
POINT
  5
9F
330
69
100
AcDbEntity
  8
DEFPOINTS
  6
BYBLOCK
 62
     0
100
AcDbPoint
 10
-0.0059701492537323
 20
25.90279039623387
 30
0.0
  0
POINT
  5
A0
330
69
100
AcDbEntity
  8
DEFPOINTS
  6
BYBLOCK
 62
     0
100
AcDbPoint
 10
-0.0059701492537323
 20
23.27779039623388
 30
0.0
  0
POINT
  5
A1
330
69
100
AcDbEntity
  8
DEFPOINTS
  6
BYBLOCK
 62
     0
100
AcDbPoint
 10
-0.2633457438979124
 20
23.27779039623388
 30
0.0
  0
ENDBLK
  5
A2
330
69
100
AcDbEntity
  8
0
100
AcDbBlockEnd
  0
ENDSEC
  0
SECTION
  2
ENTITIES
  0
DIMENSION
  5
A3
330
1E
100
AcDbEntity
  8
ADPDIM
100
AcDbDimension
  2
*D0
 10
3.245298886279264
 20
22.85659739945895
 30
0.0
 11
1.619664368512766
 21
22.85659739945895
 31
0.0
100
AcDbAlignedDimension
 13
-0.0059701492537323
 23
23.27779039623388
 33
0.0
 14
3.245298886279264
 24
23.27779039623388
 34
0.0
100
AcDbRotatedDimension
  0
LINE
  5
A4
330
1E
100
AcDbEntity
  8
ADP1DETAIL
100
AcDbLine
 10
-0.0059701492537323
 20
26.95545537085317
 30
0.0
 11
1.992760815213273
 21
26.95545537085317
 31
0.0
  0
LINE
  5
A5
330
1E
100
AcDbEntity
  8
ADP1DETAIL
100
AcDbLine
 10
1.992760815213273
 20
26.2225873505486
 30
0.0
 11
-0.0059701492537323
 21
26.2225873505486
 31
0.0
  0
LINE
  5
A6
330
1E
100
AcDbEntity
  8
ADP1DETAIL
100
AcDbLine
 10
-0.0059701492537323
 20
23.27779039623388
 30
0.0
 11
3.245298886279264
 21
23.27779039623388
 31
0.0
  0
LINE
  5
A7
330
1E
100
AcDbEntity
  8
ADP1DETAIL
100
AcDbLine
 10
3.245298886279264
 20
25.90279039623387
 30
0.0
 11
-0.0059701492537323
 21
25.90279039623387
 31
0.0
  0
LINE
  5
A8
330
1E
100
AcDbEntity
  8
ADP2DETAIL
  6
HIDDEN2
100
AcDbLine
 10
0.026909900936501
 20
25.08997313735064
 30
0.0
 11
3.245298886279264
 21
25.08997313735064
 31
0.0
  0
LINE
  5
A9
330
1E
100
AcDbEntity
  8
ADP2DETAIL
  6
HIDDEN2
100
AcDbLine
 10
-0.0059701492537323
 20
24.06395790892425
 30
0.0
 11
3.239068582281925
 21
24.06395790892425
 31
0.0
  0
LINE
  5
AA
330
1E
100
AcDbEntity
  8
ADP2DETAIL
  6
HIDDEN2
100
AcDbLine
 10
-0.0059701492537325
 20
26.43578532009176
 30
0.0
 11
3.152889039705905
 21
26.43578532009176
 31
0.0
  0
DIMENSION
  5
AB
330
1E
100
AcDbEntity
  8
ADPDIM
100
AcDbDimension
  2
*D1
 10
-0.2633457438979124
 20
23.27779039623388
 30
0.0
 11
-0.2633457438979123
 21
24.59029039623388
 31
0.0
100
AcDbAlignedDimension
 13
-0.0059701492537323
 23
25.90279039623387
 33
0.0
 14
-0.0059701492537323
 24
23.27779039623388
 34
0.0
 50
90.0
100
AcDbRotatedDimension
  0
LINE
  5
AC
330
1E
100
AcDbEntity
  8
ADP1DETAIL
100
AcDbLine
 10
-0.0059701492537323
 20
25.90279039623387
 30
0.0
 11
-0.0059701492537323
 21
23.27779039623388
 31
0.0
  0
ATTDEF
  5
AD
330
1E
100
AcDbEntity
  8
ADP1DETAIL
100
AcDbText
 10
-0.0015285248882493
 20
23.26446552313743
 30
0.0
 40
0.0111040609137056
  1

100
AcDbAttributeDefinition
  3

  2
5
 70
     1
1001
AUTOCAD_POSTSCRIPT_FIGURE
1002
{
1000
PSPROG
1000
^I^I^Iaload pop findfont _sm
1000
^I^I^Ipatternstroke
1000
^I^I^I}
1000
^I^I^I{
1000
^I^I^Ipop stroke
1000
^I^I^I} ifelse
1000
^I^Igrestore
1000
^I^Ipop
1000
^I^I} for
1000
^Ipop
1000
^I} for
1000
restore
1000
newpath
1000
} ddef
1000
/_pss
1000
{
1000
save
1000
0 1 _sdd length 1 sub
1000
^I{
1000
^I/_sd exch _sdd exch get ddef
1000
^I_sd
1000
^I0 2 _sd length 2 sub
1000
^I^I{
1000
^I^Igsave
1000
^I^I2 copy get dup _ ne
1000
^I^I^I{
1000
^I^I^Icvx exec _sc
1000
^I^I^I}
1000
^I^I^I{
1000
^I^I^Ipop
1000
^I^I^I} ifelse
1000
^I^I2 copy 1 add get dup _ ne
1000
^I^I^I{
1000
^I^I^Iaload pop findfont _sm
1000
^I^I^I11 copy 6 npop 3 -1 roll pop patternashowstroke
1000
^I^I^I}
1000
^I^I^I{
1000
^I^I^Ipop
1000
^I^I^I8 copy 3 npop ss
1000
^I^I^I} ifelse
1000
^I^Igrestore
1000
^I^Ipop
1000
^I^I} for
1000
^Ipop
1000
^I} for
1000
restore
1000
5 npop newpath
1000
} ddef
1000
/_lp /none ddef
1000
} def
1000
/A
1000
{
1000
pop
1000
} def
1000
/nc 3 dict def
1000
nc begin
1000
/setgray
1000
{
1000
pop
1000
} bind def
1000
/setcmykcolor
1000
{
1000
4 npop
1000
} bind def
1000
/setcustomcolor
1000
{
1000
2 npop
1000
} bind def
1000
currentdict readonly pop end
1000
currentdict readonly pop end
1000
setpacking
1000
%%EndProcSet
1000
%%EndProlog
1000
%%BeginSetup
1000
Adobe_cshow /initialize get exec
1000
Adobe_customcolor /initialize get exec
1000
Adobe_pattern /initialize get exec
1000
Adobe_Illustrator88 /initialize get exec
1000
%%BeginPattern: (Yellow Stripe)
1000
(Yellow Stripe) 8.4499 4.6 80.4499 76.6 [
1000
%%Tile
1000
(0 O 0 R 0 0.4 1 0 k 0 0.4 1 0 K) @
1000
(
1000
%AI6_BeginPatternLayer
1000
0 i
1000
0 J 0 j 3.6 w 4 M []0 d
1000
%%Note:
1000
8.1999 8.1999 m
1000
80.6999 8.1999 L
1000
S
1000
8.1999 22.6 m
1000
80.6999 22.6 L
1000
S
1000
8.1999 37.0001 m
1000
80.6999 37.0001 L
1000
S
1000
8.1999 51.3999 m
1000
80.6999 51.3999 L
1000
S
1000
8.1999 65.8 m
1000
80.6999 65.8 L
1000
S
1000
8.1999 15.3999 m
1000
80.6999 15.3999 L
1000
S
1000
8.1999 29.8 m
1000
80.6999 29.8 L
1000
S
1000
8.1999 44.1999 m
1000
80.6999 44.1999 L
1000
S
1000
8.1999 58.6 m
1000
80.6999 58.6 L
1000
S
1000
8.1999 73.0001 m
1000
80.6999 73.0001 L
1000
S
1000
%AI6_EndPatternLayer
1000
) &
1000
] E
1000
%%EndPattern
1000
%%EndSetup
1000
0 A
1000
1 R
1000
0 G
1000
0 i
1000
0 J 0 j 0 w 4 M []0 d
1000
%%Note:
1000
234.5301 606.1094 m
1000
234.5301 653.3594 L
1000
176.0301 653.3594 L
1000
176.0301 606.1094 L
1000
234.5301 606.1094 L
1000
s
1000
[2 2 ]0 d
1000
176.0301 620.3073 m
1000
234.5301 620.3073 L
1000
S
1000
176.0301 638.9115 m
1000
234.5301 638.9115 L
1000
S
1000
[]0 d
1000
212.0405 659.1927 m
1000
176.0301 659.1927 L
1000
176.0301 672.3802 L
1000
211.8739 672.3802 L
1000
234.5197 672.4532 234.5197 665.7865 v
1000
234.5197 659.1198 212.0405 659.1927 Y
1000
s
1000
[2 2 ]0 d
1000
176.0301 663.0157 m
1000
232.1968 663.0157 L
1000
S
1000
1 w []0 d
1000
234.5301 4716 m
1000
234.5301 -3924 L
1000
N
1000
-4014 653.3594 m
1000
4626 653.3594 L
1000
N
1000
%%PageTrailer
1000
%%Trailer
1000
Adobe_Illustrator88 /terminate get exec
1000
Adobe_pattern /terminate get exec
1000
Adobe_customcolor /terminate get exec
1000
Adobe_cshow /terminate get exec
1000
Adobe_packedarray /terminate get exec
1000
%%EOF
1070
     0
1002
}
  0
ATTDEF
  5
AE
330
1E
100
AcDbEntity
  8
ADP1DETAIL
100
AcDbText
 10
-0.0015285248882493
 20
23.26446552313743
 30
0.0
 40
0.0111040609137056
  1

100
AcDbAttributeDefinition
  3

  2
4
 70
     1
1001
AUTOCAD_POSTSCRIPT_FIGURE
1002
{
1000
PSPROG
1000
} def
1000
/k
1000
{
1000
_cf astore pop
1000
/_fc
1000
{
1000
_lp /fill ne
1000
^I{
1000
^I_of setoverprint
1000
^I_cf aload pop setcmykcolor
1000
^I/_lp /fill ddef
1000
^I} if
1000
} ddef
1000
/_pf
1000
{
1000
_fc
1000
fill
1000
} ddef
1000
/_psf
1000
{
1000
_fc
1000
exch pop
1000
ashow
1000
} ddef
1000
/_lp /none ddef
1000
} def
1000
/K
1000
{
1000
_cs astore pop
1000
/_sc
1000
{
1000
_lp /stroke ne
1000
^I{
1000
^I_os setoverprint
1000
^I_cs aload pop setcmykcolor
1000
^I/_lp /stroke ddef
1000
^I} if
1000
} ddef
1000
/_ps
1000
{
1000
_sc
1000
stroke
1000
} ddef
1000
/_pss
1000
{
1000
_sc
1000
ss
1000
} ddef
1000
/_lp /none ddef
1000
} def
1000
/x
1000
{
1000
/_gf exch ddef
1000
findcmykcustomcolor
1000
/_if exch ddef
1000
/_fc
1000
{
1000
_lp /fill ne
1000
^I{
1000
^I_of setoverprint
1000
^I_if _gf 1 exch sub setcustomcolor
1000
^I/_lp /fill ddef
1000
^I} if
1000
} ddef
1000
/_pf
1000
{
1000
_fc
1000
fill
1000
} ddef
1000
/_psf
1000
{
1000
_fc
1000
exch pop
1000
ashow
1000
} ddef
1000
/_lp /none ddef
1000
} def
1000
/X
1000
{
1000
/_gs exch ddef
1000
findcmykcustomcolor
1000
/_is exch ddef
1000
/_sc
1000
{
1000
_lp /stroke ne
1000
^I{
1000
^I_os setoverprint
1000
^I_is _gs 1 exch sub setcustomcolor
1000
^I/_lp /stroke ddef
1000
^I} if
1000
} ddef
1000
/_ps
1000
{
1000
_sc
1000
stroke
1000
} ddef
1000
/_pss
1000
{
1000
_sc
1000
ss
1000
} ddef
1000
/_lp /none ddef
1000
} def
1000
/dp
1000
{
1000
dup null eq
1000
{
1000
pop
1000
_dp 0 ne
1000
^I{
1000
^I0 1 _dp 1 sub _dl mod
1000
^I^I{
1000
^I^I_da exch get 3 get
1000
^I^I} for
1000
^I_dp 1 sub _dl mod 1 add packedarray
1000
^I_da 0 get aload pop 8 -1 roll 5 -1 roll pop 4 1 roll
1000
^Idefinepattern pop
1000
^I} if
1000
}
1000
{
1000
_dp 0 ne _dp _dl mod 0 eq and
1000
^I{
1000
^Inull dp
1000
^I} if
1000
7 packedarray _da exch _dp _dl mod exch put
1000
_dp _dl mod _da 0 get 4 get 2 packedarray
1000
/_dp _dp 1 add def
1000
} ifelse
1000
} def
1000
/E
1000
{
1000
_ed begin
1000
dup 0 get type /arraytype ne
1000
^I{
1000
^I0
1000
^I^I{
1000
^I^Idup 1 add index type /arraytype eq
1000
^I^I^I{
1000
^I^I^I1 add
1000
^I^I^I}
1000
^I^I^I{
1000
^I^I^Iexit
1000
^I^I^I} ifelse
1000
^I^I} loop
1000
^Iarray astore
1000
^I} if
1000
/_dd exch def
1000
/_ury exch def
1000
/_urx exch def
1000
/_lly exch def
1000
/_llx exch def
1000
/_n exch def
1000
/_y 0 def
1000
/_dl 4 def
1000
/_dp 0 def
1000
/_da _dl array def
1000
0 1 _dd length 1 sub
1000
^I{
1000
^I/_d exch _dd exch get def
1000
^I0 2 _d length 2 sub
1000
^I^I{
1000
^I^I/_x exch def
1000
^I^I/_c _d _x get _ ne def
1000
^I^I/_r _d _x 1 add get cvlit def
1000
^I^I_r _ ne
1000
^I^I^I{
1000
^I^I^I_urx _llx sub _ury _lly sub [1 0 0 1 0 0] 
1000
^I^I^I^I[
1000
^I^I^I^I/save cvx
1000
^I^I^I^I_llx neg _lly neg /translate cvx
1000
^I^I^I^I_c
1000
^I^I^I^I^I{
1000
^I^I^I^I^Inc /begin cvx
1000
^I^I^I^I^I} if
1000
^I^I^I^I_r dup type /stringtype eq
1000
^I^I^I^I^I{
1000
^I^I^I^I^Icvx
1000
^I^I^I^I^I}
1000
^I^I^I^I^I{
1000
^I^I^I^I^I{exec} /forall cvx
1000
^I^I^I^I^I} ifelse
1000
^I^I^I^I_c
1000
^I^I^I^I^I{
1000
^I^I^I^I^I/end cvx
1000
^I^I^I^I^I} if
1000
^I^I^I^I/restore cvx
1000
^I^I^I^I] cvx
1000
^I^I^I/_fn 12 _n length add string def
1000
^I^I^I_y _fn cvs pop
1000
^I^I^I/_y _y 1 add def
1000
^I^I^I_fn 12 _n putinterval
1000
^I^I^I_fn _c false dp
1000
^I^I^I_d exch _x 1 add exch put
1000
^I^I^I} if
1000
^I^I} for
1000
^I} for
1000
null dp
1000
_n _dd /_pd
1000
end xput
1000
} def
1000
/fc
1000
{
1000
_fm dup concatmatrix pop
1000
} def
1000
/p
1000
{
1000
/_fm exch ddef
1000
9 -2 roll _pm translate fc
1000
7 -2 roll _pm scale fc
1000
5 -1 roll _pm rotate fc
1000
4 -2 roll exch 0 ne
1000
^I{
1000
^Idup _pm rotate fc
1000
^I1 -1 _pm scale fc
1000
^Ineg _pm rotate fc
1000
^I}
1000
^I{
1000
^Ipop
1000
^I} ifelse
1000
dup _pm rotate fc
1000
exch dup sin exch cos div 1 0 0 1 0 6 2 roll
1000
_pm astore fc
1000
neg _pm rotate fc
1000
_pd exch get /_fdd exch ddef
1000
/_pf
1000
{
1000
save
1000
0 1 _fdd length 1 sub
1000
^I{
1000
^I/_fd exch _fdd exch get ddef
1000
^I_fd
1000
^I0 2 _fd length 2 sub
1000
^I^I{
1000
^I^Igsave
1000
^I^I2 copy get dup _ ne
1000
^I^I^I{
1000
^I^I^Icvx exec _fc
1000
^I^I^I}
1000
^I^I^I{
1000
^I^I^Ipop
1000
^I^I^I} ifelse
1000
^I^I2 copy 1 add get dup _ ne
1000
^I^I^I{
1000
^I^I^Iaload pop findfont _fm
1000
^I^I^Ipatternfill
1000
^I^I^I}
1000
^I^I^I{
1000
^I^I^Ipop
1000
^I^I^Ifill
1000
^I^I^I} ifelse
1000
^I^Igrestore
1000
^I^Ipop
1000
^I^I} for
1000
^Ipop
1000
^I} for
1000
restore
1000
newpath
1000
} ddef
1000
/_psf
1000
{
1000
save
1000
0 1 _fdd length 1 sub
1000
^I{
1000
^I/_fd exch _fdd exch get ddef
1000
^I_fd
1000
^I0 2 _fd length 2 sub
1000
^I^I{
1000
^I^Igsave
1000
^I^I2 copy get dup _ ne
1000
^I^I^I{
1000
^I^I^Icvx exec _fc
1000
^I^I^I}
1000
^I^I^I{
1000
^I^I^Ipop
1000
^I^I^I} ifelse
1000
^I^I2 copy 1 add get dup _ ne
1000
^I^I^I{
1000
^I^I^Iaload pop findfont _fm
1000
^I^I^I10 copy 6 npop exch pop patternashow
1000
^I^I^I}
1000
^I^I^I{
1000
^I^I^Ipop
1000
^I^I^I7 copy 3 npop exch pop ashow
1000
^I^I^I} ifelse
1000
^I^Igrestore
1000
^I^Ipop
1000
^I^I} for
1000
^Ipop
1000
^I} for
1000
restore
1000
4 npop newpath
1000
} ddef
1000
/_lp /none ddef
1000
} def
1000
/sc
1000
{
1000
_sm dup concatmatrix pop
1000
} def
1000
/P
1000
{
1000
/_sm exch ddef
1000
9 -2 roll _pm translate sc
1000
7 -2 roll _pm scale sc
1000
5 -1 roll _pm rotate sc
1000
4 -2 roll exch 0 ne
1000
^I{
1000
^Idup _pm rotate sc
1000
^I1 -1 _pm scale sc
1000
^Ineg _pm rotate sc
1000
^I}
1000
^I{
1000
^Ipop
1000
^I} ifelse
1000
dup _pm rotate sc
1000
exch dup sin exch cos div 1 0 0 1 0 6 2 roll
1000
_pm astore sc
1000
neg _pm rotate sc
1000
_pd exch get /_sdd exch ddef
1000
/_ps
1000
{
1000
save
1000
0 1 _sdd length 1 sub
1000
^I{
1000
^I/_sd exch _sdd exch get ddef
1000
^I_sd
1000
^I0 2 _sd length 2 sub
1000
^I^I{
1000
^I^Igsave
1000
^I^I2 copy get dup _ ne
1000
^I^I^I{
1000
^I^I^Icvx exec _sc
1000
^I^I^I}
1000
^I^I^I{
1000
^I^I^Ipop
1000
^I^I^I} ifelse
1000
^I^I2 copy 1 add get dup _ ne
1000
^I^I^I{
1070
     1
1002
}
  0
ATTDEF
  5
AF
330
1E
100
AcDbEntity
  8
ADP1DETAIL
100
AcDbText
 10
-0.0015285248882493
 20
23.26446552313743
 30
0.0
 40
0.0111040609137056
  1

100
AcDbAttributeDefinition
  3

  2
3
 70
     1
1001
AUTOCAD_POSTSCRIPT_FIGURE
1002
{
1000
PSPROG
1000
} def
1000
/pl
1000
{
1000
transform
1000
0.25 sub round 0.25 add exch
1000
0.25 sub round 0.25 add exch
1000
itransform
1000
} def
1000
/setstrokeadjust where
1000
{
1000
pop true setstrokeadjust
1000
/c
1000
{
1000
curveto
1000
} def
1000
/C
1000
/c load def
1000
/v
1000
{
1000
currentpoint 6 2 roll curveto
1000
} def
1000
/V
1000
/v load def
1000
/y
1000
{
1000
2 copy curveto
1000
} def
1000
/Y
1000
/y load def
1000
/l
1000
{
1000
lineto
1000
} def
1000
/L
1000
/l load def
1000
/m
1000
{
1000
moveto
1000
} def
1000
}
1000
{
1000
/c
1000
{
1000
pl curveto
1000
} def
1000
/C
1000
/c load def
1000
/v
1000
{
1000
currentpoint 6 2 roll pl curveto
1000
} def
1000
/V
1000
/v load def
1000
/y
1000
{
1000
pl 2 copy curveto
1000
} def
1000
/Y
1000
/y load def
1000
/l
1000
{
1000
pl lineto
1000
} def
1000
/L
1000
/l load def
1000
/m
1000
{
1000
pl moveto
1000
} def
1000
} ifelse
1000
/d
1000
{
1000
setdash
1000
} def
1000
/cf
1000
currentflat def
1000
/i
1000
{
1000
dup 0 eq
1000
^I{
1000
^Ipop cf
1000
^I} if
1000
setflat
1000
} def
1000
/j
1000
{
1000
setlinejoin
1000
} def
1000
/J
1000
{
1000
setlinecap
1000
} def
1000
/M
1000
{
1000
setmiterlimit
1000
} def
1000
/w
1000
{
1000
setlinewidth
1000
} def
1000
/H
1000
{} def
1000
/h
1000
{
1000
closepath
1000
} def
1000
/N
1000
{
1000
newpath
1000
} def
1000
/n
1000
/N load def
1000
/F
1000
{
1000
_pf
1000
} def
1000
/f
1000
{
1000
closepath
1000
F
1000
} def
1000
/S
1000
{
1000
_ps
1000
} def
1000
/s
1000
{
1000
closepath
1000
S
1000
} def
1000
/B
1000
{
1000
gsave F grestore
1000
S
1000
} def
1000
/b
1000
{
1000
closepath
1000
B
1000
} def
1000
/W
1000
{
1000
clip
1000
} def
1000
/ta
1000
{
1000
_as moveto
1000
_tt aload pop 4 -2 roll
1000
} def
1000
/tl
1000
{
1000
_tl aload pop translate
1000
} def
1000
/as
1000
{
1000
{
1000
0 0
1000
}
1000
{
1000
2 copy _tt aload pop 4 -2 roll sw
1000
exch neg 2 div exch neg 2 div
1000
}
1000
{
1000
2 copy _tt aload pop 4 -2 roll sw
1000
exch neg exch neg
1000
}
1000
{
1000
0 0
1000
}
1000
} cvlit def
1000
/z
1000
{
1000
/_a exch ddef
1000
/_as as _a get ddef
1000
_a 2 le
1000
^I{
1000
^I0 _tt astore pop
1000
^I0 exch neg _tl astore pop
1000
^I}
1000
^I{
1000
^I0 exch neg _tt astore pop
1000
^Ineg 0 _tl astore pop
1000
^I} ifelse
1000
exch findfont exch scalefont setfont
1000
} def
1000
/tm
1000
{
1000
_tm currentmatrix pop
1000
concat
1000
} def
1000
/I
1000
{
1000
tm
1000
/t
1000
^I{
1000
^Ita sp
1000
^Itl
1000
^I} ddef
1000
} def
1000
/o
1000
{
1000
tm
1000
/t
1000
^I{
1000
^Ita 4 npop
1000
^Itl
1000
^Inewpath
1000
^I} ddef
1000
} def
1000
/e
1000
{
1000
tm
1000
/t
1000
^I{
1000
^Ita _psf
1000
^Itl
1000
^Inewpath
1000
^I} ddef
1000
} def
1000
/r
1000
{
1000
tm
1000
/t
1000
^I{
1000
^Ita _tm _pss
1000
^Itl
1000
^Inewpath
1000
^I} ddef
1000
} def
1000
/a
1000
{
1000
tm
1000
/t
1000
^I{
1000
^I2 copy
1000
^Ita _psf
1000
^Inewpath
1000
^Ita _tm _pss
1000
^Itl
1000
^Inewpath
1000
^I} ddef
1000
} def
1000
/T
1000
{
1000
_tm setmatrix
1000
} def
1000
/Z
1000
{
1000
pop
1000
findfont begin
1000
currentdict dup length 1 add dict begin
1000
^I{
1000
^I1 index /FID ne
1000
^I^I{
1000
^I^Idef
1000
^I^I}
1000
^I^I{
1000
^I^I2 npop
1000
^I^I} ifelse
1000
^I} forall
1000
/FontName exch def dup length 0 ne
1000
^I{
1000
^I/Encoding Encoding 256 array copy def
1000
^I0 exch
1000
^I^I{
1000
^I^Idup type /nametype eq
1000
^I^I^I{
1000
^I^I^IEncoding 2 index 2 index put pop
1000
^I^I^I1 add
1000
^I^I^I}
1000
^I^I^I{
1000
^I^I^Iexch pop
1000
^I^I^I} ifelse
1000
^I^I} forall
1000
^I} if pop
1000
currentdict dup end end
1000
/FontName get exch definefont pop
1000
} def
1000
/u
1000
{} def
1000
/U
1000
{} def
1000
/q
1000
{
1000
gsave
1000
} def
1000
/Q
1000
{
1000
grestore
1000
} def
1000
/`
1000
{
1000
/_i save ddef
1000
6 1 roll 4 npop
1000
concat
1000
userdict begin
1000
/showpage {} def
1000
0 setgray
1000
0 setlinecap
1000
1 setlinewidth
1000
0 setlinejoin
1000
10 setmiterlimit
1000
[] 0 setdash
1000
/setstrokeadjust where {pop false setstrokeadjust} if
1000
newpath
1000
0 setgray
1000
false setoverprint
1000
pop
1000
} def
1000
/~
1000
{
1000
end
1000
_i restore
1000
} def
1000
/@
1000
{} def
1000
/&
1000
{} def
1000
/O
1000
{
1000
0 ne
1000
/_of exch ddef
1000
/_lp /none ddef
1000
} def
1000
/R
1000
{
1000
0 ne
1000
/_os exch ddef
1000
/_lp /none ddef
1000
} def
1000
/g
1000
{
1000
/_gf exch ddef
1000
/_fc
1000
{
1000
_lp /fill ne
1000
^I{
1000
^I_of setoverprint
1000
^I_gf setgray
1000
^I/_lp /fill ddef
1000
^I} if
1000
} ddef
1000
/_pf
1000
{
1000
_fc
1000
fill
1000
} ddef
1000
/_psf
1000
{
1000
_fc
1000
exch pop
1000
ashow
1000
} ddef
1000
/_lp /none ddef
1000
} def
1000
/G
1000
{
1000
/_gs exch ddef
1000
/_sc
1000
{
1000
_lp /stroke ne
1000
^I{
1000
^I_os setoverprint
1000
^I_gs setgray
1000
^I/_lp /stroke ddef
1000
^I} if
1000
} ddef
1000
/_ps
1000
{
1000
_sc
1000
stroke
1000
} ddef
1000
/_pss
1000
{
1000
_sc
1000
ss
1000
} ddef
1000
/_lp /none ddef
1070
     1
1002
}
  0
ATTDEF
  5
B0
330
1E
100
AcDbEntity
  8
ADP1DETAIL
100
AcDbText
 10
-0.0015285248882493
 20
23.26446552313743
 30
0.0
 40
0.0111040609137056
  1

100
AcDbAttributeDefinition
  3

  2
2
 70
     1
1001
AUTOCAD_POSTSCRIPT_FIGURE
1002
{
1000
PSPROG
1000
} def
1000
/patterncachelimit
1000
{
1000
cachestatus 7 1 roll pop pop pop pop pop pop 8 mul
1000
} def
1000
/patternpath
1000
{
1000
exch dup begin setfont
1000
ctm setmatrix
1000
concat
1000
slice exch /b exch slice /q get dup mul mul put
1000
FontMatrix concat
1000
uniform
1000
^I{
1000
^Iwidth 0 dtransform round width div exch round width div exch
1000
^I0 height dtransform round height div exch height div exch
1000
^I0 0 transform round exch round exch
1000
^Iptm astore setmatrix
1000
^I}
1000
^I{
1000
^Iptm currentmatrix pop
1000
^I} ifelse
1000
{currentpoint} stopped not
1000
^I{
1000
^Ipop pop
1000
^Ipathbbox
1000
^Itrue
1000
^I4 index 3 index eq
1000
^I4 index 3 index eq
1000
^Iand
1000
^I^I{
1000
^I^Ipop false
1000
^I^I^I{
1000
^I^I^I{pop pop}
1000
^I^I^I{pop pop pop true}
1000
^I^I^I{pop pop pop pop pop pop pop true}
1000
^I^I^I{pop true}
1000
^I^I^Ipathforall
1000
^I^I^I} stopped
1000
^I^I^I{
1000
^I^I^Ipop pop pop pop pop true
1000
^I^I^I} if
1000
^I^I} if
1000
^I^I{
1000
^I^Iheight div ceiling height mul 4 1 roll
1000
^I^Iwidth div ceiling width mul 4 1 roll
1000
^I^Iheight div floor height mul 4 1 roll
1000
^I^Iwidth div floor width mul 4 1 roll
1000
^I^I2 index sub height div ceiling cvi exch
1000
^I^I3 index sub width div ceiling cvi exch
1000
^I^I4 2 roll moveto
1000
^I^IFontMatrix mtx invertmatrix
1000
^I^Idup dup 4 get exch 5 get rmoveto
1000
^I^Iptm ptm concatmatrix pop
1000
^I^Islice /s
1000
^I^Ipatterncachesize patterncachelimit div ceiling sqrt ceiling cvi
1000
^I^Idup slice /q get gt
1000
^I^I^I{
1000
^I^I^Ipop slice /q get
1000
^I^I^I} if
1000
^I^Iput
1000
^I^I0 1 slice /s get dup mul 1 sub
1000
^I^I^I{
1000
^I^I^Islice /b get add
1000
^I^I^Igsave
1000
^I^I^I0 1 str length 1 sub
1000
^I^I^I^I{
1000
^I^I^I^Istr exch 2 index put
1000
^I^I^I^I} for
1000
^I^I^Ipop
1000
^I^I^Idup
1000
^I^I^I^I{
1000
^I^I^I^Igsave
1000
^I^I^I^Iptm setmatrix
1000
^I^I^I^I1 index str length idiv {str show} repeat
1000
^I^I^I^I1 index str length mod str exch 0 exch getinterval show
1000
^I^I^I^Igrestore
1000
^I^I^I^I0 height rmoveto
1000
^I^I^I^I} repeat
1000
^I^I^Igrestore
1000
^I^I^I} for
1000
^I^Ipop pop
1000
^I^I}
1000
^I^I{
1000
^I^Ipop pop pop pop
1000
^I^I} ifelse
1000
^I} if
1000
end
1000
} def
1000
/patternclip
1000
{
1000
clip
1000
} def
1000
/patternstrokepath
1000
{
1000
strokepath
1000
} def
1000
/patternmatrix
1000
matrix def
1000
/patternfill
1000
{
1000
dup type /dicttype eq
1000
^I{
1000
^IAdobe_pattern /patternmatrix get
1000
^I} if
1000
gsave
1000
patternclip
1000
Adobe_pattern /patternpath get exec
1000
grestore
1000
newpath
1000
} def
1000
/patternstroke
1000
{
1000
dup type /dicttype eq
1000
^I{
1000
^IAdobe_pattern /patternmatrix get
1000
^I} if
1000
gsave
1000
patternstrokepath
1000
true
1000
^I{
1000
^I^I{
1000
^I^I^I{
1000
^I^I^Inewpath 
1000
^I^I^Imoveto
1000
^I^I^I}
1000
^I^I^I{
1000
^I^I^Ilineto
1000
^I^I^I}
1000
^I^I^I{
1000
^I^I^Icurveto
1000
^I^I^I}
1000
^I^I^I{
1000
^I^I^Iclosepath
1000
^I^I^I3 copy
1000
^I^I^IAdobe_pattern /patternfill get exec
1000
^I^I^I} pathforall
1000
^I^Ipop pop^Ipop
1000
^I^I} stopped
1000
^I^I^I{
1000
^I^I^Ipop pop pop pop pop
1000
^I^I^Ipatternclip
1000
^I^I^IAdobe_pattern /patternfill get exec
1000
^I^I^I} if
1000
^I}
1000
^I{
1000
^Ipatternclip
1000
^IAdobe_pattern /patternfill get exec
1000
^I} ifelse
1000
grestore
1000
newpath
1000
} def
1000
/patternashow
1000
{
1000
3 index type /dicttype eq
1000
^I{
1000
^IAdobe_pattern /patternmatrix get 4 1 roll
1000
^I} if
1000
^I{
1000
^Ipop pop (0) exch
1000
^I2 copy 0 exch put pop
1000
^Igsave
1000
^Ifalse charpath
1000
^Icurrentpoint
1000
^I6 index 6 index 6 index
1000
^IAdobe_pattern /patternfill get exec
1000
^Igrestore
1000
^Inewpath moveto
1000
^I2 copy rmoveto
1000
^I} exch cshow
1000
pop pop pop pop pop
1000
} def
1000
/patternashowstroke
1000
{
1000
4 index type /dicttype eq
1000
^I{
1000
^Ipatternmatrix /patternmatrix get 5 1 roll
1000
^I} if
1000
4 1 roll
1000
^I{
1000
^Ipop pop (0) exch
1000
^I2 copy 0 exch put pop
1000
^Igsave
1000
^Ifalse charpath
1000
^Icurrentpoint
1000
^I4 index setmatrix
1000
^I7 index 7 index 7 index
1000
^IAdobe_pattern /patternstroke get exec
1000
^Igrestore
1000
^Inewpath moveto
1000
^I2 copy rmoveto
1000
^I} exch cshow
1000
pop pop pop pop pop pop
1000
} def
1000
currentdict readonly pop end
1000
setpacking
1000
%%EndProcSet
1000
%%BeginProcSet: Adobe_Illustrator88 1.20 0
1000
currentpacking true setpacking
1000
userdict /Adobe_Illustrator88 73 dict dup begin put
1000
/initialize
1000
{
1000
userdict /Adobe_Illustrator88_vars 31 dict dup begin put
1000
/_lp /none def
1000
/_pf {} def
1000
/_ps {} def
1000
/_psf {} def
1000
/_pss {} def
1000
/_a null def
1000
/_as null def
1000
/_tt 2 array def
1000
/_tl 2 array def
1000
/_tm matrix def
1000
/t {} def
1000
/_gf null def
1000
/_cf 4 array def
1000
/_if null def
1000
/_of false def
1000
/_fc {} def
1000
/_gs null def
1000
/_cs 4 array def
1000
/_is null def
1000
/_os false def
1000
/_sc {} def
1000
/_pd 1 dict def
1000
/_ed 15 dict def
1000
/_pm matrix def
1000
/_fm null def
1000
/_fd null def
1000
/_fdd null def
1000
/_sm null def
1000
/_sd null def
1000
/_sdd null def
1000
/_i null def
1000
Adobe_Illustrator88 begin
1000
Adobe_Illustrator88 dup /nc get begin
1000
^I{
1000
^Idup xcheck
1000
^I^I{
1000
^I^Ibind
1000
^I^I} if
1000
^Ipop pop
1000
^I} forall
1000
end
1000
end
1000
end
1000
Adobe_Illustrator88 begin
1000
Adobe_Illustrator88_vars begin
1000
newpath
1000
} def
1000
/terminate
1000
{
1000
end
1000
end
1000
} def
1000
/_
1000
null def
1000
/ddef
1000
{
1000
Adobe_Illustrator88_vars 3 1 roll put
1000
} def
1000
/xput
1000
{
1000
dup load dup length exch maxlength eq
1000
^I{
1000
^Idup dup load dup
1000
^Ilength 2 mul dict copy def
1000
^I} if
1000
load begin def end
1000
} def
1000
/npop
1000
{
1000
^I{
1000
^Ipop
1000
^I} repeat
1000
} def
1000
/sw
1000
{
1000
stringwidth
1000
exch 5 -1 roll 3 index 1 sub mul add
1000
4 1 roll 3 1 roll 1 sub mul add
1000
} def
1000
/ss
1000
{
1000
3 -1 roll pop
1000
4 1 roll
1000
^I{
1000
^I2 npop (0) exch
1000
^I2 copy 0 exch put pop
1000
^Igsave
1000
^Ifalse charpath
1000
^Icurrentpoint
1000
^I4 index setmatrix
1000
^Istroke
1000
^Igrestore
1000
^Imoveto
1000
^I2 copy rmoveto
1000
^I} exch cshow
1000
3 npop
1000
} def
1000
/sp
1000
{
1000
exch pop
1000
^I{
1000
^I2 npop (0) exch
1000
^I2 copy 0 exch put pop
1000
^Ifalse charpath
1000
^I2 copy rmoveto
1000
^I} exch cshow
1000
2 npop
1070
     1
1002
}
  0
ATTDEF
  5
B1
330
1E
100
AcDbEntity
  8
ADP1DETAIL
100
AcDbText
 10
-0.0015285248882493
 20
23.26446552313743
 30
0.0
 40
0.0111040609137056
  1

100
AcDbAttributeDefinition
  3

  2
1
 70
     1
1001
AUTOCAD_POSTSCRIPT_FIGURE
1002
{
1000
PSPROG
1000
%!PS-Adobe-2.0 EPSF-1.2
1000
%%Creator: Adobe Illustrator(TM) 88
1000
%%For: (Tony Leto) (Julius Blum & Co., Inc.)
1000
%%Title: (6901-N.eps)
1000
%%CreationDate: (10/8/96) (10:45 AM)
1000
%%DocumentProcessColors: Black
1000
%%DocumentProcSets: Adobe_packedarray 1.0 0
1000
%%DocumentSuppliedProcSets: Adobe_packedarray 1.0 0
1000
%%DocumentProcSets: Adobe_cmykcolor 1.1 0
1000
%%DocumentSuppliedProcSets: Adobe_cmykcolor 1.1 0
1000
%%DocumentProcSets: Adobe_cshow 1.1 0
1000
%%DocumentSuppliedProcSets: Adobe_cshow 1.1 0
1000
%%DocumentProcSets: Adobe_customcolor 1.0 0
1000
%%DocumentSuppliedProcSets: Adobe_customcolor 1.0 0
1000
%%DocumentProcSets: Adobe_pattern 1.9 0
1000
%%DocumentSuppliedProcSets: Adobe_pattern 1.9 0
1000
%%DocumentProcSets: Adobe_Illustrator88 1.19 0
1000
%%DocumentSuppliedProcSets: Adobe_Illustrator88 1.19 0
1000
%%BoundingBox: 176 606 235 673
1000
%%ColorUsage: Black&White
1000
%AI3_IncludePlacedImages
1000
%%TemplateBox: 306 396 306 396
1000
%%TileBox: 30 31 582 761
1000
%%DocumentPreview: Macintosh_ColorPic
1000
%%EndComments
1000
%%BeginProcSet: Adobe_packedarray 1.0 0
1000
userdict /Adobe_packedarray 5 dict dup begin put
1000
/initialize
1000
{
1000
/packedarray where
1000
^I{
1000
^Ipop
1000
^I}
1000
^I{
1000
^IAdobe_packedarray begin
1000
^IAdobe_packedarray
1000
^I^I{
1000
^I^Idup xcheck
1000
^I^I^I{
1000
^I^I^Ibind
1000
^I^I^I} if
1000
^I^Iuserdict 3 1 roll put
1000
^I^I} forall
1000
 end
1000
^I} ifelse
1000
} def
1000
/terminate
1000
{
1000
} def
1000
/packedarray
1000
{
1000
array astore readonly
1000
} def
1000
/setpacking
1000
{
1000
pop
1000
} def
1000
/currentpacking
1000
{
1000
false
1000
} def
1000
currentdict readonly pop end
1000
%%EndProcSet
1000
Adobe_packedarray /initialize get exec
1000
%%BeginProcSet: Adobe_cshow 1.1 0
1000
currentpacking true setpacking
1000
userdict /Adobe_cshow 3 dict dup begin put
1000
/initialize
1000
{
1000
/cshow where
1000
^I{
1000
^Ipop
1000
^I}
1000
^I{
1000
^Iuserdict /Adobe_cshow_vars 1 dict dup begin put
1000
^I/_cshow
1000
^I^I{} def
1000
^IAdobe_cshow begin
1000
^IAdobe_cshow
1000
^I^I{
1000
^I^Idup xcheck
1000
^I^I^I{
1000
^I^I^Ibind
1000
^I^I^I} if
1000
^I^Iuserdict 3 1 roll put
1000
^I^I} forall
1000
 end
1000
 end
1000
^I} ifelse
1000
} def
1000
/terminate
1000
{
1000
} def
1000
/cshow
1000
{
1000
exch
1000
Adobe_cshow_vars
1000
^Iexch /_cshow
1000
^Iexch put
1000
^I{
1000
^I0 0 Adobe_cshow_vars /_cshow get exec
1000
^I} forall
1000
} def
1000
currentdict readonly pop end
1000
setpacking
1000
%%EndProcSet
1000
%%BeginProcSet: Adobe_customcolor 1.0 0
1000
currentpacking true setpacking
1000
userdict /Adobe_customcolor 5 dict dup begin put
1000
/initialize
1000
{
1000
/setcustomcolor where
1000
^I{
1000
^Ipop
1000
^I}
1000
^I{
1000
^IAdobe_customcolor begin
1000
^IAdobe_customcolor
1000
^I^I{
1000
^I^Idup xcheck
1000
^I^I^I{
1000
^I^I^Ibind
1000
^I^I^I} if
1000
^I^Ipop pop
1000
^I^I} forall
1000
 end
1000
^IAdobe_customcolor begin
1000
^I} ifelse
1000
} def
1000
/terminate
1000
{
1000
currentdict Adobe_customcolor eq
1000
^I{
1000
 end
1000
^I} if
1000
} def
1000
/findcmykcustomcolor
1000
{
1000
5 packedarray
1000
}  def
1000
/setcustomcolor
1000
{
1000
exch
1000
aload pop pop
1000
4
1000
^I{
1000
^I4 index mul 4 1 roll
1000
^I} repeat
1000
5 -1 roll pop
1000
setcmykcolor
1000
} def
1000
/setoverprint
1000
{
1000
pop
1000
} def
1000
currentdict readonly pop end
1000
setpacking
1000
%%EndProcSet
1000
%%BeginProcSet: Adobe_pattern 1.10 0
1000
currentpacking true setpacking
1000
userdict /Adobe_pattern 14 dict dup begin put
1000
/initialize
1000
{
1000
/definepattern where
1000
^I{
1000
^Ipop
1000
^I}
1000
^I{
1000
^IAdobe_pattern begin
1000
^IAdobe_pattern
1000
^I^I{
1000
^I^Idup xcheck
1000
^I^I^I{
1000
^I^I^Ibind
1000
^I^I^I} if
1000
^I^Ipop pop
1000
^I^I} forall
1000
^Imark
1000
^Icachestatus 7 1 roll pop pop pop pop exch pop exch
1000
^I^I{
1000
^I^I{
1000
^I^I10000 add
1000
^I^Idup 2 index gt
1000
^I^I^I{
1000
^I^I^Iexit
1000
^I^I^I} if
1000
^I^Idup setcachelimit
1000
^I^I} loop
1000
^I^I} stopped
1000
^Icleartomark
1000
^I} ifelse
1000
} def
1000
/terminate
1000
{
1000
currentdict Adobe_pattern eq
1000
^I{
1000
 end
1000
^I} if
1000
} def
1000
errordict
1000
/nocurrentpoint
1000
{
1000
pop
1000
stop
1000
} put
1000
errordict
1000
/invalidaccess
1000
{
1000
pop
1000
stop
1000
} put
1000
/patternencoding
1000
256 array def
1000
0 1 255
1000
{
1000
patternencoding exch ( ) 2 copy exch 0 exch put cvn put
1000
} for
1000
/definepattern
1000
{
1000
17 dict begin
1000
/uniform exch def
1000
/cache exch def
1000
/key exch def
1000
/procarray exch def
1000
/mtx exch matrix invertmatrix def
1000
/height exch def
1000
/width exch def
1000
/ctm matrix currentmatrix def
1000
/ptm matrix def
1000
/str 32 string def
1000
/slice 9 dict def
1000
slice /s 1 put
1000
slice /q 256 procarray length div sqrt floor cvi put
1000
slice /b 0 put
1000
/FontBBox [0 0 0 0] def
1000
/FontMatrix mtx matrix copy def
1000
/Encoding patternencoding def
1000
/FontType 3 def
1000
/BuildChar
1000
^I{
1000
^Iexch
1000
 begin
1000
^I/setstrokeadjust where {pop true setstrokeadjust} if
1000
^Islice begin
1000
^Idup q dup mul mod s idiv /i exch def
1000
^Idup q dup mul mod s mod /j exch def
1000
^Iq dup mul idiv procarray exch get
1000
^I/xl j width s div mul def
1000
^I/xg j 1 add width s div mul def
1000
^I/yl i height s div mul def
1000
^I/yg i 1 add height s div mul def
1000
^Iuniform
1000
^I^I{
1000
^I^I1 1
1000
^I^I}
1000
^I^I{
1000
^I^Iwidth 0 dtransform
1000
^I^Idup mul exch dup mul add sqrt dup 1 add exch div
1000
^I^I0 height dtransform
1000
^I^Idup mul exch dup mul add sqrt dup 1 add exch div
1000
^I^I} ifelse
1000
^Iwidth 0 cache
1000
^I^I{
1000
^I^Ixl 4 index mul yl 4 index mul xg 6 index mul yg 6 index mul
1000
^I^Isetcachedevice
1000
^I^I}
1000
^I^I{
1000
^I^Isetcharwidth
1000
^I^I} ifelse
1000
^Igsave
1000
^Iscale
1000
^Inewpath
1000
^Ixl yl moveto
1000
^Ixg yl lineto
1000
^Ixg yg lineto
1000
^Ixl yg lineto
1000
^Iclosepath
1000
^Iclip
1000
^Inewpath
1000
 end
1000
 end
1000
^Iexec
1000
^Igrestore
1000
^I} def
1000
key currentdict definefont
1000
end
1000
} def
1000
/patterncachesize
1000
{
1000
gsave
1000
newpath
1000
0 0 moveto
1000
width 0 lineto
1000
width height lineto
1000
0 height lineto
1000
closepath
1000
patternmatrix setmatrix
1000
pathbbox
1000
exch ceiling 4 -1 roll floor sub 3 1 roll
1000
ceiling exch floor sub
1000
mul 1 add
1000
grestore
1070
     1
1002
}
  0
LINE
  5
B2
330
1E
100
AcDbEntity
  8
ADP1DETAIL
100
AcDbLine
 10
-0.0059701492537323
 20
26.2225873505486
 30
0.0
 11
-0.0059701492537323
 21
26.95545537085317
 31
0.0
  0
LINE
  5
B3
330
1E
100
AcDbEntity
  8
ADP1DETAIL
100
AcDbLine
 10
3.245298886279264
 20
23.27779039623388
 30
0.0
 11
3.245298886279264
 21
25.90279039623387
 31
0.0
  0
LINE
  5
B4
330
1E
100
AcDbEntity
  8
ADP1DETAIL
100
AcDbLine
 10
3.245298886279264
 20
23.27779039623388
 30
0.0
 11
3.245298886279264
 21
23.27779039623388
 31
0.0
  0
LWPOLYLINE
  5
B5
330
1E
100
AcDbEntity
  8
ADP1DETAIL
100
AcDbPolyline
 90
        4
 70
     0
 43
0.0
 10
1.992760815213273
 20
26.95545537085317
 42
-0.07623447460799
 10
3.058750662929011
 20
26.79555689369582
 42
-0.6757773424970325
 10
3.125375028411244
 20
26.41579801044709
 42
-0.1085075849235041
 10
2.192633911659974
 20
26.22258735054861
 42
-167.8498702960093
  0
LINE
  5
BB
330
1E
100
AcDbEntity
  8
ADP1DETAIL
100
AcDbLine
 10
2.192633911659975
 20
26.2225873505486
 30
0.0
 11
1.992760815213273
 21
26.2225873505486
 31
0.0
  0
LINE
  5
BC
330
1E
100
AcDbEntity
  8
ADP1DETAIL
100
AcDbLine
 10
1.992760815213273
 20
26.2225873505486
 30
0.0
 11
1.992760815213273
 21
26.2225873505486
 31
0.0
  0
TEXT
  5
C0
330
1E
100
AcDbEntity
  8
ADPDIM
100
AcDbText
 10
-5.081872551678229
 20
22.2104389152158
 30
0.0
 40
0.125
  1
J U L I U S  B L U M  &  C O . ,  I N C .      ( 8 0 0 )  5 2 6 - 6 2 9 3        W W W . J U L I U S B L U M . C O M        P A R T  N o .  6 9 0 1 - N
 41
1.25
  7
ARIAL_WIDE
 72
     1
 11
1.619664368512766
 21
22.3354389152158
 31
0.0
100
AcDbText
 73
     3
  0
ENDSEC
  0
SECTION
  2
OBJECTS
  0
DICTIONARY
  5
C
330
0
100
AcDbDictionary
  3
ACAD_GROUP
350
D
  3
ACAD_LAYOUT
350
19
  3
ACAD_MLINESTYLE
350
16
  3
ACAD_PLOTSETTINGS
350
18
  3
ACAD_PLOTSTYLENAME
350
E
  3
ACDBHEADERROUNDTRIPXREC
350
253
  3
ACDBVARIABLEDICTIONARY
350
131
  0
DICTIONARY
  5
FC
330
1E
100
AcDbDictionary
280
     1
  3
ACAD_LAYOUTSELFREF
360
275
  0
DICTIONARY
  5
FE
330
1A
100
AcDbDictionary
280
     1
  3
ACAD_LAYOUTSELFREF
360
274
  0
DICTIONARY
  5
D
102
{ACAD_REACTORS
330
C
102
}
330
C
100
AcDbDictionary
  0
DICTIONARY
  5
19
102
{ACAD_REACTORS
330
C
102
}
330
C
100
AcDbDictionary
  0
DICTIONARY
  5
16
102
{ACAD_REACTORS
330
C
102
}
330
C
100
AcDbDictionary
  3
STANDARD
350
17
  0
DICTIONARY
  5
18
102
{ACAD_REACTORS
330
C
102
}
330
C
100
AcDbDictionary
  0
ACDBDICTIONARYWDFLT
  5
E
102
{ACAD_REACTORS
330
C
102
}
330
C
100
AcDbDictionary
281
     1
  3
Normal
350
F
100
AcDbDictionaryWithDefault
340
F
  0
DICTIONARY
  5
253
102
{ACAD_REACTORS
330
C
102
}
330
C
100
AcDbDictionary
  3
CEPSNTYPE
350
25D
  3
DIMSTYLEDATA
350
261
  3
FINGERPRINTGUID
350
25E
  3
HYPERLINKBASE
350
256
  3
INSUNITS
350
25C
  3
LAYOUTDICT
350
258
  3
LWETCUNION
350
25B
  3
PLOTSETDICT
350
259
  3
PLOTSTYLNAMDICT
350
25A
  3
PSVPSCALE
350
260
  3
PUCSBASE
350
264
  3
PUCSORGBACK
350
26A
  3
PUCSORGBOTTOM
350
266
  3
PUCSORGFRONT
350
269
  3
PUCSORGLEFT
350
267
  3
PUCSORGRIGHT
350
268
  3
PUCSORGTOP
350
265
  3
PUCSORTHOREF
350
262
  3
PUCSORTHOVIEW
350
263
  3
STYLESHEET
350
257
  3
TSTACKALIGN
350
254
  3
TSTACKSIZE
350
255
  3
UCSBASE
350
26D
  3
UCSORGBACK
350
273
  3
UCSORGBOTTOM
350
26F
  3
UCSORGFRONT
350
272
  3
UCSORGLEFT
350
270
  3
UCSORGRIGHT
350
271
  3
UCSORGTOP
350
26E
  3
UCSORTHOREF
350
26B
  3
UCSORTHOVIEW
350
26C
  3
VERSIONGUID
350
25F
  0
DICTIONARY
  5
131
102
{ACAD_REACTORS
330
C
102
}
330
C
100
AcDbDictionary
  3
DIMASSOC
350
133
  3
HIDETEXT
350
132
  0
XRECORD
  5
275
102
{ACAD_REACTORS
330
FC
102
}
330
FC
100
AcDbXrecord
340
1E
  0
XRECORD
  5
274
102
{ACAD_REACTORS
330
FE
102
}
330
FE
100
AcDbXrecord
340
1A
  0
MLINESTYLE
  5
17
102
{ACAD_REACTORS
330
16
102
}
330
16
100
AcDbMlineStyle
  2
STANDARD
 70
     0
  3

 62
   256
 51
90.0
 52
90.0
 71
     2
 49
0.5
 62
   256
  6
BYLAYER
 49
-0.5
 62
   256
  6
BYLAYER
  0
ACDBPLACEHOLDER
  5
F
102
{ACAD_REACTORS
330
E
102
}
330
E
100
AcDbPlaceHolder
280
     0
  0
XRECORD
  5
25D
102
{ACAD_REACTORS
330
253
102
}
330
253
100
AcDbXrecord
 90
        0
  0
XRECORD
  5
261
102
{ACAD_REACTORS
330
253
102
}
330
253
100
AcDbXrecord
1000
DSTYLE
1002
{
1070
   277
 70
     5
1070
   279
 70
     2
1002
}
  0
XRECORD
  5
25E
102
{ACAD_REACTORS
330
253
102
}
330
253
100
AcDbXrecord
  1
{8F544D65-BE90-44FB-9FB6-C8FD64A1F3D8}
  0
XRECORD
  5
256
102
{ACAD_REACTORS
330
253
102
}
330
253
100
AcDbXrecord
  1

  0
XRECORD
  5
25C
102
{ACAD_REACTORS
330
253
102
}
330
253
100
AcDbXrecord
 90
        0
  0
XRECORD
  5
258
102
{ACAD_REACTORS
330
253
102
}
330
253
100
AcDbXrecord
340
19
  0
XRECORD
  5
25B
102
{ACAD_REACTORS
330
253
102
}
330
253
100
AcDbXrecord
 90
    14877
  0
XRECORD
  5
259
102
{ACAD_REACTORS
330
253
102
}
330
253
100
AcDbXrecord
340
18
  0
XRECORD
  5
25A
102
{ACAD_REACTORS
330
253
102
}
330
253
100
AcDbXrecord
340
E
  0
XRECORD
  5
260
102
{ACAD_REACTORS
330
253
102
}
330
253
100
AcDbXrecord
 40
0.0
  0
XRECORD
  5
264
102
{ACAD_REACTORS
330
253
102
}
330
253
100
AcDbXrecord
340
0
  0
XRECORD
  5
26A
102
{ACAD_REACTORS
330
253
102
}
330
253
100
AcDbXrecord
 10
0.0
 20
0.0
 30
0.0
  0
XRECORD
  5
266
102
{ACAD_REACTORS
330
253
102
}
330
253
100
AcDbXrecord
 10
0.0
 20
0.0
 30
0.0
  0
XRECORD
  5
269
102
{ACAD_REACTORS
330
253
102
}
330
253
100
AcDbXrecord
 10
0.0
 20
0.0
 30
0.0
  0
XRECORD
  5
267
102
{ACAD_REACTORS
330
253
102
}
330
253
100
AcDbXrecord
 10
0.0
 20
0.0
 30
0.0
  0
XRECORD
  5
268
102
{ACAD_REACTORS
330
253
102
}
330
253
100
AcDbXrecord
 10
0.0
 20
0.0
 30
0.0
  0
XRECORD
  5
265
102
{ACAD_REACTORS
330
253
102
}
330
253
100
AcDbXrecord
 10
0.0
 20
0.0
 30
0.0
  0
XRECORD
  5
262
102
{ACAD_REACTORS
330
253
102
}
330
253
100
AcDbXrecord
340
0
  0
XRECORD
  5
263
102
{ACAD_REACTORS
330
253
102
}
330
253
100
AcDbXrecord
 70
     0
  0
XRECORD
  5
257
102
{ACAD_REACTORS
330
253
102
}
330
253
100
AcDbXrecord
  1

  0
XRECORD
  5
254
102
{ACAD_REACTORS
330
253
102
}
330
253
100
AcDbXrecord
 90
        1
  0
XRECORD
  5
255
102
{ACAD_REACTORS
330
253
102
}
330
253
100
AcDbXrecord
 90
       70
  0
XRECORD
  5
26D
102
{ACAD_REACTORS
330
253
102
}
330
253
100
AcDbXrecord
340
0
  0
XRECORD
  5
273
102
{ACAD_REACTORS
330
253
102
}
330
253
100
AcDbXrecord
 10
0.0
 20
0.0
 30
0.0
  0
XRECORD
  5
26F
102
{ACAD_REACTORS
330
253
102
}
330
253
100
AcDbXrecord
 10
0.0
 20
0.0
 30
0.0
  0
XRECORD
  5
272
102
{ACAD_REACTORS
330
253
102
}
330
253
100
AcDbXrecord
 10
0.0
 20
0.0
 30
0.0
  0
XRECORD
  5
270
102
{ACAD_REACTORS
330
253
102
}
330
253
100
AcDbXrecord
 10
0.0
 20
0.0
 30
0.0
  0
XRECORD
  5
271
102
{ACAD_REACTORS
330
253
102
}
330
253
100
AcDbXrecord
 10
0.0
 20
0.0
 30
0.0
  0
XRECORD
  5
26E
102
{ACAD_REACTORS
330
253
102
}
330
253
100
AcDbXrecord
 10
0.0
 20
0.0
 30
0.0
  0
XRECORD
  5
26B
102
{ACAD_REACTORS
330
253
102
}
330
253
100
AcDbXrecord
340
0
  0
XRECORD
  5
26C
102
{ACAD_REACTORS
330
253
102
}
330
253
100
AcDbXrecord
 70
     0
  0
XRECORD
  5
25F
102
{ACAD_REACTORS
330
253
102
}
330
253
100
AcDbXrecord
  1
{5533C345-99F2-40E0-B216-4E0662D48ED4}
  0
DICTIONARYVAR
  5
133
102
{ACAD_REACTORS
330
131
102
}
330
131
100
DictionaryVariables
280
     0
  1
2
  0
DICTIONARYVAR
  5
132
102
{ACAD_REACTORS
330
131
102
}
330
131
100
DictionaryVariables
280
     0
  1
1
  0
ENDSEC
  0
EOF
