  0
SECTION
  2
HEADER
  9
$ACADVER
  1
AC1014
  9
$ACADMAINTVER
 70
     9
  9
$DWGCODEPAGE
  3
ANSI_1252
  9
$INSBASE
 10
1.014907816075841
 20
1.427304607217118
 30
0.0
  9
$EXTMIN
 10
-3.191566813427219
 20
0.6690375631647772
 30
0.0
  9
$EXTMAX
 10
6.597026723407705
 20
2.593971273883785
 30
0.0
  9
$LIMMIN
 10
0.0
 20
0.0
  9
$LIMMAX
 10
36.0
 20
36.0
  9
$ORTHOMODE
 70
     1
  9
$REGENMODE
 70
     1
  9
$FILLMODE
 70
     1
  9
$QTEXTMODE
 70
     0
  9
$MIRRTEXT
 70
     1
  9
$DRAGMODE
 70
     0
  9
$LTSCALE
 40
1.0
  9
$OSMODE
 70
    37
  9
$ATTMODE
 70
     1
  9
$TEXTSIZE
 40
0.2
  9
$TRACEWID
 40
0.05
  9
$TEXTSTYLE
  7
STANDARD
  9
$CLAYER
  8
ADPDIM
  9
$CELTYPE
  6
BYLAYER
  9
$CECOLOR
 62
   256
  9
$CELTSCALE
 40
1.0
  9
$DELOBJ
 70
     1
  9
$DISPSILH
 70
     0
  9
$DIMSCALE
 40
1.0
  9
$DIMASZ
 40
0.125
  9
$DIMEXO
 40
0.0625
  9
$DIMDLI
 40
0.38
  9
$DIMRND
 40
0.0
  9
$DIMDLE
 40
0.0
  9
$DIMEXE
 40
0.18
  9
$DIMTP
 40
0.0
  9
$DIMTM
 40
0.0
  9
$DIMTXT
 40
0.125
  9
$DIMCEN
 40
0.1875
  9
$DIMTSZ
 40
0.125
  9
$DIMTOL
 70
     0
  9
$DIMLIM
 70
     0
  9
$DIMTIH
 70
     0
  9
$DIMTOH
 70
     0
  9
$DIMSE1
 70
     0
  9
$DIMSE2
 70
     0
  9
$DIMTAD
 70
     0
  9
$DIMZIN
 70
     3
  9
$DIMBLK
  1

  9
$DIMASO
 70
     1
  9
$DIMSHO
 70
     1
  9
$DIMPOST
  1

  9
$DIMAPOST
  1

  9
$DIMALT
 70
     0
  9
$DIMALTD
 70
     1
  9
$DIMALTF
 40
25.4
  9
$DIMLFAC
 40
1.0
  9
$DIMTOFL
 70
     0
  9
$DIMTVP
 40
0.0
  9
$DIMTIX
 70
     0
  9
$DIMSOXD
 70
     0
  9
$DIMSAH
 70
     0
  9
$DIMBLK1
  1

  9
$DIMBLK2
  1

  9
$DIMSTYLE
  2
STANDARD
  9
$DIMCLRD
 70
     0
  9
$DIMCLRE
 70
     0
  9
$DIMCLRT
 70
     0
  9
$DIMTFAC
 40
1.0
  9
$DIMGAP
 40
0.125
  9
$DIMJUST
 70
     0
  9
$DIMSD1
 70
     0
  9
$DIMSD2
 70
     0
  9
$DIMTOLJ
 70
     1
  9
$DIMTZIN
 70
     0
  9
$DIMALTZ
 70
     0
  9
$DIMALTTZ
 70
     0
  9
$DIMFIT
 70
     3
  9
$DIMUPT
 70
     0
  9
$DIMUNIT
 70
     2
  9
$DIMDEC
 70
     4
  9
$DIMTDEC
 70
     4
  9
$DIMALTU
 70
     2
  9
$DIMALTTD
 70
     2
  9
$DIMTXSTY
  7
STANDARD
  9
$DIMAUNIT
 70
     0
  9
$LUNITS
 70
     5
  9
$LUPREC
 70
     4
  9
$SKETCHINC
 40
0.1
  9
$FILLETRAD
 40
0.0
  9
$AUNITS
 70
     0
  9
$AUPREC
 70
     0
  9
$MENU
  1
acad
  9
$ELEVATION
 40
0.0
  9
$PELEVATION
 40
0.0
  9
$THICKNESS
 40
0.0
  9
$LIMCHECK
 70
     0
  9
$BLIPMODE
 70
     0
  9
$CHAMFERA
 40
0.0
  9
$CHAMFERB
 40
0.0
  9
$CHAMFERC
 40
0.0
  9
$CHAMFERD
 40
0.0
  9
$SKPOLY
 70
     0
  9
$TDCREATE
 40
2450224.432447523
  9
$TDUPDATE
 40
2452297.094279143
  9
$TDINDWG
 40
0.0521964815
  9
$TDUSRTIMER
 40
0.0521964815
  9
$USRTIMER
 70
     1
  9
$ANGBASE
 50
0.0
  9
$ANGDIR
 70
     0
  9
$PDMODE
 70
     0
  9
$PDSIZE
 40
0.0
  9
$PLINEWID
 40
0.0
  9
$COORDS
 70
     2
  9
$SPLFRAME
 70
     0
  9
$SPLINETYPE
 70
     6
  9
$SPLINESEGS
 70
     8
  9
$ATTDIA
 70
     0
  9
$ATTREQ
 70
     1
  9
$HANDLING
 70
 22529
  9
$HANDSEED
  5
1E8
  9
$SURFTAB1
 70
     6
  9
$SURFTAB2
 70
     6
  9
$SURFTYPE
 70
     6
  9
$SURFU
 70
     6
  9
$SURFV
 70
     6
  9
$UCSNAME
  2

  9
$UCSORG
 10
0.0
 20
0.0
 30
0.0
  9
$UCSXDIR
 10
1.0
 20
0.0
 30
0.0
  9
$UCSYDIR
 10
0.0
 20
1.0
 30
0.0
  9
$PUCSNAME
  2

  9
$PUCSORG
 10
0.0
 20
0.0
 30
0.0
  9
$PUCSXDIR
 10
1.0
 20
0.0
 30
0.0
  9
$PUCSYDIR
 10
0.0
 20
1.0
 30
0.0
  9
$USERI1
 70
     0
  9
$USERI2
 70
     0
  9
$USERI3
 70
     0
  9
$USERI4
 70
     0
  9
$USERI5
 70
     0
  9
$USERR1
 40
0.0
  9
$USERR2
 40
0.0
  9
$USERR3
 40
0.0
  9
$USERR4
 40
0.0
  9
$USERR5
 40
0.0
  9
$WORLDVIEW
 70
     1
  9
$SHADEDGE
 70
     3
  9
$SHADEDIF
 70
    70
  9
$TILEMODE
 70
     1
  9
$MAXACTVP
 70
    15
  9
$PINSBASE
 10
0.0008545056916773
 20
1.250276130627782
 30
0.0
  9
$PLIMCHECK
 70
     0
  9
$PEXTMIN
 10
1.000000000000000E+20
 20
1.000000000000000E+20
 30
1.000000000000000E+20
  9
$PEXTMAX
 10
-1.000000000000000E+20
 20
-1.000000000000000E+20
 30
-1.000000000000000E+20
  9
$PLIMMIN
 10
0.0
 20
0.0
  9
$PLIMMAX
 10
12.0
 20
9.0
  9
$UNITMODE
 70
     0
  9
$VISRETAIN
 70
     0
  9
$PLINEGEN
 70
     0
  9
$PSLTSCALE
 70
     1
  9
$TREEDEPTH
 70
  3020
  9
$PICKSTYLE
 70
     1
  9
$CMLSTYLE
  2
STANDARD
  9
$CMLJUST
 70
     0
  9
$CMLSCALE
 40
1.0
  9
$PROXYGRAPHICS
 70
     1
  9
$MEASUREMENT
 70
     0
  0
ENDSEC
  0
SECTION
  2
CLASSES
  0
CLASS
  1
ACDBDICTIONARYWDFLT
  2
AcDbDictionaryWithDefault
  3
AutoCAD 2000
 90
        0
280
     0
281
     0
  0
CLASS
  1
ACDBPLACEHOLDER
  2
AcDbPlaceHolder
  3
AutoCAD 2000
 90
        0
280
     0
281
     0
  0
CLASS
  1
LAYOUT
  2
AcDbLayout
  3
AutoCAD 2000
 90
        0
280
     0
281
     0
  0
CLASS
  1
DICTIONARYVAR
  2
AcDbDictionaryVar
  3
AutoCAD 2000
 90
        0
280
     0
281
     0
  0
CLASS
  1
LONG_TRANSACTION
  2
AcDbLongTransaction
  3
AutoCAD 2000
 90
        0
280
     0
281
     0
  0
CLASS
  1
LWPOLYLINE
  2
AcDbPolyline
  3
AutoCAD 2000
 90
        0
280
     0
281
     1
  0
CLASS
  1
HATCH
  2
AcDbHatch
  3
AutoCAD 2000
 90
        0
280
     0
281
     1
  0
CLASS
  1
XRECORD
  2
AcDbXrecord
  3
AutoCAD 2000
 90
        0
280
     0
281
     0
  0
CLASS
  1
LONG_TRANSACTION
  2
AcDbLongTransaction
  3
AutoCAD 2000
 90
        0
280
     0
281
     0
  0
CLASS
  1
LWPOLYLINE
  2
AcDbPolyline
  3
AutoCAD 2000
 90
        0
280
     0
281
     1
  0
CLASS
  1
HATCH
  2
AcDbHatch
  3
AutoCAD 2000
 90
        0
280
     0
281
     1
  0
CLASS
  1
XRECORD
  2
AcDbXrecord
  3
AutoCAD 2000
 90
        0
280
     0
281
     0
  0
CLASS
  1
LONG_TRANSACTION
  2
AcDbLongTransaction
  3
AutoCAD 2000
 90
        0
280
     0
281
     0
  0
CLASS
  1
LWPOLYLINE
  2
AcDbPolyline
  3
AutoCAD 2000
 90
        0
280
     0
281
     1
  0
CLASS
  1
HATCH
  2
AcDbHatch
  3
AutoCAD 2000
 90
        0
280
     0
281
     1
  0
CLASS
  1
XRECORD
  2
AcDbXrecord
  3
AutoCAD 2000
 90
        0
280
     0
281
     0
  0
CLASS
  1
LONG_TRANSACTION
  2
AcDbLongTransaction
  3
AutoCAD 2000
 90
        0
280
     0
281
     0
  0
CLASS
  1
LWPOLYLINE
  2
AcDbPolyline
  3
AutoCAD 2000
 90
        0
280
     0
281
     1
  0
CLASS
  1
HATCH
  2
AcDbHatch
  3
AutoCAD 2000
 90
        0
280
     0
281
     1
  0
CLASS
  1
XRECORD
  2
AcDbXrecord
  3
AutoCAD 2000
 90
        0
280
     0
281
     0
  0
CLASS
  1
LONG_TRANSACTION
  2
AcDbLongTransaction
  3
AutoCAD 2000
 90
        0
280
     0
281
     0
  0
CLASS
  1
LWPOLYLINE
  2
AcDbPolyline
  3
AutoCAD 2000
 90
        0
280
     0
281
     1
  0
CLASS
  1
HATCH
  2
AcDbHatch
  3
AutoCAD 2000
 90
        0
280
     0
281
     1
  0
CLASS
  1
XRECORD
  2
AcDbXrecord
  3
AutoCAD 2000
 90
        0
280
     0
281
     0
  0
ENDSEC
  0
SECTION
  2
TABLES
  0
TABLE
  2
VPORT
  5
8
330
0
100
AcDbSymbolTable
 70
     2
  0
VPORT
  5
1C5
330
8
100
AcDbSymbolTableRecord
100
AcDbViewportTableRecord
  2
*ACTIVE
 70
     0
 10
0.0
 20
0.0
 11
1.0
 21
1.0
 12
1.710453268919631
 22
1.632709026966508
 13
0.0
 23
0.0
 14
0.5740882589684922
 24
0.5740882589684922
 15
0.5
 25
0.5
 16
0.0
 26
0.0
 36
1.0
 17
0.0
 27
0.0
 37
0.0
 40
6.275414600783454
 41
1.570528967254408
 42
50.0
 43
0.0
 44
0.0
 50
0.0
 51
0.0
 71
     0
 72
   100
 73
     1
 74
     0
 75
     0
 76
     0
 77
     0
 78
     0
  0
ENDTAB
  0
TABLE
  2
LTYPE
  5
5
330
0
100
AcDbSymbolTable
 70
     1
  0
LTYPE
  5
12
330
5
100
AcDbSymbolTableRecord
100
AcDbLinetypeTableRecord
  2
BYBLOCK
 70
     0
  3

 72
    65
 73
     0
 40
0.0
  0
LTYPE
  5
13
330
5
100
AcDbSymbolTableRecord
100
AcDbLinetypeTableRecord
  2
BYLAYER
 70
     0
  3

 72
    65
 73
     0
 40
0.0
  0
LTYPE
  5
14
330
5
100
AcDbSymbolTableRecord
100
AcDbLinetypeTableRecord
  2
CONTINUOUS
 70
     0
  3
Solid line
 72
    65
 73
     0
 40
0.0
  0
ENDTAB
  0
TABLE
  2
LAYER
  5
2
330
0
100
AcDbSymbolTable
 70
     4
  0
LAYER
  5
F
330
2
100
AcDbSymbolTableRecord
100
AcDbLayerTableRecord
  2
0
 70
     0
 62
     7
  6
CONTINUOUS
  0
LAYER
  5
2D
330
2
100
AcDbSymbolTableRecord
100
AcDbLayerTableRecord
  2
ADPDIM
 70
     0
 62
     3
  6
CONTINUOUS
  0
LAYER
  5
2F
330
2
100
AcDbSymbolTableRecord
100
AcDbLayerTableRecord
  2
ADP1DETAIL
 70
     0
 62
     7
  6
CONTINUOUS
  0
LAYER
  5
31
330
2
100
AcDbSymbolTableRecord
100
AcDbLayerTableRecord
  2
DEFPOINTS
 70
     0
 62
     7
  6
CONTINUOUS
  0
ENDTAB
  0
TABLE
  2
STYLE
  5
3
330
0
100
AcDbSymbolTable
 70
     2
  0
STYLE
  5
10
330
3
100
AcDbSymbolTableRecord
100
AcDbTextStyleTableRecord
  2
STANDARD
 70
     0
 40
0.0
 41
1.0
 50
0.0
 71
     0
 42
0.2
  3
txt
  4

  0
STYLE
  5
81
330
3
100
AcDbSymbolTableRecord
100
AcDbTextStyleTableRecord
  2
ARIAL_WIDE
 70
     0
 40
0.0
 41
1.25
 50
0.0
 71
     0
 42
0.2
  3
ARIAL.TTF
  4

1001
ACAD
1000
Arial
1071
       34
  0
ENDTAB
  0
TABLE
  2
VIEW
  5
6
330
0
100
AcDbSymbolTable
 70
     0
  0
ENDTAB
  0
TABLE
  2
UCS
  5
7
330
0
100
AcDbSymbolTable
 70
     0
  0
ENDTAB
  0
TABLE
  2
APPID
  5
9
330
0
100
AcDbSymbolTable
 70
     1
  0
APPID
  5
11
330
9
100
AcDbSymbolTableRecord
100
AcDbRegAppTableRecord
  2
ACAD
 70
     0
  0
ENDTAB
  0
TABLE
  2
DIMSTYLE
  5
A
330
0
100
AcDbSymbolTable
 70
     1
  0
DIMSTYLE
105
75
330
A
100
AcDbSymbolTableRecord
100
AcDbDimStyleTableRecord
  2
STANDARD
 70
     0
  3

  4

  5

  6

  7

 40
1.0
 41
0.18
 42
0.0625
 43
0.38
 44
0.18
 45
0.0
 46
0.0
 47
0.0
 48
0.0
140
0.18
141
0.09
142
0.0
143
25.4
144
1.0
145
0.0
146
1.0
147
0.09
 71
     0
 72
     0
 73
     1
 74
     1
 75
     0
 76
     0
 77
     0
 78
     0
170
     0
171
     2
172
     0
173
     0
174
     0
175
     0
176
     0
177
     0
178
     0
270
     2
271
     4
272
     4
273
     2
274
     2
340
10
275
     0
280
     0
281
     0
282
     0
283
     1
284
     0
285
     0
286
     0
287
     3
288
     0
  0
ENDTAB
  0
TABLE
  2
BLOCK_RECORD
  5
1
330
0
100
AcDbSymbolTable
 70
     2
  0
BLOCK_RECORD
  5
18
102
{ACAD_XDICTIONARY
360
D6
102
}
330
1
100
AcDbSymbolTableRecord
100
AcDbBlockTableRecord
  2
*MODEL_SPACE
  0
BLOCK_RECORD
  5
15
102
{ACAD_XDICTIONARY
360
D4
102
}
330
1
100
AcDbSymbolTableRecord
100
AcDbBlockTableRecord
  2
*PAPER_SPACE
  0
BLOCK_RECORD
  5
29
330
1
100
AcDbSymbolTableRecord
100
AcDbBlockTableRecord
  2
*D0
  0
BLOCK_RECORD
  5
2B
330
1
100
AcDbSymbolTableRecord
100
AcDbBlockTableRecord
  2
*D1
  0
ENDTAB
  0
ENDSEC
  0
SECTION
  2
BLOCKS
  0
BLOCK
  5
34
330
18
100
AcDbEntity
  8
0
100
AcDbBlockBegin
  2
*MODEL_SPACE
 70
     0
 10
0.0
 20
0.0
 30
0.0
  3
*MODEL_SPACE
  1

  0
ENDBLK
  5
35
330
18
100
AcDbEntity
  8
0
100
AcDbBlockEnd
  0
BLOCK
  5
32
330
15
100
AcDbEntity
 67
     1
  8
0
100
AcDbBlockBegin
  2
*PAPER_SPACE
 70
     0
 10
0.0
 20
0.0
 30
0.0
  3
*PAPER_SPACE
  1

  0
ENDBLK
  5
33
330
15
100
AcDbEntity
 67
     1
  8
0
100
AcDbBlockEnd
  0
BLOCK
  5
37
330
29
100
AcDbEntity
  8
0
100
AcDbBlockBegin
  2
*D0
 70
     1
 10
0.0
 20
0.0
 30
0.0
  3
*D0
  1

  0
LINE
  5
38
330
29
100
AcDbEntity
  8
0
  6
BYBLOCK
 62
     0
100
AcDbLine
 10
1.326907816075841
 20
1.989804607217118
 30
0.0
 11
1.326907816075841
 21
2.283687247747919
 31
0.0
  0
LINE
  5
39
330
29
100
AcDbEntity
  8
0
  6
BYBLOCK
 62
     0
100
AcDbLine
 10
2.139907816075841
 20
1.692804607217118
 30
0.0
 11
2.139907816075841
 21
2.283687247747918
 31
0.0
  0
LINE
  5
3A
330
29
100
AcDbEntity
  8
0
  6
BYBLOCK
 62
     0
100
AcDbLine
 10
1.326907816075841
 20
2.103687247747918
 30
0.0
 11
1.076907816075841
 21
2.103687247747918
 31
0.0
  0
LINE
  5
3B
330
29
100
AcDbEntity
  8
0
  6
BYBLOCK
 62
     0
100
AcDbLine
 10
2.139907816075841
 20
2.103687247747918
 30
0.0
 11
2.389907816075841
 21
2.103687247747918
 31
0.0
  0
LINE
  5
3C
330
29
100
AcDbEntity
  8
0
  6
BYBLOCK
 62
     0
100
AcDbLine
 10
1.201907816075841
 20
1.978687247747918
 30
0.0
 11
1.451907816075841
 21
2.228687247747918
 31
0.0
  0
LINE
  5
3D
330
29
100
AcDbEntity
  8
0
  6
BYBLOCK
 62
     0
100
AcDbLine
 10
2.014907816075841
 20
1.978687247747918
 30
0.0
 11
2.264907816075841
 21
2.228687247747918
 31
0.0
  0
TEXT
  5
3E
330
29
100
AcDbEntity
  8
0
  6
BYBLOCK
 62
     0
100
AcDbText
 10
2.514907816075841
 20
2.041187247747918
 30
0.0
 40
0.125
  1
13/16
 72
     1
 11
2.764907816075841
 21
2.103687247747918
 31
0.0
100
AcDbText
 73
     2
  0
POINT
  5
3F
330
29
100
AcDbEntity
  8
DEFPOINTS
  6
BYBLOCK
 62
     0
100
AcDbPoint
 10
1.326907816075841
 20
1.927304607217118
 30
0.0
  0
POINT
  5
40
330
29
100
AcDbEntity
  8
DEFPOINTS
  6
BYBLOCK
 62
     0
100
AcDbPoint
 10
2.139907816075841
 20
1.630304607217118
 30
0.0
  0
POINT
  5
41
330
29
100
AcDbEntity
  8
DEFPOINTS
  6
BYBLOCK
 62
     0
100
AcDbPoint
 10
2.139907816075841
 20
2.103687247747918
 30
0.0
  0
ENDBLK
  5
42
330
29
100
AcDbEntity
  8
0
100
AcDbBlockEnd
  0
BLOCK
  5
43
330
2B
100
AcDbEntity
  8
0
100
AcDbBlockBegin
  2
*D1
 70
     1
 10
0.0
 20
0.0
 30
0.0
  3
*D1
  1

  0
LINE
  5
44
330
2B
100
AcDbEntity
  8
0
  6
BYBLOCK
 62
     0
100
AcDbLine
 10
0.9524078160758413
 20
1.427304607217118
 30
0.0
 11
0.6642345600518006
 21
1.427304607217118
 31
0.0
  0
LINE
  5
45
330
2B
100
AcDbEntity
  8
0
  6
BYBLOCK
 62
     0
100
AcDbLine
 10
1.264407816075841
 20
1.927304607217118
 30
0.0
 11
0.6642345600518006
 21
1.927304607217118
 31
0.0
  0
LINE
  5
46
330
2B
100
AcDbEntity
  8
0
  6
BYBLOCK
 62
     0
100
AcDbLine
 10
0.8442345600518006
 20
1.427304607217118
 30
0.0
 11
0.8442345600518006
 21
1.177304607217118
 31
0.0
  0
LINE
  5
47
330
2B
100
AcDbEntity
  8
0
  6
BYBLOCK
 62
     0
100
AcDbLine
 10
0.8442345600518006
 20
1.927304607217118
 30
0.0
 11
0.8442345600518006
 21
2.177304607217118
 31
0.0
  0
LINE
  5
48
330
2B
100
AcDbEntity
  8
0
  6
BYBLOCK
 62
     0
100
AcDbLine
 10
0.9692345600518006
 20
1.302304607217118
 30
0.0
 11
0.7192345600518007
 21
1.552304607217118
 31
0.0
  0
LINE
  5
49
330
2B
100
AcDbEntity
  8
0
  6
BYBLOCK
 62
     0
100
AcDbLine
 10
0.9692345600518006
 20
1.802304607217118
 30
0.0
 11
0.7192345600518007
 21
2.052304607217118
 31
0.0
  0
TEXT
  5
4A
330
2B
100
AcDbEntity
  8
0
  6
BYBLOCK
 62
     0
100
AcDbText
 10
0.9067345600518006
 20
2.302304607217118
 30
0.0
 40
0.125
  1
1/2
 50
90.0
 72
     1
 11
0.8442345600518006
 21
2.448137940550452
 31
0.0
100
AcDbText
 73
     2
  0
POINT
  5
4B
330
2B
100
AcDbEntity
  8
DEFPOINTS
  6
BYBLOCK
 62
     0
100
AcDbPoint
 10
1.014907816075841
 20
1.427304607217118
 30
0.0
  0
POINT
  5
4C
330
2B
100
AcDbEntity
  8
DEFPOINTS
  6
BYBLOCK
 62
     0
100
AcDbPoint
 10
1.326907816075841
 20
1.927304607217118
 30
0.0
  0
POINT
  5
4D
330
2B
100
AcDbEntity
  8
DEFPOINTS
  6
BYBLOCK
 62
     0
100
AcDbPoint
 10
0.8442345600518006
 20
1.927304607217118
 30
0.0
  0
ENDBLK
  5
4E
330
2B
100
AcDbEntity
  8
0
100
AcDbBlockEnd
  0
ENDSEC
  0
SECTION
  2
ENTITIES
  0
DIMENSION
  5
4F
330
18
100
AcDbEntity
  8
ADPDIM
100
AcDbDimension
  2
*D1
 10
0.8442345600518006
 20
1.927304607217118
 30
0.0
 11
0.8442345600518006
 21
2.448137940550452
 31
0.0
100
AcDbAlignedDimension
 13
1.014907816075841
 23
1.427304607217118
 33
0.0
 14
1.326907816075841
 24
1.927304607217118
 34
0.0
 50
90.0
100
AcDbRotatedDimension
  0
LINE
  5
50
330
18
100
AcDbEntity
  8
ADP1DETAIL
100
AcDbLine
 10
2.045907816075841
 20
1.427304607217118
 30
0.0
 11
2.045907816075841
 21
1.224304607217118
 31
0.0
  0
ARC
  5
51
330
18
100
AcDbEntity
  8
ADP1DETAIL
100
AcDbCircle
 10
2.139907816075841
 20
1.224304607217118
 30
0.0
 40
0.047
100
AcDbArc
 50
90.0
 51
180.0
  0
LINE
  5
52
330
18
100
AcDbEntity
  8
ADP1DETAIL
100
AcDbLine
 10
2.092907816075841
 20
1.224304607217118
 30
0.0
 11
2.045907816075841
 21
1.224304607217118
 31
0.0
  0
LINE
  5
53
330
18
100
AcDbEntity
  8
ADP1DETAIL
100
AcDbLine
 10
2.084514130012323
 20
1.630304607217118
 30
0.0
 11
2.139907816075841
 21
1.630304607217118
 31
0.0
  0
DIMENSION
  5
54
330
18
100
AcDbEntity
  8
ADPDIM
100
AcDbDimension
  2
*D0
 10
2.139907816075841
 20
2.103687247747918
 30
0.0
 11
2.764907816075841
 21
2.103687247747918
 31
0.0
100
AcDbAlignedDimension
 13
1.326907816075841
 23
1.927304607217118
 33
0.0
 14
2.139907816075841
 24
1.630304607217118
 34
0.0
100
AcDbRotatedDimension
  0
LINE
  5
55
330
18
100
AcDbEntity
  8
ADP1DETAIL
100
AcDbLine
 10
1.014907816075841
 20
1.427304607217118
 30
0.0
 11
1.420907816075841
 21
1.427304607217118
 31
0.0
  0
LINE
  5
56
330
18
100
AcDbEntity
  8
ADP1DETAIL
100
AcDbLine
 10
1.326907816075841
 20
1.927304607217118
 30
0.0
 11
1.732907816075841
 21
1.927304607217118
 31
0.0
  0
LINE
  5
57
330
18
100
AcDbEntity
  8
ADP1DETAIL
100
AcDbLine
 10
1.011907816075841
 20
1.521304607217118
 30
0.0
 11
1.326907816075841
 21
1.521304607217118
 31
0.0
  0
LINE
  5
58
330
18
100
AcDbEntity
  8
ADP1DETAIL
100
AcDbLine
 10
1.011907816075841
 20
1.427304607217118
 30
0.0
 11
1.011907816075841
 21
1.521304607217118
 31
0.0
  0
LINE
  5
59
330
18
100
AcDbEntity
  8
ADP1DETAIL
100
AcDbLine
 10
1.326907816075841
 20
1.521304607217118
 30
0.0
 11
1.326907816075841
 21
1.927304607217118
 31
0.0
  0
ARC
  5
5A
330
18
100
AcDbEntity
  8
ADP1DETAIL
100
AcDbCircle
 10
1.732907816075841
 20
1.427304607217118
 30
0.0
 40
0.312
100
AcDbArc
 50
17.53462237132526
 51
90.0
  0
ARC
  5
5B
330
18
100
AcDbEntity
  8
ADP1DETAIL
100
AcDbCircle
 10
1.732907816075841
 20
1.427304607217118
 30
0.0
 40
0.4060000000000001
100
AcDbArc
 50
30.00000000000001
 51
90.0
  0
LINE
  5
5C
330
18
100
AcDbEntity
  8
ADP1DETAIL
100
AcDbLine
 10
1.638907816075841
 20
1.739304607217118
 30
0.0
 11
1.638907816075841
 21
1.833304607217118
 31
0.0
  0
LINE
  5
5D
330
18
100
AcDbEntity
  8
ADP1DETAIL
100
AcDbLine
 10
1.732907816075841
 20
1.739304607217118
 30
0.0
 11
1.638907816075841
 21
1.739304607217118
 31
0.0
  0
LINE
  5
5E
330
18
100
AcDbEntity
  8
ADP1DETAIL
100
AcDbLine
 10
1.732907816075841
 20
1.927304607217118
 30
0.0
 11
1.732907816075841
 21
1.833304607217118
 31
0.0
  0
LWPOLYLINE
  5
5F
330
18
100
AcDbEntity
  8
ADP1DETAIL
100
AcDbPolyline
 90
        4
 70
     0
 43
0.0
 10
1.420907816075841
 20
1.427304607217118
 10
1.420907816075841
 20
1.833304607217118
 10
1.638907816075841
 20
1.833304607217118
 10
1.638907816075841
 20
1.833304607217118
  0
LWPOLYLINE
  5
65
330
18
100
AcDbEntity
  8
ADP1DETAIL
100
AcDbPolyline
 90
        4
 70
     0
 43
0.0
 10
1.420907816075841
 20
1.427304607217118
 10
1.420907816075841
 20
1.833304607217118
 10
1.638907816075841
 20
1.833304607217118
 10
1.638907816075841
 20
1.833304607217118
  0
LWPOLYLINE
  5
6B
330
18
100
AcDbEntity
  8
ADP1DETAIL
100
AcDbPolyline
 90
        4
 70
     0
 43
0.0
 10
1.420907816075841
 20
1.427304607217118
 10
1.420907816075841
 20
1.833304607217118
 10
1.638907816075841
 20
1.833304607217118
 10
1.638907816075841
 20
1.833304607217118
  0
LINE
  5
71
330
18
100
AcDbEntity
  8
ADP1DETAIL
100
AcDbLine
 10
2.045907816075841
 20
1.427304607217118
 30
0.0
 11
1.952907816075841
 21
1.427304607217118
 31
0.0
  0
LINE
  5
72
330
18
100
AcDbEntity
  8
ADP1DETAIL
100
AcDbLine
 10
1.952907816075841
 20
1.521304607217118
 30
0.0
 11
1.952907816075841
 21
1.427304607217118
 31
0.0
  0
LINE
  5
73
330
18
100
AcDbEntity
  8
ADP1DETAIL
100
AcDbLine
 10
2.030410757237772
 20
1.521304607217118
 30
0.0
 11
1.952907816075841
 21
1.521304607217118
 31
0.0
  0
LINE
  5
74
330
18
100
AcDbEntity
  8
ADP1DETAIL
100
AcDbLine
 10
2.139907816075841
 20
1.630304607217118
 30
0.0
 11
2.139907816075841
 21
1.271304607217118
 31
0.0
  0
TEXT
  5
82
330
18
100
AcDbEntity
  8
ADPDIM
100
AcDbText
 10
-3.191566813427219
 20
0.6967916559342178
 30
0.0
 40
0.09375
  1
J U L I U S  B L U M  &  C O . ,  I N C .      ( 8 0 0 )  5 2 6 - 6 2 9 3        W W W . J U L I U S B L U M . C O M        P A R T  N o .  6 6 4 5
 41
1.25
  7
ARIAL_WIDE
 72
     1
 11
1.702729954990243
 21
0.7905416559342178
 31
0.0
100
AcDbText
 73
     3
  0
ENDSEC
  0
SECTION
  2
OBJECTS
  0
DICTIONARY
  5
C
330
0
100
AcDbDictionary
  3
ACAD_GROUP
350
D
  3
ACAD_LAYOUT
350
7B
  3
ACAD_MLINESTYLE
350
E
  3
ACAD_PLOTSETTINGS
350
7C
  3
ACAD_PLOTSTYLENAME
350
79
  3
ACDBHEADERROUNDTRIPXREC
350
1C6
  3
ACDBVARIABLEDICTIONARY
350
DC
  0
DICTIONARY
  5
D6
330
18
100
AcDbDictionary
280
     1
  3
ACAD_LAYOUTSELFREF
360
1E7
  0
DICTIONARY
  5
D4
330
15
100
AcDbDictionary
280
     1
  3
ACAD_LAYOUTSELFREF
360
1E6
  0
DICTIONARY
  5
D
102
{ACAD_REACTORS
330
C
102
}
330
C
100
AcDbDictionary
  0
DICTIONARY
  5
7B
102
{ACAD_REACTORS
330
C
102
}
330
C
100
AcDbDictionary
  0
DICTIONARY
  5
E
102
{ACAD_REACTORS
330
C
102
}
330
C
100
AcDbDictionary
  3
STANDARD
350
1B
  0
DICTIONARY
  5
7C
102
{ACAD_REACTORS
330
C
102
}
330
C
100
AcDbDictionary
  0
ACDBDICTIONARYWDFLT
  5
79
102
{ACAD_REACTORS
330
C
102
}
330
C
100
AcDbDictionary
281
     1
  3
Normal
350
7A
100
AcDbDictionaryWithDefault
340
7A
  0
DICTIONARY
  5
1C6
102
{ACAD_REACTORS
330
C
102
}
330
C
100
AcDbDictionary
  3
CEPSNTYPE
350
1D0
  3
FINGERPRINTGUID
350
1D1
  3
HYPERLINKBASE
350
1C9
  3
INSUNITS
350
1CF
  3
LAYOUTDICT
350
1CB
  3
LWETCUNION
350
1CE
  3
PLOTSETDICT
350
1CC
  3
PLOTSTYLNAMDICT
350
1CD
  3
PSVPSCALE
350
1D3
  3
PUCSBASE
350
1D6
  3
PUCSORGBACK
350
1DC
  3
PUCSORGBOTTOM
350
1D8
  3
PUCSORGFRONT
350
1DB
  3
PUCSORGLEFT
350
1D9
  3
PUCSORGRIGHT
350
1DA
  3
PUCSORGTOP
350
1D7
  3
PUCSORTHOREF
350
1D4
  3
PUCSORTHOVIEW
350
1D5
  3
STYLESHEET
350
1CA
  3
TSTACKALIGN
350
1C7
  3
TSTACKSIZE
350
1C8
  3
UCSBASE
350
1DF
  3
UCSORGBACK
350
1E5
  3
UCSORGBOTTOM
350
1E1
  3
UCSORGFRONT
350
1E4
  3
UCSORGLEFT
350
1E2
  3
UCSORGRIGHT
350
1E3
  3
UCSORGTOP
350
1E0
  3
UCSORTHOREF
350
1DD
  3
UCSORTHOVIEW
350
1DE
  3
VERSIONGUID
350
1D2
  0
DICTIONARY
  5
DC
102
{ACAD_REACTORS
330
C
102
}
330
C
100
AcDbDictionary
  3
DIMASSOC
350
DD
  0
XRECORD
  5
1E7
102
{ACAD_REACTORS
330
D6
102
}
330
D6
100
AcDbXrecord
340
18
  0
XRECORD
  5
1E6
102
{ACAD_REACTORS
330
D4
102
}
330
D4
100
AcDbXrecord
340
15
  0
MLINESTYLE
  5
1B
102
{ACAD_REACTORS
330
E
102
}
330
E
100
AcDbMlineStyle
  2
STANDARD
 70
     0
  3

 62
     0
 51
90.0
 52
90.0
 71
     2
 49
0.5
 62
   256
  6
BYLAYER
 49
-0.5
 62
   256
  6
BYLAYER
  0
ACDBPLACEHOLDER
  5
7A
102
{ACAD_REACTORS
330
79
102
}
330
79
100
AcDbPlaceHolder
280
     0
  0
XRECORD
  5
1D0
102
{ACAD_REACTORS
330
1C6
102
}
330
1C6
100
AcDbXrecord
 90
        0
  0
XRECORD
  5
1D1
102
{ACAD_REACTORS
330
1C6
102
}
330
1C6
100
AcDbXrecord
  1
{BF9B92E1-09B4-4BD7-997A-984AE1A18F7C}
  0
XRECORD
  5
1C9
102
{ACAD_REACTORS
330
1C6
102
}
330
1C6
100
AcDbXrecord
  1

  0
XRECORD
  5
1CF
102
{ACAD_REACTORS
330
1C6
102
}
330
1C6
100
AcDbXrecord
 90
        0
  0
XRECORD
  5
1CB
102
{ACAD_REACTORS
330
1C6
102
}
330
1C6
100
AcDbXrecord
340
7B
  0
XRECORD
  5
1CE
102
{ACAD_REACTORS
330
1C6
102
}
330
1C6
100
AcDbXrecord
 90
    14877
  0
XRECORD
  5
1CC
102
{ACAD_REACTORS
330
1C6
102
}
330
1C6
100
AcDbXrecord
340
7C
  0
XRECORD
  5
1CD
102
{ACAD_REACTORS
330
1C6
102
}
330
1C6
100
AcDbXrecord
340
79
  0
XRECORD
  5
1D3
102
{ACAD_REACTORS
330
1C6
102
}
330
1C6
100
AcDbXrecord
 40
0.0
  0
XRECORD
  5
1D6
102
{ACAD_REACTORS
330
1C6
102
}
330
1C6
100
AcDbXrecord
340
0
  0
XRECORD
  5
1DC
102
{ACAD_REACTORS
330
1C6
102
}
330
1C6
100
AcDbXrecord
 10
0.0
 20
0.0
 30
0.0
  0
XRECORD
  5
1D8
102
{ACAD_REACTORS
330
1C6
102
}
330
1C6
100
AcDbXrecord
 10
0.0
 20
0.0
 30
0.0
  0
XRECORD
  5
1DB
102
{ACAD_REACTORS
330
1C6
102
}
330
1C6
100
AcDbXrecord
 10
0.0
 20
0.0
 30
0.0
  0
XRECORD
  5
1D9
102
{ACAD_REACTORS
330
1C6
102
}
330
1C6
100
AcDbXrecord
 10
0.0
 20
0.0
 30
0.0
  0
XRECORD
  5
1DA
102
{ACAD_REACTORS
330
1C6
102
}
330
1C6
100
AcDbXrecord
 10
0.0
 20
0.0
 30
0.0
  0
XRECORD
  5
1D7
102
{ACAD_REACTORS
330
1C6
102
}
330
1C6
100
AcDbXrecord
 10
0.0
 20
0.0
 30
0.0
  0
XRECORD
  5
1D4
102
{ACAD_REACTORS
330
1C6
102
}
330
1C6
100
AcDbXrecord
340
0
  0
XRECORD
  5
1D5
102
{ACAD_REACTORS
330
1C6
102
}
330
1C6
100
AcDbXrecord
 70
     0
  0
XRECORD
  5
1CA
102
{ACAD_REACTORS
330
1C6
102
}
330
1C6
100
AcDbXrecord
  1

  0
XRECORD
  5
1C7
102
{ACAD_REACTORS
330
1C6
102
}
330
1C6
100
AcDbXrecord
 90
        1
  0
XRECORD
  5
1C8
102
{ACAD_REACTORS
330
1C6
102
}
330
1C6
100
AcDbXrecord
 90
       70
  0
XRECORD
  5
1DF
102
{ACAD_REACTORS
330
1C6
102
}
330
1C6
100
AcDbXrecord
340
0
  0
XRECORD
  5
1E5
102
{ACAD_REACTORS
330
1C6
102
}
330
1C6
100
AcDbXrecord
 10
0.0
 20
0.0
 30
0.0
  0
XRECORD
  5
1E1
102
{ACAD_REACTORS
330
1C6
102
}
330
1C6
100
AcDbXrecord
 10
0.0
 20
0.0
 30
0.0
  0
XRECORD
  5
1E4
102
{ACAD_REACTORS
330
1C6
102
}
330
1C6
100
AcDbXrecord
 10
0.0
 20
0.0
 30
0.0
  0
XRECORD
  5
1E2
102
{ACAD_REACTORS
330
1C6
102
}
330
1C6
100
AcDbXrecord
 10
0.0
 20
0.0
 30
0.0
  0
XRECORD
  5
1E3
102
{ACAD_REACTORS
330
1C6
102
}
330
1C6
100
AcDbXrecord
 10
0.0
 20
0.0
 30
0.0
  0
XRECORD
  5
1E0
102
{ACAD_REACTORS
330
1C6
102
}
330
1C6
100
AcDbXrecord
 10
0.0
 20
0.0
 30
0.0
  0
XRECORD
  5
1DD
102
{ACAD_REACTORS
330
1C6
102
}
330
1C6
100
AcDbXrecord
340
0
  0
XRECORD
  5
1DE
102
{ACAD_REACTORS
330
1C6
102
}
330
1C6
100
AcDbXrecord
 70
     0
  0
XRECORD
  5
1D2
102
{ACAD_REACTORS
330
1C6
102
}
330
1C6
100
AcDbXrecord
  1
{3D68222A-2B36-4581-B190-E37C55CE1CBF}
  0
DICTIONARYVAR
  5
DD
102
{ACAD_REACTORS
330
DC
102
}
330
DC
100
DictionaryVariables
280
     0
  1
1
  0
ENDSEC
  0
EOF
