  0
SECTION
  2
HEADER
  9
$ACADVER
  1
AC1015
  9
$ACADMAINTVER
 70
    20
  9
$DWGCODEPAGE
  3
ANSI_936
  9
$INSBASE
 10
10.27637575954505
 20
2.398372149616883
 30
0.0
  9
$EXTMIN
 10
3.220642177412102
 20
1.465576257400186
 30
-0.0000000349181948
  9
$EXTMAX
 10
16.27514654523128
 20
3.533752487429595
 30
0.0000000814935747
  9
$LIMMIN
 10
0.0
 20
0.0
  9
$LIMMAX
 10
36.0
 20
36.0
  9
$ORTHOMODE
 70
     1
  9
$REGENMODE
 70
     1
  9
$FILLMODE
 70
     1
  9
$QTEXTMODE
 70
     0
  9
$MIRRTEXT
 70
     1
  9
$LTSCALE
 40
1.0
  9
$ATTMODE
 70
     1
  9
$TEXTSIZE
 40
0.2
  9
$TRACEWID
 40
0.05
  9
$TEXTSTYLE
  7
STANDARD
  9
$CLAYER
  8
ADP1DETAIL
  9
$CELTYPE
  6
BYLAYER
  9
$CECOLOR
 62
   256
  9
$CELTSCALE
 40
1.0
  9
$DISPSILH
 70
     0
  9
$DIMSCALE
 40
1.0
  9
$DIMASZ
 40
0.125
  9
$DIMEXO
 40
0.0625
  9
$DIMDLI
 40
0.38
  9
$DIMRND
 40
0.0
  9
$DIMDLE
 40
0.0
  9
$DIMEXE
 40
0.18
  9
$DIMTP
 40
0.0
  9
$DIMTM
 40
0.0
  9
$DIMTXT
 40
0.125
  9
$DIMCEN
 40
0.1875
  9
$DIMTSZ
 40
0.125
  9
$DIMTOL
 70
     0
  9
$DIMLIM
 70
     0
  9
$DIMTIH
 70
     0
  9
$DIMTOH
 70
     0
  9
$DIMSE1
 70
     0
  9
$DIMSE2
 70
     0
  9
$DIMTAD
 70
     0
  9
$DIMZIN
 70
     3
  9
$DIMBLK
  1

  9
$DIMASO
 70
     1
  9
$DIMSHO
 70
     1
  9
$DIMPOST
  1

  9
$DIMAPOST
  1

  9
$DIMALT
 70
     0
  9
$DIMALTD
 70
     1
  9
$DIMALTF
 40
25.4
  9
$DIMLFAC
 40
1.0
  9
$DIMTOFL
 70
     0
  9
$DIMTVP
 40
0.0
  9
$DIMTIX
 70
     0
  9
$DIMSOXD
 70
     0
  9
$DIMSAH
 70
     0
  9
$DIMBLK1
  1

  9
$DIMBLK2
  1

  9
$DIMSTYLE
  2
STANDARD
  9
$DIMCLRD
 70
     0
  9
$DIMCLRE
 70
     0
  9
$DIMCLRT
 70
     0
  9
$DIMTFAC
 40
1.0
  9
$DIMGAP
 40
0.125
  9
$DIMJUST
 70
     0
  9
$DIMSD1
 70
     0
  9
$DIMSD2
 70
     0
  9
$DIMTOLJ
 70
     1
  9
$DIMTZIN
 70
     0
  9
$DIMALTZ
 70
     0
  9
$DIMALTTZ
 70
     0
  9
$DIMUPT
 70
     0
  9
$DIMDEC
 70
     4
  9
$DIMTDEC
 70
     4
  9
$DIMALTU
 70
     2
  9
$DIMALTTD
 70
     2
  9
$DIMTXSTY
  7
STANDARD
  9
$DIMAUNIT
 70
     0
  9
$DIMADEC
 70
     0
  9
$DIMALTRND
 40
0.0
  9
$DIMAZIN
 70
     0
  9
$DIMDSEP
 70
    46
  9
$DIMATFIT
 70
     3
  9
$DIMFRAC
 70
     0
  9
$DIMLDRBLK
  1

  9
$DIMLUNIT
 70
     2
  9
$DIMLWD
 70
    -2
  9
$DIMLWE
 70
    -2
  9
$DIMTMOVE
 70
     0
  9
$LUNITS
 70
     5
  9
$LUPREC
 70
     5
  9
$SKETCHINC
 40
0.1
  9
$FILLETRAD
 40
0.078125
  9
$AUNITS
 70
     0
  9
$AUPREC
 70
     0
  9
$MENU
  1
acad
  9
$ELEVATION
 40
0.0
  9
$PELEVATION
 40
0.0
  9
$THICKNESS
 40
0.0
  9
$LIMCHECK
 70
     0
  9
$CHAMFERA
 40
0.03125
  9
$CHAMFERB
 40
0.03125
  9
$CHAMFERC
 40
0.0
  9
$CHAMFERD
 40
0.0
  9
$SKPOLY
 70
     0
  9
$TDCREATE
 40
2450277.499608021
  9
$TDUCREATE
 40
2450277.707941355
  9
$TDUPDATE
 40
2455209.623404896
  9
$TDUUPDATE
 40
2455209.831738229
  9
$TDINDWG
 40
0.0643979514
  9
$TDUSRTIMER
 40
0.0643978704
  9
$USRTIMER
 70
     1
  9
$ANGBASE
 50
0.0
  9
$ANGDIR
 70
     0
  9
$PDMODE
 70
     0
  9
$PDSIZE
 40
0.0
  9
$PLINEWID
 40
0.0
  9
$SPLFRAME
 70
     0
  9
$SPLINETYPE
 70
     6
  9
$SPLINESEGS
 70
     8
  9
$HANDSEED
  5
868
  9
$SURFTAB1
 70
     6
  9
$SURFTAB2
 70
     6
  9
$SURFTYPE
 70
     6
  9
$SURFU
 70
     6
  9
$SURFV
 70
     6
  9
$UCSBASE
  2

  9
$UCSNAME
  2

  9
$UCSORG
 10
0.0
 20
0.0
 30
0.0
  9
$UCSXDIR
 10
1.0
 20
0.0
 30
0.0
  9
$UCSYDIR
 10
0.0
 20
1.0
 30
0.0
  9
$UCSORTHOREF
  2

  9
$UCSORTHOVIEW
 70
     0
  9
$UCSORGTOP
 10
0.0
 20
0.0
 30
0.0
  9
$UCSORGBOTTOM
 10
0.0
 20
0.0
 30
0.0
  9
$UCSORGLEFT
 10
0.0
 20
0.0
 30
0.0
  9
$UCSORGRIGHT
 10
0.0
 20
0.0
 30
0.0
  9
$UCSORGFRONT
 10
0.0
 20
0.0
 30
0.0
  9
$UCSORGBACK
 10
0.0
 20
0.0
 30
0.0
  9
$PUCSBASE
  2

  9
$PUCSNAME
  2

  9
$PUCSORG
 10
0.0
 20
0.0
 30
0.0
  9
$PUCSXDIR
 10
1.0
 20
0.0
 30
0.0
  9
$PUCSYDIR
 10
0.0
 20
1.0
 30
0.0
  9
$PUCSORTHOREF
  2

  9
$PUCSORTHOVIEW
 70
     0
  9
$PUCSORGTOP
 10
0.0
 20
0.0
 30
0.0
  9
$PUCSORGBOTTOM
 10
0.0
 20
0.0
 30
0.0
  9
$PUCSORGLEFT
 10
0.0
 20
0.0
 30
0.0
  9
$PUCSORGRIGHT
 10
0.0
 20
0.0
 30
0.0
  9
$PUCSORGFRONT
 10
0.0
 20
0.0
 30
0.0
  9
$PUCSORGBACK
 10
0.0
 20
0.0
 30
0.0
  9
$USERI1
 70
     0
  9
$USERI2
 70
     0
  9
$USERI3
 70
     0
  9
$USERI4
 70
     0
  9
$USERI5
 70
     0
  9
$USERR1
 40
0.0
  9
$USERR2
 40
0.0
  9
$USERR3
 40
0.0
  9
$USERR4
 40
0.0
  9
$USERR5
 40
0.0
  9
$WORLDVIEW
 70
     1
  9
$SHADEDGE
 70
     3
  9
$SHADEDIF
 70
    70
  9
$TILEMODE
 70
     1
  9
$MAXACTVP
 70
    15
  9
$PINSBASE
 10
0.1875029802322391
 20
0.0
 30
0.0
  9
$PLIMCHECK
 70
     0
  9
$PEXTMIN
 10
1.000000000000000E+20
 20
1.000000000000000E+20
 30
1.000000000000000E+20
  9
$PEXTMAX
 10
-1.000000000000000E+20
 20
-1.000000000000000E+20
 30
-1.000000000000000E+20
  9
$PLIMMIN
 10
0.0
 20
0.0
  9
$PLIMMAX
 10
12.0
 20
9.0
  9
$UNITMODE
 70
     0
  9
$VISRETAIN
 70
     0
  9
$PLINEGEN
 70
     0
  9
$PSLTSCALE
 70
     1
  9
$TREEDEPTH
 70
  3020
  9
$CMLSTYLE
  2
STANDARD
  9
$CMLJUST
 70
     0
  9
$CMLSCALE
 40
1.0
  9
$PROXYGRAPHICS
 70
     1
  9
$MEASUREMENT
 70
     0
  9
$CELWEIGHT
370
    -1
  9
$ENDCAPS
280
     0
  9
$JOINSTYLE
280
     0
  9
$LWDISPLAY
290
     0
  9
$INSUNITS
 70
     0
  9
$HYPERLINKBASE
  1

  9
$STYLESHEET
  1

  9
$XEDIT
290
     1
  9
$CEPSNTYPE
380
     0
  9
$PSTYLEMODE
290
     1
  9
$FINGERPRINTGUID
  2
{3352D0D9-50F4-4974-A086-28708CA7B4BD}
  9
$VERSIONGUID
  2
{62C4ED1D-7509-4C6E-BED9-F4CD571A9213}
  9
$EXTNAMES
290
     1
  9
$PSVPSCALE
 40
0.0
  9
$OLESTARTUP
290
     0
  0
ENDSEC
  0
SECTION
  2
CLASSES
  0
CLASS
  1
ACDBDICTIONARYWDFLT
  2
AcDbDictionaryWithDefault
  3
ObjectDBX Classes
 90
        0
280
     0
281
     0
  0
CLASS
  1
ACDBPLACEHOLDER
  2
AcDbPlaceHolder
  3
ObjectDBX Classes
 90
        0
280
     0
281
     0
  0
CLASS
  1
LAYOUT
  2
AcDbLayout
  3
ObjectDBX Classes
 90
        0
280
     0
281
     0
  0
CLASS
  1
DICTIONARYVAR
  2
AcDbDictionaryVar
  3
ObjectDBX Classes
 90
        0
280
     0
281
     0
  0
CLASS
  1
MATERIAL
  2
AcDbMaterial
  3
ObjectDBX Classes
 90
     1024
280
     0
281
     0
  0
CLASS
  1
VISUALSTYLE
  2
AcDbVisualStyle
  3
ObjectDBX Classes
 90
     4095
280
     0
281
     0
  0
CLASS
  1
TABLESTYLE
  2
AcDbTableStyle
  3
ObjectDBX Classes
 90
     4095
280
     0
281
     0
  0
CLASS
  1
ACAD_EVALUATION_GRAPH
  2
AcDbEvalGraph
  3
ObjectDBX Classes
 90
    33921
280
     0
281
     0
  0
CLASS
  1
ACDB_DYNAMICBLOCKPURGEPREVENTER_VERSION
  2
AcDbDynamicBlockPurgePreventer
  3
ObjectDBX Classes
 90
    33921
280
     0
281
     0
  0
ENDSEC
  0
SECTION
  2
TABLES
  0
TABLE
  2
VPORT
  5
8
102
{ACAD_XDICTIONARY
360
27C
102
}
330
0
100
AcDbSymbolTable
 70
     1
  0
VPORT
  5
1B0
330
8
100
AcDbSymbolTableRecord
100
AcDbViewportTableRecord
  2
*Active
 70
     0
 10
0.0
 20
0.0
 11
1.0
 21
1.0
 12
9.747894361321691
 22
2.499664372414891
 13
0.0
 23
0.0
 14
0.5740882589684923
 24
0.5740882589684923
 15
0.5
 25
0.5
 16
0.0
 26
0.0
 36
1.0
 17
0.0
 27
0.0
 37
0.0
 40
5.404826890037277
 41
2.426443202979515
 42
50.0
 43
0.0
 44
0.0
 50
0.0
 51
0.0
 71
     0
 72
   100
 73
     1
 74
     0
 75
     0
 76
     0
 77
     0
 78
     0
281
     0
 65
     1
110
0.0
120
0.0
130
0.0
111
1.0
121
0.0
131
0.0
112
0.0
122
1.0
132
0.0
 79
     0
146
0.0
  0
ENDTAB
  0
TABLE
  2
LTYPE
  5
5
330
0
100
AcDbSymbolTable
 70
     4
  0
LTYPE
  5
12
330
5
100
AcDbSymbolTableRecord
100
AcDbLinetypeTableRecord
  2
BYBLOCK
 70
     0
  3

 72
    65
 73
     0
 40
0.0
  0
LTYPE
  5
13
330
5
100
AcDbSymbolTableRecord
100
AcDbLinetypeTableRecord
  2
BYLAYER
 70
     0
  3

 72
    65
 73
     0
 40
0.0
  0
LTYPE
  5
14
330
5
100
AcDbSymbolTableRecord
100
AcDbLinetypeTableRecord
  2
CONTINUOUS
 70
     0
  3
Solid line
 72
    65
 73
     0
 40
0.0
  0
LTYPE
  5
24
330
5
100
AcDbSymbolTableRecord
100
AcDbLinetypeTableRecord
  2
HIDDEN2
 70
     0
  3
_ _ _ _ _ _ _ _ _ _ _ _ _ _ _ _ _ _ _ _ _ _ _ _
 72
    65
 73
     2
 40
0.1875
 49
0.125
 74
     0
 49
-0.0625
 74
     0
  0
LTYPE
  5
5E6
330
5
100
AcDbSymbolTableRecord
100
AcDbLinetypeTableRecord
  2
AI-Linetype-1
 70
     0
  3
Adobe Illustrator Linetype No. 1
 72
    65
 73
     2
 40
0.0422222495356311
 49
0.0211111247678155
 74
     0
 49
-0.0211111247678155
 74
     0
  0
LTYPE
  5
601
330
5
100
AcDbSymbolTableRecord
100
AcDbLinetypeTableRecord
  2
AI9-LTYPE1
 70
     0
  3
Illustrator Dash Style No.1
 72
    65
 73
     1
 40
0.7055555555555557
 49
0.7055555555555557
 74
     0
  0
ENDTAB
  0
TABLE
  2
LAYER
  5
2
330
0
100
AcDbSymbolTable
 70
     7
  0
LAYER
  5
F
330
2
100
AcDbSymbolTableRecord
100
AcDbLayerTableRecord
  2
0
 70
     0
 62
     7
  6
CONTINUOUS
370
    -3
390
94
  0
LAYER
  5
25
330
2
100
AcDbSymbolTableRecord
100
AcDbLayerTableRecord
  2
ADP2DETAIL
 70
     0
 62
     5
  6
CONTINUOUS
370
    -3
390
94
  0
LAYER
  5
26
330
2
100
AcDbSymbolTableRecord
100
AcDbLayerTableRecord
  2
ADPDIM
 70
     0
 62
     3
  6
CONTINUOUS
370
    -3
390
94
  0
LAYER
  5
27
330
2
100
AcDbSymbolTableRecord
100
AcDbLayerTableRecord
  2
ADP1DETAIL
 70
     0
 62
     7
  6
CONTINUOUS
370
    -3
390
94
  0
LAYER
  5
28
330
2
100
AcDbSymbolTableRecord
100
AcDbLayerTableRecord
  2
DEFPOINTS
 70
     0
 62
     7
  6
CONTINUOUS
290
     0
370
    -3
390
94
  0
LAYER
  5
2EB
330
2
100
AcDbSymbolTableRecord
100
AcDbLayerTableRecord
  2
LAYER_1
 70
     0
 62
   160
  6
CONTINUOUS
370
    -3
390
94
  0
LAYER
  5
5E7
330
2
100
AcDbSymbolTableRecord
100
AcDbLayerTableRecord
  2
Layer 1
 70
     0
 62
     7
  6
CONTINUOUS
370
    -3
390
94
  0
ENDTAB
  0
TABLE
  2
STYLE
  5
3
330
0
100
AcDbSymbolTable
 70
     2
  0
STYLE
  5
10
330
3
100
AcDbSymbolTableRecord
100
AcDbTextStyleTableRecord
  2
STANDARD
 70
     0
 40
0.0
 41
1.0
 50
0.0
 71
     0
 42
0.2
  3
txt
  4

  0
STYLE
  5
9B
330
3
100
AcDbSymbolTableRecord
100
AcDbTextStyleTableRecord
  2
ARIAL_WIDE
 70
     0
 40
0.0
 41
1.25
 50
0.0
 71
     0
 42
0.2
  3
arial.ttf
  4

1001
ACAD
1000
Arial
1071
       34
  0
ENDTAB
  0
TABLE
  2
VIEW
  5
6
330
0
100
AcDbSymbolTable
 70
     0
  0
ENDTAB
  0
TABLE
  2
UCS
  5
7
330
0
100
AcDbSymbolTable
 70
     0
  0
ENDTAB
  0
TABLE
  2
APPID
  5
9
330
0
100
AcDbSymbolTable
 70
     7
  0
APPID
  5
11
330
9
100
AcDbSymbolTableRecord
100
AcDbRegAppTableRecord
  2
ACAD
 70
     0
  0
APPID
  5
221
330
9
100
AcDbSymbolTableRecord
100
AcDbRegAppTableRecord
  2
ACAD_EXEMPT_FROM_CAD_STANDARDS
 70
     0
  0
APPID
  5
279
330
9
100
AcDbSymbolTableRecord
100
AcDbRegAppTableRecord
  2
DCO15
 70
     0
  0
APPID
  5
5E8
330
9
100
AcDbSymbolTableRecord
100
AcDbRegAppTableRecord
  2
ACAUTHENVIRON
 70
     0
  0
APPID
  5
5E9
330
9
100
AcDbSymbolTableRecord
100
AcDbRegAppTableRecord
  2
AcDbDynamicBlockGUID
 70
     0
  0
APPID
  5
5EA
330
9
100
AcDbSymbolTableRecord
100
AcDbRegAppTableRecord
  2
AcDbBlockRepETag
 70
     0
  0
APPID
  5
5F7
330
9
100
AcDbSymbolTableRecord
100
AcDbRegAppTableRecord
  2
AcDbDynamicBlockTrueName
 70
     0
  0
ENDTAB
  0
TABLE
  2
DIMSTYLE
  5
A
330
0
100
AcDbSymbolTable
 70
     1
100
AcDbDimStyleTable
 71
     1
340
8F
  0
DIMSTYLE
105
8F
102
{ACAD_REACTORS
330
62A
330
638
330
672
330
68A
102
}
330
A
100
AcDbSymbolTableRecord
100
AcDbDimStyleTableRecord
  2
STANDARD
 70
     0
340
10
  0
ENDTAB
  0
TABLE
  2
BLOCK_RECORD
  5
1
330
0
100
AcDbSymbolTable
 70
     8
  0
BLOCK_RECORD
  5
18
102
{ACAD_XDICTIONARY
360
F0
102
}
330
1
100
AcDbSymbolTableRecord
100
AcDbBlockTableRecord
  2
*MODEL_SPACE
340
97
  0
BLOCK_RECORD
  5
15
102
{ACAD_XDICTIONARY
360
EE
102
}
330
1
100
AcDbSymbolTableRecord
100
AcDbBlockTableRecord
  2
*PAPER_SPACE
340
98
  0
BLOCK_RECORD
  5
2D1
330
1
100
AcDbSymbolTableRecord
100
AcDbBlockTableRecord
  2
AI9-BLK6
340
0
  0
BLOCK_RECORD
  5
2D5
330
1
100
AcDbSymbolTableRecord
100
AcDbBlockTableRecord
  2
AI9-BLK7
340
0
102
{BLKREFS
331
2D3
102
}
  0
BLOCK_RECORD
  5
62B
330
1
100
AcDbSymbolTableRecord
100
AcDbBlockTableRecord
  2
*D2
340
0
  0
BLOCK_RECORD
  5
639
330
1
100
AcDbSymbolTableRecord
100
AcDbBlockTableRecord
  2
*D3
340
0
  0
BLOCK_RECORD
  5
665
330
1
100
AcDbSymbolTableRecord
100
AcDbBlockTableRecord
  2
*D4
340
0
  0
BLOCK_RECORD
  5
673
330
1
100
AcDbSymbolTableRecord
100
AcDbBlockTableRecord
  2
*D5
340
0
  0
BLOCK_RECORD
  5
68B
330
1
100
AcDbSymbolTableRecord
100
AcDbBlockTableRecord
  2
*D6
340
0
  0
BLOCK_RECORD
  5
781
330
1
100
AcDbSymbolTableRecord
100
AcDbBlockTableRecord
  2
AI9-BLK1
340
0
102
{BLKREFS
331
792
102
}
  0
ENDTAB
  0
ENDSEC
  0
SECTION
  2
BLOCKS
  0
BLOCK
  5
2B
330
18
100
AcDbEntity
  8
0
100
AcDbBlockBegin
  2
*MODEL_SPACE
 70
     0
 10
0.0
 20
0.0
 30
0.0
  3
*MODEL_SPACE
  1

  0
ENDBLK
  5
2C
330
18
100
AcDbEntity
  8
0
100
AcDbBlockEnd
  0
BLOCK
  5
29
330
15
100
AcDbEntity
 67
     1
  8
0
100
AcDbBlockBegin
  2
*PAPER_SPACE
 70
     0
 10
0.0
 20
0.0
 30
0.0
  3
*PAPER_SPACE
  1

  0
ENDBLK
  5
2A
330
15
100
AcDbEntity
 67
     1
  8
0
100
AcDbBlockEnd
  0
BLOCK
  5
2D2
330
2D1
100
AcDbEntity
  8
LAYER_1
 62
     7
100
AcDbBlockBegin
  2
AI9-BLK6
 70
     0
 10
0.0
 20
0.0
 30
0.0
  3
AI9-BLK6
  1

  0
INSERT
  5
2D3
330
2D1
100
AcDbEntity
  8
LAYER_1
 62
     7
100
AcDbBlockReference
  2
AI9-BLK7
 10
0.0
 20
0.0
 30
0.0
  0
ENDBLK
  5
2D4
330
2D1
100
AcDbEntity
  8
LAYER_1
100
AcDbBlockEnd
  0
BLOCK
  5
2D6
330
2D5
100
AcDbEntity
  8
LAYER_1
 62
     7
100
AcDbBlockBegin
  2
AI9-BLK7
 70
     0
 10
0.0
 20
0.0
 30
0.0
  3
AI9-BLK7
  1

  0
POLYLINE
  5
2D7
330
2D5
100
AcDbEntity
  8
LAYER_1
 62
     7
100
AcDb2dPolyline
 66
     1
 10
0.0
 20
0.0
 30
0.0
 70
     1
  0
VERTEX
  5
2D8
330
2D7
100
AcDbEntity
  8
LAYER_1
 62
     7
100
AcDbVertex
100
AcDb2dVertex
 10
12.32319268120659
 20
10.25329318576388
 30
0.0
  0
VERTEX
  5
2D9
330
2D7
100
AcDbEntity
  8
LAYER_1
 62
     7
100
AcDbVertex
100
AcDb2dVertex
 10
12.32319268120659
 20
10.21780870225694
 30
0.0
  0
VERTEX
  5
2DA
330
2D7
100
AcDbEntity
  8
LAYER_1
 62
     7
100
AcDbVertex
100
AcDb2dVertex
 10
12.50164862738715
 20
10.21711968315972
 30
0.0
  0
SEQEND
  5
2DB
330
2D7
100
AcDbEntity
  8
LAYER_1
 62
     7
  0
SPLINE
  5
2DC
330
2D5
100
AcDbEntity
  8
LAYER_1
 62
     7
100
AcDbSpline
210
0.0
220
0.0
230
1.0
 70
    11
 71
     3
 72
   173
 73
   169
 74
     0
 42
0.0000000001
 43
0.0000000001
 40
0.0
 40
0.0
 40
0.0
 40
0.0
 40
1.0
 40
1.0
 40
1.0
 40
2.0
 40
2.0
 40
2.0
 40
3.0
 40
3.0
 40
3.0
 40
4.0
 40
4.0
 40
4.0
 40
5.0
 40
5.0
 40
5.0
 40
6.0
 40
6.0
 40
6.0
 40
7.0
 40
7.0
 40
7.0
 40
8.0
 40
8.0
 40
8.0
 40
9.0
 40
9.0
 40
9.0
 40
10.0
 40
10.0
 40
10.0
 40
11.0
 40
11.0
 40
11.0
 40
12.0
 40
12.0
 40
12.0
 40
13.0
 40
13.0
 40
13.0
 40
14.0
 40
14.0
 40
14.0
 40
15.0
 40
15.0
 40
15.0
 40
16.0
 40
16.0
 40
16.0
 40
17.0
 40
17.0
 40
17.0
 40
18.0
 40
18.0
 40
18.0
 40
19.0
 40
19.0
 40
19.0
 40
20.0
 40
20.0
 40
20.0
 40
21.0
 40
21.0
 40
21.0
 40
22.0
 40
22.0
 40
22.0
 40
23.0
 40
23.0
 40
23.0
 40
24.0
 40
24.0
 40
24.0
 40
25.0
 40
25.0
 40
25.0
 40
26.0
 40
26.0
 40
26.0
 40
27.0
 40
27.0
 40
27.0
 40
28.0
 40
28.0
 40
28.0
 40
29.0
 40
29.0
 40
29.0
 40
30.0
 40
30.0
 40
30.0
 40
31.0
 40
31.0
 40
31.0
 40
32.0
 40
32.0
 40
32.0
 40
33.0
 40
33.0
 40
33.0
 40
34.0
 40
34.0
 40
34.0
 40
35.0
 40
35.0
 40
35.0
 40
36.0
 40
36.0
 40
36.0
 40
37.0
 40
37.0
 40
37.0
 40
38.0
 40
38.0
 40
38.0
 40
39.0
 40
39.0
 40
39.0
 40
40.0
 40
40.0
 40
40.0
 40
41.0
 40
41.0
 40
41.0
 40
42.0
 40
42.0
 40
42.0
 40
43.0
 40
43.0
 40
43.0
 40
44.0
 40
44.0
 40
44.0
 40
45.0
 40
45.0
 40
45.0
 40
46.0
 40
46.0
 40
46.0
 40
47.0
 40
47.0
 40
47.0
 40
48.0
 40
48.0
 40
48.0
 40
49.0
 40
49.0
 40
49.0
 40
50.0
 40
50.0
 40
50.0
 40
51.0
 40
51.0
 40
51.0
 40
52.0
 40
52.0
 40
52.0
 40
53.0
 40
53.0
 40
53.0
 40
54.0
 40
54.0
 40
54.0
 40
55.0
 40
55.0
 40
55.0
 40
56.0
 40
56.0
 40
56.0
 40
56.0
 10
7.831821695963539
 20
3.931026204427082
 30
0.0
 10
7.831821695963539
 20
3.931026204427082
 30
0.0
 10
7.827687581380207
 20
-5.619122992621528
 30
0.0
 10
7.827687581380207
 20
-5.619122992621528
 30
0.0
 10
7.827687581380207
 20
-5.619122992621528
 30
0.0
 10
5.139479573567706
 20
-5.600863986545137
 30
0.0
 10
5.139479573567706
 20
-5.600863986545137
 30
0.0
 10
5.139479573567706
 20
-5.600863986545137
 30
0.0
 10
5.139479573567706
 20
-9.050610351562497
 30
0.0
 10
5.139479573567706
 20
-9.050610351562497
 30
0.0
 10
5.139479573567706
 20
-9.880189344618054
 30
0.0
 10
5.475720893012153
 20
-10.21608615451389
 30
0.0
 10
6.305299886067707
 20
-10.21608615451389
 30
0.0
 10
6.305299886067707
 20
-10.21608615451389
 30
0.0
 10
28.71099514431423
 20
-10.21608615451389
 30
0.0
 10
28.71099514431423
 20
-10.21608615451389
 30
0.0
 10
29.54074639214411
 20
-10.21608615451389
 30
0.0
 10
29.87664320203993
 20
-9.880189344618054
 30
0.0
 10
29.87664320203993
 20
-9.050610351562497
 30
0.0
 10
29.87664320203993
 20
-9.050610351562497
 30
0.0
 10
29.87664320203993
 20
3.868669976128471
 30
0.0
 10
29.87664320203993
 20
3.868669976128471
 30
0.0
 10
29.87664320203993
 20
3.868669976128471
 30
0.0
 10
29.87664320203993
 20
3.964271375868055
 30
0.0
 10
29.87664320203993
 20
3.964271375868055
 30
0.0
 10
29.87664320203993
 20
3.964271375868055
 30
0.0
 10
50.79991387261284
 20
3.964271375868055
 30
0.0
 10
50.79991387261284
 20
3.964271375868055
 30
0.0
 10
50.79991387261284
 20
3.964271375868055
 30
0.0
 10
50.79991387261284
 20
10.26500651041666
 30
0.0
 10
50.79991387261284
 20
10.26500651041666
 30
0.0
 10
50.79991387261284
 20
10.26500651041666
 30
0.0
 10
41.18430786132811
 20
10.25329318576388
 30
0.0
 10
41.18430786132811
 20
10.25329318576388
 30
0.0
 10
40.80982598198784
 20
8.916596137152774
 30
0.0
 10
39.58302747938367
 20
7.936466471354164
 30
0.0
 10
38.12730238172743
 20
7.936466471354164
 30
0.0
 10
36.66830444335938
 20
7.936466471354164
 30
0.0
 10
35.43943888346354
 20
8.920557996961804
 30
0.0
 10
35.06788533528645
 20
10.26121690538194
 30
0.0
 10
35.06788533528645
 20
10.26121690538194
 30
0.0
 10
25.29638875325521
 20
10.25587700737847
 30
0.0
 10
25.29638875325521
 20
10.25587700737847
 30
0.0
 10
25.29638875325521
 20
10.25587700737847
 30
0.0
 10
25.29638875325521
 20
3.913111707899305
 30
0.0
 10
25.29638875325521
 20
3.913111707899305
 30
0.0
 10
25.29638875325521
 20
3.913111707899305
 30
0.0
 10
26.51112942165799
 20
3.913111707899305
 30
0.0
 10
26.51112942165799
 20
3.913111707899305
 30
0.0
 10
26.51112942165799
 20
3.913111707899305
 30
0.0
 10
26.51112942165799
 20
-6.179123263888887
 30
0.0
 10
26.51112942165799
 20
-6.179123263888887
 30
0.0
 10
26.51112942165799
 20
-6.179123263888887
 30
0.0
 10
11.19750773111979
 20
-6.179123263888887
 30
0.0
 10
11.19750773111979
 20
-6.179123263888887
 30
0.0
 10
11.19750773111979
 20
-6.179123263888887
 30
0.0
 10
11.19750773111979
 20
3.910355631510416
 30
0.0
 10
11.19750773111979
 20
3.910355631510416
 30
0.0
 10
11.19750773111979
 20
3.910355631510416
 30
0.0
 10
12.32319268120659
 20
3.910355631510416
 30
0.0
 10
12.32319268120659
 20
3.910355631510416
 30
0.0
 10
12.32319268120659
 20
3.910355631510416
 30
0.0
 10
12.32319268120659
 20
10.21780870225694
 30
0.0
 10
12.32319268120659
 20
10.21780870225694
 30
0.0
 10
12.32319268120659
 20
10.21780870225694
 30
0.0
 10
3.336833360460068
 20
10.25329318576388
 30
0.0
 10
3.336833360460068
 20
10.25329318576388
 30
0.0
 10
2.962523735894095
 20
8.916596137152774
 30
0.0
 10
1.735552978515624
 20
7.936466471354164
 30
0.0
 10
0.279827880859375
 20
7.936466471354164
 30
0.0
 10
-1.179170057508679
 20
7.936466471354164
 30
0.0
 10
-2.408035617404513
 20
8.920557996961804
 30
0.0
 10
-2.779416910807291
 20
10.26121690538194
 30
0.0
 10
-2.779416910807291
 20
10.26121690538194
 30
0.0
 10
-15.96259155273437
 20
10.24502495659722
 30
0.0
 10
-15.96259155273437
 20
10.24502495659722
 30
0.0
 10
-16.33690117730034
 20
8.90867241753472
 30
0.0
 10
-17.5635274251302
 20
7.92854275173611
 30
0.0
 10
-19.01994154188368
 20
7.92854275173611
 30
0.0
 10
-20.47859497070312
 20
7.92854275173611
 30
0.0
 10
-21.70746053059896
 20
8.912634277343746
 30
0.0
 10
-22.07884182400174
 20
10.25329318576388
 30
0.0
 10
-22.07884182400174
 20
10.25329318576388
 30
0.0
 10
-34.57454766167535
 20
10.25725504557291
 30
0.0
 10
-34.57454766167535
 20
10.25725504557291
 30
0.0
 10
-34.99812215169271
 20
9.002379014756943
 30
0.0
 10
-36.17686157226561
 20
8.094940863715276
 30
0.0
 10
-37.57470906575521
 20
8.094940863715276
 30
0.0
 10
-38.97376234266493
 20
8.094940863715276
 30
0.0
 10
-40.15319078233505
 20
9.004273817274304
 30
0.0
 10
-40.57573174370658
 20
10.26121690538194
 30
0.0
 10
-40.57573174370658
 20
10.26121690538194
 30
0.0
 10
-47.87830064561631
 20
10.26500651041666
 30
0.0
 10
-47.87830064561631
 20
10.26500651041666
 30
0.0
 10
-47.87830064561631
 20
10.26500651041666
 30
0.0
 10
-47.81215481228296
 20
10.26965738932291
 30
0.0
 10
-47.81215481228296
 20
10.26965738932291
 30
0.0
 10
-47.81215481228296
 20
10.26965738932291
 30
0.0
 10
-50.02872924804687
 20
10.27654758029513
 30
0.0
 10
-50.02872924804687
 20
10.27654758029513
 30
0.0
 10
-50.02872924804687
 20
10.27654758029513
 30
0.0
 10
-49.66320461697048
 20
10.26965738932291
 30
0.0
 10
-49.66320461697048
 20
10.26965738932291
 30
0.0
 10
-50.49312811957465
 20
10.26965738932291
 30
0.0
 10
-50.79991387261284
 20
10.04624294704861
 30
0.0
 10
-50.79991387261284
 20
9.215974934895832
 30
0.0
 10
-50.79991387261284
 20
9.215974934895832
 30
0.0
 10
-50.79991387261284
 20
7.192842610677082
 30
0.0
 10
-50.79991387261284
 20
7.192842610677082
 30
0.0
 10
-50.79991387261284
 20
6.535173882378471
 30
0.0
 10
-50.80025838216145
 20
6.531556532118053
 30
0.0
 10
-49.97067938910589
 20
6.531556532118053
 30
0.0
 10
-49.97067938910589
 20
6.531556532118053
 30
0.0
 10
-46.83495347764757
 20
6.531556532118053
 30
0.0
 10
-46.83495347764757
 20
6.531556532118053
 30
0.0
 10
-46.83495347764757
 20
6.531556532118053
 30
0.0
 10
-46.83495347764757
 20
-1.388890245225694
 30
0.0
 10
-46.83495347764757
 20
-1.388890245225694
 30
0.0
 10
-46.83495347764757
 20
-1.388890245225694
 30
0.0
 10
-37.9497077094184
 20
-1.388890245225694
 30
0.0
 10
-37.9497077094184
 20
-1.388890245225694
 30
0.0
 10
-37.9497077094184
 20
-1.388890245225694
 30
0.0
 10
-37.93230997721354
 20
-6.011002604166666
 30
0.0
 10
-37.93230997721354
 20
-6.011002604166666
 30
0.0
 10
-37.93230997721354
 20
-6.011002604166666
 30
0.0
 10
-46.83495347764757
 20
-6.011002604166666
 30
0.0
 10
-46.83495347764757
 20
-6.011002604166666
 30
0.0
 10
-46.83495347764757
 20
-6.011002604166666
 30
0.0
 10
-46.83495347764757
 20
-10.27654758029513
 30
0.0
 10
-46.83495347764757
 20
-10.27654758029513
 30
0.0
 10
-46.83495347764757
 20
-10.27654758029513
 30
0.0
 10
-33.95890909830729
 20
-10.27654758029513
 30
0.0
 10
-33.95890909830729
 20
-10.27654758029513
 30
0.0
 10
-33.95890909830729
 20
-10.27654758029513
 30
0.0
 10
-32.95931464301215
 20
-10.30927598741319
 30
0.0
 10
-32.95931464301215
 20
-7.72235378689236
 30
0.0
 10
-32.95931464301215
 20
-5.135431586371526
 30
0.0
 10
-32.95931464301215
 20
3.953074815538193
 30
0.0
 10
-32.95931464301215
 20
3.953074815538193
 30
0.0
 10
-32.95931464301215
 20
3.953074815538193
 30
0.0
 10
-11.36270005967882
 20
3.931026204427082
 30
0.0
 10
-11.36270005967882
 20
3.931026204427082
 30
0.0
 10
-11.36270005967882
 20
3.931026204427082
 30
0.0
 10
-11.36959025065104
 20
-9.33035210503472
 30
0.0
 10
-11.36959025065104
 20
-9.33035210503472
 30
0.0
 10
-11.36959025065104
 20
-9.33035210503472
 30
0.0
 10
-11.36270005967882
 20
-8.964482964409722
 30
0.0
 10
-11.36270005967882
 20
-8.964482964409722
 30
0.0
 10
-11.36270005967882
 20
-9.794061957465276
 30
0.0
 10
-11.02680324978298
 20
-10.13030327690972
 30
0.0
 10
-10.19653523763021
 20
-10.13030327690972
 30
0.0
 10
-10.19653523763021
 20
-10.13030327690972
 30
0.0
 10
-6.470319959852429
 20
-10.13030327690972
 30
0.0
 10
-6.470319959852429
 20
-10.13030327690972
 30
0.0
 10
-5.640740966796873
 20
-10.13030327690972
 30
0.0
 10
-5.304155137803818
 20
-9.794061957465276
 30
0.0
 10
-5.304155137803818
 20
-8.964482964409722
 30
0.0
 10
-5.304155137803818
 20
-8.964482964409722
 30
0.0
 10
-5.304155137803818
 20
-5.514908854166666
 30
0.0
 10
-5.304155137803818
 20
-5.514908854166666
 30
0.0
 10
-5.304155137803818
 20
-5.514908854166666
 30
0.0
 10
-7.992707655164928
 20
-5.53334011501736
 30
0.0
 10
-7.992707655164928
 20
-5.53334011501736
 30
0.0
 10
-7.992707655164928
 20
-5.53334011501736
 30
0.0
 10
-7.997014024522567
 20
4.016809082031248
 30
0.0
 10
-7.997014024522567
 20
4.016809082031248
 30
0.0
 10
-7.997014024522567
 20
4.016809082031248
 30
0.0
 10
7.831821695963539
 20
3.931026204427082
 30
0.0
 10
7.831821695963539
 20
3.931026204427082
 30
0.0
  0
ENDBLK
  5
2DD
330
2D5
100
AcDbEntity
  8
LAYER_1
100
AcDbBlockEnd
  0
BLOCK
  5
636
330
62B
100
AcDbEntity
  8
0
100
AcDbBlockBegin
  2
*D2
 70
     1
 10
0.0
 20
0.0
 30
0.0
  3
*D2
  1

  0
LINE
  5
80B
330
62B
100
AcDbEntity
  8
ADPDIM
 62
     0
370
    -2
100
AcDbLine
 10
7.958785635165232
 20
3.022776168188707
 30
0.0
 11
7.308743391367424
 21
3.022776168188707
 31
0.0
  0
LINE
  5
80C
330
62B
100
AcDbEntity
  8
ADPDIM
 62
     0
370
    -2
100
AcDbLine
 10
7.958785635165232
 20
2.205739020891214
 30
0.0
 11
7.308743391367424
 21
2.205739020891214
 31
0.0
  0
LINE
  5
80D
330
62B
100
AcDbEntity
  8
ADPDIM
 62
     0
370
    -2
100
AcDbLine
 10
7.488743391367425
 20
3.022776168188707
 30
0.0
 11
7.488743391367425
 21
3.272776168188707
 31
0.0
  0
LINE
  5
80E
330
62B
100
AcDbEntity
  8
ADPDIM
 62
     0
370
    -2
100
AcDbLine
 10
7.488743391367425
 20
2.205739020891214
 30
0.0
 11
7.488743391367423
 21
1.955739020891215
 31
0.0
  0
LINE
  5
80F
330
62B
100
AcDbEntity
  8
ADPDIM
 62
     0
370
    -2
100
AcDbLine
 10
7.613743391367425
 20
2.080739020891215
 30
0.0
 11
7.363743391367425
 21
2.330739020891214
 31
0.0
  0
LINE
  5
810
330
62B
100
AcDbEntity
  8
ADPDIM
 62
     0
370
    -2
100
AcDbLine
 10
7.613743391367425
 20
2.897776168188707
 30
0.0
 11
7.363743391367425
 21
3.147776168188707
 31
0.0
  0
MTEXT
  5
811
330
62B
100
AcDbEntity
  8
ADPDIM
 62
     0
100
AcDbMText
 10
7.488743391367423
 20
2.614257594539961
 30
0.0
 40
0.125
 41
0.0
 71
     5
 72
     1
  1
\A1;13/16
 11
0.0000000000000001
 21
1.0
 31
0.0
 73
     1
 44
1.0
1001
ACAD
1000
MTEXTBEGIN
1070
    73
1070
     1
1070
    44
1040
1.0
1070
    74
1070
     0
1000
MTEXTEND
  0
POINT
  5
812
330
62B
100
AcDbEntity
  8
DEFPOINTS
 62
     0
100
AcDbPoint
 10
8.021285635165231
 20
3.022776168188707
 30
0.0
  0
POINT
  5
813
330
62B
100
AcDbEntity
  8
DEFPOINTS
 62
     0
100
AcDbPoint
 10
8.021285635165231
 20
2.205739020891214
 30
0.0
  0
POINT
  5
814
330
62B
100
AcDbEntity
  8
DEFPOINTS
 62
     0
100
AcDbPoint
 10
7.488743391367425
 20
2.205739020891214
 30
0.0
  0
ENDBLK
  5
637
330
62B
100
AcDbEntity
  8
0
100
AcDbBlockEnd
  0
BLOCK
  5
644
330
639
100
AcDbEntity
  8
0
100
AcDbBlockBegin
  2
*D3
 70
     1
 10
0.0
 20
0.0
 30
0.0
  3
*D3
  1

  0
LINE
  5
815
330
639
100
AcDbEntity
  8
ADPDIM
 62
     0
370
    -2
100
AcDbLine
 10
7.961862049005821
 20
3.048683251842455
 30
0.0
 11
7.961862049005821
 21
3.533072457089407
 31
0.0
  0
LINE
  5
816
330
639
100
AcDbEntity
  8
ADPDIM
 62
     0
370
    -2
100
AcDbLine
 10
9.211541212337122
 20
2.459829146742667
 30
0.0
 11
9.211541212337122
 21
3.533072457089407
 31
0.0
  0
LINE
  5
817
330
639
100
AcDbEntity
  8
ADPDIM
 62
     0
370
    -2
100
AcDbLine
 10
7.961862049005821
 20
3.353072457089408
 30
0.0
 11
8.211701630671472
 21
3.353072457089408
 31
0.0
  0
LINE
  5
818
330
639
100
AcDbEntity
  8
ADPDIM
 62
     0
370
    -2
100
AcDbLine
 10
9.211541212337122
 20
3.353072457089408
 30
0.0
 11
8.961701630671472
 21
3.353072457089408
 31
0.0
  0
LINE
  5
819
330
639
100
AcDbEntity
  8
ADPDIM
 62
     0
370
    -2
100
AcDbLine
 10
9.086541212337122
 20
3.228072457089408
 30
0.0
 11
9.336541212337122
 21
3.478072457089408
 31
0.0
  0
LINE
  5
81A
330
639
100
AcDbEntity
  8
ADPDIM
 62
     0
370
    -2
100
AcDbLine
 10
7.836862049005821
 20
3.228072457089408
 30
0.0
 11
8.086862049005821
 21
3.478072457089408
 31
0.0
  0
MTEXT
  5
81B
330
639
100
AcDbEntity
  8
ADPDIM
 62
     0
100
AcDbMText
 10
8.586701630671472
 20
3.353072457089408
 30
0.0
 40
0.125
 41
0.0
 71
     5
 72
     1
  1
\A1;1 1/4
 73
     1
 44
1.0
1001
ACAD
1000
MTEXTBEGIN
1070
    73
1070
     1
1070
    44
1040
1.0
1070
    74
1070
     0
1000
MTEXTEND
  0
POINT
  5
81C
330
639
100
AcDbEntity
  8
DEFPOINTS
 62
     0
100
AcDbPoint
 10
7.961862049005821
 20
2.986183251842455
 30
0.0
  0
POINT
  5
81D
330
639
100
AcDbEntity
  8
DEFPOINTS
 62
     0
100
AcDbPoint
 10
9.211541212337122
 20
2.397329146742667
 30
0.0
  0
POINT
  5
81E
330
639
100
AcDbEntity
  8
DEFPOINTS
 62
     0
100
AcDbPoint
 10
9.211541212337122
 20
3.353072457089408
 30
0.0
  0
ENDBLK
  5
645
330
639
100
AcDbEntity
  8
0
100
AcDbBlockEnd
  0
BLOCK
  5
670
330
665
100
AcDbEntity
  8
0
100
AcDbBlockBegin
  2
*D4
 70
     1
 10
0.0
 20
0.0
 30
0.0
  3
*D4
  1

  0
LINE
  5
742
330
665
100
AcDbEntity
  8
ADPDIM
 62
     0
370
    -2
100
AcDbLine
 10
8.270699327136611
 20
2.459829146742667
 30
0.0
 11
8.270699327136611
 21
3.532824763698607
 31
0.0
  0
LINE
  5
743
330
665
100
AcDbEntity
  8
ADPDIM
 62
     0
370
    -2
100
AcDbLine
 10
9.773756729634826
 20
2.459829146742667
 30
0.0
 11
9.773756729634826
 21
3.532824763698607
 31
0.0
  0
LINE
  5
744
330
665
100
AcDbEntity
  8
ADPDIM
 62
     0
370
    -2
100
AcDbLine
 10
8.270699327136611
 20
3.352824763698607
 30
0.0
 11
8.647228028385717
 21
3.352824763698607
 31
0.0
  0
LINE
  5
745
330
665
100
AcDbEntity
  8
ADPDIM
 62
     0
370
    -2
100
AcDbLine
 10
9.773756729634826
 20
3.352824763698607
 30
0.0
 11
9.397228028385717
 21
3.352824763698607
 31
0.0
  0
LINE
  5
746
330
665
100
AcDbEntity
  8
ADPDIM
 62
     0
370
    -2
100
AcDbLine
 10
9.648756729634826
 20
3.227824763698607
 30
0.0
 11
9.898756729634826
 21
3.477824763698607
 31
0.0
  0
LINE
  5
747
330
665
100
AcDbEntity
  8
ADPDIM
 62
     0
370
    -2
100
AcDbLine
 10
8.145699327136611
 20
3.227824763698607
 30
0.0
 11
8.395699327136611
 21
3.477824763698607
 31
0.0
  0
MTEXT
  5
748
330
665
100
AcDbEntity
  8
ADPDIM
 62
     0
100
AcDbMText
 10
9.022228028385717
 20
3.352824763698607
 30
0.0
 40
0.125
 41
0.0
 71
     5
 72
     1
  1
\A1;1 1/2
 73
     1
 44
1.0
1001
ACAD
1000
MTEXTBEGIN
1070
    73
1070
     1
1070
    44
1040
1.0
1070
    74
1070
     0
1000
MTEXTEND
  0
POINT
  5
749
330
665
100
AcDbEntity
  8
DEFPOINTS
 62
     0
100
AcDbPoint
 10
8.270699327136611
 20
2.397329146742667
 30
0.0
  0
POINT
  5
74A
330
665
100
AcDbEntity
  8
DEFPOINTS
 62
     0
100
AcDbPoint
 10
9.773756729634826
 20
2.397329146742667
 30
0.0
  0
POINT
  5
74B
330
665
100
AcDbEntity
  8
DEFPOINTS
 62
     0
100
AcDbPoint
 10
9.773756729634826
 20
3.352824763698607
 30
0.0
  0
ENDBLK
  5
671
330
665
100
AcDbEntity
  8
0
100
AcDbBlockEnd
  0
BLOCK
  5
67E
330
673
100
AcDbEntity
  8
0
100
AcDbBlockBegin
  2
*D5
 70
     1
 10
0.0
 20
0.0
 30
0.0
  3
*D5
  1

  0
LINE
  5
81F
330
673
100
AcDbEntity
  8
ADPDIM
 62
     0
370
    -2
100
AcDbLine
 10
9.210982246606979
 20
2.456298946600496
 30
0.0
 11
9.210982246606979
 21
3.532661547326033
 31
0.0
  0
LINE
  5
820
330
673
100
AcDbEntity
  8
ADPDIM
 62
     0
370
    -2
100
AcDbLine
 10
11.95442302852932
 20
3.024567894844806
 30
0.0
 11
11.95442302852932
 21
3.532661547326033
 31
0.0
  0
LINE
  5
821
330
673
100
AcDbEntity
  8
ADPDIM
 62
     0
370
    -2
100
AcDbLine
 10
9.210982246606979
 20
3.352661547326033
 30
0.0
 11
10.16603597090148
 21
3.352661547326033
 31
0.0
  0
LINE
  5
822
330
673
100
AcDbEntity
  8
ADPDIM
 62
     0
370
    -2
100
AcDbLine
 10
11.95442302852932
 20
3.352661547326033
 30
0.0
 11
10.99936930423481
 21
3.352661547326033
 31
0.0
  0
LINE
  5
823
330
673
100
AcDbEntity
  8
ADPDIM
 62
     0
370
    -2
100
AcDbLine
 10
11.82942302852932
 20
3.227661547326033
 30
0.0
 11
12.07942302852932
 21
3.477661547326033
 31
0.0
  0
LINE
  5
824
330
673
100
AcDbEntity
  8
ADPDIM
 62
     0
370
    -2
100
AcDbLine
 10
9.085982246606979
 20
3.227661547326033
 30
0.0
 11
9.335982246606979
 21
3.477661547326033
 31
0.0
  0
MTEXT
  5
825
330
673
100
AcDbEntity
  8
ADPDIM
 62
     0
100
AcDbMText
 10
10.58270263756815
 20
3.352661547326033
 30
0.0
 40
0.125
 41
0.0
 71
     5
 72
     1
  1
\A1;2 3/4
 73
     1
 44
1.0
1001
ACAD
1000
MTEXTBEGIN
1070
    73
1070
     1
1070
    44
1040
1.0
1070
    74
1070
     0
1000
MTEXTEND
  0
POINT
  5
826
330
673
100
AcDbEntity
  8
DEFPOINTS
 62
     0
100
AcDbPoint
 10
9.210982246606979
 20
2.393798946600496
 30
0.0
  0
POINT
  5
827
330
673
100
AcDbEntity
  8
DEFPOINTS
 62
     0
100
AcDbPoint
 10
11.95442302852932
 20
2.962067894844807
 30
0.0
  0
POINT
  5
828
330
673
100
AcDbEntity
  8
DEFPOINTS
 62
     0
100
AcDbPoint
 10
11.95442302852932
 20
3.352661547326033
 30
0.0
  0
ENDBLK
  5
67F
330
673
100
AcDbEntity
  8
0
100
AcDbBlockEnd
  0
BLOCK
  5
696
330
68B
100
AcDbEntity
  8
0
100
AcDbBlockBegin
  2
*D6
 70
     1
 10
0.0
 20
0.0
 30
0.0
  3
*D6
  1

  0
LINE
  5
829
330
68B
100
AcDbEntity
  8
ADPDIM
 62
     0
370
    -2
100
AcDbLine
 10
11.90555448024928
 20
3.022687635353833
 30
0.0
 11
12.27755240222651
 21
3.022687635353833
 31
0.0
  0
LINE
  5
82A
330
68B
100
AcDbEntity
  8
ADPDIM
 62
     0
370
    -2
100
AcDbLine
 10
11.90555448024928
 20
2.772687635353833
 30
0.0
 11
12.27755240222651
 21
2.772687635353833
 31
0.0
  0
LINE
  5
82B
330
68B
100
AcDbEntity
  8
ADPDIM
 62
     0
370
    -2
100
AcDbLine
 10
12.09755240222651
 20
3.022687635353833
 30
0.0
 11
12.09755240222651
 21
2.772687635353833
 31
0.0
  0
LINE
  5
82C
330
68B
100
AcDbEntity
  8
ADPDIM
 62
     0
370
    -2
100
AcDbLine
 10
12.09755240222651
 20
2.772687635353833
 30
0.0
 11
12.09755240222651
 21
2.522687635353834
 31
0.0
  0
LINE
  5
82D
330
68B
100
AcDbEntity
  8
ADPDIM
 62
     0
370
    -2
100
AcDbLine
 10
12.22255240222651
 20
2.647687635353833
 30
0.0
 11
11.97255240222651
 21
2.897687635353833
 31
0.0
  0
LINE
  5
82E
330
68B
100
AcDbEntity
  8
ADPDIM
 62
     0
370
    -2
100
AcDbLine
 10
12.22255240222651
 20
2.897687635353833
 30
0.0
 11
11.97255240222651
 21
3.147687635353833
 31
0.0
  0
MTEXT
  5
82F
330
68B
100
AcDbEntity
  8
ADPDIM
 62
     0
100
AcDbMText
 10
12.09755240222651
 20
2.251854302020503
 30
0.0
 40
0.125
 41
0.0
 71
     5
 72
     1
  1
\A1;1/4
 11
0.0000000000000001
 21
1.0
 31
0.0
 73
     1
 44
1.0
1001
ACAD
1000
MTEXTBEGIN
1070
    73
1070
     1
1070
    44
1040
1.0
1070
    74
1070
     0
1000
MTEXTEND
  0
POINT
  5
830
330
68B
100
AcDbEntity
  8
DEFPOINTS
 62
     0
100
AcDbPoint
 10
11.84305448024928
 20
3.022687635353833
 30
0.0
  0
POINT
  5
831
330
68B
100
AcDbEntity
  8
DEFPOINTS
 62
     0
100
AcDbPoint
 10
11.84305448024928
 20
2.772687635353833
 30
0.0
  0
POINT
  5
832
330
68B
100
AcDbEntity
  8
DEFPOINTS
 62
     0
100
AcDbPoint
 10
12.09755240222651
 20
2.772687635353833
 30
0.0
  0
ENDBLK
  5
697
330
68B
100
AcDbEntity
  8
0
100
AcDbBlockEnd
  0
BLOCK
  5
782
330
781
100
AcDbEntity
  8
LAYER_1
 62
     7
100
AcDbBlockBegin
  2
AI9-BLK1
 70
     0
 10
0.0
 20
0.0
 30
0.0
  3
AI9-BLK1
  1

  0
SPLINE
  5
783
330
781
100
AcDbEntity
  8
LAYER_1
 62
     7
100
AcDbSpline
210
0.0
220
0.0
230
1.0
 70
    11
 71
     3
 72
   188
 73
   184
 74
     0
 42
0.0000000001
 43
0.0000000001
 40
0.0
 40
0.0
 40
0.0
 40
0.0
 40
1.0
 40
1.0
 40
1.0
 40
2.0
 40
2.0
 40
2.0
 40
3.0
 40
3.0
 40
3.0
 40
4.0
 40
4.0
 40
4.0
 40
5.0
 40
5.0
 40
5.0
 40
6.0
 40
6.0
 40
6.0
 40
7.0
 40
7.0
 40
7.0
 40
8.0
 40
8.0
 40
8.0
 40
9.0
 40
9.0
 40
9.0
 40
10.0
 40
10.0
 40
10.0
 40
11.0
 40
11.0
 40
11.0
 40
12.0
 40
12.0
 40
12.0
 40
13.0
 40
13.0
 40
13.0
 40
14.0
 40
14.0
 40
14.0
 40
15.0
 40
15.0
 40
15.0
 40
16.0
 40
16.0
 40
16.0
 40
17.0
 40
17.0
 40
17.0
 40
18.0
 40
18.0
 40
18.0
 40
19.0
 40
19.0
 40
19.0
 40
20.0
 40
20.0
 40
20.0
 40
21.0
 40
21.0
 40
21.0
 40
22.0
 40
22.0
 40
22.0
 40
23.0
 40
23.0
 40
23.0
 40
24.0
 40
24.0
 40
24.0
 40
25.0
 40
25.0
 40
25.0
 40
26.0
 40
26.0
 40
26.0
 40
27.0
 40
27.0
 40
27.0
 40
28.0
 40
28.0
 40
28.0
 40
29.0
 40
29.0
 40
29.0
 40
30.0
 40
30.0
 40
30.0
 40
31.0
 40
31.0
 40
31.0
 40
32.0
 40
32.0
 40
32.0
 40
33.0
 40
33.0
 40
33.0
 40
34.0
 40
34.0
 40
34.0
 40
35.0
 40
35.0
 40
35.0
 40
36.0
 40
36.0
 40
36.0
 40
37.0
 40
37.0
 40
37.0
 40
38.0
 40
38.0
 40
38.0
 40
39.0
 40
39.0
 40
39.0
 40
40.0
 40
40.0
 40
40.0
 40
41.0
 40
41.0
 40
41.0
 40
42.0
 40
42.0
 40
42.0
 40
43.0
 40
43.0
 40
43.0
 40
44.0
 40
44.0
 40
44.0
 40
45.0
 40
45.0
 40
45.0
 40
46.0
 40
46.0
 40
46.0
 40
47.0
 40
47.0
 40
47.0
 40
48.0
 40
48.0
 40
48.0
 40
49.0
 40
49.0
 40
49.0
 40
50.0
 40
50.0
 40
50.0
 40
51.0
 40
51.0
 40
51.0
 40
52.0
 40
52.0
 40
52.0
 40
53.0
 40
53.0
 40
53.0
 40
54.0
 40
54.0
 40
54.0
 40
55.0
 40
55.0
 40
55.0
 40
56.0
 40
56.0
 40
56.0
 40
57.0
 40
57.0
 40
57.0
 40
58.0
 40
58.0
 40
58.0
 40
59.0
 40
59.0
 40
59.0
 40
60.0
 40
60.0
 40
60.0
 40
61.0
 40
61.0
 40
61.0
 40
61.0
 10
-50.8014641655816
 20
8.789816623263886
 30
0.0
 10
-50.8014641655816
 20
8.040163845486111
 30
0.0
 10
-50.8014641655816
 20
7.885823567708332
 30
0.0
 10
-50.8014641655816
 20
5.967594401041664
 30
0.0
 10
-50.8014641655816
 20
4.049365234374998
 30
0.0
 10
-49.27270304361979
 20
3.968577745225693
 30
0.0
 10
-49.27270304361979
 20
3.968577745225693
 30
0.0
 10
-49.27270304361979
 20
3.968577745225693
 30
0.0
 10
-38.96118774414064
 20
3.968577745225693
 30
0.0
 10
-35.51436971028645
 20
3.968577745225693
 30
0.0
 10
-33.34637112087673
 20
3.968577745225693
 30
0.0
 10
-31.98659193250868
 20
1.227143012152777
 30
0.0
 10
-31.98659193250868
 20
0.1467610677083333
 30
0.0
 10
-31.98659193250868
 20
-0.9336208767361108
 30
0.0
 10
-31.98659193250868
 20
-7.827601453993054
 30
0.0
 10
-31.98659193250868
 20
-9.143283420138887
 30
0.0
 10
-31.98659193250868
 20
-10.45862087673611
 30
0.0
 10
-30.22270304361979
 20
-10.37800564236111
 30
0.0
 10
-30.22270304361979
 20
-10.37800564236111
 30
0.0
 10
-30.22270304361979
 20
-10.37800564236111
 30
0.0
 10
-8.755279541015625
 20
-10.37800564236111
 30
0.0
 10
-6.947293429904512
 20
-10.37800564236111
 30
0.0
 10
-5.139307318793401
 20
-10.37800564236111
 30
0.0
 10
-5.065926784939235
 20
-9.143283420138887
 30
0.0
 10
-5.065926784939235
 20
-9.143283420138887
 30
0.0
 10
-5.065926784939235
 20
-9.143283420138887
 30
0.0
 10
-5.065926784939235
 20
-9.223898654513886
 30
0.0
 10
-5.065926784939235
 20
-7.790738932291666
 30
0.0
 10
-5.065926784939235
 20
-6.357579210069442
 30
0.0
 10
-6.829815673828123
 20
-4.534779188368053
 30
0.0
 10
-6.829815673828123
 20
-2.910416666666666
 30
0.0
 10
-6.829815673828123
 20
-1.286398654513887
 30
0.0
 10
-6.829815673828123
 20
-4.226098632812498
 30
0.0
 10
-6.829815673828123
 20
-0.6173611111111112
 30
0.0
 10
-6.829815673828123
 20
2.991031901041666
 30
0.0
 10
-2.860721164279513
 20
3.850927734374998
 30
0.0
 10
-1.06789347330729
 20
3.850927734374998
 30
0.0
 10
0.7256232367621527
 20
3.850927734374998
 30
0.0
 10
-0.2114427354600694
 20
3.850927734374998
 30
0.0
 10
2.000997585720485
 20
3.850927734374998
 30
0.0
 10
6.263269721137151
 20
3.850927734374998
 30
0.0
 10
6.65669962565104
 20
0.1688096788194444
 30
0.0
 10
6.65669962565104
 20
-0.5587944878472222
 30
0.0
 10
6.65669962565104
 20
-1.286398654513887
 30
0.0
 10
6.65669962565104
 20
-1.778702799479165
 30
0.0
 10
6.65669962565104
 20
-3.086805555555555
 30
0.0
 10
6.65669962565104
 20
-5.10080837673611
 30
0.0
 10
4.999264187282985
 20
-5.960704210069443
 30
0.0
 10
4.999264187282985
 20
-7.555783420138887
 30
0.0
 10
4.999264187282985
 20
-8.540391710069441
 30
0.0
 10
4.999264187282985
 20
-7.702544487847221
 30
0.0
 10
4.999264187282985
 20
-9.025461154513887
 30
0.0
 10
4.999264187282985
 20
-10.34837782118055
 30
0.0
 10
6.130978054470485
 20
-10.61296115451389
 30
0.0
 10
6.880630832248262
 20
-10.61296115451389
 30
0.0
 10
7.630283610026039
 20
-10.61296115451389
 30
0.0
 10
9.163351101345483
 20
-10.61296115451389
 30
0.0
 10
9.957101101345484
 20
-10.61296115451389
 30
0.0
 10
10.75016208224826
 20
-10.61296115451389
 30
0.0
 10
11.65966729058159
 20
-10.31909450954861
 30
0.0
 10
11.65966729058159
 20
-8.790505642361107
 30
0.0
 10
11.65966729058159
 20
-7.261572265624998
 30
0.0
 10
11.65966729058159
 20
-4.123434787326388
 30
0.0
 10
11.65966729058159
 20
-0.8530056423611108
 30
0.0
 10
11.65966729058159
 20
2.417768012152776
 30
0.0
 10
14.98142835828993
 20
3.909666612413193
 30
0.0
 10
16.30434502495659
 20
3.909666612413193
 30
0.0
 10
17.62726169162326
 20
3.909666612413193
 30
0.0
 10
25.7549309624566
 20
3.909666612413193
 30
0.0
 10
29.15041707356771
 20
3.909666612413193
 30
0.0
 10
32.54590318467882
 20
3.909666612413193
 30
0.0
 10
33.72274780273438
 20
0.9598036024305557
 30
0.0
 10
33.72274780273438
 20
-0.4413167317708333
 30
0.0
 10
33.72274780273438
 20
-1.84243706597222
 30
0.0
 10
33.72274780273438
 20
-7.107231987847222
 30
0.0
 10
33.72274780273438
 20
-8.67268337673611
 30
0.0
 10
33.72274780273438
 20
-10.238134765625
 30
0.0
 10
34.73629489474826
 20
-10.436572265625
 30
0.0
 10
35.38293931749131
 20
-10.436572265625
 30
0.0
 10
36.02958374023437
 20
-10.436572265625
 30
0.0
 10
43.43102688259548
 20
-10.436572265625
 30
0.0
 10
45.1432393391927
 20
-10.436572265625
 30
0.0
 10
46.85545179578991
 20
-10.436572265625
 30
0.0
 10
47.03390774197047
 20
-9.466433376736112
 30
0.0
 10
47.03390774197047
 20
-8.67268337673611
 30
0.0
 10
47.03390774197047
 20
-7.87893337673611
 30
0.0
 10
47.03390774197047
 20
-0.3014458550347222
 30
0.0
 10
47.03390774197047
 20
2.204688856336805
 30
0.0
 10
47.03390774197047
 20
4.710823567708333
 30
0.0
 10
49.72866143120659
 20
5.622051323784722
 30
0.0
 10
50.27229749891493
 20
6.02633327907986
 30
0.0
 10
50.81593356662326
 20
6.430615234374998
 30
0.0
 10
50.8014641655816
 20
6.915684678819442
 30
0.0
 10
50.8014641655816
 20
7.555094401041666
 30
0.0
 10
50.8014641655816
 20
8.194504123263886
 30
0.0
 10
50.8014641655816
 20
8.164876302083332
 30
0.0
 10
50.8014641655816
 20
8.907294379340275
 30
0.0
 10
50.8014641655816
 20
10.44346245659722
 30
0.0
 10
49.53883666992187
 20
10.61244439019097
 30
0.0
 10
49.02379489474824
 20
10.61244439019097
 30
0.0
 10
48.50875311957465
 20
10.61244439019097
 30
0.0
 10
45.07674899631076
 20
10.61244439019097
 30
0.0
 10
44.02599487304685
 20
10.61244439019097
 30
0.0
 10
42.97524074978297
 20
10.61244439019097
 30
0.0
 10
42.07090318467881
 20
9.598208279079859
 30
0.0
 10
41.61546156141493
 20
9.201333279079859
 30
0.0
 10
41.16001993815102
 20
8.80445827907986
 30
0.0
 10
40.48340318467881
 20
8.062212456597222
 30
0.0
 10
38.76361151801215
 20
8.062212456597222
 30
0.0
 10
37.04381985134548
 20
8.062212456597222
 30
0.0
 10
36.23560045030381
 20
8.819099934895833
 30
0.0
 10
35.73571709526909
 20
9.201333279079859
 30
0.0
 10
35.23583374023437
 20
9.583566623263887
 30
0.0
 10
34.61847262912326
 20
10.61244439019097
 30
0.0
 10
33.21838582356771
 20
10.61244439019097
 30
0.0
 10
31.81829901801215
 20
10.61244439019097
 30
0.0
 10
25.96370374891493
 20
10.61244439019097
 30
0.0
 10
24.90950453016493
 20
10.61244439019097
 30
0.0
 10
23.85530531141493
 20
10.61244439019097
 30
0.0
 10
22.88447740342882
 20
7.966611056857637
 30
0.0
 10
20.25380249023438
 20
7.966611056857637
 30
0.0
 10
17.62312757703993
 20
7.966611056857637
 30
0.0
 10
16.33982950846354
 20
10.61244439019097
 30
0.0
 10
15.1016621907552
 20
10.61244439019097
 30
0.0
 10
13.86349487304687
 20
10.61244439019097
 30
0.0
 10
6.484444851345485
 20
10.61244439019097
 30
0.0
 10
5.010633002387152
 20
10.61244439019097
 30
0.0
 10
3.536132134331595
 20
10.61244439019097
 30
0.0
 10
2.57908460828993
 20
7.966611056857637
 30
0.0
 10
-0.0078375922309028
 20
7.966611056857637
 30
0.0
 10
-2.879324679904513
 20
7.966611056857637
 30
0.0
 10
-3.863932969835068
 20
10.61244439019097
 30
0.0
 10
-5.146886528862846
 20
10.61244439019097
 30
0.0
 10
-6.429840087890624
 20
10.61244439019097
 30
0.0
 10
-8.992302110460068
 20
10.61244439019097
 30
0.0
 10
-10.98012220594618
 20
10.61244439019097
 30
0.0
 10
-12.96863132052951
 20
10.61244439019097
 30
0.0
 10
-13.10850219726562
 20
8.745547146267361
 30
0.0
 10
-13.10850219726562
 20
8.495777723524302
 30
0.0
 10
-13.10850219726562
 20
8.246008300781246
 30
0.0
 10
-13.10850219726562
 20
7.202144368489582
 30
0.0
 10
-13.10850219726562
 20
5.849944390190971
 30
0.0
 10
-13.10850219726562
 20
4.497744411892361
 30
0.0
 10
-12.05016886393229
 20
4.086055501302083
 30
0.0
 10
-12.05016886393229
 20
2.67494439019097
 30
0.0
 10
-12.05016886393229
 20
1.263661024305554
 30
0.0
 10
-12.05016886393229
 20
0.5877332899305557
 30
0.0
 10
-12.05016886393229
 20
-1.676038953993054
 30
0.0
 10
-12.05016886393229
 20
-3.939811197916666
 30
0.0
 10
-14.5340827094184
 20
-5.909372287326386
 30
0.0
 10
-16.4006354437934
 20
-5.909372287326386
 30
0.0
 10
-18.26787719726562
 20
-5.909372287326386
 30
0.0
 10
-19.59561699761285
 20
-5.909372287326386
 30
0.0
 10
-22.34411417643229
 20
-5.909372287326386
 30
0.0
 10
-25.09261135525174
 20
-5.909372287326386
 30
0.0
 10
-27.16518079969618
 20
-3.17568901909722
 30
0.0
 10
-27.16518079969618
 20
-1.676038953993054
 30
0.0
 10
-27.16518079969618
 20
-0.1763888888888889
 30
0.0
 10
-27.16518079969618
 20
0.675927734375
 30
0.0
 10
-27.16518079969618
 20
2.380905490451388
 30
0.0
 10
-27.16518079969618
 20
4.086055501302083
 30
0.0
 10
-26.22466973198785
 20
4.453647189670137
 30
0.0
 10
-26.22466973198785
 20
5.967594401041664
 30
0.0
 10
-26.22466973198785
 20
7.481541612413192
 30
0.0
 10
-26.22466973198785
 20
7.246586100260414
 30
0.0
 10
-26.22466973198785
 20
8.554688856336802
 30
0.0
 10
-26.22466973198785
 20
9.862791612413193
 30
0.0
 10
-26.60673082139757
 20
10.60297037760416
 30
0.0
 10
-28.04712524414063
 20
10.60297037760416
 30
0.0
 10
-29.48786417643229
 20
10.60297037760416
 30
0.0
 10
-31.78074747721354
 20
10.60297037760416
 30
0.0
 10
-33.21028984917536
 20
10.60297037760416
 30
0.0
 10
-35.05169338650173
 20
10.60297037760416
 30
0.0
 10
-35.42617526584201
 20
8.201911078559026
 30
0.0
 10
-38.45424194335937
 20
8.201911078559026
 30
0.0
 10
-41.76153361002604
 20
8.201911078559026
 30
0.0
 10
-41.6647264268663
 20
10.61296115451389
 30
0.0
 10
-44.0642354329427
 20
10.61296115451389
 30
0.0
 10
-46.46374443901909
 20
10.61296115451389
 30
0.0
 10
-48.00129055447047
 20
10.61296115451389
 30
0.0
 10
-49.20293986002604
 20
10.61296115451389
 30
0.0
 10
-50.4045891655816
 20
10.61296115451389
 30
0.0
 10
-50.8014641655816
 20
9.539469401041666
 30
0.0
 10
-50.8014641655816
 20
8.789816623263886
 30
0.0
  0
LWPOLYLINE
  5
784
330
781
100
AcDbEntity
  8
LAYER_1
  6
AI9-LTYPE1
 62
     7
100
AcDbPolyline
 90
        4
 70
     0
 43
0.0
 10
47.03356323242186
 20
-1.146527777777777
 10
38.02842814127604
 20
-1.146527777777777
 10
38.02842814127604
 20
-5.527311197916666
 10
46.94536878797743
 20
-5.527311197916666
  0
ENDBLK
  5
785
330
781
100
AcDbEntity
  8
LAYER_1
100
AcDbBlockEnd
  0
ENDSEC
  0
SECTION
  2
ENTITIES
  0
TEXT
  5
9C
330
18
100
AcDbEntity
  8
ADPDIM
100
AcDbText
 10
3.22197796897784
 20
1.505260754738739
 30
0.0
 40
0.125
  1
J U L I U S  B L U M  &  C O . ,  I N C .      ( 8 0 0 )  5 2 6 - 6 2 9 3        W W W . J U L I U S B L U M . C O M        P A R T  N o .  6 5 8 9
 41
1.25
  7
ARIAL_WIDE
 72
     1
 11
9.747706993534457
 21
1.630260754738739
 31
0.0
100
AcDbText
 73
     3
  0
DIMENSION
  5
62A
330
18
100
AcDbEntity
  8
ADPDIM
100
AcDbDimension
  2
*D2
 10
7.488743391367425
 20
2.205739020891214
 30
0.0
 11
7.488743391367423
 21
2.614257594539961
 31
0.0
 70
    33
 71
     5
 42
0.8170371472974924
  3
STANDARD
100
AcDbAlignedDimension
 13
8.021285635165231
 23
3.022776168188707
 33
0.0
 14
8.021285635165231
 24
2.205739020891214
 34
0.0
1001
ACAD
1000
DSTYLE
1002
{
1070
   276
1070
     2
1070
   277
1070
     5
1070
    41
1040
0.125
1070
    73
1070
     0
1070
    74
1070
     0
1070
    78
1070
     3
1070
   140
1040
0.125
1070
   141
1040
0.1875
1070
   142
1040
0.125
1070
   147
1040
0.125
1070
   171
1070
     1
1002
}
  0
DIMENSION
  5
638
330
18
100
AcDbEntity
  8
ADPDIM
100
AcDbDimension
  2
*D3
 10
9.211541212337122
 20
3.353072457089408
 30
0.0
 11
8.586701630671472
 21
3.353072457089408
 31
0.0
 70
    32
 71
     5
 42
1.2496791633313
  3
STANDARD
100
AcDbAlignedDimension
 13
7.961862049005821
 23
2.986183251842455
 33
0.0
 14
9.211541212337122
 24
2.397329146742667
 34
0.0
100
AcDbRotatedDimension
1001
ACAD
1000
DSTYLE
1002
{
1070
   276
1070
     2
1070
   277
1070
     5
1070
    41
1040
0.125
1070
    73
1070
     0
1070
    74
1070
     0
1070
    78
1070
     3
1070
   140
1040
0.125
1070
   141
1040
0.1875
1070
   142
1040
0.125
1070
   147
1040
0.125
1070
   171
1070
     1
1002
}
  0
DIMENSION
  5
672
330
18
100
AcDbEntity
  8
ADPDIM
100
AcDbDimension
  2
*D5
 10
11.95442302852932
 20
3.352661547326033
 30
0.0
 11
10.58270263756815
 21
3.352661547326033
 31
0.0
 70
    32
 71
     5
 42
2.743440781922338
  3
STANDARD
100
AcDbAlignedDimension
 13
9.210982246606979
 23
2.393798946600496
 33
0.0
 14
11.95442302852932
 24
2.962067894844807
 34
0.0
100
AcDbRotatedDimension
1001
ACAD
1000
DSTYLE
1002
{
1070
   276
1070
     2
1070
   277
1070
     5
1070
    41
1040
0.125
1070
    73
1070
     0
1070
    74
1070
     0
1070
    78
1070
     3
1070
   140
1040
0.125
1070
   141
1040
0.1875
1070
   142
1040
0.125
1070
   147
1040
0.125
1070
   171
1070
     1
1002
}
  0
DIMENSION
  5
68A
330
18
100
AcDbEntity
  8
ADPDIM
100
AcDbDimension
  2
*D6
 10
12.09755240222651
 20
2.772687635353833
 30
0.0
 11
12.09755240222651
 21
2.251854302020503
 31
0.0
 70
    32
 71
     5
 42
0.25
  3
STANDARD
100
AcDbAlignedDimension
 13
11.84305448024928
 23
3.022687635353833
 33
0.0
 14
11.84305448024928
 24
2.772687635353833
 34
0.0
 50
90.0
100
AcDbRotatedDimension
1001
ACAD
1000
DSTYLE
1002
{
1070
   276
1070
     2
1070
   277
1070
     5
1070
    41
1040
0.125
1070
    73
1070
     0
1070
    74
1070
     0
1070
    78
1070
     3
1070
   140
1040
0.125
1070
   141
1040
0.1875
1070
   142
1040
0.125
1070
   147
1040
0.125
1070
   171
1070
     1
1002
}
  0
INSERT
  5
792
330
18
100
AcDbEntity
  8
LAYER_1
 62
     7
100
AcDbBlockReference
  2
AI9-BLK1
 10
9.964181466630586
 20
2.604486290393171
 30
0.0
 41
0.0393588000000005
 42
0.0393587999999987
 43
0.0393588
  0
ENDSEC
  0
SECTION
  2
OBJECTS
  0
DICTIONARY
  5
C
330
0
100
AcDbDictionary
281
     1
  3
ACAD_COLOR
350
1F1
  3
ACAD_GROUP
350
D
  3
ACAD_LAYOUT
350
95
  3
ACAD_MATERIAL
350
1DC
  3
ACAD_MLINESTYLE
350
E
  3
ACAD_PLOTSETTINGS
350
96
  3
ACAD_PLOTSTYLENAME
350
93
  3
ACAD_TABLESTYLE
350
1F2
  3
ACAD_VISUALSTYLE
350
1E0
  3
AcDbVariableDictionary
350
F6
  3
ASE_INDEX_DICTIONARY
350
5C6
  3
DWGPROPS
350
861
  0
DICTIONARY
  5
27C
330
8
100
AcDbDictionary
280
     1
281
     1
  0
DICTIONARY
  5
F0
330
18
100
AcDbDictionary
280
     1
281
     1
  3
ACAD_LAYOUTSELFREF
360
1D6
  0
DICTIONARY
  5
EE
330
15
100
AcDbDictionary
280
     1
281
     1
  3
ACAD_LAYOUTSELFREF
360
1D5
  0
DICTIONARY
  5
1F1
102
{ACAD_REACTORS
330
C
102
}
330
C
100
AcDbDictionary
281
     1
  0
DICTIONARY
  5
D
102
{ACAD_REACTORS
330
C
102
}
330
C
100
AcDbDictionary
281
     1
  0
DICTIONARY
  5
95
102
{ACAD_REACTORS
330
C
102
}
330
C
100
AcDbDictionary
281
     1
  3
Layout1
350
98
  3
Model
350
97
  0
DICTIONARY
  5
1DC
102
{ACAD_REACTORS
330
C
102
}
330
C
100
AcDbDictionary
281
     1
  3
ByBlock
350
1DE
  3
ByLayer
350
1DD
  3
Global
350
1DF
  0
DICTIONARY
  5
E
102
{ACAD_REACTORS
330
C
102
}
330
C
100
AcDbDictionary
281
     1
  3
STANDARD
350
1B
  0
DICTIONARY
  5
96
102
{ACAD_REACTORS
330
C
102
}
330
C
100
AcDbDictionary
281
     1
  0
ACDBDICTIONARYWDFLT
  5
93
102
{ACAD_REACTORS
330
C
102
}
330
C
100
AcDbDictionary
281
     1
  3
Normal
350
94
100
AcDbDictionaryWithDefault
340
94
  0
DICTIONARY
  5
1F2
102
{ACAD_REACTORS
330
C
102
}
330
C
100
AcDbDictionary
281
     1
  3
Standard
350
1F3
  0
DICTIONARY
  5
1E0
102
{ACAD_REACTORS
330
C
102
}
330
C
100
AcDbDictionary
281
     1
  3
2dWireframe
350
1E6
  3
3D Hidden
350
1E8
  3
3dWireframe
350
1E7
  3
Basic
350
1E5
  3
Brighten
350
1EC
  3
ColorChange
350
1F0
  3
Conceptual
350
1E9
  3
Dim
350
1EB
  3
Facepattern
350
1EF
  3
Flat
350
1E1
  3
FlatWithEdges
350
1E2
  3
Gouraud
350
1E3
  3
GouraudWithEdges
350
1E4
  3
Linepattern
350
1EE
  3
Realistic
350
1EA
  3
Thicken
350
1ED
  0
DICTIONARY
  5
F6
102
{ACAD_REACTORS
330
C
102
}
330
C
100
AcDbDictionary
281
     1
  3
CTABLESTYLE
350
294
  3
DIMASSOC
350
F7
  3
INDEXCTL
350
296
  3
SORTENTS
350
295
  0
DICTIONARY
  5
5C6
102
{ACAD_REACTORS
330
C
102
}
330
C
100
AcDbDictionary
281
     1
  3
ASEBlockHierarchyIndexRecord
350
5C7
1001
DCO15
1040
1660302700.771
  0
XRECORD
  5
861
102
{ACAD_REACTORS
330
C
102
}
330
C
100
AcDbXrecord
280
     1
  1
DWGPROPS COOKIE
  2

  3

  4

  6

  7

  8
John
  9

300
=
301
=
302
=
303
=
304
=
305
=
306
=
307
=
308
=
309
=
 40
0.0643979050925926
 41
2450277.499608021
 42
2455209.623404896
  1

 90
        0
  0
XRECORD
  5
1D6
102
{ACAD_REACTORS
330
F0
102
}
330
F0
100
AcDbXrecord
280
     1
340
18
  0
XRECORD
  5
1D5
102
{ACAD_REACTORS
330
EE
102
}
330
EE
100
AcDbXrecord
280
     1
340
15
  0
LAYOUT
  5
98
102
{ACAD_XDICTIONARY
360
864
102
}
102
{ACAD_REACTORS
330
95
102
}
330
95
100
AcDbPlotSettings
  1

  2
Fax
  4

  6

 40
0.0
 41
0.0
 42
0.0
 43
0.0
 44
0.0
 45
0.0
 46
0.0
 47
0.0
 48
0.0
 49
0.0
140
0.0
141
0.0
142
1.0
143
1.0
 70
   688
 72
     0
 73
     0
 74
     5
  7
Default R14 pen assignments.ctb
 75
    16
147
1.0
148
0.0
149
0.0
100
AcDbLayout
  1
Layout1
 70
     1
 71
     1
 10
0.0
 20
0.0
 11
12.0
 21
9.0
 12
0.1875029802322391
 22
0.0
 32
0.0
 14
1.000000000000000E+20
 24
1.000000000000000E+20
 34
1.000000000000000E+20
 15
-1.000000000000000E+20
 25
-1.000000000000000E+20
 35
-1.000000000000000E+20
146
0.0
 13
0.0
 23
0.0
 33
0.0
 16
1.0
 26
0.0
 36
0.0
 17
0.0
 27
1.0
 37
0.0
 76
     0
330
15
  0
LAYOUT
  5
97
102
{ACAD_XDICTIONARY
360
862
102
}
102
{ACAD_REACTORS
330
95
102
}
330
95
100
AcDbPlotSettings
  1

  2
Fax
  4

  6

 40
0.0
 41
0.0
 42
0.0
 43
0.0
 44
0.0
 45
0.0
 46
0.0
 47
0.0
 48
0.0
 49
0.0
140
0.0
141
0.0
142
1.0
143
1.0
 70
  1712
 72
     0
 73
     0
 74
     0
  7
Default R14 pen assignments.ctb
 75
     0
147
1.0
148
0.0
149
0.0
100
AcDbLayout
  1
Model
 70
     1
 71
     0
 10
0.0
 20
0.0
 11
12.0
 21
9.0
 12
0.0
 22
0.0
 32
0.0
 14
0.0
 24
0.0
 34
0.0
 15
0.0
 25
0.0
 35
0.0
146
0.0
 13
0.0
 23
0.0
 33
0.0
 16
1.0
 26
0.0
 36
0.0
 17
0.0
 27
1.0
 37
0.0
 76
     0
330
18
331
1B0
  0
MATERIAL
  5
1DE
102
{ACAD_XDICTIONARY
360
856
102
}
102
{ACAD_REACTORS
330
1DC
102
}
330
1DC
100
AcDbMaterial
  1
ByBlock
  0
MATERIAL
  5
1DD
102
{ACAD_XDICTIONARY
360
854
102
}
102
{ACAD_REACTORS
330
1DC
102
}
330
1DC
100
AcDbMaterial
  1
ByLayer
  0
MATERIAL
  5
1DF
102
{ACAD_XDICTIONARY
360
858
102
}
102
{ACAD_REACTORS
330
1DC
102
}
330
1DC
100
AcDbMaterial
  1
Global
  0
MLINESTYLE
  5
1B
102
{ACAD_REACTORS
330
E
102
}
330
E
100
AcDbMlineStyle
  2
STANDARD
 70
     0
  3

 62
     0
 51
90.0
 52
90.0
 71
     2
 49
0.5
 62
   256
  6
BYLAYER
 49
-0.5
 62
   256
  6
BYLAYER
  0
ACDBPLACEHOLDER
  5
94
102
{ACAD_REACTORS
330
93
102
}
330
93
  0
TABLESTYLE
  5
1F3
102
{ACAD_XDICTIONARY
360
866
102
}
102
{ACAD_REACTORS
330
1F2
102
}
330
1F2
100
AcDbTableStyle
  3
Standard
 70
     0
 71
     0
 40
0.06
 41
0.06
280
     0
281
     0
  7
STANDARD
140
0.18
170
     2
 62
     0
 63
     7
283
     0
274
    -2
284
     1
 64
     0
275
    -2
285
     1
 65
     0
276
    -2
286
     1
 66
     0
277
    -2
287
     1
 67
     0
278
    -2
288
     1
 68
     0
279
    -2
289
     1
 69
     0
  7
STANDARD
140
0.25
170
     5
 62
     0
 63
     7
283
     0
274
    -2
284
     1
 64
     0
275
    -2
285
     1
 65
     0
276
    -2
286
     1
 66
     0
277
    -2
287
     1
 67
     0
278
    -2
288
     1
 68
     0
279
    -2
289
     1
 69
     0
  7
STANDARD
140
0.18
170
     5
 62
     0
 63
     7
283
     0
274
    -2
284
     1
 64
     0
275
    -2
285
     1
 65
     0
276
    -2
286
     1
 66
     0
277
    -2
287
     1
 67
     0
278
    -2
288
     1
 68
     0
279
    -2
289
     1
 69
     0
  0
VISUALSTYLE
  5
1E6
102
{ACAD_REACTORS
330
1E0
102
}
330
1E0
100
AcDbVisualStyle
  2
2dWireframe
 70
     4
 71
     0
 72
     2
 73
     0
 90
        0
 40
-0.6
 41
-30.0
 62
     5
 63
     7
 74
     1
 91
        4
 64
     7
 65
   257
 75
     1
175
     1
 42
1.0
 92
        0
 66
   257
 43
1.0
 76
     1
 77
     6
 78
     2
 67
     7
 79
     5
170
     0
171
     0
290
     0
174
     0
 93
        1
 44
0.0
173
     0
291
     0
 45
0.0
1001
ACAD
1000
AcDbSavedByObjectVersion
1070
     0
1000
AcDbSavedByObjectVersion
1070
     0
  0
VISUALSTYLE
  5
1E8
102
{ACAD_REACTORS
330
1E0
102
}
330
1E0
100
AcDbVisualStyle
  2
3D Hidden
 70
     6
 71
     1
 72
     2
 73
     2
 90
        0
 40
-0.6
 41
-30.0
 62
     5
 63
     7
 74
     2
 91
        2
 64
     7
 65
   257
 75
     2
175
     1
 42
40.0
 92
        0
 66
   257
 43
1.0
 76
     1
 77
     6
 78
     2
 67
     7
 79
     3
170
     0
171
     0
290
     0
174
     0
 93
        1
 44
0.0
173
     0
291
     0
 45
0.0
1001
ACAD
1000
AcDbSavedByObjectVersion
1070
     0
1000
AcDbSavedByObjectVersion
1070
     0
  0
VISUALSTYLE
  5
1E7
102
{ACAD_REACTORS
330
1E0
102
}
330
1E0
100
AcDbVisualStyle
  2
3dWireframe
 70
     5
 71
     0
 72
     2
 73
     0
 90
        0
 40
-0.6
 41
-30.0
 62
     5
 63
     7
 74
     1
 91
        4
 64
     7
 65
   257
 75
     1
175
     1
 42
1.0
 92
        0
 66
   257
 43
1.0
 76
     1
 77
     6
 78
     2
 67
     7
 79
     5
170
     0
171
     0
290
     0
174
     0
 93
        1
 44
0.0
173
     0
291
     0
 45
0.0
1001
ACAD
1000
AcDbSavedByObjectVersion
1070
     0
1000
AcDbSavedByObjectVersion
1070
     0
  0
VISUALSTYLE
  5
1E5
102
{ACAD_REACTORS
330
1E0
102
}
330
1E0
100
AcDbVisualStyle
  2
Basic
 70
     7
 71
     1
 72
     0
 73
     1
 90
        0
 40
-0.6
 41
-30.0
 62
     5
 63
     7
 74
     0
 91
        4
 64
     7
 65
   257
 75
     1
175
     1
 42
1.0
 92
        8
 66
     7
 43
1.0
 76
     1
 77
     6
 78
     2
 67
     7
 79
     5
170
     0
171
     0
290
     0
174
     0
 93
        1
 44
0.0
173
     0
291
     1
 45
0.0
1001
ACAD
1000
AcDbSavedByObjectVersion
1070
     0
1000
AcDbSavedByObjectVersion
1070
     0
  0
VISUALSTYLE
  5
1EC
102
{ACAD_REACTORS
330
1E0
102
}
330
1E0
100
AcDbVisualStyle
  2
Brighten
 70
    12
 71
     2
 72
     2
 73
     0
 90
        0
 40
-0.6
 41
-30.0
 62
     5
 63
     7
 74
     1
 91
        4
 64
     7
 65
   257
 75
     1
175
     1
 42
1.0
 92
        8
 66
     7
 43
1.0
 76
     1
 77
     6
 78
     2
 67
     7
 79
     5
170
     0
171
     0
290
     0
174
     0
 93
        1
 44
50.0
173
     0
291
     1
 45
0.0
1001
ACAD
1000
AcDbSavedByObjectVersion
1070
     0
1000
AcDbSavedByObjectVersion
1070
     0
  0
VISUALSTYLE
  5
1F0
102
{ACAD_REACTORS
330
1E0
102
}
330
1E0
100
AcDbVisualStyle
  2
ColorChange
 70
    16
 71
     2
 72
     2
 73
     3
 90
        0
 40
-0.6
 41
-30.0
 62
     5
 63
     8
 74
     1
 91
        4
 64
     7
 65
   257
 75
     1
175
     1
 42
1.0
 92
        8
 66
     8
 43
1.0
 76
     1
 77
     6
 78
     2
 67
     7
 79
     5
170
     0
171
     0
290
     0
174
     0
 93
        1
 44
0.0
173
     0
291
     1
 45
0.0
1001
ACAD
1000
AcDbSavedByObjectVersion
1070
     0
1000
AcDbSavedByObjectVersion
1070
     0
  0
VISUALSTYLE
  5
1E9
102
{ACAD_REACTORS
330
1E0
102
}
330
1E0
100
AcDbVisualStyle
  2
Conceptual
 70
     9
 71
     3
 72
     2
 73
     0
 90
        0
 40
-0.6
 41
-30.0
 62
     5
 63
     7
 74
     2
 91
        2
 64
     7
 65
   257
 75
     1
175
     1
 42
40.0
 92
        8
 66
     7
 43
1.0
 76
     1
 77
     6
 78
     2
 67
     7
 79
     3
170
     0
171
     0
290
     0
174
     0
 93
        1
 44
0.0
173
     0
291
     0
 45
0.0
1001
ACAD
1000
AcDbSavedByObjectVersion
1070
     0
1000
AcDbSavedByObjectVersion
1070
     0
  0
VISUALSTYLE
  5
1EB
102
{ACAD_REACTORS
330
1E0
102
}
330
1E0
100
AcDbVisualStyle
  2
Dim
 70
    11
 71
     2
 72
     2
 73
     0
 90
        0
 40
-0.6
 41
-30.0
 62
     5
 63
     7
 74
     1
 91
        4
 64
     7
 65
   257
 75
     1
175
     1
 42
1.0
 92
        8
 66
     7
 43
1.0
 76
     1
 77
     6
 78
     2
 67
     7
 79
     5
170
     0
171
     0
290
     0
174
     0
 93
        1
 44
-50.0
173
     0
291
     1
 45
0.0
1001
ACAD
1000
AcDbSavedByObjectVersion
1070
     0
1000
AcDbSavedByObjectVersion
1070
     0
  0
VISUALSTYLE
  5
1EF
102
{ACAD_REACTORS
330
1E0
102
}
330
1E0
100
AcDbVisualStyle
  2
Facepattern
 70
    15
 71
     2
 72
     2
 73
     0
 90
        0
 40
-0.6
 41
-30.0
 62
     5
 63
     7
 74
     1
 91
        4
 64
     7
 65
   257
 75
     1
175
     1
 42
1.0
 92
        8
 66
     7
 43
1.0
 76
     1
 77
     6
 78
     2
 67
     7
 79
     5
170
     0
171
     0
290
     0
174
     0
 93
        1
 44
0.0
173
     0
291
     1
 45
0.0
1001
ACAD
1000
AcDbSavedByObjectVersion
1070
     0
1000
AcDbSavedByObjectVersion
1070
     0
  0
VISUALSTYLE
  5
1E1
102
{ACAD_REACTORS
330
1E0
102
}
330
1E0
100
AcDbVisualStyle
  2
Flat
 70
     0
 71
     2
 72
     1
 73
     1
 90
        2
 40
-0.6
 41
30.0
 62
     5
 63
     7
 74
     0
 91
        4
 64
     7
 65
   257
 75
     1
175
     1
 42
1.0
 92
        8
 66
     7
 43
1.0
 76
     1
 77
     6
 78
     2
 67
     7
 79
     5
170
     0
171
     0
290
     0
174
     0
 93
       13
 44
0.0
173
     0
291
     1
 45
0.0
1001
ACAD
1000
AcDbSavedByObjectVersion
1070
     0
1000
AcDbSavedByObjectVersion
1070
     0
  0
VISUALSTYLE
  5
1E2
102
{ACAD_REACTORS
330
1E0
102
}
330
1E0
100
AcDbVisualStyle
  2
FlatWithEdges
 70
     1
 71
     2
 72
     1
 73
     1
 90
        2
 40
-0.6
 41
30.0
 62
     5
 63
     7
 74
     1
 91
        4
 64
     7
 65
   257
 75
     1
175
     1
 42
1.0
 92
        0
 66
   257
 43
1.0
 76
     1
 77
     6
 78
     2
 67
     7
 79
     5
170
     0
171
     0
290
     0
174
     0
 93
       13
 44
0.0
173
     0
291
     1
 45
0.0
1001
ACAD
1000
AcDbSavedByObjectVersion
1070
     0
1000
AcDbSavedByObjectVersion
1070
     0
  0
VISUALSTYLE
  5
1E3
102
{ACAD_REACTORS
330
1E0
102
}
330
1E0
100
AcDbVisualStyle
  2
Gouraud
 70
     2
 71
     2
 72
     2
 73
     1
 90
        2
 40
-0.6
 41
30.0
 62
     5
 63
     7
 74
     0
 91
        4
 64
     7
 65
   257
 75
     1
175
     1
 42
1.0
 92
        0
 66
     7
 43
1.0
 76
     1
 77
     6
 78
     2
 67
     7
 79
     5
170
     0
171
     0
290
     0
174
     0
 93
       13
 44
0.0
173
     0
291
     1
 45
0.0
1001
ACAD
1000
AcDbSavedByObjectVersion
1070
     0
1000
AcDbSavedByObjectVersion
1070
     0
  0
VISUALSTYLE
  5
1E4
102
{ACAD_REACTORS
330
1E0
102
}
330
1E0
100
AcDbVisualStyle
  2
GouraudWithEdges
 70
     3
 71
     2
 72
     2
 73
     1
 90
        2
 40
-0.6
 41
30.0
 62
     5
 63
     7
 74
     1
 91
        4
 64
     7
 65
   257
 75
     1
175
     1
 42
1.0
 92
        0
 66
   257
 43
1.0
 76
     1
 77
     6
 78
     2
 67
     7
 79
     5
170
     0
171
     0
290
     0
174
     0
 93
       13
 44
0.0
173
     0
291
     1
 45
0.0
1001
ACAD
1000
AcDbSavedByObjectVersion
1070
     0
1000
AcDbSavedByObjectVersion
1070
     0
  0
VISUALSTYLE
  5
1EE
102
{ACAD_REACTORS
330
1E0
102
}
330
1E0
100
AcDbVisualStyle
  2
Linepattern
 70
    14
 71
     2
 72
     2
 73
     0
 90
        0
 40
-0.6
 41
-30.0
 62
     5
 63
     7
 74
     1
 91
        4
 64
     7
 65
   257
 75
     7
175
     7
 42
1.0
 92
        8
 66
     7
 43
1.0
 76
     1
 77
     6
 78
     2
 67
     7
 79
     5
170
     0
171
     0
290
     0
174
     0
 93
        1
 44
0.0
173
     0
291
     1
 45
0.0
1001
ACAD
1000
AcDbSavedByObjectVersion
1070
     0
1000
AcDbSavedByObjectVersion
1070
     0
  0
VISUALSTYLE
  5
1EA
102
{ACAD_REACTORS
330
1E0
102
}
330
1E0
100
AcDbVisualStyle
  2
Realistic
 70
     8
 71
     2
 72
     2
 73
     0
 90
        0
 40
-0.6
 41
-30.0
 62
     5
 63
     7
 74
     1
 91
        0
 64
     7
 65
   257
 75
     1
175
     1
 42
1.0
 92
        8
 66
     8
 43
1.0
 76
     1
 77
     6
 78
     2
 67
     7
 79
     5
170
     0
171
     0
290
     0
174
     0
 93
       13
 44
0.0
173
     0
291
     0
 45
0.0
1001
ACAD
1000
AcDbSavedByObjectVersion
1070
     0
1000
AcDbSavedByObjectVersion
1070
     0
  0
VISUALSTYLE
  5
1ED
102
{ACAD_REACTORS
330
1E0
102
}
330
1E0
100
AcDbVisualStyle
  2
Thicken
 70
    13
 71
     2
 72
     2
 73
     0
 90
        0
 40
-0.6
 41
-30.0
 62
     5
 63
     7
 74
     1
 91
        4
 64
     7
 65
   257
 75
     1
175
     1
 42
1.0
 92
       12
 66
     7
 43
1.0
 76
     1
 77
     6
 78
     2
 67
     7
 79
     5
170
     0
171
     0
290
     0
174
     0
 93
        1
 44
0.0
173
     0
291
     1
 45
0.0
1001
ACAD
1000
AcDbSavedByObjectVersion
1070
     0
1000
AcDbSavedByObjectVersion
1070
     0
  0
DICTIONARYVAR
  5
294
102
{ACAD_REACTORS
330
F6
102
}
330
F6
100
DictionaryVariables
280
     0
  1
STANDARD
  0
DICTIONARYVAR
  5
F7
102
{ACAD_REACTORS
330
F6
102
}
330
F6
100
DictionaryVariables
280
     0
  1
1
  0
DICTIONARYVAR
  5
296
102
{ACAD_REACTORS
330
F6
102
}
330
F6
100
DictionaryVariables
280
     0
  1
0
  0
DICTIONARYVAR
  5
295
102
{ACAD_REACTORS
330
F6
102
}
330
F6
100
DictionaryVariables
280
     0
  1
127
  0
XRECORD
  5
5C7
102
{ACAD_REACTORS
330
5C6
102
}
330
5C6
100
AcDbXrecord
280
     1
330
792
330
2D3
  0
DICTIONARY
  5
864
330
98
100
AcDbDictionary
280
     1
281
     1
  3
ACAD_XREC_ROUNDTRIP
360
865
  0
DICTIONARY
  5
862
330
97
100
AcDbDictionary
280
     1
281
     1
  3
ACAD_XREC_ROUNDTRIP
360
863
  0
DICTIONARY
  5
856
330
1DE
100
AcDbDictionary
280
     1
281
     1
  3
ACAD_XREC_ROUNDTRIP
360
857
  0
DICTIONARY
  5
854
330
1DD
100
AcDbDictionary
280
     1
281
     1
  3
ACAD_XREC_ROUNDTRIP
360
855
  0
DICTIONARY
  5
858
330
1DF
100
AcDbDictionary
280
     1
281
     1
  3
ACAD_XREC_ROUNDTRIP
360
859
  0
DICTIONARY
  5
866
330
1F3
100
AcDbDictionary
280
     1
281
     1
  3
ACAD_XREC_ROUNDTRIP
360
867
  0
XRECORD
  5
865
102
{ACAD_REACTORS
330
864
102
}
330
864
100
AcDbXrecord
280
     1
102
SHADEPLOT
 70
     0
102
SHADEPLOTRESLEVEL
 70
     2
102
SHADEPLOTCUSTOMDPI
 70
   300
  0
XRECORD
  5
863
102
{ACAD_REACTORS
330
862
102
}
330
862
100
AcDbXrecord
280
     1
102
SHADEPLOT
 70
     0
102
SHADEPLOTRESLEVEL
 70
     2
102
SHADEPLOTCUSTOMDPI
 70
   300
  0
XRECORD
  5
857
102
{ACAD_REACTORS
330
856
102
}
330
856
100
AcDbXrecord
280
     1
102
MATERIAL
148
0.0
149
0.0
149
0.0
 93
        0
 94
       63
282
     0
 72
     1
 77
     1
171
     1
175
     1
179
     1
273
     0
  0
XRECORD
  5
855
102
{ACAD_REACTORS
330
854
102
}
330
854
100
AcDbXrecord
280
     1
102
MATERIAL
148
0.0
149
0.0
149
0.0
 93
        0
 94
       63
282
     0
 72
     1
 77
     1
171
     1
175
     1
179
     1
273
     0
  0
XRECORD
  5
859
102
{ACAD_REACTORS
330
858
102
}
330
858
100
AcDbXrecord
280
     1
102
MATERIAL
148
0.0
149
0.0
149
0.0
 93
        0
 94
       63
282
     0
 72
     1
 77
     1
171
     1
175
     1
179
     1
273
     0
  0
XRECORD
  5
867
102
{ACAD_REACTORS
330
866
102
}
330
866
100
AcDbXrecord
280
     1
102
ACAD_ROUNDTRIP_PRE2007_TABLESTYLE
 90
      512
 91
        0
  1

 92
      512
 93
        0
  2

 94
      512
 95
        0
  3

  0
ENDSEC
  0
EOF
