  0
SECTION
  2
HEADER
  9
$ACADVER
  1
AC1015
  9
$ACADMAINTVER
 70
    18
  9
$DWGCODEPAGE
  3
ANSI_1252
  9
$INSBASE
 10
0.0
 20
0.0
 30
0.0
  9
$EXTMIN
 10
1.000000000000000E+20
 20
1.000000000000000E+20
 30
1.000000000000000E+20
  9
$EXTMAX
 10
0.0
 20
0.0
 30
0.0
  9
$LIMMIN
 10
-123.5686848958333
 20
-79.91656901041666
  9
$LIMMAX
 10
111.9270182291666
 20
0.0
  9
$ORTHOMODE
 70
     0
  9
$REGENMODE
 70
     1
  9
$FILLMODE
 70
     1
  9
$QTEXTMODE
 70
     0
  9
$MIRRTEXT
 70
     1
  9
$LTSCALE
 40
1.0
  9
$ATTMODE
 70
     1
  9
$TEXTSIZE
 40
0.0
  9
$TRACEWID
 40
0.05
  9
$TEXTSTYLE
  7
Standard
  9
$CLAYER
  8
0
  9
$CELTYPE
  6
Continuous
  9
$CECOLOR
 62
   256
  9
$CELTSCALE
 40
1.0
  9
$DISPSILH
 70
     0
  9
$DIMSCALE
 40
1.0
  9
$DIMASZ
 40
0.18
  9
$DIMEXO
 40
0.0625
  9
$DIMDLI
 40
0.38
  9
$DIMRND
 40
0.0
  9
$DIMDLE
 40
0.0
  9
$DIMEXE
 40
0.18
  9
$DIMTP
 40
0.0
  9
$DIMTM
 40
0.0
  9
$DIMTXT
 40
0.18
  9
$DIMCEN
 40
0.09
  9
$DIMTSZ
 40
0.0
  9
$DIMTOL
 70
     0
  9
$DIMLIM
 70
     0
  9
$DIMTIH
 70
     1
  9
$DIMTOH
 70
     1
  9
$DIMSE1
 70
     0
  9
$DIMSE2
 70
     0
  9
$DIMTAD
 70
     0
  9
$DIMZIN
 70
     0
  9
$DIMBLK
  1

  9
$DIMASO
 70
     1
  9
$DIMSHO
 70
     1
  9
$DIMPOST
  1

  9
$DIMAPOST
  1

  9
$DIMALT
 70
     0
  9
$DIMALTD
 70
     2
  9
$DIMALTF
 40
25.4
  9
$DIMLFAC
 40
1.0
  9
$DIMTOFL
 70
     0
  9
$DIMTVP
 40
0.0
  9
$DIMTIX
 70
     0
  9
$DIMSOXD
 70
     0
  9
$DIMSAH
 70
     0
  9
$DIMBLK1
  1

  9
$DIMBLK2
  1

  9
$DIMSTYLE
  2
Standard
  9
$DIMCLRD
 70
     0
  9
$DIMCLRE
 70
     0
  9
$DIMCLRT
 70
     0
  9
$DIMTFAC
 40
1.0
  9
$DIMGAP
 40
0.09
  9
$DIMJUST
 70
     0
  9
$DIMSD1
 70
     0
  9
$DIMSD2
 70
     0
  9
$DIMTOLJ
 70
     1
  9
$DIMTZIN
 70
     0
  9
$DIMALTZ
 70
     0
  9
$DIMALTTZ
 70
     0
  9
$DIMUPT
 70
     0
  9
$DIMDEC
 70
     4
  9
$DIMTDEC
 70
     4
  9
$DIMALTU
 70
     2
  9
$DIMALTTD
 70
     2
  9
$DIMTXSTY
  7
Standard
  9
$DIMAUNIT
 70
     0
  9
$DIMADEC
 70
     0
  9
$DIMALTRND
 40
0.0
  9
$DIMAZIN
 70
     0
  9
$DIMDSEP
 70
     0
  9
$DIMATFIT
 70
     3
  9
$DIMFRAC
 70
     0
  9
$DIMLDRBLK
  1

  9
$DIMLUNIT
 70
     2
  9
$DIMLWD
 70
     0
  9
$DIMLWE
 70
     0
  9
$DIMTMOVE
 70
     0
  9
$LUNITS
 70
     2
  9
$LUPREC
 70
     4
  9
$SKETCHINC
 40
0.1
  9
$FILLETRAD
 40
0.0
  9
$AUNITS
 70
     0
  9
$AUPREC
 70
     0
  9
$MENU
  1
acad
  9
$ELEVATION
 40
0.0
  9
$PELEVATION
 40
0.0
  9
$THICKNESS
 40
0.0
  9
$LIMCHECK
 70
     0
  9
$CHAMFERA
 40
0.0
  9
$CHAMFERB
 40
0.0
  9
$CHAMFERC
 40
0.0
  9
$CHAMFERD
 40
0.0
  9
$SKPOLY
 70
     0
  9
$TDCREATE
 40
2454257.526547847
  9
$TDUCREATE
 40
2454257.693214514
  9
$TDUPDATE
 40
2454263.513358287
  9
$TDUUPDATE
 40
2454263.680024954
  9
$TDINDWG
 40
0.0835819792
  9
$TDUSRTIMER
 40
0.0835819792
  9
$USRTIMER
 70
     1
  9
$ANGBASE
 50
0.0
  9
$ANGDIR
 70
     0
  9
$PDMODE
 70
     0
  9
$PDSIZE
 40
0.0
  9
$PLINEWID
 40
0.0
  9
$SPLFRAME
 70
     0
  9
$SPLINETYPE
 70
     6
  9
$SPLINESEGS
 70
     8
  9
$HANDSEED
  5
5B
  9
$SURFTAB1
 70
     6
  9
$SURFTAB2
 70
     6
  9
$SURFTYPE
 70
     6
  9
$SURFU
 70
     6
  9
$SURFV
 70
     6
  9
$UCSBASE
  2

  9
$UCSNAME
  2

  9
$UCSORG
 10
0.0
 20
0.0
 30
0.0
  9
$UCSXDIR
 10
1.0
 20
0.0
 30
0.0
  9
$UCSYDIR
 10
0.0
 20
1.0
 30
0.0
  9
$UCSORTHOREF
  2

  9
$UCSORTHOVIEW
 70
     0
  9
$UCSORGTOP
 10
0.0
 20
0.0
 30
0.0
  9
$UCSORGBOTTOM
 10
0.0
 20
0.0
 30
0.0
  9
$UCSORGLEFT
 10
0.0
 20
0.0
 30
0.0
  9
$UCSORGRIGHT
 10
0.0
 20
0.0
 30
0.0
  9
$UCSORGFRONT
 10
0.0
 20
0.0
 30
0.0
  9
$UCSORGBACK
 10
0.0
 20
0.0
 30
0.0
  9
$PUCSBASE
  2

  9
$PUCSNAME
  2

  9
$PUCSORG
 10
0.0
 20
0.0
 30
0.0
  9
$PUCSXDIR
 10
1.0
 20
0.0
 30
0.0
  9
$PUCSYDIR
 10
0.0
 20
1.0
 30
0.0
  9
$PUCSORTHOREF
  2

  9
$PUCSORTHOVIEW
 70
     0
  9
$PUCSORGTOP
 10
0.0
 20
0.0
 30
0.0
  9
$PUCSORGBOTTOM
 10
0.0
 20
0.0
 30
0.0
  9
$PUCSORGLEFT
 10
0.0
 20
0.0
 30
0.0
  9
$PUCSORGRIGHT
 10
0.0
 20
0.0
 30
0.0
  9
$PUCSORGFRONT
 10
0.0
 20
0.0
 30
0.0
  9
$PUCSORGBACK
 10
0.0
 20
0.0
 30
0.0
  9
$USERI1
 70
     0
  9
$USERI2
 70
     0
  9
$USERI3
 70
     0
  9
$USERI4
 70
     0
  9
$USERI5
 70
     0
  9
$USERR1
 40
0.0
  9
$USERR2
 40
0.0
  9
$USERR3
 40
0.0
  9
$USERR4
 40
0.0
  9
$USERR5
 40
0.0
  9
$WORLDVIEW
 70
     1
  9
$SHADEDGE
 70
     3
  9
$SHADEDIF
 70
    70
  9
$TILEMODE
 70
     1
  9
$MAXACTVP
 70
    16
  9
$PINSBASE
 10
0.0
 20
0.0
 30
0.0
  9
$PLIMCHECK
 70
     0
  9
$PEXTMIN
 10
1.000000000000000E+20
 20
1.000000000000000E+20
 30
1.000000000000000E+20
  9
$PEXTMAX
 10
-1.000000000000000E+20
 20
-1.000000000000000E+20
 30
-1.000000000000000E+20
  9
$PLIMMIN
 10
0.0
 20
0.0
  9
$PLIMMAX
 10
12.0
 20
9.0
  9
$UNITMODE
 70
     0
  9
$VISRETAIN
 70
     0
  9
$PLINEGEN
 70
     1
  9
$PSLTSCALE
 70
     0
  9
$TREEDEPTH
 70
  3020
  9
$CMLSTYLE
  2
Standard
  9
$CMLJUST
 70
     0
  9
$CMLSCALE
 40
1.0
  9
$PROXYGRAPHICS
 70
     0
  9
$MEASUREMENT
 70
     1
  9
$CELWEIGHT
370
    -1
  9
$ENDCAPS
280
     0
  9
$JOINSTYLE
280
     0
  9
$LWDISPLAY
290
     0
  9
$INSUNITS
 70
     0
  9
$HYPERLINKBASE
  1

  9
$STYLESHEET
  1

  9
$XEDIT
290
     1
  9
$CEPSNTYPE
380
     0
  9
$PSTYLEMODE
290
     1
  9
$FINGERPRINTGUID
  2

  9
$VERSIONGUID
  2
{EDE2FB2C-AD04-4ABF-8C14-841387711F9F}
  9
$EXTNAMES
290
     1
  9
$PSVPSCALE
 40
0.0
  9
$OLESTARTUP
290
     0
  0
ENDSEC
  0
SECTION
  2
CLASSES
  0
CLASS
  1
IMAGE
  2
AcDbRasterImage
  3
ISM
 90
    32895
280
     0
281
     1
  0
CLASS
  1
DICTIONARYVAR
  2
AcDbDictionaryVar
  3
ObjectDBX Classes
 90
        0
280
     0
281
     0
  0
CLASS
  1
RASTERVARIABLES
  2
AcDbRasterVariables
  3
ISM
 90
    32768
280
     0
281
     0
  0
CLASS
  1
IMAGEDEF
  2
AcDbRasterImageDef
  3
ISM
 90
    32768
280
     0
281
     0
  0
CLASS
  1
IMAGEDEF_REACTOR
  2
AcDbRasterImageDefReactor
  3
ISM
 90
    32769
280
     0
281
     0
  0
CLASS
  1
IDBUFFER
  2
AcDbIdBuffer
  3
ObjectDBX Classes
 90
    32768
280
     0
281
     0
  0
CLASS
  1
SPATIAL_FILTER
  2
AcDbSpatialFilter
  3
ObjectDBX Classes
 90
    32768
280
     0
281
     0
  0
CLASS
  1
SORTENTSTABLE
  2
AcDbSortentsTable
  3
ObjectDBX Classes
 90
    32768
280
     0
281
     0
  0
CLASS
  1
LAYER_INDEX
  2
AcDbLayerIndex
  3
ObjectDBX Classes
 90
    32768
280
     0
281
     0
  0
CLASS
  1
SPATIAL_INDEX
  2
AcDbSpatialIndex
  3
ObjectDBX Classes
 90
    32768
280
     0
281
     0
  0
CLASS
  1
OBJECT_PTR
  2
CAseDLPNTableRecord
  3
ASE-LPNTableRecord
 90
    32769
280
     0
281
     0
  0
CLASS
  1
LAYOUT
  2
AcDbLayout
  3
ObjectDBX Classes
 90
        0
280
     0
281
     0
  0
CLASS
  1
PLOTSETTINGS
  2
AcDbPlotSettings
  3
ObjectDBX Classes
 90
    32768
280
     0
281
     0
  0
CLASS
  1
ACDBDICTIONARYWDFLT
  2
AcDbDictionaryWithDefault
  3
ObjectDBX Classes
 90
        0
280
     0
281
     0
  0
CLASS
  1
ACDBPLACEHOLDER
  2
AcDbPlaceHolder
  3
ObjectDBX Classes
 90
        0
280
     0
281
     0
  0
CLASS
  1
VBA_PROJECT
  2
AcDbVbaProject
  3
acad
 90
    32768
280
     0
281
     0
  0
CLASS
  1
WIPEOUT
  2
AcDbWipeout
  3
"WipeOut|Product Desc: Object Enabler for WipeOut entity^I^I^I^I^I^I|Company: Autodesk, Inc.^I^I^I^I^I^I|WEB Address: www.autodesk.com"
 90
    32895
280
     0
281
     1
  0
CLASS
  1
WIPEOUTVARIABLES
  2
AcDbWipeoutVariables
  3
"WipeOut|Product Desc:     WipeOut Dbx Application|Company:          Autodesk, Inc.|WEB Address:      www.autodesk.com"
 90
    32768
280
     0
281
     0
  0
CLASS
  1
RTEXT
  2
RText
  3
RText|AutoCAD Express Tool|expresstools@autodesk.com
 90
    32768
280
     1
281
     1
  0
CLASS
  1
ARCALIGNEDTEXT
  2
AcDbArcAlignedText
  3
ATEXT|AutoCAD Express Tool|expresstools@autodesk.com
 90
    32768
280
     1
281
     1
  0
CLASS
  1
MATERIAL
  2
AcDbMaterial
  3
ObjectDBX Classes
 90
        0
280
     0
281
     0
  0
ENDSEC
  0
SECTION
  2
TABLES
  0
TABLE
  2
VPORT
  5
45
330
0
100
AcDbSymbolTable
 70
     1
  0
VPORT
  5
46
330
45
100
AcDbSymbolTableRecord
100
AcDbViewportTableRecord
  2
*Active
 70
     0
 10
0.0
 20
0.0
 11
1.0
 21
1.0
 12
-5.895872378709654
 22
-36.72985486063858
 13
0.0
 23
0.0
 14
1.0
 24
1.0
 15
0.0
 25
0.0
 16
0.0
 26
0.0
 36
1.0
 17
0.0
 27
0.0
 37
0.0
 40
6.83407064436019
 41
1.974155069582504
 42
50.0
 43
0.0
 44
0.0
 50
0.0
 51
0.0
 71
     0
 72
   100
 73
     1
 74
     1
 75
     0
 76
     0
 77
     0
 78
     0
281
     0
 65
     0
110
0.0
120
0.0
130
0.0
111
1.0
121
0.0
131
0.0
112
0.0
122
1.0
132
0.0
 79
     0
146
0.0
  0
ENDTAB
  0
TABLE
  2
LTYPE
  5
40
330
0
100
AcDbSymbolTable
 70
     1
  0
LTYPE
  5
41
330
40
100
AcDbSymbolTableRecord
100
AcDbLinetypeTableRecord
  2
ByBlock
 70
     0
  3

 72
    65
 73
     0
 40
0.0
  0
LTYPE
  5
42
330
40
100
AcDbSymbolTableRecord
100
AcDbLinetypeTableRecord
  2
ByLayer
 70
     0
  3

 72
    65
 73
     0
 40
0.0
  0
LTYPE
  5
9
330
40
100
AcDbSymbolTableRecord
100
AcDbLinetypeTableRecord
  2
Continuous
 70
     0
  3
Solid line
 72
    65
 73
     0
 40
0.0
  0
ENDTAB
  0
TABLE
  2
LAYER
  5
3D
330
0
100
AcDbSymbolTable
 70
     4
  0
LAYER
  5
5
330
3D
100
AcDbSymbolTableRecord
100
AcDbLayerTableRecord
  2
0
 70
     0
 62
     7
  6
Continuous
370
    -3
390
6
  0
LAYER
  5
F
330
3D
100
AcDbSymbolTableRecord
100
AcDbLayerTableRecord
  2
ADP1DETAIL
 70
     0
 62
     1
  6
Continuous
370
    -3
390
6
  0
LAYER
  5
B
330
3D
100
AcDbSymbolTableRecord
100
AcDbLayerTableRecord
  2
ADPDIM
 70
     0
 62
   160
  6
Continuous
370
    -3
390
6
  0
LAYER
  5
1D
102
{ACAD_XDICTIONARY
360
1E
102
}
330
3D
100
AcDbSymbolTableRecord
100
AcDbLayerTableRecord
  2
DEFPOINTS
 70
     0
 62
     7
  6
Continuous
290
     0
370
    -3
390
6
  0
ENDTAB
  0
TABLE
  2
STYLE
  5
3E
330
0
100
AcDbSymbolTable
 70
     2
  0
STYLE
  5
11
330
3E
100
AcDbSymbolTableRecord
100
AcDbTextStyleTableRecord
  2
Standard
 70
     0
 40
0.0
 41
1.0
 50
0.0
 71
     0
 42
0.0
  3
txt
  4

  0
STYLE
  5
C
330
3E
100
AcDbSymbolTableRecord
100
AcDbTextStyleTableRecord
  2
ARIAL_WIDE
 70
     0
 40
0.0
 41
1.25
 50
0.0
 71
     0
 42
0.2
  3
ARIAL.TTF
  4

1001
ACAD
1000
Arial
1071
       34
  0
ENDTAB
  0
TABLE
  2
VIEW
  5
43
330
0
100
AcDbSymbolTable
 70
     0
  0
ENDTAB
  0
TABLE
  2
UCS
  5
44
330
0
100
AcDbSymbolTable
 70
     0
  0
ENDTAB
  0
TABLE
  2
APPID
  5
47
330
0
100
AcDbSymbolTable
 70
     1
  0
APPID
  5
D
330
47
100
AcDbSymbolTableRecord
100
AcDbRegAppTableRecord
  2
ACAD
 70
     0
  0
ENDTAB
  0
TABLE
  2
DIMSTYLE
  5
48
330
0
100
AcDbSymbolTable
 70
     1
100
AcDbDimStyleTable
 71
     1
340
12
  0
DIMSTYLE
105
12
102
{ACAD_REACTORS
330
10
330
27
102
}
330
48
100
AcDbSymbolTableRecord
100
AcDbDimStyleTableRecord
  2
Standard
 70
     0
340
11
  0
ENDTAB
  0
TABLE
  2
BLOCK_RECORD
  5
1
330
0
100
AcDbSymbolTable
 70
     2
  0
BLOCK_RECORD
  5
2
102
{ACAD_XDICTIONARY
360
3
102
}
330
1
100
AcDbSymbolTableRecord
100
AcDbBlockTableRecord
  2
*MODEL_SPACE
340
37
  0
BLOCK_RECORD
  5
39
330
1
100
AcDbSymbolTableRecord
100
AcDbBlockTableRecord
  2
*PAPER_SPACE
340
3C
  0
BLOCK_RECORD
  5
13
330
1
100
AcDbSymbolTableRecord
100
AcDbBlockTableRecord
  2
*D0
340
0
  0
BLOCK_RECORD
  5
28
330
1
100
AcDbSymbolTableRecord
100
AcDbBlockTableRecord
  2
*D1
340
0
  0
ENDTAB
  0
ENDSEC
  0
SECTION
  2
BLOCKS
  0
BLOCK
  5
4
330
2
100
AcDbEntity
  8
0
100
AcDbBlockBegin
  2
*MODEL_SPACE
 70
     0
 10
0.0
 20
0.0
 30
0.0
  3
*MODEL_SPACE
  1

  0
ENDBLK
  5
36
330
2
100
AcDbEntity
  8
0
100
AcDbBlockEnd
  0
BLOCK
  5
3A
330
39
100
AcDbEntity
 67
     1
  8
0
100
AcDbBlockBegin
  2
*PAPER_SPACE
 70
     0
 10
0.0
 20
0.0
 30
0.0
  3
*PAPER_SPACE
  1

  0
ENDBLK
  5
3B
330
39
100
AcDbEntity
 67
     1
  8
0
100
AcDbBlockEnd
  0
BLOCK
  5
14
330
13
100
AcDbEntity
  8
0
370
     0
100
AcDbBlockBegin
  2
*D0
 70
     1
 10
0.0
 20
0.0
 30
0.0
  3
*D0
  1

  0
LINE
  5
15
330
13
100
AcDbEntity
  8
ADPDIM
 62
     0
370
    -2
100
AcDbLine
 10
-7.622460636388062
 20
-37.3801228786486
 30
0.0
 11
-7.622460636388062
 21
-36.61000550150988
 31
0.0
  0
LINE
  5
16
330
13
100
AcDbEntity
  8
ADPDIM
 62
     0
370
    -2
100
AcDbLine
 10
-3.609177678877586
 20
-37.28766177734105
 30
0.0
 11
-3.609177678877586
 21
-36.61000550150988
 31
0.0
  0
LINE
  5
17
330
13
100
AcDbEntity
  8
ADPDIM
 62
     0
370
    -2
100
AcDbLine
 10
-7.442460636388062
 20
-36.79000550150988
 30
0.0
 11
-5.824778401473699
 21
-36.79000550150988
 31
0.0
  0
LINE
  5
18
330
13
100
AcDbEntity
  8
ADPDIM
 62
     0
370
    -2
100
AcDbLine
 10
-3.789177678877586
 20
-36.79000550150988
 30
0.0
 11
-5.404778401473699
 21
-36.79000550150988
 31
0.0
  0
SOLID
  5
19
330
13
100
AcDbEntity
  8
ADPDIM
 62
     0
370
     0
100
AcDbTrace
 10
-7.442460636388062
 20
-36.76000550150988
 30
0.0
 11
-7.442460636388062
 21
-36.82000550150988
 31
0.0
 12
-7.622460636388062
 22
-36.79000550150988
 32
0.0
 13
-7.622460636388062
 23
-36.79000550150988
 33
0.0
  0
SOLID
  5
1A
330
13
100
AcDbEntity
  8
ADPDIM
 62
     0
370
     0
100
AcDbTrace
 10
-3.789177678877586
 20
-36.76000550150988
 30
0.0
 11
-3.789177678877586
 21
-36.82000550150988
 31
0.0
 12
-3.609177678877586
 22
-36.79000550150988
 32
0.0
 13
-3.609177678877586
 23
-36.79000550150988
 33
0.0
  0
MTEXT
  5
1B
330
13
100
AcDbEntity
  8
ADPDIM
 62
     0
100
AcDbMText
 10
-5.614778401473699
 20
-36.79000550150988
 30
0.0
 40
0.18
 41
0.0
 71
     5
 72
     1
  1
\A1;4"
 73
     1
 44
1.0
1001
ACAD
1000
MTEXTBEGIN
1070
    73
1070
     1
1070
    44
1040
1.0
1070
    74
1070
     0
1000
MTEXTEND
  0
POINT
  5
1C
330
13
100
AcDbEntity
  8
DEFPOINTS
 62
     0
370
     0
100
AcDbPoint
 10
-7.622460636388062
 20
-37.4426228786486
 30
0.0
  0
POINT
  5
24
330
13
100
AcDbEntity
  8
DEFPOINTS
 62
     0
370
     0
100
AcDbPoint
 10
-3.609177678877586
 20
-37.35016177734105
 30
0.0
  0
POINT
  5
25
330
13
100
AcDbEntity
  8
DEFPOINTS
 62
     0
370
     0
100
AcDbPoint
 10
-3.609177678877586
 20
-36.79000550150988
 30
0.0
  0
ENDBLK
  5
26
330
13
100
AcDbEntity
  8
0
370
     0
100
AcDbBlockEnd
  0
BLOCK
  5
29
330
28
100
AcDbEntity
  8
0
370
     0
100
AcDbBlockBegin
  2
*D1
 70
     1
 10
0.0
 20
0.0
 30
0.0
  3
*D1
  1

  0
LINE
  5
2A
330
28
100
AcDbEntity
  8
ADPDIM
 62
     0
370
    -2
100
AcDbLine
 10
-3.649979029096705
 20
-37.29370771838041
 30
0.0
 11
-2.755459807912172
 21
-37.29370771838041
 31
0.0
  0
LINE
  5
2B
330
28
100
AcDbEntity
  8
ADPDIM
 62
     0
370
    -2
100
AcDbLine
 10
-3.649979029096705
 20
-37.54370771838041
 30
0.0
 11
-2.755459807912172
 21
-37.54370771838041
 31
0.0
  0
LINE
  5
2C
330
28
100
AcDbEntity
  8
ADPDIM
 62
     0
370
    -2
100
AcDbLine
 10
-2.935459807912172
 20
-37.11370771838041
 30
0.0
 11
-2.935459807912172
 21
-36.93370771838041
 31
0.0
  0
LINE
  5
2D
330
28
100
AcDbEntity
  8
ADPDIM
 62
     0
370
    -2
100
AcDbLine
 10
-2.935459807912172
 20
-37.72370771838041
 30
0.0
 11
-2.935459807912172
 21
-37.90370771838041
 31
0.0
  0
LINE
  5
2E
330
28
100
AcDbEntity
  8
ADPDIM
 62
     0
370
    -2
100
AcDbLine
 10
-2.935459807912172
 20
-37.90370771838041
 30
0.0
 11
-3.115459807912172
 21
-37.90370771838041
 31
0.0
  0
SOLID
  5
2F
330
28
100
AcDbEntity
  8
ADPDIM
 62
     0
370
     0
100
AcDbTrace
 10
-2.965459807912172
 20
-37.11370771838041
 30
0.0
 11
-2.905459807912172
 21
-37.11370771838041
 31
0.0
 12
-2.935459807912172
 22
-37.29370771838041
 32
0.0
 13
-2.935459807912172
 23
-37.29370771838041
 33
0.0
  0
SOLID
  5
30
330
28
100
AcDbEntity
  8
ADPDIM
 62
     0
370
     0
100
AcDbTrace
 10
-2.965459807912172
 20
-37.72370771838041
 30
0.0
 11
-2.905459807912172
 21
-37.72370771838041
 31
0.0
 12
-2.935459807912172
 22
-37.54370771838041
 32
0.0
 13
-2.935459807912172
 23
-37.54370771838041
 33
0.0
  0
MTEXT
  5
31
330
28
100
AcDbEntity
  8
ADPDIM
 62
     0
100
AcDbMText
 10
-3.475459807912166
 20
-37.90370771838041
 30
0.0
 40
0.18
 41
0.0
 71
     5
 72
     1
  1
\A1;1/4"
 73
     1
 44
1.0
1001
ACAD
1000
MTEXTBEGIN
1070
    73
1070
     1
1070
    44
1040
1.0
1070
    74
1070
     0
1000
MTEXTEND
  0
POINT
  5
32
330
28
100
AcDbEntity
  8
DEFPOINTS
 62
     0
370
     0
100
AcDbPoint
 10
-3.712479029096705
 20
-37.29370771838041
 30
0.0
  0
POINT
  5
33
330
28
100
AcDbEntity
  8
DEFPOINTS
 62
     0
370
     0
100
AcDbPoint
 10
-3.712479029096705
 20
-37.54370771838041
 30
0.0
  0
POINT
  5
34
330
28
100
AcDbEntity
  8
DEFPOINTS
 62
     0
370
     0
100
AcDbPoint
 10
-2.935459807912172
 20
-37.54370771838041
 30
0.0
  0
ENDBLK
  5
35
330
28
100
AcDbEntity
  8
0
370
     0
100
AcDbBlockEnd
  0
ENDSEC
  0
SECTION
  2
ENTITIES
  0
TEXT
  5
A
330
2
100
AcDbEntity
  8
ADPDIM
 62
     3
100
AcDbText
 10
-12.29745869962871
 20
-39.30344889131799
 30
0.0
 40
0.125
  1
J U L I U S  B L U M  &  C O . ,  I N C .      ( 8 0 0 )  5 2 6 - 6 2 9 3        W W W . J U L I U S B L U M . C O M        P A R T  N O .  6 5 7 5
 41
1.25
  7
ARIAL_WIDE
 72
     1
 11
-5.747535439055724
 21
-39.17844889131798
 31
0.0
100
AcDbText
 73
     3
  0
SPLINE
  5
E
330
2
100
AcDbEntity
  8
ADP1DETAIL
 62
     7
100
AcDbSpline
210
0.0
220
0.0
230
1.0
 70
    11
 71
     3
 72
    74
 73
    70
 74
     0
 42
0.0000000001
 43
0.0000000001
 40
0.0
 40
0.0
 40
0.0
 40
0.0
 40
1.0
 40
1.0
 40
1.0
 40
2.0
 40
2.0
 40
2.0
 40
3.0
 40
3.0
 40
3.0
 40
4.0
 40
4.0
 40
4.0
 40
5.0
 40
5.0
 40
5.0
 40
6.0
 40
6.0
 40
6.0
 40
7.0
 40
7.0
 40
7.0
 40
8.0
 40
8.0
 40
8.0
 40
9.0
 40
9.0
 40
9.0
 40
10.0
 40
10.0
 40
10.0
 40
11.0
 40
11.0
 40
11.0
 40
12.0
 40
12.0
 40
12.0
 40
13.0
 40
13.0
 40
13.0
 40
14.0
 40
14.0
 40
14.0
 40
15.0
 40
15.0
 40
15.0
 40
16.0
 40
16.0
 40
16.0
 40
17.0
 40
17.0
 40
17.0
 40
18.0
 40
18.0
 40
18.0
 40
19.0
 40
19.0
 40
19.0
 40
20.0
 40
20.0
 40
20.0
 40
21.0
 40
21.0
 40
21.0
 40
22.0
 40
22.0
 40
22.0
 40
23.0
 40
23.0
 40
23.0
 40
23.0
 10
-3.667687574342032
 20
-37.29582697288749
 30
0.0
 10
-3.667687574342032
 20
-37.29582697288749
 30
0.0
 10
-4.075931389446198
 20
-37.29582697288749
 30
0.0
 10
-4.075931389446198
 20
-37.29582697288749
 30
0.0
 10
-4.105903720175366
 20
-37.34939820769652
 30
0.0
 10
-4.163092305244809
 20
-37.38539945552638
 30
0.0
 10
-4.228721374255226
 20
-37.38539945552638
 30
0.0
 10
-4.294350443265642
 20
-37.38539945552638
 30
0.0
 10
-4.351366773560782
 20
-37.34939820769652
 30
0.0
 10
-4.381339104289947
 20
-37.29582697288749
 30
0.0
 10
-4.381339104289947
 20
-37.29582697288749
 30
0.0
 10
-4.76340019369967
 20
-37.29582697288749
 30
0.0
 10
-4.76340019369967
 20
-37.29582697288749
 30
0.0
 10
-4.793372524428837
 20
-37.34939820769652
 30
0.0
 10
-4.850561109498281
 20
-37.38539945552638
 30
0.0
 10
-4.916190178508697
 20
-37.38539945552638
 30
0.0
 10
-4.981819247519116
 20
-37.38539945552638
 30
0.0
 10
-5.038835577814253
 20
-37.34939820769652
 30
0.0
 10
-5.068807908543421
 20
-37.29582697288749
 30
0.0
 10
-5.068807908543421
 20
-37.29582697288749
 30
0.0
 10
-5.451041252727447
 20
-37.29582697288749
 30
0.0
 10
-5.451041252727447
 20
-37.29582697288749
 30
0.0
 10
-5.481013583456615
 20
-37.34939820769652
 30
0.0
 10
-5.538029913751755
 20
-37.38539945552638
 30
0.0
 10
-5.603658982762171
 20
-37.38539945552638
 30
0.0
 10
-5.669288051772587
 20
-37.38539945552638
 30
0.0
 10
-5.726304382067725
 20
-37.34939820769652
 30
0.0
 10
-5.756276712796893
 20
-37.29582697288749
 30
0.0
 10
-5.756276712796893
 20
-37.29582697288749
 30
0.0
 10
-6.138510056980921
 20
-37.29582697288749
 30
0.0
 10
-6.138510056980921
 20
-37.29582697288749
 30
0.0
 10
-6.168482387710087
 20
-37.34939820769652
 30
0.0
 10
-6.225498718005226
 20
-37.38539945552638
 30
0.0
 10
-6.291127787015643
 20
-37.38539945552638
 30
0.0
 10
-6.356756856026059
 20
-37.38539945552638
 30
0.0
 10
-6.413945441095503
 20
-37.34939820769652
 30
0.0
 10
-6.44391777182467
 20
-37.29582697288749
 30
0.0
 10
-6.44391777182467
 20
-37.29582697288749
 30
0.0
 10
-6.825978861234393
 20
-37.29582697288749
 30
0.0
 10
-6.825978861234393
 20
-37.29582697288749
 30
0.0
 10
-6.855951191963558
 20
-37.34939820769652
 30
0.0
 10
-6.912967522258698
 20
-37.38539945552638
 30
0.0
 10
-6.978596591269115
 20
-37.38539945552638
 30
0.0
 10
-7.044225660279531
 20
-37.38539945552638
 30
0.0
 10
-7.101414245348976
 20
-37.34939820769652
 30
0.0
 10
-7.131386576078142
 20
-37.29582697288749
 30
0.0
 10
-7.131386576078142
 20
-37.29582697288749
 30
0.0
 10
-7.542730977119809
 20
-37.29582697288749
 30
0.0
 10
-7.542730977119809
 20
-37.29582697288749
 30
0.0
 10
-7.577009677206614
 20
-37.29582697288749
 30
0.0
 10
-7.605259460192726
 20
-37.3240767558736
 30
0.0
 10
-7.605259460192726
 20
-37.35835545596041
 30
0.0
 10
-7.605259460192726
 20
-37.35835545596041
 30
0.0
 10
-7.605259460192726
 20
-37.48341242210624
 30
0.0
 10
-7.605259460192726
 20
-37.48341242210624
 30
0.0
 10
-7.605259460192726
 20
-37.51769112219305
 30
0.0
 10
-7.577009677206614
 20
-37.54594090517916
 30
0.0
 10
-7.542730977119809
 20
-37.54594090517916
 30
0.0
 10
-7.542730977119809
 20
-37.54594090517916
 30
0.0
 10
-3.667687574342032
 20
-37.54594090517916
 30
0.0
 10
-3.667687574342032
 20
-37.54594090517916
 30
0.0
 10
-3.633408874255225
 20
-37.54594090517916
 30
0.0
 10
-3.605159091269115
 20
-37.51769112219305
 30
0.0
 10
-3.605159091269115
 20
-37.48341242210624
 30
0.0
 10
-3.605159091269115
 20
-37.48341242210624
 30
0.0
 10
-3.605159091269115
 20
-37.35835545596041
 30
0.0
 10
-3.605159091269115
 20
-37.35835545596041
 30
0.0
 10
-3.605159091269115
 20
-37.3240767558736
 30
0.0
 10
-3.633408874255225
 20
-37.29582697288749
 30
0.0
 10
-3.667687574342032
 20
-37.29582697288749
 30
0.0
  0
DIMENSION
  5
10
330
2
100
AcDbEntity
  8
ADPDIM
 62
     3
100
AcDbDimension
  2
*D0
 10
-3.609177678877586
 20
-36.79000550150988
 30
0.0
 11
-5.614778401473699
 21
-36.79000550150988
 31
0.0
 70
   128
 71
     5
 42
4.013282957510476
  3
Standard
100
AcDbAlignedDimension
 13
-7.622460636388062
 23
-37.4426228786486
 33
0.0
 14
-3.609177678877586
 24
-37.35016177734105
 34
0.0
100
AcDbRotatedDimension
1001
ACAD
1000
DSTYLE
1002
{
1070
   276
1070
     2
1070
     3
1000
"
1070
   277
1070
     5
1002
}
  0
DIMENSION
  5
27
330
2
100
AcDbEntity
  8
ADPDIM
 62
     3
100
AcDbDimension
  2
*D1
 10
-2.935459807912172
 20
-37.54370771838041
 30
0.0
 11
-3.475459807912166
 21
-37.90370771838041
 31
0.0
 70
   128
 71
     5
 42
0.25
  3
Standard
100
AcDbAlignedDimension
 13
-3.712479029096705
 23
-37.29370771838041
 33
0.0
 14
-3.712479029096705
 24
-37.54370771838041
 34
0.0
 50
90.0
100
AcDbRotatedDimension
1001
ACAD
1000
DSTYLE
1002
{
1070
   276
1070
     2
1070
     3
1000
"
1070
   277
1070
     5
1002
}
  0
ENDSEC
  0
SECTION
  2
OBJECTS
  0
DICTIONARY
  5
8
330
0
100
AcDbDictionary
281
     1
  3
ACAD_COLOR
350
4D
  3
ACAD_GROUP
350
4A
  3
ACAD_LAYOUT
350
38
  3
ACAD_MATERIAL
350
21
  3
ACAD_MLINESTYLE
350
4B
  3
ACAD_PLOTSETTINGS
350
4C
  3
ACAD_PLOTSTYLENAME
350
7
  3
ACDBHEADERROUNDTRIPXREC
350
53
  3
AcDbVariableDictionary
350
4F
  0
DICTIONARY
  5
1E
330
1D
100
AcDbDictionary
280
     1
281
     1
  3
ACAD_XREC_ROUNDTRIP
360
1F
  0
DICTIONARY
  5
3
330
2
100
AcDbDictionary
280
     1
281
     1
  0
DICTIONARY
  5
4D
102
{ACAD_REACTORS
330
8
102
}
330
8
100
AcDbDictionary
281
     1
  0
DICTIONARY
  5
4A
102
{ACAD_REACTORS
330
8
102
}
330
8
100
AcDbDictionary
281
     1
  0
DICTIONARY
  5
38
102
{ACAD_REACTORS
330
8
102
}
330
8
100
AcDbDictionary
281
     1
  3
Layout1
350
3C
  3
Model
350
37
  0
DICTIONARY
  5
21
102
{ACAD_REACTORS
330
8
102
}
330
8
100
AcDbDictionary
281
     1
  3
Global
350
20
  0
DICTIONARY
  5
4B
102
{ACAD_REACTORS
330
8
102
}
330
8
100
AcDbDictionary
281
     1
  3
Standard
350
4E
  0
DICTIONARY
  5
4C
102
{ACAD_REACTORS
330
8
102
}
330
8
100
AcDbDictionary
281
     1
  0
ACDBDICTIONARYWDFLT
  5
7
102
{ACAD_REACTORS
330
8
102
}
330
8
100
AcDbDictionary
281
     1
  3
Normal
350
6
100
AcDbDictionaryWithDefault
340
6
  0
DICTIONARY
  5
53
102
{ACAD_REACTORS
330
8
102
}
330
8
100
AcDbDictionary
281
     1
  3
COLORDICT
350
55
  3
MATERIALDICT
350
54
  0
DICTIONARY
  5
4F
102
{ACAD_REACTORS
330
8
102
}
330
8
100
AcDbDictionary
281
     1
  3
DIMASSOC
350
51
  3
HIDETEXT
350
50
  3
PROJECTNAME
350
52
  0
XRECORD
  5
1F
102
{ACAD_REACTORS
330
1E
102
}
330
1E
100
AcDbXrecord
280
     1
102
MATERIAL
340
20
  0
LAYOUT
  5
3C
102
{ACAD_XDICTIONARY
360
59
102
}
102
{ACAD_REACTORS
330
38
102
}
330
38
100
AcDbPlotSettings
  1

  2

  4

  6

 40
0.0
 41
0.0
 42
0.0
 43
0.0
 44
0.0
 45
0.0
 46
0.0
 47
0.0
 48
0.0
 49
0.0
140
0.0
141
0.0
142
1.0
143
1.0
 70
     0
 72
     0
 73
     0
 74
     0
  7

 75
     0
147
1.0
148
0.0
149
0.0
100
AcDbLayout
  1
Layout1
 70
     0
 71
     1
 10
0.0
 20
0.0
 11
12.0
 21
9.0
 12
0.0
 22
0.0
 32
0.0
 14
1.000000000000000E+20
 24
1.000000000000000E+20
 34
1.000000000000000E+20
 15
-1.000000000000000E+20
 25
-1.000000000000000E+20
 35
-1.000000000000000E+20
146
0.0
 13
0.0
 23
0.0
 33
0.0
 16
1.0
 26
0.0
 36
0.0
 17
0.0
 27
1.0
 37
0.0
 76
     0
330
39
  0
LAYOUT
  5
37
102
{ACAD_XDICTIONARY
360
57
102
}
102
{ACAD_REACTORS
330
38
102
}
330
38
100
AcDbPlotSettings
  1

  2

  4

  6

 40
0.0
 41
0.0
 42
0.0
 43
0.0
 44
0.0
 45
0.0
 46
0.0
 47
0.0
 48
0.0
 49
0.0
140
0.0
141
0.0
142
1.0
143
1.0
 70
  1024
 72
     0
 73
     0
 74
     0
  7

 75
     0
147
1.0
148
0.0
149
0.0
100
AcDbLayout
  1
Model
 70
     0
 71
     0
 10
0.0
 20
0.0
 11
0.0
 21
0.0
 12
0.0
 22
0.0
 32
0.0
 14
0.0
 24
0.0
 34
0.0
 15
0.0
 25
0.0
 35
0.0
146
0.0
 13
0.0
 23
0.0
 33
0.0
 16
0.0
 26
0.0
 36
0.0
 17
0.0
 27
0.0
 37
0.0
 76
     0
330
2
  0
MATERIAL
  5
20
102
{ACAD_XDICTIONARY
360
22
102
}
102
{ACAD_REACTORS
330
21
102
}
330
21
100
AcDbMaterial
  1
Global
  0
MLINESTYLE
  5
4E
102
{ACAD_REACTORS
330
4B
102
}
330
4B
100
AcDbMlineStyle
  2
STANDARD
 70
     0
  3

 62
     0
 51
90.0
 52
90.0
 71
     2
 49
0.5
 62
   256
  6
BYLAYER
 49
-0.5
 62
   256
  6
BYLAYER
  0
ACDBPLACEHOLDER
  5
6
102
{ACAD_REACTORS
330
7
102
}
330
7
  0
XRECORD
  5
55
102
{ACAD_REACTORS
330
53
102
}
330
53
100
AcDbXrecord
280
     1
340
4D
  0
XRECORD
  5
54
102
{ACAD_REACTORS
330
53
102
}
330
53
100
AcDbXrecord
280
     1
340
21
  0
DICTIONARYVAR
  5
51
102
{ACAD_REACTORS
330
4F
102
}
330
4F
100
DictionaryVariables
280
     0
  1
1
  0
DICTIONARYVAR
  5
50
102
{ACAD_REACTORS
330
4F
102
}
330
4F
100
DictionaryVariables
280
     0
  1
1
  0
DICTIONARYVAR
  5
52
102
{ACAD_REACTORS
330
4F
102
}
330
4F
100
DictionaryVariables
280
     0
  1

  0
DICTIONARY
  5
59
330
3C
100
AcDbDictionary
280
     1
281
     1
  3
ACAD_XREC_ROUNDTRIP
360
5A
  0
DICTIONARY
  5
57
330
37
100
AcDbDictionary
280
     1
281
     1
  3
ACAD_XREC_ROUNDTRIP
360
58
  0
DICTIONARY
  5
22
330
20
100
AcDbDictionary
280
     1
281
     1
  3
ACAD_XREC_ROUNDTRIP
360
23
  0
XRECORD
  5
5A
102
{ACAD_REACTORS
330
59
102
}
330
59
100
AcDbXrecord
280
     1
102
SHADEPLOT
 70
     0
102
SHADEPLOTRESLEVEL
 70
     2
102
SHADEPLOTCUSTOMDPI
 70
   300
  0
XRECORD
  5
58
102
{ACAD_REACTORS
330
57
102
}
330
57
100
AcDbXrecord
280
     1
102
SHADEPLOT
 70
     0
102
SHADEPLOTRESLEVEL
 70
     2
102
SHADEPLOTCUSTOMDPI
 70
   300
  0
XRECORD
  5
23
102
{ACAD_REACTORS
330
22
102
}
330
22
100
AcDbXrecord
280
     1
102
MATERIAL
148
0.0
149
0.0
149
0.0
 93
        0
 94
       63
282
     0
 72
     1
 77
     1
171
     1
175
     1
179
     1
273
     0
  0
ENDSEC
  0
EOF
