  0
SECTION
  2
HEADER
  9
$ACADVER
  1
AC1014
  9
$ACADMAINTVER
 70
     9
  9
$DWGCODEPAGE
  3
ANSI_1252
  9
$INSBASE
 10
0.8017010368288042
 20
-8.644665777736486
 30
0.0
  9
$EXTMIN
 10
-6.240527987727812
 20
-9.504062791726651
 30
0.0
  9
$EXTMAX
 10
6.81093006138542
 20
-7.368816350196523
 30
0.0
  9
$LIMMIN
 10
0.0
 20
0.0
  9
$LIMMAX
 10
36.0
 20
36.0
  9
$ORTHOMODE
 70
     1
  9
$REGENMODE
 70
     1
  9
$FILLMODE
 70
     1
  9
$QTEXTMODE
 70
     0
  9
$MIRRTEXT
 70
     1
  9
$DRAGMODE
 70
     0
  9
$LTSCALE
 40
1.0
  9
$OSMODE
 70
    37
  9
$ATTMODE
 70
     1
  9
$TEXTSIZE
 40
0.2
  9
$TRACEWID
 40
0.05
  9
$TEXTSTYLE
  7
STANDARD
  9
$CLAYER
  8
0
  9
$CELTYPE
  6
BYLAYER
  9
$CECOLOR
 62
   256
  9
$CELTSCALE
 40
1.0
  9
$DELOBJ
 70
     1
  9
$DISPSILH
 70
     0
  9
$DIMSCALE
 40
1.0
  9
$DIMASZ
 40
0.125
  9
$DIMEXO
 40
0.0625
  9
$DIMDLI
 40
0.38
  9
$DIMRND
 40
0.0
  9
$DIMDLE
 40
0.0
  9
$DIMEXE
 40
0.18
  9
$DIMTP
 40
0.0
  9
$DIMTM
 40
0.0
  9
$DIMTXT
 40
0.125
  9
$DIMCEN
 40
0.1875
  9
$DIMTSZ
 40
0.125
  9
$DIMTOL
 70
     0
  9
$DIMLIM
 70
     0
  9
$DIMTIH
 70
     0
  9
$DIMTOH
 70
     0
  9
$DIMSE1
 70
     0
  9
$DIMSE2
 70
     0
  9
$DIMTAD
 70
     0
  9
$DIMZIN
 70
     3
  9
$DIMBLK
  1

  9
$DIMASO
 70
     1
  9
$DIMSHO
 70
     1
  9
$DIMPOST
  1

  9
$DIMAPOST
  1

  9
$DIMALT
 70
     0
  9
$DIMALTD
 70
     1
  9
$DIMALTF
 40
25.4
  9
$DIMLFAC
 40
1.0
  9
$DIMTOFL
 70
     0
  9
$DIMTVP
 40
0.0
  9
$DIMTIX
 70
     0
  9
$DIMSOXD
 70
     0
  9
$DIMSAH
 70
     0
  9
$DIMBLK1
  1

  9
$DIMBLK2
  1

  9
$DIMSTYLE
  2
STANDARD
  9
$DIMCLRD
 70
     0
  9
$DIMCLRE
 70
     0
  9
$DIMCLRT
 70
     0
  9
$DIMTFAC
 40
1.0
  9
$DIMGAP
 40
0.125
  9
$DIMJUST
 70
     0
  9
$DIMSD1
 70
     0
  9
$DIMSD2
 70
     0
  9
$DIMTOLJ
 70
     1
  9
$DIMTZIN
 70
     0
  9
$DIMALTZ
 70
     0
  9
$DIMALTTZ
 70
     0
  9
$DIMFIT
 70
     3
  9
$DIMUPT
 70
     0
  9
$DIMUNIT
 70
     2
  9
$DIMDEC
 70
     4
  9
$DIMTDEC
 70
     4
  9
$DIMALTU
 70
     2
  9
$DIMALTTD
 70
     2
  9
$DIMTXSTY
  7
STANDARD
  9
$DIMAUNIT
 70
     0
  9
$LUNITS
 70
     5
  9
$LUPREC
 70
     4
  9
$SKETCHINC
 40
0.1
  9
$FILLETRAD
 40
0.187
  9
$AUNITS
 70
     0
  9
$AUPREC
 70
     0
  9
$MENU
  1
acad
  9
$ELEVATION
 40
0.0
  9
$PELEVATION
 40
0.0
  9
$THICKNESS
 40
0.0
  9
$LIMCHECK
 70
     0
  9
$BLIPMODE
 70
     0
  9
$CHAMFERA
 40
0.0
  9
$CHAMFERB
 40
0.0
  9
$CHAMFERC
 40
0.0
  9
$CHAMFERD
 40
0.0
  9
$SKPOLY
 70
     0
  9
$TDCREATE
 40
2450399.630150069
  9
$TDUPDATE
 40
2452297.094059965
  9
$TDINDWG
 40
0.0073724306
  9
$TDUSRTIMER
 40
0.0073724306
  9
$USRTIMER
 70
     1
  9
$ANGBASE
 50
0.0
  9
$ANGDIR
 70
     0
  9
$PDMODE
 70
     0
  9
$PDSIZE
 40
0.0
  9
$PLINEWID
 40
0.0
  9
$COORDS
 70
     2
  9
$SPLFRAME
 70
     0
  9
$SPLINETYPE
 70
     6
  9
$SPLINESEGS
 70
     8
  9
$ATTDIA
 70
     0
  9
$ATTREQ
 70
     1
  9
$HANDLING
 70
 22529
  9
$HANDSEED
  5
309
  9
$SURFTAB1
 70
     6
  9
$SURFTAB2
 70
     6
  9
$SURFTYPE
 70
     6
  9
$SURFU
 70
     6
  9
$SURFV
 70
     6
  9
$UCSNAME
  2

  9
$UCSORG
 10
0.0
 20
0.0
 30
0.0
  9
$UCSXDIR
 10
1.0
 20
0.0
 30
0.0
  9
$UCSYDIR
 10
0.0
 20
1.0
 30
0.0
  9
$PUCSNAME
  2

  9
$PUCSORG
 10
0.0
 20
0.0
 30
0.0
  9
$PUCSXDIR
 10
1.0
 20
0.0
 30
0.0
  9
$PUCSYDIR
 10
0.0
 20
1.0
 30
0.0
  9
$USERI1
 70
     0
  9
$USERI2
 70
     0
  9
$USERI3
 70
     0
  9
$USERI4
 70
     0
  9
$USERI5
 70
     0
  9
$USERR1
 40
0.0
  9
$USERR2
 40
0.0
  9
$USERR3
 40
0.0
  9
$USERR4
 40
0.0
  9
$USERR5
 40
0.0
  9
$WORLDVIEW
 70
     1
  9
$SHADEDGE
 70
     3
  9
$SHADEDIF
 70
    70
  9
$TILEMODE
 70
     1
  9
$MAXACTVP
 70
    15
  9
$PINSBASE
 10
0.0004882914945483
 20
0.7501408034022604
 30
0.0
  9
$PLIMCHECK
 70
     0
  9
$PEXTMIN
 10
1.000000000000000E+20
 20
1.000000000000000E+20
 30
1.000000000000000E+20
  9
$PEXTMAX
 10
-1.000000000000000E+20
 20
-1.000000000000000E+20
 30
-1.000000000000000E+20
  9
$PLIMMIN
 10
0.0
 20
0.0
  9
$PLIMMAX
 10
12.0
 20
9.0
  9
$UNITMODE
 70
     0
  9
$VISRETAIN
 70
     0
  9
$PLINEGEN
 70
     0
  9
$PSLTSCALE
 70
     1
  9
$TREEDEPTH
 70
  3020
  9
$PICKSTYLE
 70
     1
  9
$CMLSTYLE
  2
STANDARD
  9
$CMLJUST
 70
     0
  9
$CMLSCALE
 40
1.0
  9
$PROXYGRAPHICS
 70
     1
  9
$MEASUREMENT
 70
     0
  0
ENDSEC
  0
SECTION
  2
CLASSES
  0
CLASS
  1
ACDBDICTIONARYWDFLT
  2
AcDbDictionaryWithDefault
  3
AutoCAD 2000
 90
        0
280
     0
281
     0
  0
CLASS
  1
ACDBPLACEHOLDER
  2
AcDbPlaceHolder
  3
AutoCAD 2000
 90
        0
280
     0
281
     0
  0
CLASS
  1
LAYOUT
  2
AcDbLayout
  3
AutoCAD 2000
 90
        0
280
     0
281
     0
  0
CLASS
  1
DICTIONARYVAR
  2
AcDbDictionaryVar
  3
AutoCAD 2000
 90
        0
280
     0
281
     0
  0
CLASS
  1
LONG_TRANSACTION
  2
AcDbLongTransaction
  3
AutoCAD 2000
 90
        0
280
     0
281
     0
  0
CLASS
  1
LWPOLYLINE
  2
AcDbPolyline
  3
AutoCAD 2000
 90
        0
280
     0
281
     1
  0
CLASS
  1
HATCH
  2
AcDbHatch
  3
AutoCAD 2000
 90
        0
280
     0
281
     1
  0
CLASS
  1
XRECORD
  2
AcDbXrecord
  3
AutoCAD 2000
 90
        0
280
     0
281
     0
  0
CLASS
  1
LONG_TRANSACTION
  2
AcDbLongTransaction
  3
AutoCAD 2000
 90
        0
280
     0
281
     0
  0
CLASS
  1
LWPOLYLINE
  2
AcDbPolyline
  3
AutoCAD 2000
 90
        0
280
     0
281
     1
  0
CLASS
  1
HATCH
  2
AcDbHatch
  3
AutoCAD 2000
 90
        0
280
     0
281
     1
  0
CLASS
  1
XRECORD
  2
AcDbXrecord
  3
AutoCAD 2000
 90
        0
280
     0
281
     0
  0
CLASS
  1
LONG_TRANSACTION
  2
AcDbLongTransaction
  3
AutoCAD 2000
 90
        0
280
     0
281
     0
  0
CLASS
  1
LWPOLYLINE
  2
AcDbPolyline
  3
AutoCAD 2000
 90
        0
280
     0
281
     1
  0
CLASS
  1
HATCH
  2
AcDbHatch
  3
AutoCAD 2000
 90
        0
280
     0
281
     1
  0
CLASS
  1
XRECORD
  2
AcDbXrecord
  3
AutoCAD 2000
 90
        0
280
     0
281
     0
  0
CLASS
  1
LONG_TRANSACTION
  2
AcDbLongTransaction
  3
AutoCAD 2000
 90
        0
280
     0
281
     0
  0
CLASS
  1
LWPOLYLINE
  2
AcDbPolyline
  3
AutoCAD 2000
 90
        0
280
     0
281
     1
  0
CLASS
  1
HATCH
  2
AcDbHatch
  3
AutoCAD 2000
 90
        0
280
     0
281
     1
  0
CLASS
  1
XRECORD
  2
AcDbXrecord
  3
AutoCAD 2000
 90
        0
280
     0
281
     0
  0
CLASS
  1
LONG_TRANSACTION
  2
AcDbLongTransaction
  3
AutoCAD 2000
 90
        0
280
     0
281
     0
  0
CLASS
  1
LWPOLYLINE
  2
AcDbPolyline
  3
AutoCAD 2000
 90
        0
280
     0
281
     1
  0
CLASS
  1
HATCH
  2
AcDbHatch
  3
AutoCAD 2000
 90
        0
280
     0
281
     1
  0
CLASS
  1
XRECORD
  2
AcDbXrecord
  3
AutoCAD 2000
 90
        0
280
     0
281
     0
  0
ENDSEC
  0
SECTION
  2
TABLES
  0
TABLE
  2
VPORT
  5
8
330
0
100
AcDbSymbolTable
 70
     2
  0
VPORT
  5
2E6
330
8
100
AcDbSymbolTableRecord
100
AcDbViewportTableRecord
  2
*ACTIVE
 70
     0
 10
0.0
 20
0.0
 11
1.0
 21
1.0
 12
0.2957268220897848
 22
-8.438086367518266
 13
0.0
 23
0.0
 14
0.5740882589684922
 24
0.5740882589684922
 15
0.5
 25
0.5
 16
0.0
 26
0.0
 36
1.0
 17
0.0
 27
0.0
 37
0.0
 40
8.364812482585007
 41
1.570528967254408
 42
50.0
 43
0.0
 44
0.0
 50
0.0
 51
0.0
 71
     0
 72
   100
 73
     1
 74
     0
 75
     0
 76
     0
 77
     0
 78
     0
  0
ENDTAB
  0
TABLE
  2
LTYPE
  5
5
330
0
100
AcDbSymbolTable
 70
     1
  0
LTYPE
  5
12
330
5
100
AcDbSymbolTableRecord
100
AcDbLinetypeTableRecord
  2
BYBLOCK
 70
     0
  3

 72
    65
 73
     0
 40
0.0
  0
LTYPE
  5
13
330
5
100
AcDbSymbolTableRecord
100
AcDbLinetypeTableRecord
  2
BYLAYER
 70
     0
  3

 72
    65
 73
     0
 40
0.0
  0
LTYPE
  5
14
330
5
100
AcDbSymbolTableRecord
100
AcDbLinetypeTableRecord
  2
CONTINUOUS
 70
     0
  3
Solid line
 72
    65
 73
     0
 40
0.0
  0
ENDTAB
  0
TABLE
  2
LAYER
  5
2
330
0
100
AcDbSymbolTable
 70
     4
  0
LAYER
  5
F
330
2
100
AcDbSymbolTableRecord
100
AcDbLayerTableRecord
  2
0
 70
     0
 62
     7
  6
CONTINUOUS
  0
LAYER
  5
147
330
2
100
AcDbSymbolTableRecord
100
AcDbLayerTableRecord
  2
ADP1DETAIL
 70
     0
 62
     7
  6
CONTINUOUS
  0
LAYER
  5
149
330
2
100
AcDbSymbolTableRecord
100
AcDbLayerTableRecord
  2
DEFPOINTS
 70
     0
 62
     7
  6
CONTINUOUS
  0
LAYER
  5
14C
330
2
100
AcDbSymbolTableRecord
100
AcDbLayerTableRecord
  2
ADPDIM
 70
     0
 62
     3
  6
CONTINUOUS
  0
ENDTAB
  0
TABLE
  2
STYLE
  5
3
330
0
100
AcDbSymbolTable
 70
     2
  0
STYLE
  5
10
330
3
100
AcDbSymbolTableRecord
100
AcDbTextStyleTableRecord
  2
STANDARD
 70
     0
 40
0.0
 41
1.0
 50
0.0
 71
     0
 42
0.2
  3
txt
  4

  0
STYLE
  5
1A2
330
3
100
AcDbSymbolTableRecord
100
AcDbTextStyleTableRecord
  2
ARIAL_WIDE
 70
     0
 40
0.0
 41
1.25
 50
0.0
 71
     0
 42
0.2
  3
ARIAL.TTF
  4

1001
ACAD
1000
Arial
1071
       34
  0
ENDTAB
  0
TABLE
  2
VIEW
  5
6
330
0
100
AcDbSymbolTable
 70
     0
  0
ENDTAB
  0
TABLE
  2
UCS
  5
7
330
0
100
AcDbSymbolTable
 70
     0
  0
ENDTAB
  0
TABLE
  2
APPID
  5
9
330
0
100
AcDbSymbolTable
 70
     1
  0
APPID
  5
11
330
9
100
AcDbSymbolTableRecord
100
AcDbRegAppTableRecord
  2
ACAD
 70
     0
  0
ENDTAB
  0
TABLE
  2
DIMSTYLE
  5
A
330
0
100
AcDbSymbolTable
 70
     1
  0
DIMSTYLE
105
196
330
A
100
AcDbSymbolTableRecord
100
AcDbDimStyleTableRecord
  2
STANDARD
 70
     0
  3

  4

  5

  6

  7

 40
1.0
 41
0.18
 42
0.0625
 43
0.38
 44
0.18
 45
0.0
 46
0.0
 47
0.0
 48
0.0
140
0.18
141
0.09
142
0.0
143
25.4
144
1.0
145
0.0
146
1.0
147
0.09
 71
     0
 72
     0
 73
     1
 74
     1
 75
     0
 76
     0
 77
     0
 78
     0
170
     0
171
     2
172
     0
173
     0
174
     0
175
     0
176
     0
177
     0
178
     0
270
     2
271
     4
272
     4
273
     2
274
     2
340
10
275
     0
280
     0
281
     0
282
     0
283
     1
284
     0
285
     0
286
     0
287
     3
288
     0
  0
ENDTAB
  0
TABLE
  2
BLOCK_RECORD
  5
1
330
0
100
AcDbSymbolTable
 70
     2
  0
BLOCK_RECORD
  5
18
102
{ACAD_XDICTIONARY
360
1F7
102
}
330
1
100
AcDbSymbolTableRecord
100
AcDbBlockTableRecord
  2
*MODEL_SPACE
  0
BLOCK_RECORD
  5
15
102
{ACAD_XDICTIONARY
360
1F5
102
}
330
1
100
AcDbSymbolTableRecord
100
AcDbBlockTableRecord
  2
*PAPER_SPACE
  0
BLOCK_RECORD
  5
142
330
1
100
AcDbSymbolTableRecord
100
AcDbBlockTableRecord
  2
*D0
  0
BLOCK_RECORD
  5
143
330
1
100
AcDbSymbolTableRecord
100
AcDbBlockTableRecord
  2
*D1
  0
ENDTAB
  0
ENDSEC
  0
SECTION
  2
BLOCKS
  0
BLOCK
  5
14F
330
18
100
AcDbEntity
  8
0
100
AcDbBlockBegin
  2
*MODEL_SPACE
 70
     0
 10
0.0
 20
0.0
 30
0.0
  3
*MODEL_SPACE
  1

  0
ENDBLK
  5
150
330
18
100
AcDbEntity
  8
0
100
AcDbBlockEnd
  0
BLOCK
  5
14D
330
15
100
AcDbEntity
 67
     1
  8
0
100
AcDbBlockBegin
  2
*PAPER_SPACE
 70
     0
 10
0.0
 20
0.0
 30
0.0
  3
*PAPER_SPACE
  1

  0
ENDBLK
  5
14E
330
15
100
AcDbEntity
 67
     1
  8
0
100
AcDbBlockEnd
  0
BLOCK
  5
152
330
142
100
AcDbEntity
  8
0
100
AcDbBlockBegin
  2
*D0
 70
     1
 10
0.0
 20
0.0
 30
0.0
  3
*D0
  1

  0
LINE
  5
153
330
142
100
AcDbEntity
  8
0
  6
BYBLOCK
 62
     0
100
AcDbLine
 10
-0.9778682354239551
 20
-7.933573478519667
 30
0.0
 11
-0.9778682354239551
 21
-7.368816350196523
 31
0.0
  0
LINE
  5
154
330
142
100
AcDbEntity
  8
0
  6
BYBLOCK
 62
     0
100
AcDbLine
 10
1.510362323717943
 20
-7.934361367146594
 30
0.0
 11
1.510362323717943
 21
-7.368816350196523
 31
0.0
  0
LINE
  5
155
330
142
100
AcDbEntity
  8
0
  6
BYBLOCK
 62
     0
100
AcDbLine
 10
-0.9778682354239551
 20
-7.548816350196522
 30
0.0
 11
-0.1295862891863391
 21
-7.548816350196522
 31
0.0
  0
LINE
  5
156
330
142
100
AcDbEntity
  8
0
  6
BYBLOCK
 62
     0
100
AcDbLine
 10
1.510362323717943
 20
-7.548816350196522
 30
0.0
 11
0.6620803774803275
 21
-7.548816350196522
 31
0.0
  0
LINE
  5
157
330
142
100
AcDbEntity
  8
0
  6
BYBLOCK
 62
     0
100
AcDbLine
 10
-1.102868235423955
 20
-7.673816350196522
 30
0.0
 11
-0.8528682354239551
 21
-7.423816350196522
 31
0.0
  0
LINE
  5
158
330
142
100
AcDbEntity
  8
0
  6
BYBLOCK
 62
     0
100
AcDbLine
 10
1.385362323717943
 20
-7.673816350196522
 30
0.0
 11
1.635362323717943
 21
-7.423816350196522
 31
0.0
  0
TEXT
  5
159
330
142
100
AcDbEntity
  8
0
  6
BYBLOCK
 62
     0
100
AcDbText
 10
-0.0045862891863391
 20
-7.611316350196522
 30
0.0
 40
0.125
  1
2 1/2
 72
     1
 11
0.2662470441469942
 21
-7.548816350196522
 31
0.0
100
AcDbText
 73
     2
  0
POINT
  5
15A
330
142
100
AcDbEntity
  8
DEFPOINTS
  6
BYBLOCK
 62
     0
100
AcDbPoint
 10
-0.9778682354239551
 20
-7.996073478519667
 30
0.0
  0
POINT
  5
15B
330
142
100
AcDbEntity
  8
DEFPOINTS
  6
BYBLOCK
 62
     0
100
AcDbPoint
 10
1.510362323717943
 20
-7.996861367146594
 30
0.0
  0
POINT
  5
15C
330
142
100
AcDbEntity
  8
DEFPOINTS
  6
BYBLOCK
 62
     0
100
AcDbPoint
 10
1.510362323717943
 20
-7.548816350196522
 30
0.0
  0
ENDBLK
  5
15D
330
142
100
AcDbEntity
  8
0
100
AcDbBlockEnd
  0
BLOCK
  5
15E
330
143
100
AcDbEntity
  8
0
100
AcDbBlockBegin
  2
*D1
 70
     1
 10
0.0
 20
0.0
 30
0.0
  3
*D1
  1

  0
LINE
  5
15F
330
143
100
AcDbEntity
  8
0
  6
BYBLOCK
 62
     0
100
AcDbLine
 10
-0.106298963171197
 20
-8.565760739726757
 30
0.0
 11
-0.106298963171197
 21
-8.949665777736486
 31
0.0
  0
LINE
  5
160
330
143
100
AcDbEntity
  8
0
  6
BYBLOCK
 62
     0
100
AcDbLine
 10
0.6767010368288043
 20
-8.565760739726757
 30
0.0
 11
0.6767010368288043
 21
-8.949665777736486
 31
0.0
  0
LINE
  5
161
330
143
100
AcDbEntity
  8
0
  6
BYBLOCK
 62
     0
100
AcDbLine
 10
-0.106298963171197
 20
-8.769665777736486
 30
0.0
 11
-0.356298963171197
 21
-8.769665777736486
 31
0.0
  0
LINE
  5
162
330
143
100
AcDbEntity
  8
0
  6
BYBLOCK
 62
     0
100
AcDbLine
 10
0.6767010368288043
 20
-8.769665777736486
 30
0.0
 11
0.9267010368288042
 21
-8.769665777736486
 31
0.0
  0
LINE
  5
163
330
143
100
AcDbEntity
  8
0
  6
BYBLOCK
 62
     0
100
AcDbLine
 10
-0.231298963171197
 20
-8.894665777736486
 30
0.0
 11
0.018701036828803
 21
-8.644665777736486
 31
0.0
  0
LINE
  5
164
330
143
100
AcDbEntity
  8
0
  6
BYBLOCK
 62
     0
100
AcDbLine
 10
0.5517010368288043
 20
-8.894665777736486
 30
0.0
 11
0.8017010368288042
 21
-8.644665777736486
 31
0.0
  0
TEXT
  5
165
330
143
100
AcDbEntity
  8
0
  6
BYBLOCK
 62
     0
100
AcDbText
 10
1.051701036828804
 20
-8.832165777736486
 30
0.0
 40
0.125
  1
13/16
 72
     1
 11
1.301701036828804
 21
-8.769665777736486
 31
0.0
100
AcDbText
 73
     2
  0
POINT
  5
166
330
143
100
AcDbEntity
  8
DEFPOINTS
  6
BYBLOCK
 62
     0
100
AcDbPoint
 10
-0.106298963171197
 20
-8.503260739726757
 30
0.0
  0
POINT
  5
167
330
143
100
AcDbEntity
  8
DEFPOINTS
  6
BYBLOCK
 62
     0
100
AcDbPoint
 10
0.6767010368288043
 20
-8.503260739726757
 30
0.0
  0
POINT
  5
168
330
143
100
AcDbEntity
  8
DEFPOINTS
  6
BYBLOCK
 62
     0
100
AcDbPoint
 10
0.6767010368288043
 20
-8.769665777736486
 30
0.0
  0
ENDBLK
  5
169
330
143
100
AcDbEntity
  8
0
100
AcDbBlockEnd
  0
ENDSEC
  0
SECTION
  2
ENTITIES
  0
ARC
  5
16A
330
18
100
AcDbEntity
  8
ADP1DETAIL
100
AcDbCircle
 10
0.2615047368414041
 20
-4.482893120439843
 30
0.0
 40
4.0
100
AcDbArc
 50
277.5545693115373
 51
287.3132336517538
  0
DIMENSION
  5
16B
330
18
100
AcDbEntity
  8
ADPDIM
100
AcDbDimension
  2
*D0
 10
1.510362323717943
 20
-7.548816350196522
 30
0.0
 11
0.2662470441469942
 21
-7.548816350196522
 31
0.0
100
AcDbAlignedDimension
 13
-0.9778682354239551
 23
-7.996073478519667
 33
0.0
 14
1.510362323717943
 24
-7.996861367146594
 34
0.0
100
AcDbRotatedDimension
  0
ARC
  5
16C
330
18
100
AcDbEntity
  8
ADP1DETAIL
100
AcDbCircle
 10
0.2650751853169859
 20
-11.75740170257736
 30
0.0
 40
4.0
100
AcDbArc
 50
72.51103358626273
 51
107.4532757862992
  0
ARC
  5
16D
330
18
100
AcDbEntity
  8
ADP1DETAIL
100
AcDbCircle
 10
0.2615047368414041
 20
-4.482893120439843
 30
0.0
 40
4.0
100
AcDbArc
 50
252.8400344923382
 51
263.1279928574136
  0
ARC
  5
16E
330
18
100
AcDbEntity
  8
ADP1DETAIL
100
AcDbCircle
 10
-0.9003647234972921
 20
-8.24559206629404
 30
0.0
 40
0.062
100
AcDbArc
 50
191.604775675111
 51
252.8400344923369
  0
ARC
  5
16F
330
18
100
AcDbEntity
  8
ADP1DETAIL
100
AcDbCircle
 10
-0.0305167878408652
 20
-8.066962368779169
 30
0.0
 40
0.95
100
AcDbArc
 50
175.720617910706
 51
191.604775675111
  0
ARC
  5
170
330
18
100
AcDbEntity
  8
ADP1DETAIL
100
AcDbCircle
 10
-0.9160410883185312
 20
-8.000699911357653
 30
0.0
 40
0.062
100
AcDbArc
 50
107.4532757862985
 51
175.720617910706
  0
LINE
  5
171
330
18
100
AcDbEntity
  8
ADP1DETAIL
100
AcDbLine
 10
-0.2122989631711951
 20
-7.935260739726761
 30
0.0
 11
0.7827010368288024
 21
-7.935260739726761
 31
0.0
  0
LINE
  5
172
330
18
100
AcDbEntity
  8
ADP1DETAIL
100
AcDbLine
 10
0.0197010368288042
 20
-8.200260739726761
 30
0.0
 11
-0.2122989631711951
 21
-8.200260739726761
 31
0.0
  0
LINE
  5
173
330
18
100
AcDbEntity
  8
ADP1DETAIL
100
AcDbLine
 10
-0.0962989631711955
 20
-8.325260739726761
 30
0.0
 11
0.0197010368288042
 21
-8.325260739726761
 31
0.0
  0
LINE
  5
174
330
18
100
AcDbEntity
  8
ADP1DETAIL
100
AcDbLine
 10
-0.2222989631711967
 20
-8.190260739726756
 30
0.0
 11
-0.2222989631711967
 21
-7.945260739726759
 31
0.0
  0
ARC
  5
175
330
18
100
AcDbEntity
  8
ADP1DETAIL
100
AcDbCircle
 10
-0.2122989631711951
 20
-8.190260739726756
 30
0.0
 40
0.01
100
AcDbArc
 50
180.0
 51
270.0
  0
LINE
  5
176
330
18
100
AcDbEntity
  8
ADP1DETAIL
100
AcDbLine
 10
-0.1982989631711958
 20
-8.513260739726757
 30
0.0
 11
-0.116298963171195
 21
-8.513260739726757
 31
0.0
  0
ARC
  5
177
330
18
100
AcDbEntity
  8
ADP1DETAIL
100
AcDbCircle
 10
-0.2182989631711953
 20
-8.464084953227388
 30
0.0
 40
0.01
100
AcDbArc
 50
0.0
 51
83.12799285742803
  0
LINE
  5
178
330
18
100
AcDbEntity
  8
ADP1DETAIL
100
AcDbLine
 10
-0.2082989631711973
 20
-8.464084953227388
 30
0.0
 11
-0.2082989631711973
 21
-8.503260739726758
 31
0.0
  0
ARC
  5
179
330
18
100
AcDbEntity
  8
ADP1DETAIL
100
AcDbCircle
 10
-0.1982989631711958
 20
-8.503260739726758
 30
0.0
 40
0.01
100
AcDbArc
 50
180.0
 51
270.0
  0
LINE
  5
17A
330
18
100
AcDbEntity
  8
ADP1DETAIL
100
AcDbLine
 10
-0.106298963171197
 20
-8.503260739726758
 30
0.0
 11
-0.106298963171197
 21
-8.335260739726759
 31
0.0
  0
ARC
  5
17B
330
18
100
AcDbEntity
  8
ADP1DETAIL
100
AcDbCircle
 10
-0.116298963171195
 20
-8.503260739726758
 30
0.0
 40
0.01
100
AcDbArc
 50
270.0
 51
0.0
  0
ARC
  5
17C
330
18
100
AcDbEntity
  8
ADP1DETAIL
100
AcDbCircle
 10
-0.0962989631711955
 20
-8.335260739726759
 30
0.0
 40
0.01
100
AcDbArc
 50
90.00000000000019
 51
180.0
  0
ARC
  5
17D
330
18
100
AcDbEntity
  8
ADP1DETAIL
100
AcDbCircle
 10
-0.2122989631711951
 20
-7.945260739726759
 30
0.0
 40
0.01
100
AcDbArc
 50
90.0
 51
180.0
  0
ARC
  5
17E
330
18
100
AcDbEntity
  8
ADP1DETAIL
100
AcDbCircle
 10
-0.2122989631711951
 20
-7.945260739726759
 30
0.0
 40
0.01
100
AcDbArc
 50
89.99999999999994
 51
180.0
  0
ARC
  5
17F
330
18
100
AcDbEntity
  8
ADP1DETAIL
100
AcDbCircle
 10
0.0197010368288042
 20
-8.210260739726759
 30
0.0
 40
0.01
100
AcDbArc
 50
0.0
 51
90.0
  0
ARC
  5
180
330
18
100
AcDbEntity
  8
ADP1DETAIL
100
AcDbCircle
 10
0.0197010368288042
 20
-8.315260739726756
 30
0.0
 40
0.01
100
AcDbArc
 50
270.0
 51
0.0
  0
LINE
  5
181
330
18
100
AcDbEntity
  8
ADP1DETAIL
100
AcDbLine
 10
0.0297010368288058
 20
-8.315260739726756
 30
0.0
 11
0.0297010368288022
 21
-8.210260739726759
 31
0.0
  0
LINE
  5
182
330
18
100
AcDbEntity
  8
ADP1DETAIL
100
AcDbLine
 10
0.792701036828804
 20
-7.945260739726759
 30
0.0
 11
0.792701036828804
 21
-8.190260739726756
 31
0.0
  0
ARC
  5
183
330
18
100
AcDbEntity
  8
ADP1DETAIL
100
AcDbCircle
 10
0.7827010368288024
 20
-8.190260739726756
 30
0.0
 40
0.01
100
AcDbArc
 50
270.0
 51
0.0
  0
LINE
  5
184
330
18
100
AcDbEntity
  8
ADP1DETAIL
100
AcDbLine
 10
0.7787010368288046
 20
-8.503260739726758
 30
0.0
 11
0.7787010368288046
 21
-8.458086708339632
 31
0.0
  0
ARC
  5
185
330
18
100
AcDbEntity
  8
ADP1DETAIL
100
AcDbCircle
 10
0.7687010368288066
 20
-8.503260739726758
 30
0.0
 40
0.01
100
AcDbArc
 50
270.0
 51
0.0
  0
ARC
  5
186
330
18
100
AcDbEntity
  8
ADP1DETAIL
100
AcDbCircle
 10
0.7887010368288026
 20
-8.458086708339632
 30
0.0
 40
0.01
100
AcDbArc
 50
97.55456931154062
 51
180.0
  0
ARC
  5
187
330
18
100
AcDbEntity
  8
ADP1DETAIL
100
AcDbCircle
 10
0.7827010368288024
 20
-7.945260739726759
 30
0.0
 40
0.01
100
AcDbArc
 50
0.0
 51
89.99999999999994
  0
ARC
  5
188
330
18
100
AcDbEntity
  8
ADP1DETAIL
100
AcDbCircle
 10
0.6667010368288027
 20
-8.335260739726759
 30
0.0
 40
0.01
100
AcDbArc
 50
0.0
 51
90.00000000000019
  0
LINE
  5
189
330
18
100
AcDbEntity
  8
ADP1DETAIL
100
AcDbLine
 10
0.6767010368288043
 20
-8.335260739726759
 30
0.0
 11
0.6767010368288043
 21
-8.503260739726758
 31
0.0
  0
ARC
  5
18A
330
18
100
AcDbEntity
  8
ADP1DETAIL
100
AcDbCircle
 10
0.6867010368288023
 20
-8.503260739726758
 30
0.0
 40
0.01
100
AcDbArc
 50
180.0000000000002
 51
270.0
  0
LINE
  5
18B
330
18
100
AcDbEntity
  8
ADP1DETAIL
100
AcDbLine
 10
0.6867010368288023
 20
-8.513260739726757
 30
0.0
 11
0.7687010368288066
 21
-8.513260739726757
 31
0.0
  0
ARC
  5
18C
330
18
100
AcDbEntity
  8
ADP1DETAIL
100
AcDbCircle
 10
0.5507010368288031
 20
-8.210260739726759
 30
0.0
 40
0.01
100
AcDbArc
 50
90.0
 51
180.0
  0
ARC
  5
18D
330
18
100
AcDbEntity
  8
ADP1DETAIL
100
AcDbCircle
 10
0.5507010368288031
 20
-8.315260739726756
 30
0.0
 40
0.01
100
AcDbArc
 50
180.0
 51
270.0
  0
LINE
  5
18E
330
18
100
AcDbEntity
  8
ADP1DETAIL
100
AcDbLine
 10
0.5407010368288051
 20
-8.210260739726759
 30
0.0
 11
0.5407010368288051
 21
-8.315260739726756
 31
0.0
  0
LINE
  5
18F
330
18
100
AcDbEntity
  8
ADP1DETAIL
100
AcDbLine
 10
0.5507010368288031
 20
-8.325260739726761
 30
0.0
 11
0.6667010368288027
 21
-8.325260739726761
 31
0.0
  0
LINE
  5
190
330
18
100
AcDbEntity
  8
ADP1DETAIL
100
AcDbLine
 10
0.7827010368288024
 20
-8.200260739726761
 30
0.0
 11
0.5507010368288031
 21
-8.200260739726761
 31
0.0
  0
ARC
  5
191
330
18
100
AcDbEntity
  8
ADP1DETAIL
100
AcDbCircle
 10
0.5629522490564421
 20
-8.066962368779169
 30
0.0
 40
0.95
100
AcDbArc
 50
348.6007582301338
 51
4.231732092270497
  0
ARC
  5
192
330
18
100
AcDbEntity
  8
ADP1DETAIL
100
AcDbCircle
 10
1.433435374804213
 20
-8.242470567414979
 30
0.0
 40
0.062
100
AcDbArc
 50
287.3132336517529
 51
348.6007582301338
  0
ARC
  5
193
330
18
100
AcDbEntity
  8
ADP1DETAIL
100
AcDbCircle
 10
1.448531350424245
 20
-8.001436379884719
 30
0.0
 40
0.062
100
AcDbArc
 50
4.231732092270809
 51
72.51103358626299
  0
ARC
  5
194
330
18
100
AcDbEntity
  8
ADP1DETAIL
100
AcDbCircle
 10
1.497116560100119
 20
-7.962382064838646
 30
0.0
 40
0.01
100
AcDbArc
 50
6.387702909980526
 51
72.01413847635982
  0
DIMENSION
  5
195
330
18
100
AcDbEntity
  8
ADPDIM
100
AcDbDimension
  2
*D1
 10
0.6767010368288043
 20
-8.769665777736486
 30
0.0
 11
1.301701036828804
 21
-8.769665777736486
 31
0.0
100
AcDbAlignedDimension
 13
-0.106298963171197
 23
-8.503260739726757
 33
0.0
 14
0.6767010368288043
 24
-8.503260739726757
 34
0.0
100
AcDbRotatedDimension
  0
TEXT
  5
1A3
330
18
100
AcDbEntity
  8
ADPDIM
100
AcDbText
 10
-6.240527987727812
 20
-9.467057334700729
 30
0.0
 40
0.125
  1
J U L I U S  B L U M  &  C O . ,  I N C .      ( 8 0 0 )  5 2 6 - 6 2 9 3        W W W . J U L I U S B L U M . C O M        P A R T  N o .  6 5 3 2
 41
1.25
  7
ARIAL_WIDE
 72
     1
 11
0.2852010368288036
 21
-9.342057334700729
 31
0.0
100
AcDbText
 73
     3
  0
ENDSEC
  0
SECTION
  2
OBJECTS
  0
DICTIONARY
  5
C
330
0
100
AcDbDictionary
  3
ACAD_GROUP
350
D
  3
ACAD_LAYOUT
350
19C
  3
ACAD_MLINESTYLE
350
E
  3
ACAD_PLOTSETTINGS
350
19D
  3
ACAD_PLOTSTYLENAME
350
19A
  3
ACDBHEADERROUNDTRIPXREC
350
2E7
  3
ACDBVARIABLEDICTIONARY
350
1FD
  0
DICTIONARY
  5
1F7
330
18
100
AcDbDictionary
280
     1
  3
ACAD_LAYOUTSELFREF
360
308
  0
DICTIONARY
  5
1F5
330
15
100
AcDbDictionary
280
     1
  3
ACAD_LAYOUTSELFREF
360
307
  0
DICTIONARY
  5
D
102
{ACAD_REACTORS
330
C
102
}
330
C
100
AcDbDictionary
  0
DICTIONARY
  5
19C
102
{ACAD_REACTORS
330
C
102
}
330
C
100
AcDbDictionary
  0
DICTIONARY
  5
E
102
{ACAD_REACTORS
330
C
102
}
330
C
100
AcDbDictionary
  3
STANDARD
350
1B
  0
DICTIONARY
  5
19D
102
{ACAD_REACTORS
330
C
102
}
330
C
100
AcDbDictionary
  0
ACDBDICTIONARYWDFLT
  5
19A
102
{ACAD_REACTORS
330
C
102
}
330
C
100
AcDbDictionary
281
     1
  3
Normal
350
19B
100
AcDbDictionaryWithDefault
340
19B
  0
DICTIONARY
  5
2E7
102
{ACAD_REACTORS
330
C
102
}
330
C
100
AcDbDictionary
  3
CEPSNTYPE
350
2F1
  3
FINGERPRINTGUID
350
2F2
  3
HYPERLINKBASE
350
2EA
  3
INSUNITS
350
2F0
  3
LAYOUTDICT
350
2EC
  3
LWETCUNION
350
2EF
  3
PLOTSETDICT
350
2ED
  3
PLOTSTYLNAMDICT
350
2EE
  3
PSVPSCALE
350
2F4
  3
PUCSBASE
350
2F7
  3
PUCSORGBACK
350
2FD
  3
PUCSORGBOTTOM
350
2F9
  3
PUCSORGFRONT
350
2FC
  3
PUCSORGLEFT
350
2FA
  3
PUCSORGRIGHT
350
2FB
  3
PUCSORGTOP
350
2F8
  3
PUCSORTHOREF
350
2F5
  3
PUCSORTHOVIEW
350
2F6
  3
STYLESHEET
350
2EB
  3
TSTACKALIGN
350
2E8
  3
TSTACKSIZE
350
2E9
  3
UCSBASE
350
300
  3
UCSORGBACK
350
306
  3
UCSORGBOTTOM
350
302
  3
UCSORGFRONT
350
305
  3
UCSORGLEFT
350
303
  3
UCSORGRIGHT
350
304
  3
UCSORGTOP
350
301
  3
UCSORTHOREF
350
2FE
  3
UCSORTHOVIEW
350
2FF
  3
VERSIONGUID
350
2F3
  0
DICTIONARY
  5
1FD
102
{ACAD_REACTORS
330
C
102
}
330
C
100
AcDbDictionary
  3
DIMASSOC
350
1FE
  0
XRECORD
  5
308
102
{ACAD_REACTORS
330
1F7
102
}
330
1F7
100
AcDbXrecord
340
18
  0
XRECORD
  5
307
102
{ACAD_REACTORS
330
1F5
102
}
330
1F5
100
AcDbXrecord
340
15
  0
MLINESTYLE
  5
1B
102
{ACAD_REACTORS
330
E
102
}
330
E
100
AcDbMlineStyle
  2
STANDARD
 70
     0
  3

 62
     0
 51
90.0
 52
90.0
 71
     2
 49
0.5
 62
   256
  6
BYLAYER
 49
-0.5
 62
   256
  6
BYLAYER
  0
ACDBPLACEHOLDER
  5
19B
102
{ACAD_REACTORS
330
19A
102
}
330
19A
100
AcDbPlaceHolder
280
     0
  0
XRECORD
  5
2F1
102
{ACAD_REACTORS
330
2E7
102
}
330
2E7
100
AcDbXrecord
 90
        0
  0
XRECORD
  5
2F2
102
{ACAD_REACTORS
330
2E7
102
}
330
2E7
100
AcDbXrecord
  1
{B06E61C7-8FEE-42EE-B8FE-1A51F6653EB0}
  0
XRECORD
  5
2EA
102
{ACAD_REACTORS
330
2E7
102
}
330
2E7
100
AcDbXrecord
  1

  0
XRECORD
  5
2F0
102
{ACAD_REACTORS
330
2E7
102
}
330
2E7
100
AcDbXrecord
 90
        0
  0
XRECORD
  5
2EC
102
{ACAD_REACTORS
330
2E7
102
}
330
2E7
100
AcDbXrecord
340
19C
  0
XRECORD
  5
2EF
102
{ACAD_REACTORS
330
2E7
102
}
330
2E7
100
AcDbXrecord
 90
    14877
  0
XRECORD
  5
2ED
102
{ACAD_REACTORS
330
2E7
102
}
330
2E7
100
AcDbXrecord
340
19D
  0
XRECORD
  5
2EE
102
{ACAD_REACTORS
330
2E7
102
}
330
2E7
100
AcDbXrecord
340
19A
  0
XRECORD
  5
2F4
102
{ACAD_REACTORS
330
2E7
102
}
330
2E7
100
AcDbXrecord
 40
0.0
  0
XRECORD
  5
2F7
102
{ACAD_REACTORS
330
2E7
102
}
330
2E7
100
AcDbXrecord
340
0
  0
XRECORD
  5
2FD
102
{ACAD_REACTORS
330
2E7
102
}
330
2E7
100
AcDbXrecord
 10
0.0
 20
0.0
 30
0.0
  0
XRECORD
  5
2F9
102
{ACAD_REACTORS
330
2E7
102
}
330
2E7
100
AcDbXrecord
 10
0.0
 20
0.0
 30
0.0
  0
XRECORD
  5
2FC
102
{ACAD_REACTORS
330
2E7
102
}
330
2E7
100
AcDbXrecord
 10
0.0
 20
0.0
 30
0.0
  0
XRECORD
  5
2FA
102
{ACAD_REACTORS
330
2E7
102
}
330
2E7
100
AcDbXrecord
 10
0.0
 20
0.0
 30
0.0
  0
XRECORD
  5
2FB
102
{ACAD_REACTORS
330
2E7
102
}
330
2E7
100
AcDbXrecord
 10
0.0
 20
0.0
 30
0.0
  0
XRECORD
  5
2F8
102
{ACAD_REACTORS
330
2E7
102
}
330
2E7
100
AcDbXrecord
 10
0.0
 20
0.0
 30
0.0
  0
XRECORD
  5
2F5
102
{ACAD_REACTORS
330
2E7
102
}
330
2E7
100
AcDbXrecord
340
0
  0
XRECORD
  5
2F6
102
{ACAD_REACTORS
330
2E7
102
}
330
2E7
100
AcDbXrecord
 70
     0
  0
XRECORD
  5
2EB
102
{ACAD_REACTORS
330
2E7
102
}
330
2E7
100
AcDbXrecord
  1

  0
XRECORD
  5
2E8
102
{ACAD_REACTORS
330
2E7
102
}
330
2E7
100
AcDbXrecord
 90
        1
  0
XRECORD
  5
2E9
102
{ACAD_REACTORS
330
2E7
102
}
330
2E7
100
AcDbXrecord
 90
       70
  0
XRECORD
  5
300
102
{ACAD_REACTORS
330
2E7
102
}
330
2E7
100
AcDbXrecord
340
0
  0
XRECORD
  5
306
102
{ACAD_REACTORS
330
2E7
102
}
330
2E7
100
AcDbXrecord
 10
0.0
 20
0.0
 30
0.0
  0
XRECORD
  5
302
102
{ACAD_REACTORS
330
2E7
102
}
330
2E7
100
AcDbXrecord
 10
0.0
 20
0.0
 30
0.0
  0
XRECORD
  5
305
102
{ACAD_REACTORS
330
2E7
102
}
330
2E7
100
AcDbXrecord
 10
0.0
 20
0.0
 30
0.0
  0
XRECORD
  5
303
102
{ACAD_REACTORS
330
2E7
102
}
330
2E7
100
AcDbXrecord
 10
0.0
 20
0.0
 30
0.0
  0
XRECORD
  5
304
102
{ACAD_REACTORS
330
2E7
102
}
330
2E7
100
AcDbXrecord
 10
0.0
 20
0.0
 30
0.0
  0
XRECORD
  5
301
102
{ACAD_REACTORS
330
2E7
102
}
330
2E7
100
AcDbXrecord
 10
0.0
 20
0.0
 30
0.0
  0
XRECORD
  5
2FE
102
{ACAD_REACTORS
330
2E7
102
}
330
2E7
100
AcDbXrecord
340
0
  0
XRECORD
  5
2FF
102
{ACAD_REACTORS
330
2E7
102
}
330
2E7
100
AcDbXrecord
 70
     0
  0
XRECORD
  5
2F3
102
{ACAD_REACTORS
330
2E7
102
}
330
2E7
100
AcDbXrecord
  1
{7527F25D-3923-4B5E-9AE0-EA7BF2975729}
  0
DICTIONARYVAR
  5
1FE
102
{ACAD_REACTORS
330
1FD
102
}
330
1FD
100
DictionaryVariables
280
     0
  1
1
  0
ENDSEC
  0
EOF
