  0
SECTION
  2
HEADER
  9
$ACADVER
  1
AC1014
  9
$ACADMAINTVER
 70
     9
  9
$DWGCODEPAGE
  3
ANSI_1252
  9
$INSBASE
 10
32.71760139566444
 20
7.831369649056973
 30
0.0
  9
$EXTMIN
 10
24.58580953561744
 20
4.880365597058904
 30
0.0
  9
$EXTMAX
 10
44.69042029619044
 20
16.04853697579009
 30
0.0
  9
$LIMMIN
 10
0.0
 20
0.0
  9
$LIMMAX
 10
36.0
 20
36.0
  9
$ORTHOMODE
 70
     1
  9
$REGENMODE
 70
     1
  9
$FILLMODE
 70
     1
  9
$QTEXTMODE
 70
     0
  9
$MIRRTEXT
 70
     1
  9
$DRAGMODE
 70
     0
  9
$LTSCALE
 40
1.0
  9
$OSMODE
 70
    37
  9
$ATTMODE
 70
     1
  9
$TEXTSIZE
 40
0.2
  9
$TRACEWID
 40
0.05
  9
$TEXTSTYLE
  7
STANDARD
  9
$CLAYER
  8
0
  9
$CELTYPE
  6
BYLAYER
  9
$CECOLOR
 62
   256
  9
$CELTSCALE
 40
1.0
  9
$DELOBJ
 70
     1
  9
$DISPSILH
 70
     0
  9
$DIMSCALE
 40
1.0
  9
$DIMASZ
 40
0.125
  9
$DIMEXO
 40
0.0625
  9
$DIMDLI
 40
0.38
  9
$DIMRND
 40
0.0
  9
$DIMDLE
 40
0.0
  9
$DIMEXE
 40
0.18
  9
$DIMTP
 40
0.0
  9
$DIMTM
 40
0.0
  9
$DIMTXT
 40
0.125
  9
$DIMCEN
 40
0.1875
  9
$DIMTSZ
 40
0.125
  9
$DIMTOL
 70
     0
  9
$DIMLIM
 70
     0
  9
$DIMTIH
 70
     0
  9
$DIMTOH
 70
     0
  9
$DIMSE1
 70
     0
  9
$DIMSE2
 70
     0
  9
$DIMTAD
 70
     0
  9
$DIMZIN
 70
     3
  9
$DIMBLK
  1

  9
$DIMASO
 70
     1
  9
$DIMSHO
 70
     1
  9
$DIMPOST
  1

  9
$DIMAPOST
  1

  9
$DIMALT
 70
     0
  9
$DIMALTD
 70
     1
  9
$DIMALTF
 40
25.4
  9
$DIMLFAC
 40
1.0
  9
$DIMTOFL
 70
     0
  9
$DIMTVP
 40
0.0
  9
$DIMTIX
 70
     0
  9
$DIMSOXD
 70
     0
  9
$DIMSAH
 70
     0
  9
$DIMBLK1
  1

  9
$DIMBLK2
  1

  9
$DIMSTYLE
  2
STANDARD
  9
$DIMCLRD
 70
     0
  9
$DIMCLRE
 70
     0
  9
$DIMCLRT
 70
     0
  9
$DIMTFAC
 40
1.0
  9
$DIMGAP
 40
0.125
  9
$DIMJUST
 70
     0
  9
$DIMSD1
 70
     0
  9
$DIMSD2
 70
     0
  9
$DIMTOLJ
 70
     1
  9
$DIMTZIN
 70
     0
  9
$DIMALTZ
 70
     0
  9
$DIMALTTZ
 70
     0
  9
$DIMFIT
 70
     3
  9
$DIMUPT
 70
     0
  9
$DIMUNIT
 70
     2
  9
$DIMDEC
 70
     4
  9
$DIMTDEC
 70
     4
  9
$DIMALTU
 70
     2
  9
$DIMALTTD
 70
     2
  9
$DIMTXSTY
  7
STANDARD
  9
$DIMAUNIT
 70
     0
  9
$LUNITS
 70
     5
  9
$LUPREC
 70
     4
  9
$SKETCHINC
 40
0.1
  9
$FILLETRAD
 40
0.187
  9
$AUNITS
 70
     0
  9
$AUPREC
 70
     0
  9
$MENU
  1
acad
  9
$ELEVATION
 40
0.0
  9
$PELEVATION
 40
0.0
  9
$THICKNESS
 40
0.0
  9
$LIMCHECK
 70
     0
  9
$BLIPMODE
 70
     0
  9
$CHAMFERA
 40
0.0
  9
$CHAMFERB
 40
0.0
  9
$CHAMFERC
 40
0.0
  9
$CHAMFERD
 40
0.0
  9
$SKPOLY
 70
     0
  9
$TDCREATE
 40
2450399.632386956
  9
$TDUPDATE
 40
2452297.094002812
  9
$TDINDWG
 40
0.0097234144
  9
$TDUSRTIMER
 40
0.0097234144
  9
$USRTIMER
 70
     1
  9
$ANGBASE
 50
0.0
  9
$ANGDIR
 70
     0
  9
$PDMODE
 70
     0
  9
$PDSIZE
 40
0.0
  9
$PLINEWID
 40
0.0
  9
$COORDS
 70
     2
  9
$SPLFRAME
 70
     0
  9
$SPLINETYPE
 70
     6
  9
$SPLINESEGS
 70
     8
  9
$ATTDIA
 70
     0
  9
$ATTREQ
 70
     1
  9
$HANDLING
 70
 22529
  9
$HANDSEED
  5
338
  9
$SURFTAB1
 70
     6
  9
$SURFTAB2
 70
     6
  9
$SURFTYPE
 70
     6
  9
$SURFU
 70
     6
  9
$SURFV
 70
     6
  9
$UCSNAME
  2

  9
$UCSORG
 10
0.0
 20
0.0
 30
0.0
  9
$UCSXDIR
 10
1.0
 20
0.0
 30
0.0
  9
$UCSYDIR
 10
0.0
 20
1.0
 30
0.0
  9
$PUCSNAME
  2

  9
$PUCSORG
 10
0.0
 20
0.0
 30
0.0
  9
$PUCSXDIR
 10
1.0
 20
0.0
 30
0.0
  9
$PUCSYDIR
 10
0.0
 20
1.0
 30
0.0
  9
$USERI1
 70
     0
  9
$USERI2
 70
     0
  9
$USERI3
 70
     0
  9
$USERI4
 70
     0
  9
$USERI5
 70
     0
  9
$USERR1
 40
0.0
  9
$USERR2
 40
0.0
  9
$USERR3
 40
0.0
  9
$USERR4
 40
0.0
  9
$USERR5
 40
0.0
  9
$WORLDVIEW
 70
     1
  9
$SHADEDGE
 70
     3
  9
$SHADEDIF
 70
    70
  9
$TILEMODE
 70
     1
  9
$MAXACTVP
 70
    15
  9
$PINSBASE
 10
0.0004882914945483
 20
0.7501408034022604
 30
0.0
  9
$PLIMCHECK
 70
     0
  9
$PEXTMIN
 10
1.000000000000000E+20
 20
1.000000000000000E+20
 30
1.000000000000000E+20
  9
$PEXTMAX
 10
-1.000000000000000E+20
 20
-1.000000000000000E+20
 30
-1.000000000000000E+20
  9
$PLIMMIN
 10
0.0
 20
0.0
  9
$PLIMMAX
 10
12.0
 20
9.0
  9
$UNITMODE
 70
     0
  9
$VISRETAIN
 70
     0
  9
$PLINEGEN
 70
     0
  9
$PSLTSCALE
 70
     1
  9
$TREEDEPTH
 70
  3020
  9
$PICKSTYLE
 70
     1
  9
$CMLSTYLE
  2
STANDARD
  9
$CMLJUST
 70
     0
  9
$CMLSCALE
 40
1.0
  9
$PROXYGRAPHICS
 70
     1
  9
$MEASUREMENT
 70
     0
  0
ENDSEC
  0
SECTION
  2
CLASSES
  0
CLASS
  1
ACDBDICTIONARYWDFLT
  2
AcDbDictionaryWithDefault
  3
AutoCAD 2000
 90
        0
280
     0
281
     0
  0
CLASS
  1
ACDBPLACEHOLDER
  2
AcDbPlaceHolder
  3
AutoCAD 2000
 90
        0
280
     0
281
     0
  0
CLASS
  1
LAYOUT
  2
AcDbLayout
  3
AutoCAD 2000
 90
        0
280
     0
281
     0
  0
CLASS
  1
DICTIONARYVAR
  2
AcDbDictionaryVar
  3
AutoCAD 2000
 90
        0
280
     0
281
     0
  0
CLASS
  1
LONG_TRANSACTION
  2
AcDbLongTransaction
  3
AutoCAD 2000
 90
        0
280
     0
281
     0
  0
CLASS
  1
LWPOLYLINE
  2
AcDbPolyline
  3
AutoCAD 2000
 90
        0
280
     0
281
     1
  0
CLASS
  1
HATCH
  2
AcDbHatch
  3
AutoCAD 2000
 90
        0
280
     0
281
     1
  0
CLASS
  1
XRECORD
  2
AcDbXrecord
  3
AutoCAD 2000
 90
        0
280
     0
281
     0
  0
CLASS
  1
LONG_TRANSACTION
  2
AcDbLongTransaction
  3
AutoCAD 2000
 90
        0
280
     0
281
     0
  0
CLASS
  1
LWPOLYLINE
  2
AcDbPolyline
  3
AutoCAD 2000
 90
        0
280
     0
281
     1
  0
CLASS
  1
HATCH
  2
AcDbHatch
  3
AutoCAD 2000
 90
        0
280
     0
281
     1
  0
CLASS
  1
XRECORD
  2
AcDbXrecord
  3
AutoCAD 2000
 90
        0
280
     0
281
     0
  0
CLASS
  1
LONG_TRANSACTION
  2
AcDbLongTransaction
  3
AutoCAD 2000
 90
        0
280
     0
281
     0
  0
CLASS
  1
LWPOLYLINE
  2
AcDbPolyline
  3
AutoCAD 2000
 90
        0
280
     0
281
     1
  0
CLASS
  1
HATCH
  2
AcDbHatch
  3
AutoCAD 2000
 90
        0
280
     0
281
     1
  0
CLASS
  1
XRECORD
  2
AcDbXrecord
  3
AutoCAD 2000
 90
        0
280
     0
281
     0
  0
CLASS
  1
LONG_TRANSACTION
  2
AcDbLongTransaction
  3
AutoCAD 2000
 90
        0
280
     0
281
     0
  0
CLASS
  1
LWPOLYLINE
  2
AcDbPolyline
  3
AutoCAD 2000
 90
        0
280
     0
281
     1
  0
CLASS
  1
HATCH
  2
AcDbHatch
  3
AutoCAD 2000
 90
        0
280
     0
281
     1
  0
CLASS
  1
XRECORD
  2
AcDbXrecord
  3
AutoCAD 2000
 90
        0
280
     0
281
     0
  0
CLASS
  1
LONG_TRANSACTION
  2
AcDbLongTransaction
  3
AutoCAD 2000
 90
        0
280
     0
281
     0
  0
CLASS
  1
LWPOLYLINE
  2
AcDbPolyline
  3
AutoCAD 2000
 90
        0
280
     0
281
     1
  0
CLASS
  1
HATCH
  2
AcDbHatch
  3
AutoCAD 2000
 90
        0
280
     0
281
     1
  0
CLASS
  1
XRECORD
  2
AcDbXrecord
  3
AutoCAD 2000
 90
        0
280
     0
281
     0
  0
ENDSEC
  0
SECTION
  2
TABLES
  0
TABLE
  2
VPORT
  5
8
330
0
100
AcDbSymbolTable
 70
     2
  0
VPORT
  5
315
330
8
100
AcDbSymbolTableRecord
100
AcDbViewportTableRecord
  2
*ACTIVE
 70
     0
 10
0.0
 20
0.0
 11
1.0
 21
1.0
 12
34.654225975767
 22
10.46475227231247
 13
0.0
 23
0.0
 14
0.5740882589684922
 24
0.5740882589684922
 15
0.5
 25
0.5
 16
0.0
 26
0.0
 36
1.0
 17
0.0
 27
0.0
 37
0.0
 40
12.88724671360139
 41
1.570528967254408
 42
50.0
 43
0.0
 44
0.0
 50
0.0
 51
0.0
 71
     0
 72
   100
 73
     1
 74
     0
 75
     0
 76
     0
 77
     0
 78
     0
  0
ENDTAB
  0
TABLE
  2
LTYPE
  5
5
330
0
100
AcDbSymbolTable
 70
     2
  0
LTYPE
  5
12
330
5
100
AcDbSymbolTableRecord
100
AcDbLinetypeTableRecord
  2
BYBLOCK
 70
     0
  3

 72
    65
 73
     0
 40
0.0
  0
LTYPE
  5
13
330
5
100
AcDbSymbolTableRecord
100
AcDbLinetypeTableRecord
  2
BYLAYER
 70
     0
  3

 72
    65
 73
     0
 40
0.0
  0
LTYPE
  5
14
330
5
100
AcDbSymbolTableRecord
100
AcDbLinetypeTableRecord
  2
CONTINUOUS
 70
     0
  3
Solid line
 72
    65
 73
     0
 40
0.0
  0
LTYPE
  5
154
330
5
100
AcDbSymbolTableRecord
100
AcDbLinetypeTableRecord
  2
CENTER2
 70
     0
  3
___ _ ___ _ ___ _ ___ _ ___ _ ___ _ ___ _ ___ _
 72
    65
 73
     4
 40
1.125
 49
0.75
 74
     0
 49
-0.125
 74
     0
 49
0.125
 74
     0
 49
-0.125
 74
     0
  0
ENDTAB
  0
TABLE
  2
LAYER
  5
2
330
0
100
AcDbSymbolTable
 70
     5
  0
LAYER
  5
F
330
2
100
AcDbSymbolTableRecord
100
AcDbLayerTableRecord
  2
0
 70
     0
 62
     7
  6
CONTINUOUS
  0
LAYER
  5
158
330
2
100
AcDbSymbolTableRecord
100
AcDbLayerTableRecord
  2
ADP1DETAIL
 70
     0
 62
     7
  6
CONTINUOUS
  0
LAYER
  5
159
330
2
100
AcDbSymbolTableRecord
100
AcDbLayerTableRecord
  2
ADP3DETAIL
 70
     0
 62
     1
  6
CONTINUOUS
  0
LAYER
  5
15A
330
2
100
AcDbSymbolTableRecord
100
AcDbLayerTableRecord
  2
DEFPOINTS
 70
     0
 62
     7
  6
CONTINUOUS
  0
LAYER
  5
15D
330
2
100
AcDbSymbolTableRecord
100
AcDbLayerTableRecord
  2
ADPDIM
 70
     0
 62
     3
  6
CONTINUOUS
  0
ENDTAB
  0
TABLE
  2
STYLE
  5
3
330
0
100
AcDbSymbolTable
 70
     2
  0
STYLE
  5
10
330
3
100
AcDbSymbolTableRecord
100
AcDbTextStyleTableRecord
  2
STANDARD
 70
     0
 40
0.0
 41
1.0
 50
0.0
 71
     0
 42
0.2
  3
txt
  4

  0
STYLE
  5
1D1
330
3
100
AcDbSymbolTableRecord
100
AcDbTextStyleTableRecord
  2
ARIAL_WIDE
 70
     0
 40
0.0
 41
1.25
 50
0.0
 71
     0
 42
0.2
  3
ARIAL.TTF
  4

1001
ACAD
1000
Arial
1071
       34
  0
ENDTAB
  0
TABLE
  2
VIEW
  5
6
330
0
100
AcDbSymbolTable
 70
     0
  0
ENDTAB
  0
TABLE
  2
UCS
  5
7
330
0
100
AcDbSymbolTable
 70
     0
  0
ENDTAB
  0
TABLE
  2
APPID
  5
9
330
0
100
AcDbSymbolTable
 70
     1
  0
APPID
  5
11
330
9
100
AcDbSymbolTableRecord
100
AcDbRegAppTableRecord
  2
ACAD
 70
     0
  0
ENDTAB
  0
TABLE
  2
DIMSTYLE
  5
A
330
0
100
AcDbSymbolTable
 70
     1
  0
DIMSTYLE
105
1C2
330
A
100
AcDbSymbolTableRecord
100
AcDbDimStyleTableRecord
  2
STANDARD
 70
     0
  3

  4

  5

  6

  7

 40
1.0
 41
0.18
 42
0.0625
 43
0.38
 44
0.18
 45
0.0
 46
0.0
 47
0.0
 48
0.0
140
0.18
141
0.09
142
0.0
143
25.4
144
1.0
145
0.0
146
1.0
147
0.09
 71
     0
 72
     0
 73
     1
 74
     1
 75
     0
 76
     0
 77
     0
 78
     0
170
     0
171
     2
172
     0
173
     0
174
     0
175
     0
176
     0
177
     0
178
     0
270
     2
271
     4
272
     4
273
     2
274
     2
340
10
275
     0
280
     0
281
     0
282
     0
283
     1
284
     0
285
     0
286
     0
287
     3
288
     0
  0
ENDTAB
  0
TABLE
  2
BLOCK_RECORD
  5
1
330
0
100
AcDbSymbolTable
 70
     5
  0
BLOCK_RECORD
  5
18
102
{ACAD_XDICTIONARY
360
226
102
}
330
1
100
AcDbSymbolTableRecord
100
AcDbBlockTableRecord
  2
*MODEL_SPACE
  0
BLOCK_RECORD
  5
15
102
{ACAD_XDICTIONARY
360
224
102
}
330
1
100
AcDbSymbolTableRecord
100
AcDbBlockTableRecord
  2
*PAPER_SPACE
  0
BLOCK_RECORD
  5
D1
330
1
100
AcDbSymbolTableRecord
100
AcDbBlockTableRecord
  2
6531
  0
BLOCK_RECORD
  5
14C
330
1
100
AcDbSymbolTableRecord
100
AcDbBlockTableRecord
  2
*D1
  0
BLOCK_RECORD
  5
14D
330
1
100
AcDbSymbolTableRecord
100
AcDbBlockTableRecord
  2
*D2
  0
BLOCK_RECORD
  5
14E
330
1
100
AcDbSymbolTableRecord
100
AcDbBlockTableRecord
  2
*D3
  0
BLOCK_RECORD
  5
14F
330
1
100
AcDbSymbolTableRecord
100
AcDbBlockTableRecord
  2
*D4
  0
ENDTAB
  0
ENDSEC
  0
SECTION
  2
BLOCKS
  0
BLOCK
  5
160
330
18
100
AcDbEntity
  8
0
100
AcDbBlockBegin
  2
*MODEL_SPACE
 70
     0
 10
0.0
 20
0.0
 30
0.0
  3
*MODEL_SPACE
  1

  0
ENDBLK
  5
161
330
18
100
AcDbEntity
  8
0
100
AcDbBlockEnd
  0
BLOCK
  5
15E
330
15
100
AcDbEntity
 67
     1
  8
0
100
AcDbBlockBegin
  2
*PAPER_SPACE
 70
     0
 10
0.0
 20
0.0
 30
0.0
  3
*PAPER_SPACE
  1

  0
ENDBLK
  5
15F
330
15
100
AcDbEntity
 67
     1
  8
0
100
AcDbBlockEnd
  0
BLOCK
  5
163
330
D1
100
AcDbEntity
  8
0
100
AcDbBlockBegin
  2
6531
 70
     0
 10
0.0
 20
0.0
 30
0.0
  3
6531
  1

  0
LINE
  5
164
330
D1
100
AcDbEntity
  8
0
100
AcDbLine
 10
0.7257325865940097
 20
0.4627543951491085
 30
0.0
 11
1.087064510167767
 21
0.4627543951491085
 31
0.0
  0
ARC
  5
165
330
D1
100
AcDbEntity
  8
0
100
AcDbCircle
 10
0.7250645101677656
 20
-1.302245604850892
 30
0.0
 40
2.0
100
AcDbArc
 50
70.91509803247429
 51
90.01572180048654
  0
LINE
  5
166
330
D1
100
AcDbEntity
  8
0
100
AcDbLine
 10
0.351966921450213
 20
0.4527543951491069
 30
0.0
 11
0.351966921450213
 21
0.2077543951491094
 31
0.0
  0
ARC
  5
167
330
D1
100
AcDbEntity
  8
0
100
AcDbCircle
 10
0.9254427748201088
 20
0.3387543951491096
 30
0.0
 40
0.95
100
AcDbArc
 50
170.8676153396335
 51
189.1182350401342
  0
ARC
  5
168
330
D1
100
AcDbEntity
  8
0
100
AcDbCircle
 10
0.724515715808991
 20
1.979754395149107
 30
0.0
 40
2.0
100
AcDbArc
 50
250.8963068687776
 51
258.3734361054359
  0
ARC
  5
169
330
D1
100
AcDbEntity
  8
0
100
AcDbCircle
 10
0.1108679523945142
 20
0.2080147352508455
 30
0.0
 40
0.125
100
AcDbArc
 50
189.1182350401342
 51
250.8963068687771
  0
LINE
  5
16A
330
D1
100
AcDbEntity
  8
0
100
AcDbLine
 10
0.5944669214502128
 20
0.0727543951491079
 30
0.0
 11
0.3434669214502151
 21
0.0727543951491079
 31
0.0
  0
LINE
  5
16B
330
D1
100
AcDbEntity
  8
0
100
AcDbLine
 10
0.3619669214502146
 20
0.1977543951491078
 30
0.0
 11
0.573466921450212
 21
0.1977543951491078
 31
0.0
  0
ARC
  5
16C
330
D1
100
AcDbEntity
  8
0
100
AcDbCircle
 10
0.3619669214502146
 20
0.2077543951491094
 30
0.0
 40
0.01
100
AcDbArc
 50
180.0
 51
270.0
  0
ARC
  5
16D
330
D1
100
AcDbEntity
  8
0
100
AcDbCircle
 10
0.3234669214502119
 20
0.0305853761711816
 30
0.0
 40
0.01
100
AcDbArc
 50
258.3734361054343
 51
0.0
  0
LINE
  5
16E
330
D1
100
AcDbEntity
  8
0
100
AcDbLine
 10
0.3334669214502135
 20
0.0627543951491063
 30
0.0
 11
0.3334669214502135
 21
0.0305853761711816
 31
0.0
  0
ARC
  5
16F
330
D1
100
AcDbEntity
  8
0
100
AcDbCircle
 10
0.3434669214502151
 20
0.0627543951491063
 30
0.0
 40
0.01
100
AcDbArc
 50
90.0
 51
180.0
  0
ARC
  5
170
330
D1
100
AcDbEntity
  8
0
100
AcDbCircle
 10
0.573466921450212
 20
0.1667543951491091
 30
0.0
 40
0.031
100
AcDbArc
 50
0.0
 51
90.0
  0
ARC
  5
171
330
D1
100
AcDbEntity
  8
0
100
AcDbCircle
 10
0.5944669214502128
 20
0.0827543951491094
 30
0.0
 40
0.01
100
AcDbArc
 50
270.0
 51
0.0000000000000254
  0
LINE
  5
172
330
D1
100
AcDbEntity
  8
0
100
AcDbLine
 10
0.6044669214502143
 20
0.1667543951491091
 30
0.0
 11
0.6044669214502143
 21
0.0827543951491094
 31
0.0
  0
ARC
  5
173
330
D1
100
AcDbEntity
  8
0
100
AcDbCircle
 10
0.7239669214502129
 20
-1.302245604850892
 30
0.0
 40
2.0
100
AcDbArc
 50
89.98427819951345
 51
109.0849019675257
  0
ARC
  5
174
330
D1
100
AcDbEntity
  8
0
100
AcDbCircle
 10
0.1109002643682828
 20
0.4696952163884589
 30
0.0
 40
0.125
100
AcDbArc
 50
109.0849019675253
 51
170.8676153396335
  0
LINE
  5
175
330
D1
100
AcDbEntity
  8
0
100
AcDbLine
 10
0.7232988450239688
 20
0.4627543951491085
 30
0.0
 11
0.3619669214502146
 21
0.4627543951491085
 31
0.0
  0
ARC
  5
176
330
D1
100
AcDbEntity
  8
0
100
AcDbCircle
 10
0.3619669214502146
 20
0.4527543951491069
 30
0.0
 40
0.01
100
AcDbArc
 50
90.0
 51
180.0
  0
ARC
  5
177
330
D1
100
AcDbEntity
  8
0
100
AcDbCircle
 10
0.5235886567978732
 20
0.3387543951491096
 30
0.0
 40
0.95
100
AcDbArc
 50
350.8817649598658
 51
9.13238466036644
  0
LINE
  5
178
330
D1
100
AcDbEntity
  8
0
100
AcDbLine
 10
1.097064510167768
 20
0.4527543951491069
 30
0.0
 11
1.097064510167768
 21
0.2077543951491094
 31
0.0
  0
ARC
  5
179
330
D1
100
AcDbEntity
  8
0
100
AcDbCircle
 10
0.724515715808991
 20
1.979754395149107
 30
0.0
 40
2.0
100
AcDbArc
 50
281.626563894564
 51
289.1036931312223
  0
LINE
  5
17A
330
D1
100
AcDbEntity
  8
0
100
AcDbLine
 10
1.087064510167767
 20
0.1977543951491078
 30
0.0
 11
0.8755645101677664
 21
0.1977543951491078
 31
0.0
  0
LINE
  5
17B
330
D1
100
AcDbEntity
  8
0
100
AcDbLine
 10
0.8545645101677656
 20
0.0727543951491079
 30
0.0
 11
1.105564510167766
 21
0.0727543951491079
 31
0.0
  0
ARC
  5
17C
330
D1
100
AcDbEntity
  8
0
100
AcDbCircle
 10
0.8755645101677664
 20
0.1667543951491091
 30
0.0
 40
0.031
100
AcDbArc
 50
90.0
 51
180.0
  0
ARC
  5
17D
330
D1
100
AcDbEntity
  8
0
100
AcDbCircle
 10
0.8545645101677656
 20
0.0827543951491094
 30
0.0
 40
0.01
100
AcDbArc
 50
179.9999999999999
 51
270.0
  0
LINE
  5
17E
330
D1
100
AcDbEntity
  8
0
100
AcDbLine
 10
0.8445645101677676
 20
0.1667543951491091
 30
0.0
 11
0.8445645101677676
 21
0.0827543951491094
 31
0.0
  0
ARC
  5
17F
330
D1
100
AcDbEntity
  8
0
100
AcDbCircle
 10
1.087064510167767
 20
0.2077543951491094
 30
0.0
 40
0.01
100
AcDbArc
 50
270.0
 51
0.000000000000007
  0
ARC
  5
180
330
D1
100
AcDbEntity
  8
0
100
AcDbCircle
 10
1.105564510167766
 20
0.0627543951491063
 30
0.0
 40
0.01
100
AcDbArc
 50
0.000000000000007
 51
90.0
  0
LINE
  5
181
330
D1
100
AcDbEntity
  8
0
100
AcDbLine
 10
1.115564510167768
 20
0.0627543951491063
 30
0.0
 11
1.115564510167768
 21
0.0305853761711816
 31
0.0
  0
ARC
  5
182
330
D1
100
AcDbEntity
  8
0
100
AcDbCircle
 10
1.125564510167766
 20
0.0305853761711816
 30
0.0
 40
0.01
100
AcDbArc
 50
180.0
 51
281.6265638945655
  0
ARC
  5
183
330
D1
100
AcDbEntity
  8
0
100
AcDbCircle
 10
1.338163479223464
 20
0.2080147352508455
 30
0.0
 40
0.125
100
AcDbArc
 50
289.1036931312228
 51
350.8817649598658
  0
ARC
  5
184
330
D1
100
AcDbEntity
  8
0
100
AcDbCircle
 10
1.087064510167767
 20
0.4527543951491069
 30
0.0
 40
0.01
100
AcDbArc
 50
0.000000000000007
 51
90.0
  0
ARC
  5
185
330
D1
100
AcDbEntity
  8
0
100
AcDbCircle
 10
1.338131167249699
 20
0.4696952163884589
 30
0.0
 40
0.125
100
AcDbArc
 50
9.13238466036649
 51
70.91509803247467
  0
ENDBLK
  5
186
330
D1
100
AcDbEntity
  8
0
100
AcDbBlockEnd
  0
BLOCK
  5
187
330
14C
100
AcDbEntity
  8
0
100
AcDbBlockBegin
  2
*D1
 70
     1
 10
0.0
 20
0.0
 30
0.0
  3
*D1
  1

  0
LINE
  5
188
330
14C
100
AcDbEntity
  8
0
  6
BYBLOCK
 62
     0
100
AcDbLine
 10
31.5919690132645
 20
6.064857335478648
 30
0.0
 11
31.5919690132645
 21
5.597327819678905
 31
0.0
  0
LINE
  5
189
330
14C
100
AcDbEntity
  8
0
  6
BYBLOCK
 62
     0
100
AcDbLine
 10
32.37113766979392
 20
6.088012912779475
 30
0.0
 11
32.37113766979392
 21
5.597327819678905
 31
0.0
  0
LINE
  5
18A
330
14C
100
AcDbEntity
  8
0
  6
BYBLOCK
 62
     0
100
AcDbLine
 10
31.5919690132645
 20
5.777327819678904
 30
0.0
 11
31.3419690132645
 21
5.777327819678904
 31
0.0
  0
LINE
  5
18B
330
14C
100
AcDbEntity
  8
0
  6
BYBLOCK
 62
     0
100
AcDbLine
 10
32.37113766979392
 20
5.777327819678904
 30
0.0
 11
32.62113766979392
 21
5.777327819678904
 31
0.0
  0
LINE
  5
18C
330
14C
100
AcDbEntity
  8
0
  6
BYBLOCK
 62
     0
100
AcDbLine
 10
31.4669690132645
 20
5.652327819678904
 30
0.0
 11
31.7169690132645
 21
5.902327819678904
 31
0.0
  0
LINE
  5
18D
330
14C
100
AcDbEntity
  8
0
  6
BYBLOCK
 62
     0
100
AcDbLine
 10
32.24613766979392
 20
5.652327819678904
 30
0.0
 11
32.49613766979392
 21
5.902327819678904
 31
0.0
  0
TEXT
  5
18E
330
14C
100
AcDbEntity
  8
0
  6
BYBLOCK
 62
     0
100
AcDbText
 10
32.74613766979392
 20
5.714827819678904
 30
0.0
 40
0.125
  1
3/4
 72
     1
 11
32.91280433646059
 21
5.777327819678904
 31
0.0
100
AcDbText
 73
     2
  0
POINT
  5
18F
330
14C
100
AcDbEntity
  8
DEFPOINTS
  6
BYBLOCK
 62
     0
100
AcDbPoint
 10
31.5919690132645
 20
6.127357335478648
 30
0.0
  0
POINT
  5
190
330
14C
100
AcDbEntity
  8
DEFPOINTS
  6
BYBLOCK
 62
     0
100
AcDbPoint
 10
32.37113766979392
 20
6.150512912779475
 30
0.0
  0
POINT
  5
191
330
14C
100
AcDbEntity
  8
DEFPOINTS
  6
BYBLOCK
 62
     0
100
AcDbPoint
 10
32.37113766979392
 20
5.777327819678904
 30
0.0
  0
ENDBLK
  5
192
330
14C
100
AcDbEntity
  8
0
100
AcDbBlockEnd
  0
BLOCK
  5
193
330
14D
100
AcDbEntity
  8
0
100
AcDbBlockBegin
  2
*D2
 70
     1
 10
0.0
 20
0.0
 30
0.0
  3
*D2
  1

  0
LINE
  5
194
330
14D
100
AcDbEntity
  8
0
  6
BYBLOCK
 62
     0
100
AcDbLine
 10
32.71343835519176
 20
6.679713181175745
 30
0.0
 11
32.71343835519176
 21
7.162718281505415
 31
0.0
  0
LINE
  5
195
330
14D
100
AcDbEntity
  8
0
  6
BYBLOCK
 62
     0
100
AcDbLine
 10
31.23937638853706
 20
6.679713181175741
 30
0.0
 11
31.23937638853706
 21
7.162718281505415
 31
0.0
  0
LINE
  5
196
330
14D
100
AcDbEntity
  8
0
  6
BYBLOCK
 62
     0
100
AcDbLine
 10
32.71343835519176
 20
6.982718281505415
 30
0.0
 11
32.35140737186441
 21
6.982718281505415
 31
0.0
  0
LINE
  5
197
330
14D
100
AcDbEntity
  8
0
  6
BYBLOCK
 62
     0
100
AcDbLine
 10
31.23937638853706
 20
6.982718281505415
 30
0.0
 11
31.60140737186441
 21
6.982718281505415
 31
0.0
  0
LINE
  5
198
330
14D
100
AcDbEntity
  8
0
  6
BYBLOCK
 62
     0
100
AcDbLine
 10
32.58843835519176
 20
6.857718281505415
 30
0.0
 11
32.83843835519176
 21
7.107718281505415
 31
0.0
  0
LINE
  5
199
330
14D
100
AcDbEntity
  8
0
  6
BYBLOCK
 62
     0
100
AcDbLine
 10
31.11437638853706
 20
6.857718281505415
 30
0.0
 11
31.36437638853706
 21
7.107718281505415
 31
0.0
  0
TEXT
  5
19A
330
14D
100
AcDbEntity
  8
0
  6
BYBLOCK
 62
     0
100
AcDbText
 10
31.72640737186441
 20
6.920218281505415
 30
0.0
 40
0.125
  1
1 1/2
 72
     1
 11
31.97640737186441
 21
6.982718281505415
 31
0.0
100
AcDbText
 73
     2
  0
POINT
  5
19B
330
14D
100
AcDbEntity
  8
DEFPOINTS
  6
BYBLOCK
 62
     0
100
AcDbPoint
 10
32.71343835519176
 20
6.617213181175745
 30
0.0
  0
POINT
  5
19C
330
14D
100
AcDbEntity
  8
DEFPOINTS
  6
BYBLOCK
 62
     0
100
AcDbPoint
 10
31.23937638853706
 20
6.617213181175741
 30
0.0
  0
POINT
  5
19D
330
14D
100
AcDbEntity
  8
DEFPOINTS
  6
BYBLOCK
 62
     0
100
AcDbPoint
 10
31.23937638853706
 20
6.982718281505415
 30
0.0
  0
ENDBLK
  5
19E
330
14D
100
AcDbEntity
  8
0
100
AcDbBlockEnd
  0
BLOCK
  5
19F
330
14E
100
AcDbEntity
  8
0
100
AcDbBlockBegin
  2
*D3
 70
     1
 10
0.0
 20
0.0
 30
0.0
  3
*D3
  1

  0
LINE
  5
1A0
330
14E
100
AcDbEntity
  8
0
  6
BYBLOCK
 62
     0
100
AcDbLine
 10
35.90555811798039
 20
10.33943436009523
 30
0.0
 11
34.32716341888041
 21
10.33943436009523
 31
0.0
  0
LINE
  5
1A1
330
14E
100
AcDbEntity
  8
0
  6
BYBLOCK
 62
     0
100
AcDbLine
 10
33.03870202515427
 20
7.831369649056973
 30
0.0
 11
34.68716341888041
 21
7.831369649056973
 31
0.0
  0
LINE
  5
1A2
330
14E
100
AcDbEntity
  8
0
  6
BYBLOCK
 62
     0
100
AcDbLine
 10
34.50716341888041
 20
10.33943436009523
 30
0.0
 11
34.50716341888041
 21
9.481235337909438
 31
0.0
  0
LINE
  5
1A3
330
14E
100
AcDbEntity
  8
0
  6
BYBLOCK
 62
     0
100
AcDbLine
 10
34.50716341888041
 20
7.831369649056973
 30
0.0
 11
34.50716341888041
 21
8.689568671242771
 31
0.0
  0
LINE
  5
1A4
330
14E
100
AcDbEntity
  8
0
  6
BYBLOCK
 62
     0
100
AcDbLine
 10
34.63216341888041
 20
10.21443436009523
 30
0.0
 11
34.38216341888041
 21
10.46443436009523
 31
0.0
  0
LINE
  5
1A5
330
14E
100
AcDbEntity
  8
0
  6
BYBLOCK
 62
     0
100
AcDbLine
 10
34.63216341888041
 20
7.706369649056973
 30
0.0
 11
34.38216341888041
 21
7.956369649056973
 31
0.0
  0
TEXT
  5
1A6
330
14E
100
AcDbEntity
  8
0
  6
BYBLOCK
 62
     0
100
AcDbText
 10
34.5696634188804
 20
8.814568671242771
 30
0.0
 40
0.125
  1
2 1/2
 50
90.0
 72
     1
 11
34.50716341888041
 21
9.085402004576105
 31
0.0
100
AcDbText
 73
     2
  0
POINT
  5
1A7
330
14E
100
AcDbEntity
  8
DEFPOINTS
  6
BYBLOCK
 62
     0
100
AcDbPoint
 10
35.96805811798039
 20
10.33943436009523
 30
0.0
  0
POINT
  5
1A8
330
14E
100
AcDbEntity
  8
DEFPOINTS
  6
BYBLOCK
 62
     0
100
AcDbPoint
 10
32.97620202515427
 20
7.831369649056973
 30
0.0
  0
POINT
  5
1A9
330
14E
100
AcDbEntity
  8
DEFPOINTS
  6
BYBLOCK
 62
     0
100
AcDbPoint
 10
34.50716341888041
 20
7.831369649056973
 30
0.0
  0
ENDBLK
  5
1AA
330
14E
100
AcDbEntity
  8
0
100
AcDbBlockEnd
  0
BLOCK
  5
1AB
330
14F
100
AcDbEntity
  8
0
100
AcDbBlockBegin
  2
*D4
 70
     1
 10
0.0
 20
0.0
 30
0.0
  3
*D4
  1

  0
LINE
  5
1AC
330
14F
100
AcDbEntity
  8
0
  6
BYBLOCK
 62
     0
100
AcDbLine
 10
33.0993805619356
 20
13.11034729109565
 30
0.0
 11
35.9680581179804
 21
10.33943436009524
 31
0.0
  0
LINE
  5
1AD
330
14F
100
AcDbEntity
  8
0
  6
BYBLOCK
 62
     0
100
AcDbLine
 10
32.92263042281162
 20
13.10728325459909
 30
0.0
 11
33.27613070105958
 21
13.11341132759222
 31
0.0
  0
TEXT
  5
1AE
330
14F
100
AcDbEntity
  8
0
  6
BYBLOCK
 62
     0
100
AcDbText
 10
36.01454368013381
 20
10.20763776487639
 30
0.0
 40
0.125
  1
R4
 50
315.9931464705259
 72
     1
 11
36.1328877789659
 21
10.18022209935343
 31
0.0
100
AcDbText
 73
     2
  0
POINT
  5
1AF
330
14F
100
AcDbEntity
  8
DEFPOINTS
  6
BYBLOCK
 62
     0
100
AcDbPoint
 10
33.0993805619356
 20
13.11034729109565
 30
0.0
  0
POINT
  5
1B0
330
14F
100
AcDbEntity
  8
DEFPOINTS
  6
BYBLOCK
 62
     0
100
AcDbPoint
 10
35.97640737186441
 20
10.33136964905698
 30
0.0
  0
ENDBLK
  5
1B1
330
14F
100
AcDbEntity
  8
0
100
AcDbBlockEnd
  0
ENDSEC
  0
SECTION
  2
ENTITIES
  0
ARC
  5
1B2
330
18
100
AcDbEntity
  8
ADP1DETAIL
100
AcDbCircle
 10
35.96178570927493
 20
10.33742614000597
 30
0.0
 40
3.244189966965403
100
AcDbArc
 50
89.7417653094677
 51
180.1069640110903
  0
DIMENSION
  5
1B3
330
18
100
AcDbEntity
  8
ADPDIM
100
AcDbDimension
  2
*D1
 10
32.37113766979392
 20
5.777327819678904
 30
0.0
 11
32.91280433646059
 21
5.777327819678904
 31
0.0
100
AcDbAlignedDimension
 13
31.5919690132645
 23
6.127357335478648
 33
0.0
 14
32.37113766979392
 24
6.150512912779475
 34
0.0
100
AcDbRotatedDimension
  0
ARC
  5
1B4
330
18
100
AcDbEntity
  8
ADP3DETAIL
  6
CENTER2
100
AcDbCircle
 10
35.97640737186441
 20
10.33136964905697
 30
0.0
 40
4.0
100
AcDbArc
 50
90.0
 51
180.0
  0
ARC
  5
1B5
330
18
100
AcDbEntity
  8
ADP1DETAIL
100
AcDbCircle
 10
35.97640737186441
 20
10.33136964905696
 30
0.0
 40
4.736256490178391
100
AcDbArc
 50
90.00000000000007
 51
179.9999999999999
  0
LINE
  5
1B6
330
18
100
AcDbEntity
  8
ADP1DETAIL
100
AcDbLine
 10
32.71760139566444
 20
10.33136964905697
 30
0.0
 11
32.71760139566444
 21
7.831369649056973
 31
0.0
  0
LINE
  5
1B7
330
18
100
AcDbEntity
  8
ADP3DETAIL
  6
CENTER2
100
AcDbLine
 10
31.97640737186441
 20
10.33136964905697
 30
0.0
 11
31.97640737186441
 21
7.686632926233506
 31
0.0
  0
LINE
  5
1B8
330
18
100
AcDbEntity
  8
ADP1DETAIL
100
AcDbLine
 10
31.24015088168603
 20
7.831369649056973
 30
0.0
 11
31.24015088168603
 21
10.33136964905697
 31
0.0
  0
DIMENSION
  5
1B9
330
18
100
AcDbEntity
  8
ADPDIM
100
AcDbDimension
  2
*D2
 10
31.23937638853706
 20
6.982718281505415
 30
0.0
 11
31.97640737186441
 21
6.982718281505415
 31
0.0
100
AcDbAlignedDimension
 13
32.71343835519176
 23
6.617213181175745
 33
0.0
 14
31.23937638853706
 24
6.617213181175741
 34
0.0
100
AcDbRotatedDimension
  0
INSERT
  5
1BA
330
18
100
AcDbEntity
  8
ADP1DETAIL
100
AcDbBlockReference
  2
6531
 10
31.25189165605542
 20
6.127678446417685
 30
0.0
  0
LINE
  5
1BB
330
18
100
AcDbEntity
  8
ADP1DETAIL
100
AcDbLine
 10
32.71760139566444
 20
7.831369649056973
 30
0.0
 11
31.24015088168603
 21
7.831369649056973
 31
0.0
  0
LINE
  5
1BC
330
18
100
AcDbEntity
  8
ADP1DETAIL
100
AcDbLine
 10
38.47640737186441
 20
15.08158315666563
 30
0.0
 11
38.47640737186441
 21
13.58158315666563
 31
0.0
  0
LINE
  5
1BD
330
18
100
AcDbEntity
  8
ADP3DETAIL
  6
CENTER2
100
AcDbLine
 10
38.70774979144093
 20
14.33136964905697
 30
0.0
 11
35.97640737186441
 21
14.33136964905697
 31
0.0
  0
LINE
  5
1BE
330
18
100
AcDbEntity
  8
ADP1DETAIL
100
AcDbLine
 10
38.47640737186441
 20
13.58158315666563
 30
0.0
 11
35.97640737186441
 21
13.58158315666563
 31
0.0
  0
DIMENSION
  5
1BF
330
18
100
AcDbEntity
  8
ADPDIM
100
AcDbDimension
  2
*D3
 10
34.50716341888041
 20
7.831369649056973
 30
0.0
 11
34.50716341888041
 21
9.085402004576105
 31
0.0
100
AcDbAlignedDimension
 13
35.96805811798039
 23
10.33943436009523
 33
0.0
 14
32.97620202515427
 24
7.831369649056973
 34
0.0
 50
90.0
100
AcDbRotatedDimension
  0
DIMENSION
  5
1C0
330
18
100
AcDbEntity
  8
ADPDIM
100
AcDbDimension
  2
*D4
 10
35.97640737186441
 20
10.33136964905698
 30
0.0
 11
36.1328877789659
 21
10.18022209935343
 31
0.0
 70
     4
100
AcDbRadialDimension
 15
33.0993805619356
 25
13.11034729109565
 35
0.0
 40
-3.988391830266988
  0
LINE
  5
1C1
330
18
100
AcDbEntity
  8
ADP1DETAIL
100
AcDbLine
 10
35.97640737186441
 20
15.08158315666563
 30
0.0
 11
38.47640737186441
 21
15.08158315666563
 31
0.0
  0
TEXT
  5
1D2
330
18
100
AcDbEntity
  8
ADPDIM
100
AcDbText
 10
24.58580953561744
 20
4.935873782597786
 30
0.0
 40
0.1875
  1
J U L I U S  B L U M  &  C O . ,  I N C .      ( 8 0 0 )  5 2 6 - 6 2 9 3        W W W . J U L I U S B L U M . C O M        P A R T  N o .  6 5 3 1 - C
 41
1.25
  7
ARIAL_WIDE
 72
     1
 11
34.63811491590394
 21
5.123373782597786
 31
0.0
100
AcDbText
 73
     3
  0
ENDSEC
  0
SECTION
  2
OBJECTS
  0
DICTIONARY
  5
C
330
0
100
AcDbDictionary
  3
ACAD_GROUP
350
D
  3
ACAD_LAYOUT
350
1CB
  3
ACAD_MLINESTYLE
350
E
  3
ACAD_PLOTSETTINGS
350
1CC
  3
ACAD_PLOTSTYLENAME
350
1C9
  3
ACDBHEADERROUNDTRIPXREC
350
316
  3
ACDBVARIABLEDICTIONARY
350
22C
  0
DICTIONARY
  5
226
330
18
100
AcDbDictionary
280
     1
  3
ACAD_LAYOUTSELFREF
360
337
  0
DICTIONARY
  5
224
330
15
100
AcDbDictionary
280
     1
  3
ACAD_LAYOUTSELFREF
360
336
  0
DICTIONARY
  5
D
102
{ACAD_REACTORS
330
C
102
}
330
C
100
AcDbDictionary
  0
DICTIONARY
  5
1CB
102
{ACAD_REACTORS
330
C
102
}
330
C
100
AcDbDictionary
  0
DICTIONARY
  5
E
102
{ACAD_REACTORS
330
C
102
}
330
C
100
AcDbDictionary
  3
STANDARD
350
1B
  0
DICTIONARY
  5
1CC
102
{ACAD_REACTORS
330
C
102
}
330
C
100
AcDbDictionary
  0
ACDBDICTIONARYWDFLT
  5
1C9
102
{ACAD_REACTORS
330
C
102
}
330
C
100
AcDbDictionary
281
     1
  3
Normal
350
1CA
100
AcDbDictionaryWithDefault
340
1CA
  0
DICTIONARY
  5
316
102
{ACAD_REACTORS
330
C
102
}
330
C
100
AcDbDictionary
  3
CEPSNTYPE
350
320
  3
FINGERPRINTGUID
350
321
  3
HYPERLINKBASE
350
319
  3
INSUNITS
350
31F
  3
LAYOUTDICT
350
31B
  3
LWETCUNION
350
31E
  3
PLOTSETDICT
350
31C
  3
PLOTSTYLNAMDICT
350
31D
  3
PSVPSCALE
350
323
  3
PUCSBASE
350
326
  3
PUCSORGBACK
350
32C
  3
PUCSORGBOTTOM
350
328
  3
PUCSORGFRONT
350
32B
  3
PUCSORGLEFT
350
329
  3
PUCSORGRIGHT
350
32A
  3
PUCSORGTOP
350
327
  3
PUCSORTHOREF
350
324
  3
PUCSORTHOVIEW
350
325
  3
STYLESHEET
350
31A
  3
TSTACKALIGN
350
317
  3
TSTACKSIZE
350
318
  3
UCSBASE
350
32F
  3
UCSORGBACK
350
335
  3
UCSORGBOTTOM
350
331
  3
UCSORGFRONT
350
334
  3
UCSORGLEFT
350
332
  3
UCSORGRIGHT
350
333
  3
UCSORGTOP
350
330
  3
UCSORTHOREF
350
32D
  3
UCSORTHOVIEW
350
32E
  3
VERSIONGUID
350
322
  0
DICTIONARY
  5
22C
102
{ACAD_REACTORS
330
C
102
}
330
C
100
AcDbDictionary
  3
DIMASSOC
350
22D
  0
XRECORD
  5
337
102
{ACAD_REACTORS
330
226
102
}
330
226
100
AcDbXrecord
340
18
  0
XRECORD
  5
336
102
{ACAD_REACTORS
330
224
102
}
330
224
100
AcDbXrecord
340
15
  0
MLINESTYLE
  5
1B
102
{ACAD_REACTORS
330
E
102
}
330
E
100
AcDbMlineStyle
  2
STANDARD
 70
     0
  3

 62
     0
 51
90.0
 52
90.0
 71
     2
 49
0.5
 62
   256
  6
BYLAYER
 49
-0.5
 62
   256
  6
BYLAYER
  0
ACDBPLACEHOLDER
  5
1CA
102
{ACAD_REACTORS
330
1C9
102
}
330
1C9
100
AcDbPlaceHolder
280
     0
  0
XRECORD
  5
320
102
{ACAD_REACTORS
330
316
102
}
330
316
100
AcDbXrecord
 90
        0
  0
XRECORD
  5
321
102
{ACAD_REACTORS
330
316
102
}
330
316
100
AcDbXrecord
  1
{B523A906-F3C8-4A91-8EB4-482A846C13E3}
  0
XRECORD
  5
319
102
{ACAD_REACTORS
330
316
102
}
330
316
100
AcDbXrecord
  1

  0
XRECORD
  5
31F
102
{ACAD_REACTORS
330
316
102
}
330
316
100
AcDbXrecord
 90
        0
  0
XRECORD
  5
31B
102
{ACAD_REACTORS
330
316
102
}
330
316
100
AcDbXrecord
340
1CB
  0
XRECORD
  5
31E
102
{ACAD_REACTORS
330
316
102
}
330
316
100
AcDbXrecord
 90
    14877
  0
XRECORD
  5
31C
102
{ACAD_REACTORS
330
316
102
}
330
316
100
AcDbXrecord
340
1CC
  0
XRECORD
  5
31D
102
{ACAD_REACTORS
330
316
102
}
330
316
100
AcDbXrecord
340
1C9
  0
XRECORD
  5
323
102
{ACAD_REACTORS
330
316
102
}
330
316
100
AcDbXrecord
 40
0.0
  0
XRECORD
  5
326
102
{ACAD_REACTORS
330
316
102
}
330
316
100
AcDbXrecord
340
0
  0
XRECORD
  5
32C
102
{ACAD_REACTORS
330
316
102
}
330
316
100
AcDbXrecord
 10
0.0
 20
0.0
 30
0.0
  0
XRECORD
  5
328
102
{ACAD_REACTORS
330
316
102
}
330
316
100
AcDbXrecord
 10
0.0
 20
0.0
 30
0.0
  0
XRECORD
  5
32B
102
{ACAD_REACTORS
330
316
102
}
330
316
100
AcDbXrecord
 10
0.0
 20
0.0
 30
0.0
  0
XRECORD
  5
329
102
{ACAD_REACTORS
330
316
102
}
330
316
100
AcDbXrecord
 10
0.0
 20
0.0
 30
0.0
  0
XRECORD
  5
32A
102
{ACAD_REACTORS
330
316
102
}
330
316
100
AcDbXrecord
 10
0.0
 20
0.0
 30
0.0
  0
XRECORD
  5
327
102
{ACAD_REACTORS
330
316
102
}
330
316
100
AcDbXrecord
 10
0.0
 20
0.0
 30
0.0
  0
XRECORD
  5
324
102
{ACAD_REACTORS
330
316
102
}
330
316
100
AcDbXrecord
340
0
  0
XRECORD
  5
325
102
{ACAD_REACTORS
330
316
102
}
330
316
100
AcDbXrecord
 70
     0
  0
XRECORD
  5
31A
102
{ACAD_REACTORS
330
316
102
}
330
316
100
AcDbXrecord
  1

  0
XRECORD
  5
317
102
{ACAD_REACTORS
330
316
102
}
330
316
100
AcDbXrecord
 90
        1
  0
XRECORD
  5
318
102
{ACAD_REACTORS
330
316
102
}
330
316
100
AcDbXrecord
 90
       70
  0
XRECORD
  5
32F
102
{ACAD_REACTORS
330
316
102
}
330
316
100
AcDbXrecord
340
0
  0
XRECORD
  5
335
102
{ACAD_REACTORS
330
316
102
}
330
316
100
AcDbXrecord
 10
0.0
 20
0.0
 30
0.0
  0
XRECORD
  5
331
102
{ACAD_REACTORS
330
316
102
}
330
316
100
AcDbXrecord
 10
0.0
 20
0.0
 30
0.0
  0
XRECORD
  5
334
102
{ACAD_REACTORS
330
316
102
}
330
316
100
AcDbXrecord
 10
0.0
 20
0.0
 30
0.0
  0
XRECORD
  5
332
102
{ACAD_REACTORS
330
316
102
}
330
316
100
AcDbXrecord
 10
0.0
 20
0.0
 30
0.0
  0
XRECORD
  5
333
102
{ACAD_REACTORS
330
316
102
}
330
316
100
AcDbXrecord
 10
0.0
 20
0.0
 30
0.0
  0
XRECORD
  5
330
102
{ACAD_REACTORS
330
316
102
}
330
316
100
AcDbXrecord
 10
0.0
 20
0.0
 30
0.0
  0
XRECORD
  5
32D
102
{ACAD_REACTORS
330
316
102
}
330
316
100
AcDbXrecord
340
0
  0
XRECORD
  5
32E
102
{ACAD_REACTORS
330
316
102
}
330
316
100
AcDbXrecord
 70
     0
  0
XRECORD
  5
322
102
{ACAD_REACTORS
330
316
102
}
330
316
100
AcDbXrecord
  1
{8FABF7CB-7811-48F4-A347-264C9A5DE775}
  0
DICTIONARYVAR
  5
22D
102
{ACAD_REACTORS
330
22C
102
}
330
22C
100
DictionaryVariables
280
     0
  1
1
  0
ENDSEC
  0
EOF
