  0
SECTION
  2
HEADER
  9
$ACADVER
  1
AC1014
  9
$ACADMAINTVER
 70
     9
  9
$DWGCODEPAGE
  3
ANSI_1252
  9
$INSBASE
 10
21.8422753093012
 20
7.370279801082372
 30
0.0
  9
$EXTMIN
 10
13.32575870965714
 20
5.043756748987965
 30
0.0
  9
$EXTMAX
 10
33.43036947023013
 20
15.90606158242141
 30
0.0
  9
$LIMMIN
 10
0.0
 20
0.0
  9
$LIMMAX
 10
36.0
 20
36.0
  9
$ORTHOMODE
 70
     1
  9
$REGENMODE
 70
     1
  9
$FILLMODE
 70
     1
  9
$QTEXTMODE
 70
     0
  9
$MIRRTEXT
 70
     1
  9
$DRAGMODE
 70
     0
  9
$LTSCALE
 40
1.0
  9
$OSMODE
 70
    37
  9
$ATTMODE
 70
     1
  9
$TEXTSIZE
 40
0.2
  9
$TRACEWID
 40
0.05
  9
$TEXTSTYLE
  7
STANDARD
  9
$CLAYER
  8
0
  9
$CELTYPE
  6
BYLAYER
  9
$CECOLOR
 62
   256
  9
$CELTSCALE
 40
1.0
  9
$DELOBJ
 70
     1
  9
$DISPSILH
 70
     0
  9
$DIMSCALE
 40
1.0
  9
$DIMASZ
 40
0.125
  9
$DIMEXO
 40
0.0625
  9
$DIMDLI
 40
0.38
  9
$DIMRND
 40
0.0
  9
$DIMDLE
 40
0.0
  9
$DIMEXE
 40
0.18
  9
$DIMTP
 40
0.0
  9
$DIMTM
 40
0.0
  9
$DIMTXT
 40
0.125
  9
$DIMCEN
 40
0.1875
  9
$DIMTSZ
 40
0.125
  9
$DIMTOL
 70
     0
  9
$DIMLIM
 70
     0
  9
$DIMTIH
 70
     0
  9
$DIMTOH
 70
     0
  9
$DIMSE1
 70
     0
  9
$DIMSE2
 70
     0
  9
$DIMTAD
 70
     0
  9
$DIMZIN
 70
     3
  9
$DIMBLK
  1

  9
$DIMASO
 70
     1
  9
$DIMSHO
 70
     1
  9
$DIMPOST
  1

  9
$DIMAPOST
  1

  9
$DIMALT
 70
     0
  9
$DIMALTD
 70
     1
  9
$DIMALTF
 40
25.4
  9
$DIMLFAC
 40
1.0
  9
$DIMTOFL
 70
     0
  9
$DIMTVP
 40
0.0
  9
$DIMTIX
 70
     0
  9
$DIMSOXD
 70
     0
  9
$DIMSAH
 70
     0
  9
$DIMBLK1
  1

  9
$DIMBLK2
  1

  9
$DIMSTYLE
  2
STANDARD
  9
$DIMCLRD
 70
     0
  9
$DIMCLRE
 70
     0
  9
$DIMCLRT
 70
     0
  9
$DIMTFAC
 40
1.0
  9
$DIMGAP
 40
0.125
  9
$DIMJUST
 70
     0
  9
$DIMSD1
 70
     0
  9
$DIMSD2
 70
     0
  9
$DIMTOLJ
 70
     1
  9
$DIMTZIN
 70
     0
  9
$DIMALTZ
 70
     0
  9
$DIMALTTZ
 70
     0
  9
$DIMFIT
 70
     3
  9
$DIMUPT
 70
     0
  9
$DIMUNIT
 70
     2
  9
$DIMDEC
 70
     4
  9
$DIMTDEC
 70
     4
  9
$DIMALTU
 70
     2
  9
$DIMALTTD
 70
     2
  9
$DIMTXSTY
  7
STANDARD
  9
$DIMAUNIT
 70
     0
  9
$LUNITS
 70
     5
  9
$LUPREC
 70
     4
  9
$SKETCHINC
 40
0.1
  9
$FILLETRAD
 40
0.187
  9
$AUNITS
 70
     0
  9
$AUPREC
 70
     0
  9
$MENU
  1
acad
  9
$ELEVATION
 40
0.0
  9
$PELEVATION
 40
0.0
  9
$THICKNESS
 40
0.0
  9
$LIMCHECK
 70
     0
  9
$BLIPMODE
 70
     0
  9
$CHAMFERA
 40
0.0
  9
$CHAMFERB
 40
0.0
  9
$CHAMFERC
 40
0.0
  9
$CHAMFERD
 40
0.0
  9
$SKPOLY
 70
     0
  9
$TDCREATE
 40
2450399.632217396
  9
$TDUPDATE
 40
2452297.093926678
  9
$TDINDWG
 40
0.0101990856
  9
$TDUSRTIMER
 40
0.0101990856
  9
$USRTIMER
 70
     1
  9
$ANGBASE
 50
0.0
  9
$ANGDIR
 70
     0
  9
$PDMODE
 70
     0
  9
$PDSIZE
 40
0.0
  9
$PLINEWID
 40
0.0
  9
$COORDS
 70
     2
  9
$SPLFRAME
 70
     0
  9
$SPLINETYPE
 70
     6
  9
$SPLINESEGS
 70
     8
  9
$ATTDIA
 70
     0
  9
$ATTREQ
 70
     1
  9
$HANDLING
 70
 22529
  9
$HANDSEED
  5
334
  9
$SURFTAB1
 70
     6
  9
$SURFTAB2
 70
     6
  9
$SURFTYPE
 70
     6
  9
$SURFU
 70
     6
  9
$SURFV
 70
     6
  9
$UCSNAME
  2

  9
$UCSORG
 10
0.0
 20
0.0
 30
0.0
  9
$UCSXDIR
 10
1.0
 20
0.0
 30
0.0
  9
$UCSYDIR
 10
0.0
 20
1.0
 30
0.0
  9
$PUCSNAME
  2

  9
$PUCSORG
 10
0.0
 20
0.0
 30
0.0
  9
$PUCSXDIR
 10
1.0
 20
0.0
 30
0.0
  9
$PUCSYDIR
 10
0.0
 20
1.0
 30
0.0
  9
$USERI1
 70
     0
  9
$USERI2
 70
     0
  9
$USERI3
 70
     0
  9
$USERI4
 70
     0
  9
$USERI5
 70
     0
  9
$USERR1
 40
0.0
  9
$USERR2
 40
0.0
  9
$USERR3
 40
0.0
  9
$USERR4
 40
0.0
  9
$USERR5
 40
0.0
  9
$WORLDVIEW
 70
     1
  9
$SHADEDGE
 70
     3
  9
$SHADEDIF
 70
    70
  9
$TILEMODE
 70
     1
  9
$MAXACTVP
 70
    15
  9
$PINSBASE
 10
0.0004882914945483
 20
0.7501408034022604
 30
0.0
  9
$PLIMCHECK
 70
     0
  9
$PEXTMIN
 10
1.000000000000000E+20
 20
1.000000000000000E+20
 30
1.000000000000000E+20
  9
$PEXTMAX
 10
-1.000000000000000E+20
 20
-1.000000000000000E+20
 30
-1.000000000000000E+20
  9
$PLIMMIN
 10
0.0
 20
0.0
  9
$PLIMMAX
 10
12.0
 20
9.0
  9
$UNITMODE
 70
     0
  9
$VISRETAIN
 70
     0
  9
$PLINEGEN
 70
     0
  9
$PSLTSCALE
 70
     1
  9
$TREEDEPTH
 70
  3020
  9
$PICKSTYLE
 70
     1
  9
$CMLSTYLE
  2
STANDARD
  9
$CMLJUST
 70
     0
  9
$CMLSCALE
 40
1.0
  9
$PROXYGRAPHICS
 70
     1
  9
$MEASUREMENT
 70
     0
  0
ENDSEC
  0
SECTION
  2
CLASSES
  0
CLASS
  1
ACDBDICTIONARYWDFLT
  2
AcDbDictionaryWithDefault
  3
AutoCAD 2000
 90
        0
280
     0
281
     0
  0
CLASS
  1
ACDBPLACEHOLDER
  2
AcDbPlaceHolder
  3
AutoCAD 2000
 90
        0
280
     0
281
     0
  0
CLASS
  1
LAYOUT
  2
AcDbLayout
  3
AutoCAD 2000
 90
        0
280
     0
281
     0
  0
CLASS
  1
DICTIONARYVAR
  2
AcDbDictionaryVar
  3
AutoCAD 2000
 90
        0
280
     0
281
     0
  0
CLASS
  1
LONG_TRANSACTION
  2
AcDbLongTransaction
  3
AutoCAD 2000
 90
        0
280
     0
281
     0
  0
CLASS
  1
LWPOLYLINE
  2
AcDbPolyline
  3
AutoCAD 2000
 90
        0
280
     0
281
     1
  0
CLASS
  1
HATCH
  2
AcDbHatch
  3
AutoCAD 2000
 90
        0
280
     0
281
     1
  0
CLASS
  1
XRECORD
  2
AcDbXrecord
  3
AutoCAD 2000
 90
        0
280
     0
281
     0
  0
CLASS
  1
LONG_TRANSACTION
  2
AcDbLongTransaction
  3
AutoCAD 2000
 90
        0
280
     0
281
     0
  0
CLASS
  1
LWPOLYLINE
  2
AcDbPolyline
  3
AutoCAD 2000
 90
        0
280
     0
281
     1
  0
CLASS
  1
HATCH
  2
AcDbHatch
  3
AutoCAD 2000
 90
        0
280
     0
281
     1
  0
CLASS
  1
XRECORD
  2
AcDbXrecord
  3
AutoCAD 2000
 90
        0
280
     0
281
     0
  0
CLASS
  1
LONG_TRANSACTION
  2
AcDbLongTransaction
  3
AutoCAD 2000
 90
        0
280
     0
281
     0
  0
CLASS
  1
LWPOLYLINE
  2
AcDbPolyline
  3
AutoCAD 2000
 90
        0
280
     0
281
     1
  0
CLASS
  1
HATCH
  2
AcDbHatch
  3
AutoCAD 2000
 90
        0
280
     0
281
     1
  0
CLASS
  1
XRECORD
  2
AcDbXrecord
  3
AutoCAD 2000
 90
        0
280
     0
281
     0
  0
CLASS
  1
LONG_TRANSACTION
  2
AcDbLongTransaction
  3
AutoCAD 2000
 90
        0
280
     0
281
     0
  0
CLASS
  1
LWPOLYLINE
  2
AcDbPolyline
  3
AutoCAD 2000
 90
        0
280
     0
281
     1
  0
CLASS
  1
HATCH
  2
AcDbHatch
  3
AutoCAD 2000
 90
        0
280
     0
281
     1
  0
CLASS
  1
XRECORD
  2
AcDbXrecord
  3
AutoCAD 2000
 90
        0
280
     0
281
     0
  0
CLASS
  1
LONG_TRANSACTION
  2
AcDbLongTransaction
  3
AutoCAD 2000
 90
        0
280
     0
281
     0
  0
CLASS
  1
LWPOLYLINE
  2
AcDbPolyline
  3
AutoCAD 2000
 90
        0
280
     0
281
     1
  0
CLASS
  1
HATCH
  2
AcDbHatch
  3
AutoCAD 2000
 90
        0
280
     0
281
     1
  0
CLASS
  1
XRECORD
  2
AcDbXrecord
  3
AutoCAD 2000
 90
        0
280
     0
281
     0
  0
ENDSEC
  0
SECTION
  2
TABLES
  0
TABLE
  2
VPORT
  5
8
330
0
100
AcDbSymbolTable
 70
     2
  0
VPORT
  5
311
330
8
100
AcDbSymbolTableRecord
100
AcDbViewportTableRecord
  2
*ACTIVE
 70
     0
 10
0.0
 20
0.0
 11
1.0
 21
1.0
 12
23.39540952025073
 22
10.47436530943304
 13
0.0
 23
0.0
 14
0.5740882589684922
 24
0.5740882589684922
 15
0.5
 25
0.5
 16
0.0
 26
0.0
 36
1.0
 17
0.0
 27
0.0
 37
0.0
 40
12.88544644131286
 41
1.570528967254407
 42
50.0
 43
0.0
 44
0.0
 50
0.0
 51
0.0
 71
     0
 72
   100
 73
     1
 74
     0
 75
     0
 76
     0
 77
     0
 78
     0
  0
ENDTAB
  0
TABLE
  2
LTYPE
  5
5
330
0
100
AcDbSymbolTable
 70
     2
  0
LTYPE
  5
12
330
5
100
AcDbSymbolTableRecord
100
AcDbLinetypeTableRecord
  2
BYBLOCK
 70
     0
  3

 72
    65
 73
     0
 40
0.0
  0
LTYPE
  5
13
330
5
100
AcDbSymbolTableRecord
100
AcDbLinetypeTableRecord
  2
BYLAYER
 70
     0
  3

 72
    65
 73
     0
 40
0.0
  0
LTYPE
  5
14
330
5
100
AcDbSymbolTableRecord
100
AcDbLinetypeTableRecord
  2
CONTINUOUS
 70
     0
  3
Solid line
 72
    65
 73
     0
 40
0.0
  0
LTYPE
  5
158
330
5
100
AcDbSymbolTableRecord
100
AcDbLinetypeTableRecord
  2
CENTER2
 70
     0
  3
___ _ ___ _ ___ _ ___ _ ___ _ ___ _ ___ _ ___ _
 72
    65
 73
     4
 40
1.125
 49
0.75
 74
     0
 49
-0.125
 74
     0
 49
0.125
 74
     0
 49
-0.125
 74
     0
  0
ENDTAB
  0
TABLE
  2
LAYER
  5
2
330
0
100
AcDbSymbolTable
 70
     5
  0
LAYER
  5
F
330
2
100
AcDbSymbolTableRecord
100
AcDbLayerTableRecord
  2
0
 70
     0
 62
     7
  6
CONTINUOUS
  0
LAYER
  5
15C
330
2
100
AcDbSymbolTableRecord
100
AcDbLayerTableRecord
  2
ADP1DETAIL
 70
     0
 62
     7
  6
CONTINUOUS
  0
LAYER
  5
15D
330
2
100
AcDbSymbolTableRecord
100
AcDbLayerTableRecord
  2
ADP3DETAIL
 70
     0
 62
     1
  6
CONTINUOUS
  0
LAYER
  5
15E
330
2
100
AcDbSymbolTableRecord
100
AcDbLayerTableRecord
  2
DEFPOINTS
 70
     0
 62
     7
  6
CONTINUOUS
  0
LAYER
  5
161
330
2
100
AcDbSymbolTableRecord
100
AcDbLayerTableRecord
  2
ADPDIM
 70
     0
 62
     3
  6
CONTINUOUS
  0
ENDTAB
  0
TABLE
  2
STYLE
  5
3
330
0
100
AcDbSymbolTable
 70
     2
  0
STYLE
  5
10
330
3
100
AcDbSymbolTableRecord
100
AcDbTextStyleTableRecord
  2
STANDARD
 70
     0
 40
0.0
 41
1.0
 50
0.0
 71
     0
 42
0.2
  3
txt
  4

  0
STYLE
  5
1CD
330
3
100
AcDbSymbolTableRecord
100
AcDbTextStyleTableRecord
  2
ARIAL_WIDE
 70
     0
 40
0.0
 41
1.25
 50
0.0
 71
     0
 42
0.2
  3
ARIAL.TTF
  4

1001
ACAD
1000
Arial
1071
       34
  0
ENDTAB
  0
TABLE
  2
VIEW
  5
6
330
0
100
AcDbSymbolTable
 70
     0
  0
ENDTAB
  0
TABLE
  2
UCS
  5
7
330
0
100
AcDbSymbolTable
 70
     0
  0
ENDTAB
  0
TABLE
  2
APPID
  5
9
330
0
100
AcDbSymbolTable
 70
     1
  0
APPID
  5
11
330
9
100
AcDbSymbolTableRecord
100
AcDbRegAppTableRecord
  2
ACAD
 70
     0
  0
ENDTAB
  0
TABLE
  2
DIMSTYLE
  5
A
330
0
100
AcDbSymbolTable
 70
     1
  0
DIMSTYLE
105
1C1
330
A
100
AcDbSymbolTableRecord
100
AcDbDimStyleTableRecord
  2
STANDARD
 70
     0
  3

  4

  5

  6

  7

 40
1.0
 41
0.18
 42
0.0625
 43
0.38
 44
0.18
 45
0.0
 46
0.0
 47
0.0
 48
0.0
140
0.18
141
0.09
142
0.0
143
25.4
144
1.0
145
0.0
146
1.0
147
0.09
 71
     0
 72
     0
 73
     1
 74
     1
 75
     0
 76
     0
 77
     0
 78
     0
170
     0
171
     2
172
     0
173
     0
174
     0
175
     0
176
     0
177
     0
178
     0
270
     2
271
     4
272
     4
273
     2
274
     2
340
10
275
     0
280
     0
281
     0
282
     0
283
     1
284
     0
285
     0
286
     0
287
     3
288
     0
  0
ENDTAB
  0
TABLE
  2
BLOCK_RECORD
  5
1
330
0
100
AcDbSymbolTable
 70
     4
  0
BLOCK_RECORD
  5
18
102
{ACAD_XDICTIONARY
360
222
102
}
330
1
100
AcDbSymbolTableRecord
100
AcDbBlockTableRecord
  2
*MODEL_SPACE
  0
BLOCK_RECORD
  5
15
102
{ACAD_XDICTIONARY
360
220
102
}
330
1
100
AcDbSymbolTableRecord
100
AcDbBlockTableRecord
  2
*PAPER_SPACE
  0
BLOCK_RECORD
  5
150
330
1
100
AcDbSymbolTableRecord
100
AcDbBlockTableRecord
  2
*D0
  0
BLOCK_RECORD
  5
151
330
1
100
AcDbSymbolTableRecord
100
AcDbBlockTableRecord
  2
*D1
  0
BLOCK_RECORD
  5
152
330
1
100
AcDbSymbolTableRecord
100
AcDbBlockTableRecord
  2
*D2
  0
BLOCK_RECORD
  5
153
330
1
100
AcDbSymbolTableRecord
100
AcDbBlockTableRecord
  2
*D3
  0
ENDTAB
  0
ENDSEC
  0
SECTION
  2
BLOCKS
  0
BLOCK
  5
164
330
18
100
AcDbEntity
  8
0
100
AcDbBlockBegin
  2
*MODEL_SPACE
 70
     0
 10
0.0
 20
0.0
 30
0.0
  3
*MODEL_SPACE
  1

  0
ENDBLK
  5
165
330
18
100
AcDbEntity
  8
0
100
AcDbBlockEnd
  0
BLOCK
  5
162
330
15
100
AcDbEntity
 67
     1
  8
0
100
AcDbBlockBegin
  2
*PAPER_SPACE
 70
     0
 10
0.0
 20
0.0
 30
0.0
  3
*PAPER_SPACE
  1

  0
ENDBLK
  5
163
330
15
100
AcDbEntity
 67
     1
  8
0
100
AcDbBlockEnd
  0
BLOCK
  5
167
330
150
100
AcDbEntity
  8
0
100
AcDbBlockBegin
  2
*D0
 70
     1
 10
0.0
 20
0.0
 30
0.0
  3
*D0
  1

  0
LINE
  5
168
330
150
100
AcDbEntity
  8
0
  6
BYBLOCK
 62
     0
100
AcDbLine
 10
20.45312496616036
 20
6.111284466043273
 30
0.0
 11
20.45312496616036
 21
5.815194599459734
 31
0.0
  0
LINE
  5
169
330
150
100
AcDbEntity
  8
0
  6
BYBLOCK
 62
     0
100
AcDbLine
 10
21.23083404603208
 20
6.111284466043273
 30
0.0
 11
21.23083404603208
 21
5.815194599459734
 31
0.0
  0
LINE
  5
16A
330
150
100
AcDbEntity
  8
0
  6
BYBLOCK
 62
     0
100
AcDbLine
 10
20.45312496616036
 20
5.995194599459733
 30
0.0
 11
20.20312496616036
 21
5.995194599459733
 31
0.0
  0
LINE
  5
16B
330
150
100
AcDbEntity
  8
0
  6
BYBLOCK
 62
     0
100
AcDbLine
 10
21.23083404603208
 20
5.995194599459733
 30
0.0
 11
21.48083404603208
 21
5.995194599459733
 31
0.0
  0
LINE
  5
16C
330
150
100
AcDbEntity
  8
0
  6
BYBLOCK
 62
     0
100
AcDbLine
 10
20.32812496616036
 20
5.870194599459733
 30
0.0
 11
20.57812496616036
 21
6.120194599459733
 31
0.0
  0
LINE
  5
16D
330
150
100
AcDbEntity
  8
0
  6
BYBLOCK
 62
     0
100
AcDbLine
 10
21.10583404603207
 20
5.870194599459733
 30
0.0
 11
21.35583404603207
 21
6.120194599459733
 31
0.0
  0
TEXT
  5
16E
330
150
100
AcDbEntity
  8
0
  6
BYBLOCK
 62
     0
100
AcDbText
 10
21.60583404603208
 20
5.932694599459733
 30
0.0
 40
0.125
  1
3/4
 72
     1
 11
21.77250071269874
 21
5.995194599459733
 31
0.0
100
AcDbText
 73
     2
  0
POINT
  5
16F
330
150
100
AcDbEntity
  8
DEFPOINTS
  6
BYBLOCK
 62
     0
100
AcDbPoint
 10
20.45312496616036
 20
6.173784466043273
 30
0.0
  0
POINT
  5
170
330
150
100
AcDbEntity
  8
DEFPOINTS
  6
BYBLOCK
 62
     0
100
AcDbPoint
 10
21.23083404603208
 20
6.173784466043273
 30
0.0
  0
POINT
  5
171
330
150
100
AcDbEntity
  8
DEFPOINTS
  6
BYBLOCK
 62
     0
100
AcDbPoint
 10
21.23083404603208
 20
5.995194599459733
 30
0.0
  0
ENDBLK
  5
172
330
150
100
AcDbEntity
  8
0
100
AcDbBlockEnd
  0
BLOCK
  5
173
330
151
100
AcDbEntity
  8
0
100
AcDbBlockBegin
  2
*D1
 70
     1
 10
0.0
 20
0.0
 30
0.0
  3
*D1
  1

  0
LINE
  5
174
330
151
100
AcDbEntity
  8
0
  6
BYBLOCK
 62
     0
100
AcDbLine
 10
19.84228755150355
 20
6.564346158892253
 30
0.0
 11
19.84228755150355
 21
7.179474350365912
 31
0.0
  0
LINE
  5
175
330
151
100
AcDbEntity
  8
0
  6
BYBLOCK
 62
     0
100
AcDbLine
 10
21.84228755150355
 20
6.564346158892253
 30
0.0
 11
21.84228755150355
 21
7.179474350365912
 31
0.0
  0
LINE
  5
176
330
151
100
AcDbEntity
  8
0
  6
BYBLOCK
 62
     0
100
AcDbLine
 10
19.84228755150355
 20
6.999474350365912
 30
0.0
 11
20.67562088483688
 21
6.999474350365912
 31
0.0
  0
LINE
  5
177
330
151
100
AcDbEntity
  8
0
  6
BYBLOCK
 62
     0
100
AcDbLine
 10
21.84228755150355
 20
6.999474350365912
 30
0.0
 11
21.00895421817022
 21
6.999474350365912
 31
0.0
  0
LINE
  5
178
330
151
100
AcDbEntity
  8
0
  6
BYBLOCK
 62
     0
100
AcDbLine
 10
19.71728755150355
 20
6.874474350365912
 30
0.0
 11
19.96728755150355
 21
7.124474350365912
 31
0.0
  0
LINE
  5
179
330
151
100
AcDbEntity
  8
0
  6
BYBLOCK
 62
     0
100
AcDbLine
 10
21.71728755150355
 20
6.874474350365912
 30
0.0
 11
21.96728755150355
 21
7.124474350365912
 31
0.0
  0
TEXT
  5
17A
330
151
100
AcDbEntity
  8
0
  6
BYBLOCK
 62
     0
100
AcDbText
 10
20.80062088483688
 20
6.936974350365912
 30
0.0
 40
0.125
  1
2
 72
     1
 11
20.84228755150355
 21
6.999474350365912
 31
0.0
100
AcDbText
 73
     2
  0
POINT
  5
17B
330
151
100
AcDbEntity
  8
DEFPOINTS
  6
BYBLOCK
 62
     0
100
AcDbPoint
 10
19.84228755150355
 20
6.501846158892253
 30
0.0
  0
POINT
  5
17C
330
151
100
AcDbEntity
  8
DEFPOINTS
  6
BYBLOCK
 62
     0
100
AcDbPoint
 10
21.84228755150355
 20
6.501846158892253
 30
0.0
  0
POINT
  5
17D
330
151
100
AcDbEntity
  8
DEFPOINTS
  6
BYBLOCK
 62
     0
100
AcDbPoint
 10
21.84228755150355
 20
6.999474350365912
 30
0.0
  0
ENDBLK
  5
17E
330
151
100
AcDbEntity
  8
0
100
AcDbBlockEnd
  0
BLOCK
  5
17F
330
152
100
AcDbEntity
  8
0
100
AcDbBlockBegin
  2
*D2
 70
     1
 10
0.0
 20
0.0
 30
0.0
  3
*D2
  1

  0
LINE
  5
180
330
152
100
AcDbEntity
  8
0
  6
BYBLOCK
 62
     0
100
AcDbLine
 10
24.77163140212732
 20
9.878344512120634
 30
0.0
 11
23.19323670302734
 21
9.878344512120634
 31
0.0
  0
LINE
  5
181
330
152
100
AcDbEntity
  8
0
  6
BYBLOCK
 62
     0
100
AcDbLine
 10
21.9047753093012
 20
7.370279801082372
 30
0.0
 11
23.55323670302734
 21
7.370279801082372
 31
0.0
  0
LINE
  5
182
330
152
100
AcDbEntity
  8
0
  6
BYBLOCK
 62
     0
100
AcDbLine
 10
23.37323670302734
 20
9.878344512120634
 30
0.0
 11
23.37323670302734
 21
9.020145489934837
 31
0.0
  0
LINE
  5
183
330
152
100
AcDbEntity
  8
0
  6
BYBLOCK
 62
     0
100
AcDbLine
 10
23.37323670302734
 20
7.370279801082372
 30
0.0
 11
23.37323670302734
 21
8.228478823268169
 31
0.0
  0
LINE
  5
184
330
152
100
AcDbEntity
  8
0
  6
BYBLOCK
 62
     0
100
AcDbLine
 10
23.49823670302734
 20
9.753344512120634
 30
0.0
 11
23.24823670302734
 21
10.00334451212063
 31
0.0
  0
LINE
  5
185
330
152
100
AcDbEntity
  8
0
  6
BYBLOCK
 62
     0
100
AcDbLine
 10
23.49823670302734
 20
7.245279801082372
 30
0.0
 11
23.24823670302734
 21
7.495279801082372
 31
0.0
  0
TEXT
  5
186
330
152
100
AcDbEntity
  8
0
  6
BYBLOCK
 62
     0
100
AcDbText
 10
23.43573670302734
 20
8.353478823268169
 30
0.0
 40
0.125
  1
2 1/2
 50
90.0
 72
     1
 11
23.37323670302734
 21
8.624312156601503
 31
0.0
100
AcDbText
 73
     2
  0
POINT
  5
187
330
152
100
AcDbEntity
  8
DEFPOINTS
  6
BYBLOCK
 62
     0
100
AcDbPoint
 10
24.83413140212732
 20
9.878344512120634
 30
0.0
  0
POINT
  5
188
330
152
100
AcDbEntity
  8
DEFPOINTS
  6
BYBLOCK
 62
     0
100
AcDbPoint
 10
21.8422753093012
 20
7.370279801082372
 30
0.0
  0
POINT
  5
189
330
152
100
AcDbEntity
  8
DEFPOINTS
  6
BYBLOCK
 62
     0
100
AcDbPoint
 10
23.37323670302734
 20
7.370279801082372
 30
0.0
  0
ENDBLK
  5
18A
330
152
100
AcDbEntity
  8
0
100
AcDbBlockEnd
  0
BLOCK
  5
18B
330
153
100
AcDbEntity
  8
0
100
AcDbBlockBegin
  2
*D3
 70
     1
 10
0.0
 20
0.0
 30
0.0
  3
*D3
  1

  0
LINE
  5
18C
330
153
100
AcDbEntity
  8
0
  6
BYBLOCK
 62
     0
100
AcDbLine
 10
21.96545384608254
 20
12.64925744312105
 30
0.0
 11
24.83413140212733
 21
9.878344512120635
 31
0.0
  0
LINE
  5
18D
330
153
100
AcDbEntity
  8
0
  6
BYBLOCK
 62
     0
100
AcDbLine
 10
21.78870370695855
 20
12.64619340662449
 30
0.0
 11
22.14220398520652
 21
12.65232147961762
 31
0.0
  0
TEXT
  5
18E
330
153
100
AcDbEntity
  8
0
  6
BYBLOCK
 62
     0
100
AcDbText
 10
24.88061696428075
 20
9.746547916901789
 30
0.0
 40
0.125
  1
R4
 50
315.9931464705258
 72
     1
 11
24.99896106311283
 21
9.719132251378836
 31
0.0
100
AcDbText
 73
     2
  0
POINT
  5
18F
330
153
100
AcDbEntity
  8
DEFPOINTS
  6
BYBLOCK
 62
     0
100
AcDbPoint
 10
21.96545384608254
 20
12.64925744312105
 30
0.0
  0
POINT
  5
190
330
153
100
AcDbEntity
  8
DEFPOINTS
  6
BYBLOCK
 62
     0
100
AcDbPoint
 10
24.84248065601135
 20
9.870279801082377
 30
0.0
  0
ENDBLK
  5
191
330
153
100
AcDbEntity
  8
0
100
AcDbBlockEnd
  0
ENDSEC
  0
SECTION
  2
ENTITIES
  0
DIMENSION
  5
192
330
18
100
AcDbEntity
  8
ADPDIM
100
AcDbDimension
  2
*D3
 10
24.84248065601135
 20
9.870279801082377
 30
0.0
 11
24.99896106311283
 21
9.719132251378836
 31
0.0
 70
     4
100
AcDbRadialDimension
 15
21.96545384608254
 25
12.64925744312105
 35
0.0
 40
-3.988391830266988
  0
DIMENSION
  5
193
330
18
100
AcDbEntity
  8
ADPDIM
100
AcDbDimension
  2
*D2
 10
23.37323670302734
 20
7.370279801082372
 30
0.0
 11
23.37323670302734
 21
8.624312156601503
 31
0.0
100
AcDbAlignedDimension
 13
24.83413140212732
 23
9.878344512120634
 33
0.0
 14
21.8422753093012
 24
7.370279801082372
 34
0.0
 50
90.0
100
AcDbRotatedDimension
  0
ARC
  5
194
330
18
100
AcDbEntity
  8
ADP3DETAIL
  6
CENTER2
100
AcDbCircle
 10
24.84248065601134
 20
9.870279801082372
 30
0.0
 40
4.0
100
AcDbArc
 50
90.0
 51
180.0
  0
ARC
  5
195
330
18
100
AcDbEntity
  8
ADP1DETAIL
100
AcDbCircle
 10
24.84248065601134
 20
9.870279801082372
 30
0.0
 40
5.000205346710139
100
AcDbArc
 50
90.0
 51
180.0
  0
ARC
  5
196
330
18
100
AcDbEntity
  8
ADP1DETAIL
100
AcDbCircle
 10
24.84248065601134
 20
9.870279801082372
 30
0.0
 40
3.000213507608662
100
AcDbArc
 50
90.0
 51
180.0
  0
ARC
  5
197
330
18
100
AcDbEntity
  8
ADP1DETAIL
100
AcDbCircle
 10
20.88037433979338
 20
9.129368552262853
 30
0.0
 40
2.986305295508852
100
AcDbArc
 50
250.7192873273109
 51
261.7744925919336
  0
ARC
  5
198
330
18
100
AcDbEntity
  8
ADP1DETAIL
100
AcDbCircle
 10
20.84385249462257
 20
4.088939815581366
 30
0.0
 40
2.771906109457241
100
AcDbArc
 50
90.02835614292163
 51
110.0329650945189
  0
DIMENSION
  5
199
330
18
100
AcDbEntity
  8
ADPDIM
100
AcDbDimension
  2
*D1
 10
21.84228755150355
 20
6.999474350365912
 30
0.0
 11
20.84228755150355
 21
6.999474350365912
 31
0.0
100
AcDbAlignedDimension
 13
19.84228755150355
 23
6.501846158892253
 33
0.0
 14
21.84228755150355
 24
6.501846158892253
 34
0.0
100
AcDbRotatedDimension
  0
LINE
  5
19A
330
18
100
AcDbEntity
  8
ADP1DETAIL
100
AcDbLine
 10
21.8422753093012
 20
7.370279801082372
 30
0.0
 11
19.8422753093012
 21
7.370279801082372
 31
0.0
  0
LINE
  5
19B
330
18
100
AcDbEntity
  8
ADP1DETAIL
100
AcDbLine
 10
19.8422753093012
 20
7.370279801082372
 30
0.0
 11
19.8422753093012
 21
9.870279801082372
 31
0.0
  0
ARC
  5
19C
330
18
100
AcDbEntity
  8
ADP1DETAIL
100
AcDbCircle
 10
20.79454797800483
 20
6.501846158892253
 30
0.0
 40
0.95
100
AcDbArc
 50
171.35696978504
 51
188.64303021496
  0
ARC
  5
19D
330
18
100
AcDbEntity
  8
ADP1DETAIL
100
AcDbCircle
 10
19.91663228507868
 20
6.368399405038915
 30
0.0
 40
0.062
100
AcDbArc
 50
188.6430302149598
 51
248.8938667343037
  0
ARC
  5
19E
330
18
100
AcDbEntity
  8
ADP1DETAIL
100
AcDbCircle
 10
19.91663228507868
 20
6.635292912745591
 30
0.0
 40
0.062
100
AcDbArc
 50
111.106133265695
 51
171.3569697850398
  0
LINE
  5
19F
330
18
100
AcDbEntity
  8
ADP3DETAIL
  6
CENTER2
100
AcDbLine
 10
20.84248065601134
 20
9.870279801082372
 30
0.0
 11
20.84248065601134
 21
7.225543078258906
 31
0.0
  0
LINE
  5
1A0
330
18
100
AcDbEntity
  8
ADP1DETAIL
100
AcDbLine
 10
21.8422753093012
 20
9.870279801082372
 30
0.0
 11
21.8422753093012
 21
7.370279801082372
 31
0.0
  0
LINE
  5
1A1
330
18
100
AcDbEntity
  8
ADP1DETAIL
100
AcDbLine
 10
21.20333634586232
 20
6.360846234186067
 30
0.0
 11
20.99183634586233
 21
6.360846234186067
 31
0.0
  0
LINE
  5
1A2
330
18
100
AcDbEntity
  8
ADP1DETAIL
100
AcDbLine
 10
20.97083634586233
 20
6.235846234186067
 30
0.0
 11
21.22183634586233
 21
6.235846234186067
 31
0.0
  0
LINE
  5
1A3
330
18
100
AcDbEntity
  8
ADP1DETAIL
100
AcDbLine
 10
20.84200442228857
 20
6.625846234186067
 30
0.0
 11
21.20333634586232
 21
6.625846234186067
 31
0.0
  0
ARC
  5
1A4
330
18
100
AcDbEntity
  8
ADP1DETAIL
100
AcDbCircle
 10
20.84112053784553
 20
4.078384351154011
 30
0.0
 40
2.782461566842952
100
AcDbArc
 50
70.00546077398547
 51
89.97199277266863
  0
DIMENSION
  5
1A5
330
18
100
AcDbEntity
  8
ADPDIM
100
AcDbDimension
  2
*D0
 10
21.23083404603208
 20
5.995194599459733
 30
0.0
 11
21.77250071269874
 21
5.995194599459733
 31
0.0
100
AcDbAlignedDimension
 13
20.45312496616036
 23
6.173784466043273
 33
0.0
 14
21.23083404603208
 24
6.173784466043273
 34
0.0
100
AcDbRotatedDimension
  0
LINE
  5
1A6
330
18
100
AcDbEntity
  8
ADP1DETAIL
100
AcDbLine
 10
20.71412496616036
 20
6.235846234186067
 30
0.0
 11
20.46312496616036
 21
6.235846234186067
 31
0.0
  0
LINE
  5
1A7
330
18
100
AcDbEntity
  8
ADP1DETAIL
100
AcDbLine
 10
20.48162496616036
 20
6.360846234186067
 30
0.0
 11
20.69312496616036
 21
6.360846234186067
 31
0.0
  0
LINE
  5
1A8
330
18
100
AcDbEntity
  8
ADP1DETAIL
100
AcDbLine
 10
20.84295688973412
 20
6.625846234186067
 30
0.0
 11
20.48162496616036
 21
6.625846234186067
 31
0.0
  0
LINE
  5
1A9
330
18
100
AcDbEntity
  8
ADP1DETAIL
100
AcDbLine
 10
20.47162496616036
 20
6.615846234186066
 30
0.0
 11
20.47162496616036
 21
6.370846234186068
 31
0.0
  0
ARC
  5
1AA
330
18
100
AcDbEntity
  8
ADP1DETAIL
100
AcDbCircle
 10
20.48162496616036
 20
6.370846234186068
 30
0.0
 40
0.01
100
AcDbArc
 50
180.0
 51
270.0
  0
LINE
  5
1AB
330
18
100
AcDbEntity
  8
ADP1DETAIL
100
AcDbLine
 10
20.45312496616036
 20
6.225846234186065
 30
0.0
 11
20.45312496616036
 21
6.173784466043273
 31
0.0
  0
ARC
  5
1AC
330
18
100
AcDbEntity
  8
ADP1DETAIL
100
AcDbCircle
 10
20.46312496616036
 20
6.225846234186065
 30
0.0
 40
0.01
100
AcDbArc
 50
90.0
 51
180.0
  0
ARC
  5
1AD
330
18
100
AcDbEntity
  8
ADP1DETAIL
100
AcDbCircle
 10
20.48162496616036
 20
6.615846234186066
 30
0.0
 40
0.01
100
AcDbArc
 50
90.0
 51
180.0
  0
LINE
  5
1AE
330
18
100
AcDbEntity
  8
ADP1DETAIL
100
AcDbLine
 10
20.96083634586232
 20
6.329846234186065
 30
0.0
 11
20.96083634586232
 21
6.245846234186068
 31
0.0
  0
ARC
  5
1AF
330
18
100
AcDbEntity
  8
ADP1DETAIL
100
AcDbCircle
 10
20.97083634586233
 20
6.245846234186068
 30
0.0
 40
0.01
100
AcDbArc
 50
179.9999999999999
 51
270.0
  0
ARC
  5
1B0
330
18
100
AcDbEntity
  8
ADP1DETAIL
100
AcDbCircle
 10
20.99183634586233
 20
6.329846234186065
 30
0.0
 40
0.031
100
AcDbArc
 50
90.0
 51
180.0
  0
LINE
  5
1B1
330
18
100
AcDbEntity
  8
ADP1DETAIL
100
AcDbLine
 10
20.72412496616036
 20
6.329846234186065
 30
0.0
 11
20.72412496616036
 21
6.245846234186068
 31
0.0
  0
ARC
  5
1B2
330
18
100
AcDbEntity
  8
ADP1DETAIL
100
AcDbCircle
 10
20.71412496616036
 20
6.245846234186068
 30
0.0
 40
0.01
100
AcDbArc
 50
270.0
 51
0.0000000000000254
  0
ARC
  5
1B3
330
18
100
AcDbEntity
  8
ADP1DETAIL
100
AcDbCircle
 10
20.69312496616036
 20
6.329846234186065
 30
0.0
 40
0.031
100
AcDbArc
 50
0.0
 51
90.0
  0
ARC
  5
1B4
330
18
100
AcDbEntity
  8
ADP1DETAIL
100
AcDbCircle
 10
20.80321347550814
 20
9.148647270240424
 30
0.0
 40
3.005576908068395
100
AcDbArc
 50
278.1988567392843
 51
289.2178002164782
  0
LINE
  5
1B5
330
18
100
AcDbEntity
  8
ADP1DETAIL
100
AcDbLine
 10
21.21333634586233
 20
6.615846234186066
 30
0.0
 11
21.21333634586233
 21
6.370846234186068
 31
0.0
  0
ARC
  5
1B6
330
18
100
AcDbEntity
  8
ADP1DETAIL
100
AcDbCircle
 10
21.20333634586232
 20
6.370846234186068
 30
0.0
 40
0.01
100
AcDbArc
 50
270.0
 51
0.000000000000007
  0
LINE
  5
1B7
330
18
100
AcDbEntity
  8
ADP1DETAIL
100
AcDbLine
 10
21.23183634586232
 20
6.225846234186065
 30
0.0
 11
21.23183634586232
 21
6.173790133280172
 31
0.0
  0
ARC
  5
1B8
330
18
100
AcDbEntity
  8
ADP1DETAIL
100
AcDbCircle
 10
21.22183634586233
 20
6.225846234186065
 30
0.0
 40
0.01
100
AcDbArc
 50
0.000000000000007
 51
90.0
  0
ARC
  5
1B9
330
18
100
AcDbEntity
  8
ADP1DETAIL
100
AcDbCircle
 10
21.20333634586232
 20
6.615846234186066
 30
0.0
 40
0.01
100
AcDbArc
 50
0.000000000000007
 51
90.0
  0
ARC
  5
1BA
330
18
100
AcDbEntity
  8
ADP1DETAIL
100
AcDbCircle
 10
20.89228755150354
 20
6.501846158892253
 30
0.0
 40
0.95
100
AcDbArc
 50
351.35696978504
 51
8.643030214960001
  0
ARC
  5
1BB
330
18
100
AcDbEntity
  8
ADP1DETAIL
100
AcDbCircle
 10
21.7702032444297
 20
6.368399405038915
 30
0.0
 40
0.062
100
AcDbArc
 50
291.1061332656962
 51
351.3569697850401
  0
ARC
  5
1BC
330
18
100
AcDbEntity
  8
ADP1DETAIL
100
AcDbCircle
 10
21.7702032444297
 20
6.635292912745591
 30
0.0
 40
0.062
100
AcDbArc
 50
8.643030214960205
 51
68.89386673430493
  0
LINE
  5
1BD
330
18
100
AcDbEntity
  8
ADP1DETAIL
100
AcDbLine
 10
27.34248065601134
 20
14.87049330869103
 30
0.0
 11
27.34248065601134
 21
12.87049330869103
 31
0.0
  0
LINE
  5
1BE
330
18
100
AcDbEntity
  8
ADP1DETAIL
100
AcDbLine
 10
27.34248065601134
 20
12.87049330869103
 30
0.0
 11
24.84248065601134
 21
12.87049330869103
 31
0.0
  0
LINE
  5
1BF
330
18
100
AcDbEntity
  8
ADP3DETAIL
  6
CENTER2
100
AcDbLine
 10
27.57382307558787
 20
13.87027980108237
 30
0.0
 11
24.84248065601134
 21
13.87027980108237
 31
0.0
  0
LINE
  5
1C0
330
18
100
AcDbEntity
  8
ADP1DETAIL
100
AcDbLine
 10
24.84248065601134
 20
14.87049330869103
 30
0.0
 11
27.34248065601134
 21
14.87049330869103
 31
0.0
  0
TEXT
  5
1CE
330
18
100
AcDbEntity
  8
ADPDIM
100
AcDbText
 10
13.32575870965714
 20
5.099264934526847
 30
0.0
 40
0.1875
  1
J U L I U S  B L U M  &  C O . ,  I N C .      ( 8 0 0 )  5 2 6 - 6 2 9 3        W W W . J U L I U S B L U M . C O M        P A R T  N o .  6 5 3 0 - C
 41
1.25
  7
ARIAL_WIDE
 72
     1
 11
23.37806408994363
 21
5.286764934526847
 31
0.0
100
AcDbText
 73
     3
  0
ENDSEC
  0
SECTION
  2
OBJECTS
  0
DICTIONARY
  5
C
330
0
100
AcDbDictionary
  3
ACAD_GROUP
350
D
  3
ACAD_LAYOUT
350
1C7
  3
ACAD_MLINESTYLE
350
E
  3
ACAD_PLOTSETTINGS
350
1C8
  3
ACAD_PLOTSTYLENAME
350
1C5
  3
ACDBHEADERROUNDTRIPXREC
350
312
  3
ACDBVARIABLEDICTIONARY
350
228
  0
DICTIONARY
  5
222
330
18
100
AcDbDictionary
280
     1
  3
ACAD_LAYOUTSELFREF
360
333
  0
DICTIONARY
  5
220
330
15
100
AcDbDictionary
280
     1
  3
ACAD_LAYOUTSELFREF
360
332
  0
DICTIONARY
  5
D
102
{ACAD_REACTORS
330
C
102
}
330
C
100
AcDbDictionary
  0
DICTIONARY
  5
1C7
102
{ACAD_REACTORS
330
C
102
}
330
C
100
AcDbDictionary
  0
DICTIONARY
  5
E
102
{ACAD_REACTORS
330
C
102
}
330
C
100
AcDbDictionary
  3
STANDARD
350
1B
  0
DICTIONARY
  5
1C8
102
{ACAD_REACTORS
330
C
102
}
330
C
100
AcDbDictionary
  0
ACDBDICTIONARYWDFLT
  5
1C5
102
{ACAD_REACTORS
330
C
102
}
330
C
100
AcDbDictionary
281
     1
  3
Normal
350
1C6
100
AcDbDictionaryWithDefault
340
1C6
  0
DICTIONARY
  5
312
102
{ACAD_REACTORS
330
C
102
}
330
C
100
AcDbDictionary
  3
CEPSNTYPE
350
31C
  3
FINGERPRINTGUID
350
31D
  3
HYPERLINKBASE
350
315
  3
INSUNITS
350
31B
  3
LAYOUTDICT
350
317
  3
LWETCUNION
350
31A
  3
PLOTSETDICT
350
318
  3
PLOTSTYLNAMDICT
350
319
  3
PSVPSCALE
350
31F
  3
PUCSBASE
350
322
  3
PUCSORGBACK
350
328
  3
PUCSORGBOTTOM
350
324
  3
PUCSORGFRONT
350
327
  3
PUCSORGLEFT
350
325
  3
PUCSORGRIGHT
350
326
  3
PUCSORGTOP
350
323
  3
PUCSORTHOREF
350
320
  3
PUCSORTHOVIEW
350
321
  3
STYLESHEET
350
316
  3
TSTACKALIGN
350
313
  3
TSTACKSIZE
350
314
  3
UCSBASE
350
32B
  3
UCSORGBACK
350
331
  3
UCSORGBOTTOM
350
32D
  3
UCSORGFRONT
350
330
  3
UCSORGLEFT
350
32E
  3
UCSORGRIGHT
350
32F
  3
UCSORGTOP
350
32C
  3
UCSORTHOREF
350
329
  3
UCSORTHOVIEW
350
32A
  3
VERSIONGUID
350
31E
  0
DICTIONARY
  5
228
102
{ACAD_REACTORS
330
C
102
}
330
C
100
AcDbDictionary
  3
DIMASSOC
350
229
  0
XRECORD
  5
333
102
{ACAD_REACTORS
330
222
102
}
330
222
100
AcDbXrecord
340
18
  0
XRECORD
  5
332
102
{ACAD_REACTORS
330
220
102
}
330
220
100
AcDbXrecord
340
15
  0
MLINESTYLE
  5
1B
102
{ACAD_REACTORS
330
E
102
}
330
E
100
AcDbMlineStyle
  2
STANDARD
 70
     0
  3

 62
     0
 51
90.0
 52
90.0
 71
     2
 49
0.5
 62
   256
  6
BYLAYER
 49
-0.5
 62
   256
  6
BYLAYER
  0
ACDBPLACEHOLDER
  5
1C6
102
{ACAD_REACTORS
330
1C5
102
}
330
1C5
100
AcDbPlaceHolder
280
     0
  0
XRECORD
  5
31C
102
{ACAD_REACTORS
330
312
102
}
330
312
100
AcDbXrecord
 90
        0
  0
XRECORD
  5
31D
102
{ACAD_REACTORS
330
312
102
}
330
312
100
AcDbXrecord
  1
{4B902904-4423-4A18-8910-466CB65CDE81}
  0
XRECORD
  5
315
102
{ACAD_REACTORS
330
312
102
}
330
312
100
AcDbXrecord
  1

  0
XRECORD
  5
31B
102
{ACAD_REACTORS
330
312
102
}
330
312
100
AcDbXrecord
 90
        0
  0
XRECORD
  5
317
102
{ACAD_REACTORS
330
312
102
}
330
312
100
AcDbXrecord
340
1C7
  0
XRECORD
  5
31A
102
{ACAD_REACTORS
330
312
102
}
330
312
100
AcDbXrecord
 90
    14877
  0
XRECORD
  5
318
102
{ACAD_REACTORS
330
312
102
}
330
312
100
AcDbXrecord
340
1C8
  0
XRECORD
  5
319
102
{ACAD_REACTORS
330
312
102
}
330
312
100
AcDbXrecord
340
1C5
  0
XRECORD
  5
31F
102
{ACAD_REACTORS
330
312
102
}
330
312
100
AcDbXrecord
 40
0.0
  0
XRECORD
  5
322
102
{ACAD_REACTORS
330
312
102
}
330
312
100
AcDbXrecord
340
0
  0
XRECORD
  5
328
102
{ACAD_REACTORS
330
312
102
}
330
312
100
AcDbXrecord
 10
0.0
 20
0.0
 30
0.0
  0
XRECORD
  5
324
102
{ACAD_REACTORS
330
312
102
}
330
312
100
AcDbXrecord
 10
0.0
 20
0.0
 30
0.0
  0
XRECORD
  5
327
102
{ACAD_REACTORS
330
312
102
}
330
312
100
AcDbXrecord
 10
0.0
 20
0.0
 30
0.0
  0
XRECORD
  5
325
102
{ACAD_REACTORS
330
312
102
}
330
312
100
AcDbXrecord
 10
0.0
 20
0.0
 30
0.0
  0
XRECORD
  5
326
102
{ACAD_REACTORS
330
312
102
}
330
312
100
AcDbXrecord
 10
0.0
 20
0.0
 30
0.0
  0
XRECORD
  5
323
102
{ACAD_REACTORS
330
312
102
}
330
312
100
AcDbXrecord
 10
0.0
 20
0.0
 30
0.0
  0
XRECORD
  5
320
102
{ACAD_REACTORS
330
312
102
}
330
312
100
AcDbXrecord
340
0
  0
XRECORD
  5
321
102
{ACAD_REACTORS
330
312
102
}
330
312
100
AcDbXrecord
 70
     0
  0
XRECORD
  5
316
102
{ACAD_REACTORS
330
312
102
}
330
312
100
AcDbXrecord
  1

  0
XRECORD
  5
313
102
{ACAD_REACTORS
330
312
102
}
330
312
100
AcDbXrecord
 90
        1
  0
XRECORD
  5
314
102
{ACAD_REACTORS
330
312
102
}
330
312
100
AcDbXrecord
 90
       70
  0
XRECORD
  5
32B
102
{ACAD_REACTORS
330
312
102
}
330
312
100
AcDbXrecord
340
0
  0
XRECORD
  5
331
102
{ACAD_REACTORS
330
312
102
}
330
312
100
AcDbXrecord
 10
0.0
 20
0.0
 30
0.0
  0
XRECORD
  5
32D
102
{ACAD_REACTORS
330
312
102
}
330
312
100
AcDbXrecord
 10
0.0
 20
0.0
 30
0.0
  0
XRECORD
  5
330
102
{ACAD_REACTORS
330
312
102
}
330
312
100
AcDbXrecord
 10
0.0
 20
0.0
 30
0.0
  0
XRECORD
  5
32E
102
{ACAD_REACTORS
330
312
102
}
330
312
100
AcDbXrecord
 10
0.0
 20
0.0
 30
0.0
  0
XRECORD
  5
32F
102
{ACAD_REACTORS
330
312
102
}
330
312
100
AcDbXrecord
 10
0.0
 20
0.0
 30
0.0
  0
XRECORD
  5
32C
102
{ACAD_REACTORS
330
312
102
}
330
312
100
AcDbXrecord
 10
0.0
 20
0.0
 30
0.0
  0
XRECORD
  5
329
102
{ACAD_REACTORS
330
312
102
}
330
312
100
AcDbXrecord
340
0
  0
XRECORD
  5
32A
102
{ACAD_REACTORS
330
312
102
}
330
312
100
AcDbXrecord
 70
     0
  0
XRECORD
  5
31E
102
{ACAD_REACTORS
330
312
102
}
330
312
100
AcDbXrecord
  1
{558C1407-44BD-400F-93FD-0697A97CD333}
  0
DICTIONARYVAR
  5
229
102
{ACAD_REACTORS
330
228
102
}
330
228
100
DictionaryVariables
280
     0
  1
1
  0
ENDSEC
  0
EOF
