  0
SECTION
  2
HEADER
  9
$ACADVER
  1
AC1014
  9
$ACADMAINTVER
 70
     9
  9
$DWGCODEPAGE
  3
ANSI_1252
  9
$INSBASE
 10
9.019013363455648
 20
2.992376113275567
 30
0.0
  9
$EXTMIN
 10
1.828982847754323
 20
1.804561564544369
 30
0.0
  9
$EXTMAX
 10
14.88044089686755
 20
3.857245106884002
 30
0.0
  9
$LIMMIN
 10
0.0
 20
0.0
  9
$LIMMAX
 10
36.0
 20
36.0
  9
$ORTHOMODE
 70
     1
  9
$REGENMODE
 70
     1
  9
$FILLMODE
 70
     1
  9
$QTEXTMODE
 70
     0
  9
$MIRRTEXT
 70
     1
  9
$DRAGMODE
 70
     0
  9
$LTSCALE
 40
1.0
  9
$OSMODE
 70
    37
  9
$ATTMODE
 70
     1
  9
$TEXTSIZE
 40
0.2
  9
$TRACEWID
 40
0.05
  9
$TEXTSTYLE
  7
STANDARD
  9
$CLAYER
  8
0
  9
$CELTYPE
  6
BYLAYER
  9
$CECOLOR
 62
   256
  9
$CELTSCALE
 40
1.0
  9
$DELOBJ
 70
     1
  9
$DISPSILH
 70
     0
  9
$DIMSCALE
 40
1.0
  9
$DIMASZ
 40
0.125
  9
$DIMEXO
 40
0.0625
  9
$DIMDLI
 40
0.38
  9
$DIMRND
 40
0.0
  9
$DIMDLE
 40
0.0
  9
$DIMEXE
 40
0.18
  9
$DIMTP
 40
0.0
  9
$DIMTM
 40
0.0
  9
$DIMTXT
 40
0.125
  9
$DIMCEN
 40
0.1875
  9
$DIMTSZ
 40
0.125
  9
$DIMTOL
 70
     0
  9
$DIMLIM
 70
     0
  9
$DIMTIH
 70
     0
  9
$DIMTOH
 70
     0
  9
$DIMSE1
 70
     0
  9
$DIMSE2
 70
     0
  9
$DIMTAD
 70
     0
  9
$DIMZIN
 70
     3
  9
$DIMBLK
  1

  9
$DIMASO
 70
     1
  9
$DIMSHO
 70
     1
  9
$DIMPOST
  1

  9
$DIMAPOST
  1

  9
$DIMALT
 70
     0
  9
$DIMALTD
 70
     1
  9
$DIMALTF
 40
25.4
  9
$DIMLFAC
 40
1.0
  9
$DIMTOFL
 70
     0
  9
$DIMTVP
 40
0.0
  9
$DIMTIX
 70
     0
  9
$DIMSOXD
 70
     0
  9
$DIMSAH
 70
     0
  9
$DIMBLK1
  1

  9
$DIMBLK2
  1

  9
$DIMSTYLE
  2
STANDARD
  9
$DIMCLRD
 70
     0
  9
$DIMCLRE
 70
     0
  9
$DIMCLRT
 70
     0
  9
$DIMTFAC
 40
1.0
  9
$DIMGAP
 40
0.125
  9
$DIMJUST
 70
     0
  9
$DIMSD1
 70
     0
  9
$DIMSD2
 70
     0
  9
$DIMTOLJ
 70
     1
  9
$DIMTZIN
 70
     0
  9
$DIMALTZ
 70
     0
  9
$DIMALTTZ
 70
     0
  9
$DIMFIT
 70
     3
  9
$DIMUPT
 70
     0
  9
$DIMUNIT
 70
     2
  9
$DIMDEC
 70
     4
  9
$DIMTDEC
 70
     4
  9
$DIMALTU
 70
     2
  9
$DIMALTTD
 70
     2
  9
$DIMTXSTY
  7
STANDARD
  9
$DIMAUNIT
 70
     0
  9
$LUNITS
 70
     5
  9
$LUPREC
 70
     4
  9
$SKETCHINC
 40
0.1
  9
$FILLETRAD
 40
0.187
  9
$AUNITS
 70
     0
  9
$AUPREC
 70
     0
  9
$MENU
  1
acad
  9
$ELEVATION
 40
0.0
  9
$PELEVATION
 40
0.0
  9
$THICKNESS
 40
0.0
  9
$LIMCHECK
 70
     0
  9
$BLIPMODE
 70
     0
  9
$CHAMFERA
 40
0.0
  9
$CHAMFERB
 40
0.0
  9
$CHAMFERC
 40
0.0
  9
$CHAMFERD
 40
0.0
  9
$SKPOLY
 70
     0
  9
$TDCREATE
 40
2450400.567914155
  9
$TDUPDATE
 40
2452297.093742939
  9
$TDINDWG
 40
0.0147082523
  9
$TDUSRTIMER
 40
0.0147082523
  9
$USRTIMER
 70
     1
  9
$ANGBASE
 50
0.0
  9
$ANGDIR
 70
     0
  9
$PDMODE
 70
     0
  9
$PDSIZE
 40
0.0
  9
$PLINEWID
 40
0.0
  9
$COORDS
 70
     2
  9
$SPLFRAME
 70
     0
  9
$SPLINETYPE
 70
     6
  9
$SPLINESEGS
 70
     8
  9
$ATTDIA
 70
     0
  9
$ATTREQ
 70
     1
  9
$HANDLING
 70
 22529
  9
$HANDSEED
  5
1F5
  9
$SURFTAB1
 70
     6
  9
$SURFTAB2
 70
     6
  9
$SURFTYPE
 70
     6
  9
$SURFU
 70
     6
  9
$SURFV
 70
     6
  9
$UCSNAME
  2

  9
$UCSORG
 10
0.0
 20
0.0
 30
0.0
  9
$UCSXDIR
 10
1.0
 20
0.0
 30
0.0
  9
$UCSYDIR
 10
0.0
 20
1.0
 30
0.0
  9
$PUCSNAME
  2

  9
$PUCSORG
 10
0.0
 20
0.0
 30
0.0
  9
$PUCSXDIR
 10
1.0
 20
0.0
 30
0.0
  9
$PUCSYDIR
 10
0.0
 20
1.0
 30
0.0
  9
$USERI1
 70
     0
  9
$USERI2
 70
     0
  9
$USERI3
 70
     0
  9
$USERI4
 70
     0
  9
$USERI5
 70
     0
  9
$USERR1
 40
0.0
  9
$USERR2
 40
0.0
  9
$USERR3
 40
0.0
  9
$USERR4
 40
0.0
  9
$USERR5
 40
0.0
  9
$WORLDVIEW
 70
     1
  9
$SHADEDGE
 70
     3
  9
$SHADEDIF
 70
    70
  9
$TILEMODE
 70
     1
  9
$MAXACTVP
 70
    15
  9
$PINSBASE
 10
0.0006103618070483
 20
0.8751421214565342
 30
0.0
  9
$PLIMCHECK
 70
     0
  9
$PEXTMIN
 10
1.000000000000000E+20
 20
1.000000000000000E+20
 30
1.000000000000000E+20
  9
$PEXTMAX
 10
-1.000000000000000E+20
 20
-1.000000000000000E+20
 30
-1.000000000000000E+20
  9
$PLIMMIN
 10
0.0
 20
0.0
  9
$PLIMMAX
 10
12.0
 20
9.0
  9
$UNITMODE
 70
     0
  9
$VISRETAIN
 70
     0
  9
$PLINEGEN
 70
     0
  9
$PSLTSCALE
 70
     1
  9
$TREEDEPTH
 70
  3020
  9
$PICKSTYLE
 70
     1
  9
$CMLSTYLE
  2
STANDARD
  9
$CMLJUST
 70
     0
  9
$CMLSCALE
 40
1.0
  9
$PROXYGRAPHICS
 70
     1
  9
$MEASUREMENT
 70
     0
  0
ENDSEC
  0
SECTION
  2
CLASSES
  0
CLASS
  1
ACDBDICTIONARYWDFLT
  2
AcDbDictionaryWithDefault
  3
AutoCAD 2000
 90
        0
280
     0
281
     0
  0
CLASS
  1
ACDBPLACEHOLDER
  2
AcDbPlaceHolder
  3
AutoCAD 2000
 90
        0
280
     0
281
     0
  0
CLASS
  1
LAYOUT
  2
AcDbLayout
  3
AutoCAD 2000
 90
        0
280
     0
281
     0
  0
CLASS
  1
DICTIONARYVAR
  2
AcDbDictionaryVar
  3
AutoCAD 2000
 90
        0
280
     0
281
     0
  0
CLASS
  1
LONG_TRANSACTION
  2
AcDbLongTransaction
  3
AutoCAD 2000
 90
        0
280
     0
281
     0
  0
CLASS
  1
LWPOLYLINE
  2
AcDbPolyline
  3
AutoCAD 2000
 90
        0
280
     0
281
     1
  0
CLASS
  1
HATCH
  2
AcDbHatch
  3
AutoCAD 2000
 90
        0
280
     0
281
     1
  0
CLASS
  1
XRECORD
  2
AcDbXrecord
  3
AutoCAD 2000
 90
        0
280
     0
281
     0
  0
CLASS
  1
LONG_TRANSACTION
  2
AcDbLongTransaction
  3
AutoCAD 2000
 90
        0
280
     0
281
     0
  0
CLASS
  1
LWPOLYLINE
  2
AcDbPolyline
  3
AutoCAD 2000
 90
        0
280
     0
281
     1
  0
CLASS
  1
HATCH
  2
AcDbHatch
  3
AutoCAD 2000
 90
        0
280
     0
281
     1
  0
CLASS
  1
XRECORD
  2
AcDbXrecord
  3
AutoCAD 2000
 90
        0
280
     0
281
     0
  0
CLASS
  1
LONG_TRANSACTION
  2
AcDbLongTransaction
  3
AutoCAD 2000
 90
        0
280
     0
281
     0
  0
CLASS
  1
LWPOLYLINE
  2
AcDbPolyline
  3
AutoCAD 2000
 90
        0
280
     0
281
     1
  0
CLASS
  1
HATCH
  2
AcDbHatch
  3
AutoCAD 2000
 90
        0
280
     0
281
     1
  0
CLASS
  1
XRECORD
  2
AcDbXrecord
  3
AutoCAD 2000
 90
        0
280
     0
281
     0
  0
CLASS
  1
LONG_TRANSACTION
  2
AcDbLongTransaction
  3
AutoCAD 2000
 90
        0
280
     0
281
     0
  0
CLASS
  1
LWPOLYLINE
  2
AcDbPolyline
  3
AutoCAD 2000
 90
        0
280
     0
281
     1
  0
CLASS
  1
HATCH
  2
AcDbHatch
  3
AutoCAD 2000
 90
        0
280
     0
281
     1
  0
CLASS
  1
XRECORD
  2
AcDbXrecord
  3
AutoCAD 2000
 90
        0
280
     0
281
     0
  0
CLASS
  1
LONG_TRANSACTION
  2
AcDbLongTransaction
  3
AutoCAD 2000
 90
        0
280
     0
281
     0
  0
CLASS
  1
LWPOLYLINE
  2
AcDbPolyline
  3
AutoCAD 2000
 90
        0
280
     0
281
     1
  0
CLASS
  1
HATCH
  2
AcDbHatch
  3
AutoCAD 2000
 90
        0
280
     0
281
     1
  0
CLASS
  1
XRECORD
  2
AcDbXrecord
  3
AutoCAD 2000
 90
        0
280
     0
281
     0
  0
ENDSEC
  0
SECTION
  2
TABLES
  0
TABLE
  2
VPORT
  5
8
330
0
100
AcDbSymbolTable
 70
     2
  0
VPORT
  5
1D2
330
8
100
AcDbSymbolTableRecord
100
AcDbViewportTableRecord
  2
*ACTIVE
 70
     0
 10
0.0
 20
0.0
 11
1.0
 21
1.0
 12
8.365913284720846
 22
2.830627507565811
 13
0.0
 23
0.0
 14
0.5740882589684922
 24
0.5740882589684922
 15
0.5
 25
0.5
 16
0.0
 26
0.0
 36
1.0
 17
0.0
 27
0.0
 37
0.0
 40
8.365595802020571
 41
1.570528967254408
 42
50.0
 43
0.0
 44
0.0
 50
0.0
 51
0.0
 71
     0
 72
   100
 73
     1
 74
     0
 75
     0
 76
     0
 77
     0
 78
     0
  0
ENDTAB
  0
TABLE
  2
LTYPE
  5
5
330
0
100
AcDbSymbolTable
 70
     1
  0
LTYPE
  5
12
330
5
100
AcDbSymbolTableRecord
100
AcDbLinetypeTableRecord
  2
BYBLOCK
 70
     0
  3

 72
    65
 73
     0
 40
0.0
  0
LTYPE
  5
13
330
5
100
AcDbSymbolTableRecord
100
AcDbLinetypeTableRecord
  2
BYLAYER
 70
     0
  3

 72
    65
 73
     0
 40
0.0
  0
LTYPE
  5
14
330
5
100
AcDbSymbolTableRecord
100
AcDbLinetypeTableRecord
  2
CONTINUOUS
 70
     0
  3
Solid line
 72
    65
 73
     0
 40
0.0
  0
ENDTAB
  0
TABLE
  2
LAYER
  5
2
330
0
100
AcDbSymbolTable
 70
     4
  0
LAYER
  5
F
330
2
100
AcDbSymbolTableRecord
100
AcDbLayerTableRecord
  2
0
 70
     0
 62
     7
  6
CONTINUOUS
  0
LAYER
  5
3F
330
2
100
AcDbSymbolTableRecord
100
AcDbLayerTableRecord
  2
ADP1DETAIL
 70
     0
 62
     7
  6
CONTINUOUS
  0
LAYER
  5
41
330
2
100
AcDbSymbolTableRecord
100
AcDbLayerTableRecord
  2
DEFPOINTS
 70
     0
 62
     7
  6
CONTINUOUS
  0
LAYER
  5
42
330
2
100
AcDbSymbolTableRecord
100
AcDbLayerTableRecord
  2
ADPDIM
 70
     0
 62
     3
  6
CONTINUOUS
  0
ENDTAB
  0
TABLE
  2
STYLE
  5
3
330
0
100
AcDbSymbolTable
 70
     2
  0
STYLE
  5
10
330
3
100
AcDbSymbolTableRecord
100
AcDbTextStyleTableRecord
  2
STANDARD
 70
     0
 40
0.0
 41
1.0
 50
0.0
 71
     0
 42
0.2
  3
txt
  4

  0
STYLE
  5
8E
330
3
100
AcDbSymbolTableRecord
100
AcDbTextStyleTableRecord
  2
ARIAL_WIDE
 70
     0
 40
0.0
 41
1.25
 50
0.0
 71
     0
 42
0.2
  3
ARIAL.TTF
  4

1001
ACAD
1000
Arial
1071
       34
  0
ENDTAB
  0
TABLE
  2
VIEW
  5
6
330
0
100
AcDbSymbolTable
 70
     0
  0
ENDTAB
  0
TABLE
  2
UCS
  5
7
330
0
100
AcDbSymbolTable
 70
     0
  0
ENDTAB
  0
TABLE
  2
APPID
  5
9
330
0
100
AcDbSymbolTable
 70
     1
  0
APPID
  5
11
330
9
100
AcDbSymbolTableRecord
100
AcDbRegAppTableRecord
  2
ACAD
 70
     0
  0
ENDTAB
  0
TABLE
  2
DIMSTYLE
  5
A
330
0
100
AcDbSymbolTable
 70
     1
  0
DIMSTYLE
105
82
330
A
100
AcDbSymbolTableRecord
100
AcDbDimStyleTableRecord
  2
STANDARD
 70
     0
  3

  4

  5

  6

  7

 40
1.0
 41
0.18
 42
0.0625
 43
0.38
 44
0.18
 45
0.0
 46
0.0
 47
0.0
 48
0.0
140
0.18
141
0.09
142
0.0
143
25.4
144
1.0
145
0.0
146
1.0
147
0.09
 71
     0
 72
     0
 73
     1
 74
     1
 75
     0
 76
     0
 77
     0
 78
     0
170
     0
171
     2
172
     0
173
     0
174
     0
175
     0
176
     0
177
     0
178
     0
270
     2
271
     4
272
     4
273
     2
274
     2
340
10
275
     0
280
     0
281
     0
282
     0
283
     1
284
     0
285
     0
286
     0
287
     3
288
     0
  0
ENDTAB
  0
TABLE
  2
BLOCK_RECORD
  5
1
330
0
100
AcDbSymbolTable
 70
     3
  0
BLOCK_RECORD
  5
18
102
{ACAD_XDICTIONARY
360
E3
102
}
330
1
100
AcDbSymbolTableRecord
100
AcDbBlockTableRecord
  2
*MODEL_SPACE
  0
BLOCK_RECORD
  5
15
102
{ACAD_XDICTIONARY
360
E1
102
}
330
1
100
AcDbSymbolTableRecord
100
AcDbBlockTableRecord
  2
*PAPER_SPACE
  0
BLOCK_RECORD
  5
39
330
1
100
AcDbSymbolTableRecord
100
AcDbBlockTableRecord
  2
*D0
  0
BLOCK_RECORD
  5
3A
330
1
100
AcDbSymbolTableRecord
100
AcDbBlockTableRecord
  2
*D1
  0
BLOCK_RECORD
  5
3B
330
1
100
AcDbSymbolTableRecord
100
AcDbBlockTableRecord
  2
*D2
  0
ENDTAB
  0
ENDSEC
  0
SECTION
  2
BLOCKS
  0
BLOCK
  5
45
330
18
100
AcDbEntity
  8
0
100
AcDbBlockBegin
  2
*MODEL_SPACE
 70
     0
 10
0.0
 20
0.0
 30
0.0
  3
*MODEL_SPACE
  1

  0
ENDBLK
  5
46
330
18
100
AcDbEntity
  8
0
100
AcDbBlockEnd
  0
BLOCK
  5
43
330
15
100
AcDbEntity
 67
     1
  8
0
100
AcDbBlockBegin
  2
*PAPER_SPACE
 70
     0
 10
0.0
 20
0.0
 30
0.0
  3
*PAPER_SPACE
  1

  0
ENDBLK
  5
44
330
15
100
AcDbEntity
 67
     1
  8
0
100
AcDbBlockEnd
  0
BLOCK
  5
48
330
39
100
AcDbEntity
  8
0
100
AcDbBlockBegin
  2
*D0
 70
     1
 10
0.0
 20
0.0
 30
0.0
  3
*D0
  1

  0
LINE
  5
49
330
39
100
AcDbEntity
  8
0
  6
BYBLOCK
 62
     0
100
AcDbLine
 10
8.292211872310939
 20
3.48985080138928
 30
0.0
 11
6.668922615721726
 21
3.48985080138928
 31
0.0
  0
LINE
  5
4A
330
39
100
AcDbEntity
  8
0
  6
BYBLOCK
 62
     0
100
AcDbLine
 10
7.647196453796635
 20
2.996302946266618
 30
0.0
 11
6.668922615721726
 21
2.996302946266618
 31
0.0
  0
LINE
  5
4B
330
39
100
AcDbEntity
  8
0
  6
BYBLOCK
 62
     0
100
AcDbLine
 10
6.848922615721726
 20
3.48985080138928
 30
0.0
 11
6.848922615721726
 21
3.73985080138928
 31
0.0
  0
LINE
  5
4C
330
39
100
AcDbEntity
  8
0
  6
BYBLOCK
 62
     0
100
AcDbLine
 10
6.848922615721726
 20
2.996302946266618
 30
0.0
 11
6.848922615721726
 21
2.746302946266618
 31
0.0
  0
LINE
  5
4D
330
39
100
AcDbEntity
  8
0
  6
BYBLOCK
 62
     0
100
AcDbLine
 10
6.973922615721726
 20
3.36485080138928
 30
0.0
 11
6.723922615721726
 21
3.61485080138928
 31
0.0
  0
LINE
  5
4E
330
39
100
AcDbEntity
  8
0
  6
BYBLOCK
 62
     0
100
AcDbLine
 10
6.973922615721726
 20
2.871302946266618
 30
0.0
 11
6.723922615721726
 21
3.121302946266618
 31
0.0
  0
TEXT
  5
4F
330
39
100
AcDbEntity
  8
0
  6
BYBLOCK
 62
     0
100
AcDbText
 10
6.911422615721726
 20
2.329636279599951
 30
0.0
 40
0.125
  1
1/2
 50
90.0
 72
     1
 11
6.848922615721726
 21
2.475469612933285
 31
0.0
100
AcDbText
 73
     2
  0
POINT
  5
50
330
39
100
AcDbEntity
  8
DEFPOINTS
  6
BYBLOCK
 62
     0
100
AcDbPoint
 10
8.354711872310939
 20
3.48985080138928
 30
0.0
  0
POINT
  5
51
330
39
100
AcDbEntity
  8
DEFPOINTS
  6
BYBLOCK
 62
     0
100
AcDbPoint
 10
7.709696453796635
 20
2.996302946266618
 30
0.0
  0
POINT
  5
52
330
39
100
AcDbEntity
  8
DEFPOINTS
  6
BYBLOCK
 62
     0
100
AcDbPoint
 10
6.848922615721726
 20
2.996302946266618
 30
0.0
  0
ENDBLK
  5
53
330
39
100
AcDbEntity
  8
0
100
AcDbBlockEnd
  0
BLOCK
  5
54
330
3A
100
AcDbEntity
  8
0
100
AcDbBlockBegin
  2
*D1
 70
     1
 10
0.0
 20
0.0
 30
0.0
  3
*D1
  1

  0
LINE
  5
55
330
3A
100
AcDbEntity
  8
0
  6
BYBLOCK
 62
     0
100
AcDbLine
 10
6.979742438904599
 20
3.293182530110266
 30
0.0
 11
6.979742438904599
 21
3.857245106884002
 31
0.0
  0
LINE
  5
56
330
3A
100
AcDbEntity
  8
0
  6
BYBLOCK
 62
     0
100
AcDbLine
 10
9.729681305717281
 20
3.29318253011026
 30
0.0
 11
9.729681305717281
 21
3.857245106884002
 31
0.0
  0
LINE
  5
57
330
3A
100
AcDbEntity
  8
0
  6
BYBLOCK
 62
     0
100
AcDbLine
 10
6.979742438904599
 20
3.677245106884002
 30
0.0
 11
7.938045205644272
 21
3.677245106884002
 31
0.0
  0
LINE
  5
58
330
3A
100
AcDbEntity
  8
0
  6
BYBLOCK
 62
     0
100
AcDbLine
 10
9.729681305717281
 20
3.677245106884002
 30
0.0
 11
8.771378538977605
 21
3.677245106884002
 31
0.0
  0
LINE
  5
59
330
3A
100
AcDbEntity
  8
0
  6
BYBLOCK
 62
     0
100
AcDbLine
 10
6.854742438904599
 20
3.552245106884002
 30
0.0
 11
7.104742438904599
 21
3.802245106884002
 31
0.0
  0
LINE
  5
5A
330
3A
100
AcDbEntity
  8
0
  6
BYBLOCK
 62
     0
100
AcDbLine
 10
9.604681305717281
 20
3.552245106884002
 30
0.0
 11
9.854681305717281
 21
3.802245106884002
 31
0.0
  0
TEXT
  5
5B
330
3A
100
AcDbEntity
  8
0
  6
BYBLOCK
 62
     0
100
AcDbText
 10
8.063045205644273
 20
3.614745106884002
 30
0.0
 40
0.125
  1
2 3/4
 72
     1
 11
8.354711872310939
 21
3.677245106884002
 31
0.0
100
AcDbText
 73
     2
  0
POINT
  5
5C
330
3A
100
AcDbEntity
  8
DEFPOINTS
  6
BYBLOCK
 62
     0
100
AcDbPoint
 10
6.979742438904599
 20
3.230682530110266
 30
0.0
  0
POINT
  5
5D
330
3A
100
AcDbEntity
  8
DEFPOINTS
  6
BYBLOCK
 62
     0
100
AcDbPoint
 10
9.729681305717281
 20
3.23068253011026
 30
0.0
  0
POINT
  5
5E
330
3A
100
AcDbEntity
  8
DEFPOINTS
  6
BYBLOCK
 62
     0
100
AcDbPoint
 10
9.729681305717281
 20
3.677245106884002
 30
0.0
  0
ENDBLK
  5
5F
330
3A
100
AcDbEntity
  8
0
100
AcDbBlockEnd
  0
BLOCK
  5
60
330
3B
100
AcDbEntity
  8
0
100
AcDbBlockBegin
  2
*D2
 70
     1
 10
0.0
 20
0.0
 30
0.0
  3
*D2
  1

  0
LINE
  5
61
330
3B
100
AcDbEntity
  8
0
  6
BYBLOCK
 62
     0
100
AcDbLine
 10
7.988018297276305
 20
3.053612029006849
 30
0.0
 11
7.988018297276305
 21
2.63093506666319
 31
0.0
  0
LINE
  5
62
330
3B
100
AcDbEntity
  8
0
  6
BYBLOCK
 62
     0
100
AcDbLine
 10
8.725558659828259
 20
3.053612029006849
 30
0.0
 11
8.725558659828259
 21
2.63093506666319
 31
0.0
  0
LINE
  5
63
330
3B
100
AcDbEntity
  8
0
  6
BYBLOCK
 62
     0
100
AcDbLine
 10
7.988018297276305
 20
2.81093506666319
 30
0.0
 11
7.738018297276305
 21
2.81093506666319
 31
0.0
  0
LINE
  5
64
330
3B
100
AcDbEntity
  8
0
  6
BYBLOCK
 62
     0
100
AcDbLine
 10
8.725558659828259
 20
2.81093506666319
 30
0.0
 11
8.975558659828259
 21
2.81093506666319
 31
0.0
  0
LINE
  5
65
330
3B
100
AcDbEntity
  8
0
  6
BYBLOCK
 62
     0
100
AcDbLine
 10
7.863018297276305
 20
2.68593506666319
 30
0.0
 11
8.113018297276305
 21
2.93593506666319
 31
0.0
  0
LINE
  5
66
330
3B
100
AcDbEntity
  8
0
  6
BYBLOCK
 62
     0
100
AcDbLine
 10
8.600558659828259
 20
2.68593506666319
 30
0.0
 11
8.850558659828259
 21
2.93593506666319
 31
0.0
  0
TEXT
  5
67
330
3B
100
AcDbEntity
  8
0
  6
BYBLOCK
 62
     0
100
AcDbText
 10
9.100558659828259
 20
2.74843506666319
 30
0.0
 40
0.125
  1
3/4
 72
     1
 11
9.267225326494925
 21
2.81093506666319
 31
0.0
100
AcDbText
 73
     2
  0
POINT
  5
68
330
3B
100
AcDbEntity
  8
DEFPOINTS
  6
BYBLOCK
 62
     0
100
AcDbPoint
 10
7.988018297276305
 20
3.116112029006849
 30
0.0
  0
POINT
  5
69
330
3B
100
AcDbEntity
  8
DEFPOINTS
  6
BYBLOCK
 62
     0
100
AcDbPoint
 10
8.725558659828259
 20
3.116112029006849
 30
0.0
  0
POINT
  5
6A
330
3B
100
AcDbEntity
  8
DEFPOINTS
  6
BYBLOCK
 62
     0
100
AcDbPoint
 10
8.725558659828259
 20
2.81093506666319
 30
0.0
  0
ENDBLK
  5
6B
330
3B
100
AcDbEntity
  8
0
100
AcDbBlockEnd
  0
ENDSEC
  0
SECTION
  2
ENTITIES
  0
DIMENSION
  5
6C
330
18
100
AcDbEntity
  8
ADPDIM
100
AcDbDimension
  2
*D0
 10
6.848922615721726
 20
2.996302946266618
 30
0.0
 11
6.848922615721726
 21
2.475469612933285
 31
0.0
100
AcDbAlignedDimension
 13
8.354711872310939
 23
3.48985080138928
 33
0.0
 14
7.709696453796635
 24
2.996302946266618
 34
0.0
 50
90.0
100
AcDbRotatedDimension
  0
DIMENSION
  5
6D
330
18
100
AcDbEntity
  8
ADPDIM
100
AcDbDimension
  2
*D1
 10
9.729681305717281
 20
3.677245106884002
 30
0.0
 11
8.354711872310939
 21
3.677245106884002
 31
0.0
100
AcDbAlignedDimension
 13
6.979742438904599
 23
3.230682530110266
 33
0.0
 14
9.729681305717281
 24
3.23068253011026
 34
0.0
100
AcDbRotatedDimension
  0
ARC
  5
6E
330
18
100
AcDbEntity
  8
ADP1DETAIL
100
AcDbCircle
 10
8.354711872310939
 20
-6.510149198610719
 30
0.0
 40
10.0
100
AcDbArc
 50
82.28780178435645
 51
90.0
  0
LINE
  5
6F
330
18
100
AcDbEntity
  8
ADP1DETAIL
100
AcDbLine
 10
9.018424856287925
 20
2.992315084846223
 30
0.0
 11
9.693884030129741
 21
3.06236047210165
 31
0.0
  0
DIMENSION
  5
70
330
18
100
AcDbEntity
  8
ADPDIM
100
AcDbDimension
  2
*D2
 10
8.725558659828259
 20
2.81093506666319
 30
0.0
 11
9.267225326494925
 21
2.81093506666319
 31
0.0
100
AcDbAlignedDimension
 13
7.988018297276305
 23
3.116112029006849
 33
0.0
 14
8.725558659828259
 24
3.116112029006849
 34
0.0
100
AcDbRotatedDimension
  0
ARC
  5
71
330
18
100
AcDbEntity
  8
ADP1DETAIL
100
AcDbCircle
 10
8.354711872310909
 20
-6.510149198610719
 30
0.0
 40
10.0
100
AcDbArc
 50
89.99999999999982
 51
97.71219821564335
  0
LINE
  5
72
330
18
100
AcDbEntity
  8
ADP1DETAIL
100
AcDbLine
 10
8.354711872310939
 20
3.116112029006849
 30
0.0
 11
7.925518297276305
 21
3.11611202900685
 31
0.0
  0
LINE
  5
73
330
18
100
AcDbEntity
  8
ADP1DETAIL
100
AcDbLine
 10
7.690998888333954
 20
2.992315084846225
 30
0.0
 11
7.015539714492139
 21
3.062360472101655
 31
0.0
  0
ARC
  5
74
330
18
100
AcDbEntity
  8
ADP1DETAIL
100
AcDbCircle
 10
8.354711872310941
 20
3.23985080138928
 30
0.0
 40
1.375
100
AcDbArc
 50
174.4995617974419
 51
186.2645213186221
  0
ARC
  5
75
330
18
100
AcDbEntity
  8
ADP1DETAIL
100
AcDbCircle
 10
7.018737279954819
 20
3.093195121039365
 30
0.0
 40
0.031
100
AcDbArc
 50
186.2645213186221
 51
264.0795664977937
  0
ARC
  5
76
330
18
100
AcDbEntity
  8
ADP1DETAIL
100
AcDbCircle
 10
7.016900366944608
 20
3.368677724466207
 30
0.0
 40
0.031
100
AcDbArc
 50
97.71219821563578
 51
174.4995617974412
  0
LINE
  5
77
330
18
100
AcDbEntity
  8
ADP1DETAIL
100
AcDbLine
 10
7.709696453796635
 20
2.996302946266618
 30
0.0
 11
7.910018297276305
 21
3.111958816524168
 31
0.0
  0
ARC
  5
78
330
18
100
AcDbEntity
  8
ADP1DETAIL
100
AcDbCircle
 10
7.694196453796634
 20
3.023149733783936
 30
0.0
 40
0.031
100
AcDbArc
 50
264.0795664977937
 51
299.9999999999999
  0
ARC
  5
79
330
18
100
AcDbEntity
  8
ADP1DETAIL
100
AcDbCircle
 10
7.925518297276305
 20
3.08511202900685
 30
0.0
 40
0.031
100
AcDbArc
 50
89.99999999999982
 51
119.9999999999998
  0
LINE
  5
7A
330
18
100
AcDbEntity
  8
ADP1DETAIL
100
AcDbLine
 10
8.999727290825246
 20
2.996302946266616
 30
0.0
 11
8.799405447345575
 21
3.111958816524166
 31
0.0
  0
LINE
  5
7B
330
18
100
AcDbEntity
  8
ADP1DETAIL
100
AcDbLine
 10
8.354711872310939
 20
3.116112029006849
 30
0.0
 11
8.783905447345576
 21
3.116112029006849
 31
0.0
  0
ARC
  5
7C
330
18
100
AcDbEntity
  8
ADP1DETAIL
100
AcDbCircle
 10
8.783905447345576
 20
3.085112029006848
 30
0.0
 40
0.031
100
AcDbArc
 50
59.99999999999999
 51
90.0
  0
ARC
  5
7D
330
18
100
AcDbEntity
  8
ADP1DETAIL
100
AcDbCircle
 10
9.015227290825245
 20
3.023149733783934
 30
0.0
 40
0.031
100
AcDbArc
 50
239.9999999999999
 51
275.920433502206
  0
ARC
  5
7E
330
18
100
AcDbEntity
  8
ADP1DETAIL
100
AcDbCircle
 10
9.015235413810088
 20
3.023145043976448
 30
0.0
 40
0.031
100
AcDbArc
 50
239.9999999999999
 51
276.9999999999999
  0
ARC
  5
7F
330
18
100
AcDbEntity
  8
ADP1DETAIL
100
AcDbCircle
 10
8.354711872310939
 20
3.23985080138928
 30
0.0
 40
1.375
100
AcDbArc
 50
353.7354786813776
 51
5.500438202557869
  0
ARC
  5
80
330
18
100
AcDbEntity
  8
ADP1DETAIL
100
AcDbCircle
 10
9.690686464667061
 20
3.093195121039361
 30
0.0
 40
0.031
100
AcDbArc
 50
275.9204335022058
 51
353.735478681376
  0
ARC
  5
81
330
18
100
AcDbEntity
  8
ADP1DETAIL
100
AcDbCircle
 10
9.692523377677272
 20
3.368677724466202
 30
0.0
 40
0.031
100
AcDbArc
 50
5.500438202557831
 51
82.28780178435675
  0
TEXT
  5
8F
330
18
100
AcDbEntity
  8
ADPDIM
100
AcDbText
 10
1.828982847754323
 20
1.84156702157029
 30
0.0
 40
0.125
  1
J U L I U S  B L U M  &  C O . ,  I N C .      ( 8 0 0 )  5 2 6 - 6 2 9 3        W W W . J U L I U S B L U M . C O M        P A R T  N o .  6 5 0 1
 41
1.25
  7
ARIAL_WIDE
 72
     1
 11
8.354711872310939
 21
1.96656702157029
 31
0.0
100
AcDbText
 73
     3
  0
ENDSEC
  0
SECTION
  2
OBJECTS
  0
DICTIONARY
  5
C
330
0
100
AcDbDictionary
  3
ACAD_GROUP
350
D
  3
ACAD_LAYOUT
350
88
  3
ACAD_MLINESTYLE
350
E
  3
ACAD_PLOTSETTINGS
350
89
  3
ACAD_PLOTSTYLENAME
350
86
  3
ACDBHEADERROUNDTRIPXREC
350
1D3
  3
ACDBVARIABLEDICTIONARY
350
E9
  0
DICTIONARY
  5
E3
330
18
100
AcDbDictionary
280
     1
  3
ACAD_LAYOUTSELFREF
360
1F4
  0
DICTIONARY
  5
E1
330
15
100
AcDbDictionary
280
     1
  3
ACAD_LAYOUTSELFREF
360
1F3
  0
DICTIONARY
  5
D
102
{ACAD_REACTORS
330
C
102
}
330
C
100
AcDbDictionary
  0
DICTIONARY
  5
88
102
{ACAD_REACTORS
330
C
102
}
330
C
100
AcDbDictionary
  0
DICTIONARY
  5
E
102
{ACAD_REACTORS
330
C
102
}
330
C
100
AcDbDictionary
  3
STANDARD
350
1B
  0
DICTIONARY
  5
89
102
{ACAD_REACTORS
330
C
102
}
330
C
100
AcDbDictionary
  0
ACDBDICTIONARYWDFLT
  5
86
102
{ACAD_REACTORS
330
C
102
}
330
C
100
AcDbDictionary
281
     1
  3
Normal
350
87
100
AcDbDictionaryWithDefault
340
87
  0
DICTIONARY
  5
1D3
102
{ACAD_REACTORS
330
C
102
}
330
C
100
AcDbDictionary
  3
CEPSNTYPE
350
1DD
  3
FINGERPRINTGUID
350
1DE
  3
HYPERLINKBASE
350
1D6
  3
INSUNITS
350
1DC
  3
LAYOUTDICT
350
1D8
  3
LWETCUNION
350
1DB
  3
PLOTSETDICT
350
1D9
  3
PLOTSTYLNAMDICT
350
1DA
  3
PSVPSCALE
350
1E0
  3
PUCSBASE
350
1E3
  3
PUCSORGBACK
350
1E9
  3
PUCSORGBOTTOM
350
1E5
  3
PUCSORGFRONT
350
1E8
  3
PUCSORGLEFT
350
1E6
  3
PUCSORGRIGHT
350
1E7
  3
PUCSORGTOP
350
1E4
  3
PUCSORTHOREF
350
1E1
  3
PUCSORTHOVIEW
350
1E2
  3
STYLESHEET
350
1D7
  3
TSTACKALIGN
350
1D4
  3
TSTACKSIZE
350
1D5
  3
UCSBASE
350
1EC
  3
UCSORGBACK
350
1F2
  3
UCSORGBOTTOM
350
1EE
  3
UCSORGFRONT
350
1F1
  3
UCSORGLEFT
350
1EF
  3
UCSORGRIGHT
350
1F0
  3
UCSORGTOP
350
1ED
  3
UCSORTHOREF
350
1EA
  3
UCSORTHOVIEW
350
1EB
  3
VERSIONGUID
350
1DF
  0
DICTIONARY
  5
E9
102
{ACAD_REACTORS
330
C
102
}
330
C
100
AcDbDictionary
  3
DIMASSOC
350
EA
  0
XRECORD
  5
1F4
102
{ACAD_REACTORS
330
E3
102
}
330
E3
100
AcDbXrecord
340
18
  0
XRECORD
  5
1F3
102
{ACAD_REACTORS
330
E1
102
}
330
E1
100
AcDbXrecord
340
15
  0
MLINESTYLE
  5
1B
102
{ACAD_REACTORS
330
E
102
}
330
E
100
AcDbMlineStyle
  2
STANDARD
 70
     0
  3

 62
     0
 51
90.0
 52
90.0
 71
     2
 49
0.5
 62
   256
  6
BYLAYER
 49
-0.5
 62
   256
  6
BYLAYER
  0
ACDBPLACEHOLDER
  5
87
102
{ACAD_REACTORS
330
86
102
}
330
86
100
AcDbPlaceHolder
280
     0
  0
XRECORD
  5
1DD
102
{ACAD_REACTORS
330
1D3
102
}
330
1D3
100
AcDbXrecord
 90
        0
  0
XRECORD
  5
1DE
102
{ACAD_REACTORS
330
1D3
102
}
330
1D3
100
AcDbXrecord
  1
{A5ABAD38-4524-4B87-ACBC-94AE3F8BF6E5}
  0
XRECORD
  5
1D6
102
{ACAD_REACTORS
330
1D3
102
}
330
1D3
100
AcDbXrecord
  1

  0
XRECORD
  5
1DC
102
{ACAD_REACTORS
330
1D3
102
}
330
1D3
100
AcDbXrecord
 90
        0
  0
XRECORD
  5
1D8
102
{ACAD_REACTORS
330
1D3
102
}
330
1D3
100
AcDbXrecord
340
88
  0
XRECORD
  5
1DB
102
{ACAD_REACTORS
330
1D3
102
}
330
1D3
100
AcDbXrecord
 90
    14877
  0
XRECORD
  5
1D9
102
{ACAD_REACTORS
330
1D3
102
}
330
1D3
100
AcDbXrecord
340
89
  0
XRECORD
  5
1DA
102
{ACAD_REACTORS
330
1D3
102
}
330
1D3
100
AcDbXrecord
340
86
  0
XRECORD
  5
1E0
102
{ACAD_REACTORS
330
1D3
102
}
330
1D3
100
AcDbXrecord
 40
0.0
  0
XRECORD
  5
1E3
102
{ACAD_REACTORS
330
1D3
102
}
330
1D3
100
AcDbXrecord
340
0
  0
XRECORD
  5
1E9
102
{ACAD_REACTORS
330
1D3
102
}
330
1D3
100
AcDbXrecord
 10
0.0
 20
0.0
 30
0.0
  0
XRECORD
  5
1E5
102
{ACAD_REACTORS
330
1D3
102
}
330
1D3
100
AcDbXrecord
 10
0.0
 20
0.0
 30
0.0
  0
XRECORD
  5
1E8
102
{ACAD_REACTORS
330
1D3
102
}
330
1D3
100
AcDbXrecord
 10
0.0
 20
0.0
 30
0.0
  0
XRECORD
  5
1E6
102
{ACAD_REACTORS
330
1D3
102
}
330
1D3
100
AcDbXrecord
 10
0.0
 20
0.0
 30
0.0
  0
XRECORD
  5
1E7
102
{ACAD_REACTORS
330
1D3
102
}
330
1D3
100
AcDbXrecord
 10
0.0
 20
0.0
 30
0.0
  0
XRECORD
  5
1E4
102
{ACAD_REACTORS
330
1D3
102
}
330
1D3
100
AcDbXrecord
 10
0.0
 20
0.0
 30
0.0
  0
XRECORD
  5
1E1
102
{ACAD_REACTORS
330
1D3
102
}
330
1D3
100
AcDbXrecord
340
0
  0
XRECORD
  5
1E2
102
{ACAD_REACTORS
330
1D3
102
}
330
1D3
100
AcDbXrecord
 70
     0
  0
XRECORD
  5
1D7
102
{ACAD_REACTORS
330
1D3
102
}
330
1D3
100
AcDbXrecord
  1

  0
XRECORD
  5
1D4
102
{ACAD_REACTORS
330
1D3
102
}
330
1D3
100
AcDbXrecord
 90
        1
  0
XRECORD
  5
1D5
102
{ACAD_REACTORS
330
1D3
102
}
330
1D3
100
AcDbXrecord
 90
       70
  0
XRECORD
  5
1EC
102
{ACAD_REACTORS
330
1D3
102
}
330
1D3
100
AcDbXrecord
340
0
  0
XRECORD
  5
1F2
102
{ACAD_REACTORS
330
1D3
102
}
330
1D3
100
AcDbXrecord
 10
0.0
 20
0.0
 30
0.0
  0
XRECORD
  5
1EE
102
{ACAD_REACTORS
330
1D3
102
}
330
1D3
100
AcDbXrecord
 10
0.0
 20
0.0
 30
0.0
  0
XRECORD
  5
1F1
102
{ACAD_REACTORS
330
1D3
102
}
330
1D3
100
AcDbXrecord
 10
0.0
 20
0.0
 30
0.0
  0
XRECORD
  5
1EF
102
{ACAD_REACTORS
330
1D3
102
}
330
1D3
100
AcDbXrecord
 10
0.0
 20
0.0
 30
0.0
  0
XRECORD
  5
1F0
102
{ACAD_REACTORS
330
1D3
102
}
330
1D3
100
AcDbXrecord
 10
0.0
 20
0.0
 30
0.0
  0
XRECORD
  5
1ED
102
{ACAD_REACTORS
330
1D3
102
}
330
1D3
100
AcDbXrecord
 10
0.0
 20
0.0
 30
0.0
  0
XRECORD
  5
1EA
102
{ACAD_REACTORS
330
1D3
102
}
330
1D3
100
AcDbXrecord
340
0
  0
XRECORD
  5
1EB
102
{ACAD_REACTORS
330
1D3
102
}
330
1D3
100
AcDbXrecord
 70
     0
  0
XRECORD
  5
1DF
102
{ACAD_REACTORS
330
1D3
102
}
330
1D3
100
AcDbXrecord
  1
{AED16BCB-16BB-49E6-A206-F46A39AB0BA3}
  0
DICTIONARYVAR
  5
EA
102
{ACAD_REACTORS
330
E9
102
}
330
E9
100
DictionaryVariables
280
     0
  1
1
  0
ENDSEC
  0
EOF
