  0
SECTION
  2
HEADER
  9
$ACADVER
  1
AC1014
  9
$ACADMAINTVER
 70
     9
  9
$DWGCODEPAGE
  3
ANSI_1252
  9
$INSBASE
 10
17.32338480904057
 20
-4.80685830464762
 30
0.0
  9
$EXTMIN
 10
11.3222560846512
 20
-5.466329345976029
 30
0.0
  9
$EXTMAX
 10
24.37371413376444
 20
-2.135239016481009
 30
0.0
  9
$LIMMIN
 10
0.0
 20
0.0
  9
$LIMMAX
 10
36.0
 20
36.0
  9
$ORTHOMODE
 70
     1
  9
$REGENMODE
 70
     1
  9
$FILLMODE
 70
     1
  9
$QTEXTMODE
 70
     0
  9
$MIRRTEXT
 70
     1
  9
$DRAGMODE
 70
     0
  9
$LTSCALE
 40
1.0
  9
$OSMODE
 70
    37
  9
$ATTMODE
 70
     1
  9
$TEXTSIZE
 40
0.2
  9
$TRACEWID
 40
0.05
  9
$TEXTSTYLE
  7
STANDARD
  9
$CLAYER
  8
ADPDIM
  9
$CELTYPE
  6
BYLAYER
  9
$CECOLOR
 62
   256
  9
$CELTSCALE
 40
1.0
  9
$DELOBJ
 70
     1
  9
$DISPSILH
 70
     0
  9
$DIMSCALE
 40
1.0
  9
$DIMASZ
 40
0.125
  9
$DIMEXO
 40
0.0625
  9
$DIMDLI
 40
0.38
  9
$DIMRND
 40
0.0
  9
$DIMDLE
 40
0.0
  9
$DIMEXE
 40
0.18
  9
$DIMTP
 40
0.0
  9
$DIMTM
 40
0.0
  9
$DIMTXT
 40
0.125
  9
$DIMCEN
 40
0.1875
  9
$DIMTSZ
 40
0.125
  9
$DIMTOL
 70
     0
  9
$DIMLIM
 70
     0
  9
$DIMTIH
 70
     0
  9
$DIMTOH
 70
     0
  9
$DIMSE1
 70
     0
  9
$DIMSE2
 70
     0
  9
$DIMTAD
 70
     0
  9
$DIMZIN
 70
     3
  9
$DIMBLK
  1

  9
$DIMASO
 70
     1
  9
$DIMSHO
 70
     1
  9
$DIMPOST
  1

  9
$DIMAPOST
  1

  9
$DIMALT
 70
     0
  9
$DIMALTD
 70
     1
  9
$DIMALTF
 40
25.4
  9
$DIMLFAC
 40
1.0
  9
$DIMTOFL
 70
     0
  9
$DIMTVP
 40
0.0
  9
$DIMTIX
 70
     0
  9
$DIMSOXD
 70
     0
  9
$DIMSAH
 70
     0
  9
$DIMBLK1
  1

  9
$DIMBLK2
  1

  9
$DIMSTYLE
  2
STANDARD
  9
$DIMCLRD
 70
     0
  9
$DIMCLRE
 70
     0
  9
$DIMCLRT
 70
     0
  9
$DIMTFAC
 40
1.0
  9
$DIMGAP
 40
0.125
  9
$DIMJUST
 70
     0
  9
$DIMSD1
 70
     0
  9
$DIMSD2
 70
     0
  9
$DIMTOLJ
 70
     1
  9
$DIMTZIN
 70
     0
  9
$DIMALTZ
 70
     0
  9
$DIMALTTZ
 70
     0
  9
$DIMFIT
 70
     3
  9
$DIMUPT
 70
     0
  9
$DIMUNIT
 70
     2
  9
$DIMDEC
 70
     4
  9
$DIMTDEC
 70
     4
  9
$DIMALTU
 70
     2
  9
$DIMALTTD
 70
     2
  9
$DIMTXSTY
  7
STANDARD
  9
$DIMAUNIT
 70
     0
  9
$LUNITS
 70
     5
  9
$LUPREC
 70
     5
  9
$SKETCHINC
 40
0.1
  9
$FILLETRAD
 40
0.06
  9
$AUNITS
 70
     0
  9
$AUPREC
 70
     0
  9
$MENU
  1
acad
  9
$ELEVATION
 40
0.0
  9
$PELEVATION
 40
0.0
  9
$THICKNESS
 40
0.0
  9
$LIMCHECK
 70
     0
  9
$BLIPMODE
 70
     0
  9
$CHAMFERA
 40
0.0
  9
$CHAMFERB
 40
0.0
  9
$CHAMFERC
 40
0.0
  9
$CHAMFERD
 40
0.0
  9
$SKPOLY
 70
     0
  9
$TDCREATE
 40
2450217.583682870
  9
$TDUPDATE
 40
2452297.093570058
  9
$TDINDWG
 40
0.0120058796
  9
$TDUSRTIMER
 40
0.0120058796
  9
$USRTIMER
 70
     1
  9
$ANGBASE
 50
0.0
  9
$ANGDIR
 70
     0
  9
$PDMODE
 70
     0
  9
$PDSIZE
 40
0.0
  9
$PLINEWID
 40
0.0
  9
$COORDS
 70
     2
  9
$SPLFRAME
 70
     0
  9
$SPLINETYPE
 70
     6
  9
$SPLINESEGS
 70
     8
  9
$ATTDIA
 70
     0
  9
$ATTREQ
 70
     1
  9
$HANDLING
 70
 22529
  9
$HANDSEED
  5
21E
  9
$SURFTAB1
 70
     6
  9
$SURFTAB2
 70
     6
  9
$SURFTYPE
 70
     6
  9
$SURFU
 70
     6
  9
$SURFV
 70
     6
  9
$UCSNAME
  2

  9
$UCSORG
 10
0.0
 20
0.0
 30
0.0
  9
$UCSXDIR
 10
1.0
 20
0.0
 30
0.0
  9
$UCSYDIR
 10
0.0
 20
1.0
 30
0.0
  9
$PUCSNAME
  2

  9
$PUCSORG
 10
0.0
 20
0.0
 30
0.0
  9
$PUCSXDIR
 10
1.0
 20
0.0
 30
0.0
  9
$PUCSYDIR
 10
0.0
 20
1.0
 30
0.0
  9
$USERI1
 70
     0
  9
$USERI2
 70
     0
  9
$USERI3
 70
     0
  9
$USERI4
 70
     0
  9
$USERI5
 70
     0
  9
$USERR1
 40
0.0
  9
$USERR2
 40
0.0
  9
$USERR3
 40
0.0
  9
$USERR4
 40
0.0
  9
$USERR5
 40
0.0
  9
$WORLDVIEW
 70
     1
  9
$SHADEDGE
 70
     3
  9
$SHADEDIF
 70
    70
  9
$TILEMODE
 70
     1
  9
$MAXACTVP
 70
    15
  9
$PINSBASE
 10
0.0008545056916773
 20
1.250276130627782
 30
0.0
  9
$PLIMCHECK
 70
     0
  9
$PEXTMIN
 10
1.000000000000000E+20
 20
1.000000000000000E+20
 30
1.000000000000000E+20
  9
$PEXTMAX
 10
-1.000000000000000E+20
 20
-1.000000000000000E+20
 30
-1.000000000000000E+20
  9
$PLIMMIN
 10
0.0
 20
0.0
  9
$PLIMMAX
 10
12.0
 20
9.0
  9
$UNITMODE
 70
     0
  9
$VISRETAIN
 70
     0
  9
$PLINEGEN
 70
     0
  9
$PSLTSCALE
 70
     1
  9
$TREEDEPTH
 70
  3020
  9
$PICKSTYLE
 70
     1
  9
$CMLSTYLE
  2
STANDARD
  9
$CMLJUST
 70
     0
  9
$CMLSCALE
 40
1.0
  9
$PROXYGRAPHICS
 70
     1
  9
$MEASUREMENT
 70
     0
  0
ENDSEC
  0
SECTION
  2
CLASSES
  0
CLASS
  1
ACDBDICTIONARYWDFLT
  2
AcDbDictionaryWithDefault
  3
AutoCAD 2000
 90
        0
280
     0
281
     0
  0
CLASS
  1
ACDBPLACEHOLDER
  2
AcDbPlaceHolder
  3
AutoCAD 2000
 90
        0
280
     0
281
     0
  0
CLASS
  1
LAYOUT
  2
AcDbLayout
  3
AutoCAD 2000
 90
        0
280
     0
281
     0
  0
CLASS
  1
DICTIONARYVAR
  2
AcDbDictionaryVar
  3
AutoCAD 2000
 90
        0
280
     0
281
     0
  0
CLASS
  1
LONG_TRANSACTION
  2
AcDbLongTransaction
  3
AutoCAD 2000
 90
        0
280
     0
281
     0
  0
CLASS
  1
LWPOLYLINE
  2
AcDbPolyline
  3
AutoCAD 2000
 90
        0
280
     0
281
     1
  0
CLASS
  1
HATCH
  2
AcDbHatch
  3
AutoCAD 2000
 90
        0
280
     0
281
     1
  0
CLASS
  1
XRECORD
  2
AcDbXrecord
  3
AutoCAD 2000
 90
        0
280
     0
281
     0
  0
CLASS
  1
LONG_TRANSACTION
  2
AcDbLongTransaction
  3
AutoCAD 2000
 90
        0
280
     0
281
     0
  0
CLASS
  1
LWPOLYLINE
  2
AcDbPolyline
  3
AutoCAD 2000
 90
        0
280
     0
281
     1
  0
CLASS
  1
HATCH
  2
AcDbHatch
  3
AutoCAD 2000
 90
        0
280
     0
281
     1
  0
CLASS
  1
XRECORD
  2
AcDbXrecord
  3
AutoCAD 2000
 90
        0
280
     0
281
     0
  0
CLASS
  1
LONG_TRANSACTION
  2
AcDbLongTransaction
  3
AutoCAD 2000
 90
        0
280
     0
281
     0
  0
CLASS
  1
LWPOLYLINE
  2
AcDbPolyline
  3
AutoCAD 2000
 90
        0
280
     0
281
     1
  0
CLASS
  1
HATCH
  2
AcDbHatch
  3
AutoCAD 2000
 90
        0
280
     0
281
     1
  0
CLASS
  1
XRECORD
  2
AcDbXrecord
  3
AutoCAD 2000
 90
        0
280
     0
281
     0
  0
CLASS
  1
LONG_TRANSACTION
  2
AcDbLongTransaction
  3
AutoCAD 2000
 90
        0
280
     0
281
     0
  0
CLASS
  1
LWPOLYLINE
  2
AcDbPolyline
  3
AutoCAD 2000
 90
        0
280
     0
281
     1
  0
CLASS
  1
HATCH
  2
AcDbHatch
  3
AutoCAD 2000
 90
        0
280
     0
281
     1
  0
CLASS
  1
XRECORD
  2
AcDbXrecord
  3
AutoCAD 2000
 90
        0
280
     0
281
     0
  0
CLASS
  1
LONG_TRANSACTION
  2
AcDbLongTransaction
  3
AutoCAD 2000
 90
        0
280
     0
281
     0
  0
CLASS
  1
LWPOLYLINE
  2
AcDbPolyline
  3
AutoCAD 2000
 90
        0
280
     0
281
     1
  0
CLASS
  1
HATCH
  2
AcDbHatch
  3
AutoCAD 2000
 90
        0
280
     0
281
     1
  0
CLASS
  1
XRECORD
  2
AcDbXrecord
  3
AutoCAD 2000
 90
        0
280
     0
281
     0
  0
ENDSEC
  0
SECTION
  2
TABLES
  0
TABLE
  2
VPORT
  5
8
330
0
100
AcDbSymbolTable
 70
     2
  0
VPORT
  5
1FB
330
8
100
AcDbSymbolTableRecord
100
AcDbViewportTableRecord
  2
*ACTIVE
 70
     0
 10
0.0
 20
0.0
 11
1.0
 21
1.0
 12
17.8581007957712
 22
-3.800124505374643
 13
0.0
 23
0.0
 14
0.5740882589684922
 24
0.5740882589684922
 15
0.5
 25
0.5
 16
0.0
 26
0.0
 36
1.0
 17
0.0
 27
0.0
 37
0.0
 40
8.365595802020571
 41
1.570528967254408
 42
50.0
 43
0.0
 44
0.0
 50
0.0
 51
0.0
 71
     0
 72
   100
 73
     1
 74
     0
 75
     0
 76
     0
 77
     0
 78
     0
  0
ENDTAB
  0
TABLE
  2
LTYPE
  5
5
330
0
100
AcDbSymbolTable
 70
     1
  0
LTYPE
  5
12
330
5
100
AcDbSymbolTableRecord
100
AcDbLinetypeTableRecord
  2
BYBLOCK
 70
     0
  3

 72
    65
 73
     0
 40
0.0
  0
LTYPE
  5
13
330
5
100
AcDbSymbolTableRecord
100
AcDbLinetypeTableRecord
  2
BYLAYER
 70
     0
  3

 72
    65
 73
     0
 40
0.0
  0
LTYPE
  5
14
330
5
100
AcDbSymbolTableRecord
100
AcDbLinetypeTableRecord
  2
CONTINUOUS
 70
     0
  3
Solid line
 72
    65
 73
     0
 40
0.0
  0
ENDTAB
  0
TABLE
  2
LAYER
  5
2
330
0
100
AcDbSymbolTable
 70
     4
  0
LAYER
  5
F
330
2
100
AcDbSymbolTableRecord
100
AcDbLayerTableRecord
  2
0
 70
     0
 62
     7
  6
CONTINUOUS
  0
LAYER
  5
50
330
2
100
AcDbSymbolTableRecord
100
AcDbLayerTableRecord
  2
ADPDIM
 70
     0
 62
     3
  6
CONTINUOUS
  0
LAYER
  5
52
330
2
100
AcDbSymbolTableRecord
100
AcDbLayerTableRecord
  2
ADP1DETAIL
 70
     0
 62
     7
  6
CONTINUOUS
  0
LAYER
  5
54
330
2
100
AcDbSymbolTableRecord
100
AcDbLayerTableRecord
  2
DEFPOINTS
 70
     0
 62
     7
  6
CONTINUOUS
  0
ENDTAB
  0
TABLE
  2
STYLE
  5
3
330
0
100
AcDbSymbolTable
 70
     2
  0
STYLE
  5
10
330
3
100
AcDbSymbolTableRecord
100
AcDbTextStyleTableRecord
  2
STANDARD
 70
     0
 40
0.0
 41
1.0
 50
0.0
 71
     0
 42
0.2
  3
txt
  4

  0
STYLE
  5
B7
330
3
100
AcDbSymbolTableRecord
100
AcDbTextStyleTableRecord
  2
ARIAL_WIDE
 70
     0
 40
0.0
 41
1.25
 50
0.0
 71
     0
 42
0.2
  3
ARIAL.TTF
  4

1001
ACAD
1000
Arial
1071
       34
  0
ENDTAB
  0
TABLE
  2
VIEW
  5
6
330
0
100
AcDbSymbolTable
 70
     0
  0
ENDTAB
  0
TABLE
  2
UCS
  5
7
330
0
100
AcDbSymbolTable
 70
     0
  0
ENDTAB
  0
TABLE
  2
APPID
  5
9
330
0
100
AcDbSymbolTable
 70
     1
  0
APPID
  5
11
330
9
100
AcDbSymbolTableRecord
100
AcDbRegAppTableRecord
  2
ACAD
 70
     0
  0
ENDTAB
  0
TABLE
  2
DIMSTYLE
  5
A
330
0
100
AcDbSymbolTable
 70
     1
  0
DIMSTYLE
105
AB
330
A
100
AcDbSymbolTableRecord
100
AcDbDimStyleTableRecord
  2
STANDARD
 70
     0
  3

  4

  5

  6

  7

 40
1.0
 41
0.18
 42
0.0625
 43
0.38
 44
0.18
 45
0.0
 46
0.0
 47
0.0
 48
0.0
140
0.18
141
0.09
142
0.0
143
25.4
144
1.0
145
0.0
146
1.0
147
0.09
 71
     0
 72
     0
 73
     1
 74
     1
 75
     0
 76
     0
 77
     0
 78
     0
170
     0
171
     2
172
     0
173
     0
174
     0
175
     0
176
     0
177
     0
178
     0
270
     2
271
     4
272
     4
273
     2
274
     2
340
10
275
     0
280
     0
281
     0
282
     0
283
     1
284
     0
285
     0
286
     0
287
     3
288
     0
  0
ENDTAB
  0
TABLE
  2
BLOCK_RECORD
  5
1
330
0
100
AcDbSymbolTable
 70
     2
  0
BLOCK_RECORD
  5
18
102
{ACAD_XDICTIONARY
360
10C
102
}
330
1
100
AcDbSymbolTableRecord
100
AcDbBlockTableRecord
  2
*MODEL_SPACE
  0
BLOCK_RECORD
  5
15
102
{ACAD_XDICTIONARY
360
10A
102
}
330
1
100
AcDbSymbolTableRecord
100
AcDbBlockTableRecord
  2
*PAPER_SPACE
  0
BLOCK_RECORD
  5
4D
330
1
100
AcDbSymbolTableRecord
100
AcDbBlockTableRecord
  2
*D0
  0
BLOCK_RECORD
  5
4E
330
1
100
AcDbSymbolTableRecord
100
AcDbBlockTableRecord
  2
*D1
  0
ENDTAB
  0
ENDSEC
  0
SECTION
  2
BLOCKS
  0
BLOCK
  5
57
330
18
100
AcDbEntity
  8
0
100
AcDbBlockBegin
  2
*MODEL_SPACE
 70
     0
 10
0.0
 20
0.0
 30
0.0
  3
*MODEL_SPACE
  1

  0
ENDBLK
  5
58
330
18
100
AcDbEntity
  8
0
100
AcDbBlockEnd
  0
BLOCK
  5
55
330
15
100
AcDbEntity
 67
     1
  8
0
100
AcDbBlockBegin
  2
*PAPER_SPACE
 70
     0
 10
0.0
 20
0.0
 30
0.0
  3
*PAPER_SPACE
  1

  0
ENDBLK
  5
56
330
15
100
AcDbEntity
 67
     1
  8
0
100
AcDbBlockEnd
  0
BLOCK
  5
5A
330
4D
100
AcDbEntity
  8
0
100
AcDbBlockBegin
  2
*D0
 70
     1
 10
0.0
 20
0.0
 30
0.0
  3
*D0
  1

  0
LINE
  5
5B
330
4D
100
AcDbEntity
  8
0
  6
BYBLOCK
 62
     0
100
AcDbLine
 10
18.43508540937507
 20
-2.55685830464762
 30
0.0
 11
18.95517104154228
 21
-2.55685830464762
 31
0.0
  0
LINE
  5
5C
330
4D
100
AcDbEntity
  8
0
  6
BYBLOCK
 62
     0
100
AcDbLine
 10
18.43508540937507
 20
-4.80685830464762
 30
0.0
 11
18.95517104154228
 21
-4.80685830464762
 31
0.0
  0
LINE
  5
5D
330
4D
100
AcDbEntity
  8
0
  6
BYBLOCK
 62
     0
100
AcDbLine
 10
18.77517104154227
 20
-2.55685830464762
 30
0.0
 11
18.77517104154227
 21
-3.286024971314287
 31
0.0
  0
LINE
  5
5E
330
4D
100
AcDbEntity
  8
0
  6
BYBLOCK
 62
     0
100
AcDbLine
 10
18.77517104154227
 20
-4.80685830464762
 30
0.0
 11
18.77517104154227
 21
-4.077691637980954
 31
0.0
  0
LINE
  5
5F
330
4D
100
AcDbEntity
  8
0
  6
BYBLOCK
 62
     0
100
AcDbLine
 10
18.90017104154227
 20
-2.68185830464762
 30
0.0
 11
18.65017104154228
 21
-2.43185830464762
 31
0.0
  0
LINE
  5
60
330
4D
100
AcDbEntity
  8
0
  6
BYBLOCK
 62
     0
100
AcDbLine
 10
18.90017104154227
 20
-4.93185830464762
 30
0.0
 11
18.65017104154228
 21
-4.68185830464762
 31
0.0
  0
TEXT
  5
61
330
4D
100
AcDbEntity
  8
0
  6
BYBLOCK
 62
     0
100
AcDbText
 10
18.83767104154228
 20
-3.952691637980954
 30
0.0
 40
0.125
  1
2 1/4
 50
90.0
 72
     1
 11
18.77517104154227
 21
-3.681858304647621
 31
0.0
100
AcDbText
 73
     2
  0
POINT
  5
62
330
4D
100
AcDbEntity
  8
DEFPOINTS
  6
BYBLOCK
 62
     0
100
AcDbPoint
 10
18.37258540937507
 20
-2.55685830464762
 30
0.0
  0
POINT
  5
63
330
4D
100
AcDbEntity
  8
DEFPOINTS
  6
BYBLOCK
 62
     0
100
AcDbPoint
 10
18.37258540937507
 20
-4.80685830464762
 30
0.0
  0
POINT
  5
64
330
4D
100
AcDbEntity
  8
DEFPOINTS
  6
BYBLOCK
 62
     0
100
AcDbPoint
 10
18.77517104154227
 20
-4.80685830464762
 30
0.0
  0
ENDBLK
  5
65
330
4D
100
AcDbEntity
  8
0
100
AcDbBlockEnd
  0
BLOCK
  5
66
330
4E
100
AcDbEntity
  8
0
100
AcDbBlockBegin
  2
*D1
 70
     1
 10
0.0
 20
0.0
 30
0.0
  3
*D1
  1

  0
LINE
  5
67
330
4E
100
AcDbEntity
  8
0
  6
BYBLOCK
 62
     0
100
AcDbLine
 10
18.47230587070081
 20
-3.61935830464762
 30
0.0
 11
18.47230587070081
 21
-2.135239016481009
 31
0.0
  0
LINE
  5
68
330
4E
100
AcDbEntity
  8
0
  6
BYBLOCK
 62
     0
100
AcDbLine
 10
17.22230587070081
 20
-3.61935830464762
 30
0.0
 11
17.22230587070081
 21
-2.135239016481009
 31
0.0
  0
LINE
  5
69
330
4E
100
AcDbEntity
  8
0
  6
BYBLOCK
 62
     0
100
AcDbLine
 10
18.47230587070081
 20
-2.315239016481009
 30
0.0
 11
18.22230587070081
 21
-2.315239016481009
 31
0.0
  0
LINE
  5
6A
330
4E
100
AcDbEntity
  8
0
  6
BYBLOCK
 62
     0
100
AcDbLine
 10
17.22230587070081
 20
-2.315239016481009
 30
0.0
 11
17.47230587070081
 21
-2.315239016481009
 31
0.0
  0
LINE
  5
6B
330
4E
100
AcDbEntity
  8
0
  6
BYBLOCK
 62
     0
100
AcDbLine
 10
18.34730587070081
 20
-2.440239016481009
 30
0.0
 11
18.59730587070081
 21
-2.190239016481009
 31
0.0
  0
LINE
  5
6C
330
4E
100
AcDbEntity
  8
0
  6
BYBLOCK
 62
     0
100
AcDbLine
 10
17.09730587070081
 20
-2.440239016481009
 30
0.0
 11
17.34730587070081
 21
-2.190239016481009
 31
0.0
  0
TEXT
  5
6D
330
4E
100
AcDbEntity
  8
0
  6
BYBLOCK
 62
     0
100
AcDbText
 10
17.59730587070081
 20
-2.377739016481009
 30
0.0
 40
0.125
  1
1 1/4
 72
     1
 11
17.84730587070081
 21
-2.315239016481009
 31
0.0
100
AcDbText
 73
     2
  0
POINT
  5
6E
330
4E
100
AcDbEntity
  8
DEFPOINTS
  6
BYBLOCK
 62
     0
100
AcDbPoint
 10
18.47230587070081
 20
-3.68185830464762
 30
0.0
  0
POINT
  5
6F
330
4E
100
AcDbEntity
  8
DEFPOINTS
  6
BYBLOCK
 62
     0
100
AcDbPoint
 10
17.22230587070081
 20
-3.68185830464762
 30
0.0
  0
POINT
  5
70
330
4E
100
AcDbEntity
  8
DEFPOINTS
  6
BYBLOCK
 62
     0
100
AcDbPoint
 10
17.22230587070081
 20
-2.315239016481009
 30
0.0
  0
ENDBLK
  5
71
330
4E
100
AcDbEntity
  8
0
100
AcDbBlockEnd
  0
ENDSEC
  0
SECTION
  2
ENTITIES
  0
DIMENSION
  5
72
330
18
100
AcDbEntity
  8
ADPDIM
100
AcDbDimension
  2
*D1
 10
17.22230587070081
 20
-2.315239016481009
 30
0.0
 11
17.84730587070081
 21
-2.315239016481009
 31
0.0
100
AcDbAlignedDimension
 13
18.47230587070081
 23
-3.68185830464762
 33
0.0
 14
17.22230587070081
 24
-3.68185830464762
 34
0.0
100
AcDbRotatedDimension
  0
LINE
  5
73
330
18
100
AcDbEntity
  8
ADP1DETAIL
100
AcDbLine
 10
17.70548510920782
 20
-4.001858304647621
 30
0.0
 11
17.99316563433916
 21
-4.001858304647621
 31
0.0
  0
LINE
  5
75
330
18
100
AcDbEntity
  8
ADP1DETAIL
100
AcDbLine
 10
18.23048510920782
 20
-2.73685830464762
 30
0.0
 11
17.46548510920782
 21
-2.73685830464762
 31
0.0
  0
LINE
  5
76
330
18
100
AcDbEntity
  8
ADP1DETAIL
100
AcDbLine
 10
18.37258540937507
 20
-4.80685830464762
 30
0.0
 11
17.32338480904057
 21
-4.80685830464762
 31
0.0
  0
LINE
  5
77
330
18
100
AcDbEntity
  8
ADP1DETAIL
100
AcDbLine
 10
17.32338480904057
 20
-2.55685830464762
 30
0.0
 11
18.37258540937507
 21
-2.55685830464762
 31
0.0
  0
ARC
  5
78
330
18
100
AcDbEntity
  8
ADP1DETAIL
100
AcDbCircle
 10
25.72230587070081
 20
-3.681858304647621
 30
0.0
 40
8.375
100
AcDbArc
 50
175.3397958863806
 51
180.3638941557123
  0
ARC
  5
79
330
18
100
AcDbEntity
  8
ADP1DETAIL
100
AcDbCircle
 10
25.72230587070081
 20
-3.681858304647621
 30
0.0
 40
8.5
100
AcDbArc
 50
172.5720226519545
 51
187.4279773480453
  0
LINE
  5
7A
330
18
100
AcDbEntity
  8
ADP1DETAIL
100
AcDbLine
 10
17.59798510920782
 20
-3.76485830464762
 30
0.0
 11
17.37747417677192
 21
-3.76485830464762
 31
0.0
  0
LINE
  5
7B
330
18
100
AcDbEntity
  8
ADP1DETAIL
100
AcDbLine
 10
17.59798510920782
 20
-3.86485830464762
 30
0.0
 11
17.46548510920782
 21
-3.86485830464762
 31
0.0
  0
LINE
  5
7C
330
18
100
AcDbEntity
  8
ADP1DETAIL
100
AcDbLine
 10
17.69898510920782
 20
-4.62685830464762
 30
0.0
 11
17.45453712695864
 21
-4.62685830464762
 31
0.0
  0
LINE
  5
7D
330
18
100
AcDbEntity
  8
ADP1DETAIL
100
AcDbLine
 10
17.46548510920782
 20
-3.952858304647621
 30
0.0
 11
17.35169155632699
 21
-3.952858304647621
 31
0.0
  0
ARC
  5
7E
330
18
100
AcDbEntity
  8
ADP1DETAIL
100
AcDbCircle
 10
17.37747417677192
 20
-3.73485830464762
 30
0.0
 40
0.03
100
AcDbArc
 50
180.3638941557134
 51
270.0
  0
LINE
  5
7F
330
18
100
AcDbEntity
  8
ADP1DETAIL
100
AcDbLine
 10
17.46548510920782
 20
-3.86485830464762
 30
0.0
 11
17.46548510920782
 21
-3.952858304647621
 31
0.0
  0
ARC
  5
80
330
18
100
AcDbEntity
  8
ADP1DETAIL
100
AcDbCircle
 10
17.45453712695864
 20
-4.56685830464762
 30
0.0
 40
0.06
100
AcDbArc
 50
186.1098006652273
 51
270.0
  0
ARC
  5
81
330
18
100
AcDbEntity
  8
ADP1DETAIL
100
AcDbCircle
 10
25.72230587070081
 20
-3.681858304647621
 30
0.0
 40
8.375
100
AcDbArc
 50
181.8543124959101
 51
186.1098006652288
  0
ARC
  5
82
330
18
100
AcDbEntity
  8
ADP1DETAIL
100
AcDbCircle
 10
17.32338480904057
 20
-4.776858304647621
 30
0.0
 40
0.03
100
AcDbArc
 50
187.4279773480412
 51
270.0
  0
ARC
  5
83
330
18
100
AcDbEntity
  8
ADP1DETAIL
100
AcDbCircle
 10
17.70948510920782
 20
-4.20285830464762
 30
0.0
 40
0.045
100
AcDbArc
 50
0.0
 51
90.0
  0
LINE
  5
84
330
18
100
AcDbEntity
  8
ADP1DETAIL
100
AcDbLine
 10
17.70948510920782
 20
-4.15785830464762
 30
0.0
 11
17.70548510920782
 21
-4.15785830464762
 31
0.0
  0
ARC
  5
85
330
18
100
AcDbEntity
  8
ADP1DETAIL
100
AcDbCircle
 10
17.70548510920782
 20
-4.112858304647621
 30
0.0
 40
0.045
100
AcDbArc
 50
180.0
 51
270.0
  0
LINE
  5
86
330
18
100
AcDbEntity
  8
ADP1DETAIL
100
AcDbLine
 10
17.66048510920782
 20
-4.112858304647621
 30
0.0
 11
17.66048510920782
 21
-4.046858304647621
 31
0.0
  0
ARC
  5
87
330
18
100
AcDbEntity
  8
ADP1DETAIL
100
AcDbCircle
 10
17.70548510920782
 20
-4.046858304647621
 30
0.0
 40
0.045
100
AcDbArc
 50
90.0
 51
180.0
  0
LINE
  5
88
330
18
100
AcDbEntity
  8
ADP1DETAIL
100
AcDbLine
 10
17.59798510920782
 20
-3.76485830464762
 30
0.0
 11
17.59798510920782
 21
-3.86485830464762
 31
0.0
  0
ARC
  5
89
330
18
100
AcDbEntity
  8
ADP1DETAIL
100
AcDbCircle
 10
17.69898510920782
 20
-4.57135830464762
 30
0.0
 40
0.0554999999999999
100
AcDbArc
 50
269.9999999999998
 51
0.0
  0
LINE
  5
8A
330
18
100
AcDbEntity
  8
ADP1DETAIL
100
AcDbLine
 10
17.75448510920782
 20
-4.57135830464762
 30
0.0
 11
17.75448510920782
 21
-4.20285830464762
 31
0.0
  0
LINE
  5
8B
330
18
100
AcDbEntity
  8
ADP1DETAIL
100
AcDbLine
 10
17.59798510920782
 20
-2.97385830464762
 30
0.0
 11
17.40489395352368
 21
-2.97385830464762
 31
0.0
  0
LINE
  5
8C
330
18
100
AcDbEntity
  8
ADP1DETAIL
100
AcDbLine
 10
17.46548510920782
 20
-2.87385830464762
 30
0.0
 11
17.59798510920782
 21
-2.87385830464762
 31
0.0
  0
ARC
  5
8D
330
18
100
AcDbEntity
  8
ADP1DETAIL
100
AcDbCircle
 10
17.40489395352368
 20
-3.003858304647621
 30
0.0
 40
0.03
100
AcDbArc
 50
90.0
 51
175.3397958863762
  0
LINE
  5
8E
330
18
100
AcDbEntity
  8
ADP1DETAIL
100
AcDbLine
 10
17.46548510920782
 20
-2.73685830464762
 30
0.0
 11
17.46548510920782
 21
-2.87385830464762
 31
0.0
  0
ARC
  5
8F
330
18
100
AcDbEntity
  8
ADP1DETAIL
100
AcDbCircle
 10
17.32338480904057
 20
-2.586858304647621
 30
0.0
 40
0.03
100
AcDbArc
 50
90.0
 51
172.5720226519494
  0
LINE
  5
90
330
18
100
AcDbEntity
  8
ADP1DETAIL
100
AcDbLine
 10
17.59798510920782
 20
-2.87385830464762
 30
0.0
 11
17.59798510920782
 21
-2.97385830464762
 31
0.0
  0
DIMENSION
  5
91
330
18
100
AcDbEntity
  8
ADPDIM
100
AcDbDimension
  2
*D0
 10
18.77517104154227
 20
-4.80685830464762
 30
0.0
 11
18.77517104154227
 21
-3.681858304647621
 31
0.0
100
AcDbAlignedDimension
 13
18.37258540937507
 23
-2.55685830464762
 33
0.0
 14
18.37258540937507
 24
-4.80685830464762
 34
0.0
 50
90.0
100
AcDbRotatedDimension
  0
ARC
  5
92
330
18
100
AcDbEntity
  8
ADP1DETAIL
100
AcDbCircle
 10
9.808642812285246
 20
-3.68185830464762
 30
0.0
 40
8.538663058415568
100
AcDbArc
 50
359.6431053937919
 51
4.570373187075802
  0
ARC
  5
93
330
18
100
AcDbEntity
  8
ADP1DETAIL
100
AcDbCircle
 10
9.808642812285246
 20
-3.68185830464762
 30
0.0
 40
8.663663058415568
100
AcDbArc
 50
352.713601805407
 51
7.286398194592938
  0
LINE
  5
94
330
18
100
AcDbEntity
  8
ADP1DETAIL
100
AcDbLine
 10
18.23048510920782
 20
-3.952858304647621
 30
0.0
 11
18.34300428958105
 21
-3.952858304647621
 31
0.0
  0
LINE
  5
95
330
18
100
AcDbEntity
  8
ADP1DETAIL
100
AcDbLine
 10
18.09798510920782
 20
-3.76485830464762
 30
0.0
 11
18.31714080203912
 21
-3.76485830464762
 31
0.0
  0
ARC
  5
96
330
18
100
AcDbEntity
  8
ADP1DETAIL
100
AcDbCircle
 10
18.24099137351899
 20
-4.56685830464762
 30
0.0
 40
0.06
100
AcDbArc
 50
270.0
 51
354.0085724720765
  0
LINE
  5
97
330
18
100
AcDbEntity
  8
ADP1DETAIL
100
AcDbLine
 10
18.03816563433916
 20
-4.112858304647621
 30
0.0
 11
18.03816563433916
 21
-4.046858304647621
 31
0.0
  0
LINE
  5
98
330
18
100
AcDbEntity
  8
ADP1DETAIL
100
AcDbLine
 10
18.23048510920782
 20
-3.86485830464762
 30
0.0
 11
18.23048510920782
 21
-3.952858304647621
 31
0.0
  0
LINE
  5
99
330
18
100
AcDbEntity
  8
ADP1DETAIL
100
AcDbLine
 10
18.09798510920782
 20
-3.86485830464762
 30
0.0
 11
18.23048510920782
 21
-3.86485830464762
 31
0.0
  0
LINE
  5
9A
330
18
100
AcDbEntity
  8
ADP1DETAIL
100
AcDbLine
 10
18.09798510920782
 20
-3.76485830464762
 30
0.0
 11
18.09798510920782
 21
-3.86485830464762
 31
0.0
  0
LINE
  5
9B
330
18
100
AcDbEntity
  8
ADP1DETAIL
100
AcDbLine
 10
17.98916563433917
 20
-4.15785830464762
 30
0.0
 11
17.99316563433916
 21
-4.15785830464762
 31
0.0
  0
ARC
  5
9C
330
18
100
AcDbEntity
  8
ADP1DETAIL
100
AcDbCircle
 10
17.98916563433917
 20
-4.20285830464762
 30
0.0
 40
0.045
100
AcDbArc
 50
90.0
 51
180.0
  0
ARC
  5
9D
330
18
100
AcDbEntity
  8
ADP1DETAIL
100
AcDbCircle
 10
17.99966563433916
 20
-4.57135830464762
 30
0.0
 40
0.0554999999999999
100
AcDbArc
 50
180.0
 51
270.0
  0
LINE
  5
9E
330
18
100
AcDbEntity
  8
ADP1DETAIL
100
AcDbLine
 10
17.94416563433916
 20
-4.57135830464762
 30
0.0
 11
17.94416563433916
 21
-4.20285830464762
 31
0.0
  0
LINE
  5
9F
330
18
100
AcDbEntity
  8
ADP1DETAIL
100
AcDbLine
 10
18.24099137351899
 20
-4.626858304647621
 30
0.0
 11
17.99966563433916
 21
-4.62685830464762
 31
0.0
  0
ARC
  5
A0
330
18
100
AcDbEntity
  8
ADP1DETAIL
100
AcDbCircle
 10
17.99316563433916
 20
-4.046858304647621
 30
0.0
 40
0.045
100
AcDbArc
 50
0.000000000000007
 51
90.0
  0
ARC
  5
A1
330
18
100
AcDbEntity
  8
ADP1DETAIL
100
AcDbCircle
 10
17.99316563433916
 20
-4.112858304647621
 30
0.0
 40
0.045
100
AcDbArc
 50
270.0
 51
0.000000000000007
  0
ARC
  5
A2
330
18
100
AcDbEntity
  8
ADP1DETAIL
100
AcDbCircle
 10
18.31714080203912
 20
-3.73485830464762
 30
0.0
 40
0.03
100
AcDbArc
 50
270.0
 51
359.6431053937851
  0
ARC
  5
A3
330
18
100
AcDbEntity
  8
ADP1DETAIL
100
AcDbCircle
 10
9.808642812285246
 20
-3.68185830464762
 30
0.0
 40
8.538663058415568
100
AcDbArc
 50
354.0085724720821
 51
358.1812417149113
  0
ARC
  5
A4
330
18
100
AcDbEntity
  8
ADP1DETAIL
100
AcDbCircle
 10
18.37258540937507
 20
-4.776858304647621
 30
0.0
 40
0.03
100
AcDbArc
 50
270.0
 51
352.7136018053963
  0
LINE
  5
A5
330
18
100
AcDbEntity
  8
ADP1DETAIL
100
AcDbLine
 10
18.09798510920782
 20
-2.97385830464762
 30
0.0
 11
18.29025015061716
 21
-2.97385830464762
 31
0.0
  0
LINE
  5
A6
330
18
100
AcDbEntity
  8
ADP1DETAIL
100
AcDbLine
 10
18.09798510920782
 20
-2.87385830464762
 30
0.0
 11
18.09798510920782
 21
-2.97385830464762
 31
0.0
  0
LINE
  5
A7
330
18
100
AcDbEntity
  8
ADP1DETAIL
100
AcDbLine
 10
18.23048510920782
 20
-2.87385830464762
 30
0.0
 11
18.09798510920782
 21
-2.87385830464762
 31
0.0
  0
LINE
  5
A8
330
18
100
AcDbEntity
  8
ADP1DETAIL
100
AcDbLine
 10
18.23048510920782
 20
-2.73685830464762
 30
0.0
 11
18.23048510920782
 21
-2.87385830464762
 31
0.0
  0
ARC
  5
A9
330
18
100
AcDbEntity
  8
ADP1DETAIL
100
AcDbCircle
 10
18.37258540937507
 20
-2.586858304647621
 30
0.0
 40
0.03
100
AcDbArc
 50
7.286398194593135
 51
90.0
  0
ARC
  5
AA
330
18
100
AcDbEntity
  8
ADP1DETAIL
100
AcDbCircle
 10
18.29025015061716
 20
-3.003858304647621
 30
0.0
 40
0.03
100
AcDbArc
 50
4.570373187075918
 51
90.0
  0
TEXT
  5
B8
330
18
100
AcDbEntity
  8
ADPDIM
100
AcDbText
 10
11.3222560846512
 20
-5.429323888950108
 30
0.0
 40
0.125
  1
J U L I U S  B L U M  &  C O . ,  I N C .      ( 8 0 0 )  5 2 6 - 6 2 9 3        W W W . J U L I U S B L U M . C O M        P A R T  N o .  6 4 5 9
 41
1.25
  7
ARIAL_WIDE
 72
     1
 11
17.84798510920782
 21
-5.304323888950108
 31
0.0
100
AcDbText
 73
     3
  0
ENDSEC
  0
SECTION
  2
OBJECTS
  0
DICTIONARY
  5
C
330
0
100
AcDbDictionary
  3
ACAD_GROUP
350
D
  3
ACAD_LAYOUT
350
B1
  3
ACAD_MLINESTYLE
350
E
  3
ACAD_PLOTSETTINGS
350
B2
  3
ACAD_PLOTSTYLENAME
350
AF
  3
ACDBHEADERROUNDTRIPXREC
350
1FC
  3
ACDBVARIABLEDICTIONARY
350
112
  0
DICTIONARY
  5
10C
330
18
100
AcDbDictionary
280
     1
  3
ACAD_LAYOUTSELFREF
360
21D
  0
DICTIONARY
  5
10A
330
15
100
AcDbDictionary
280
     1
  3
ACAD_LAYOUTSELFREF
360
21C
  0
DICTIONARY
  5
D
102
{ACAD_REACTORS
330
C
102
}
330
C
100
AcDbDictionary
  0
DICTIONARY
  5
B1
102
{ACAD_REACTORS
330
C
102
}
330
C
100
AcDbDictionary
  0
DICTIONARY
  5
E
102
{ACAD_REACTORS
330
C
102
}
330
C
100
AcDbDictionary
  3
STANDARD
350
1B
  0
DICTIONARY
  5
B2
102
{ACAD_REACTORS
330
C
102
}
330
C
100
AcDbDictionary
  0
ACDBDICTIONARYWDFLT
  5
AF
102
{ACAD_REACTORS
330
C
102
}
330
C
100
AcDbDictionary
281
     1
  3
Normal
350
B0
100
AcDbDictionaryWithDefault
340
B0
  0
DICTIONARY
  5
1FC
102
{ACAD_REACTORS
330
C
102
}
330
C
100
AcDbDictionary
  3
CEPSNTYPE
350
206
  3
FINGERPRINTGUID
350
207
  3
HYPERLINKBASE
350
1FF
  3
INSUNITS
350
205
  3
LAYOUTDICT
350
201
  3
LWETCUNION
350
204
  3
PLOTSETDICT
350
202
  3
PLOTSTYLNAMDICT
350
203
  3
PSVPSCALE
350
209
  3
PUCSBASE
350
20C
  3
PUCSORGBACK
350
212
  3
PUCSORGBOTTOM
350
20E
  3
PUCSORGFRONT
350
211
  3
PUCSORGLEFT
350
20F
  3
PUCSORGRIGHT
350
210
  3
PUCSORGTOP
350
20D
  3
PUCSORTHOREF
350
20A
  3
PUCSORTHOVIEW
350
20B
  3
STYLESHEET
350
200
  3
TSTACKALIGN
350
1FD
  3
TSTACKSIZE
350
1FE
  3
UCSBASE
350
215
  3
UCSORGBACK
350
21B
  3
UCSORGBOTTOM
350
217
  3
UCSORGFRONT
350
21A
  3
UCSORGLEFT
350
218
  3
UCSORGRIGHT
350
219
  3
UCSORGTOP
350
216
  3
UCSORTHOREF
350
213
  3
UCSORTHOVIEW
350
214
  3
VERSIONGUID
350
208
  0
DICTIONARY
  5
112
102
{ACAD_REACTORS
330
C
102
}
330
C
100
AcDbDictionary
  3
DIMASSOC
350
113
  0
XRECORD
  5
21D
102
{ACAD_REACTORS
330
10C
102
}
330
10C
100
AcDbXrecord
340
18
  0
XRECORD
  5
21C
102
{ACAD_REACTORS
330
10A
102
}
330
10A
100
AcDbXrecord
340
15
  0
MLINESTYLE
  5
1B
102
{ACAD_REACTORS
330
E
102
}
330
E
100
AcDbMlineStyle
  2
STANDARD
 70
     0
  3

 62
     0
 51
90.0
 52
90.0
 71
     2
 49
0.5
 62
   256
  6
BYLAYER
 49
-0.5
 62
   256
  6
BYLAYER
  0
ACDBPLACEHOLDER
  5
B0
102
{ACAD_REACTORS
330
AF
102
}
330
AF
100
AcDbPlaceHolder
280
     0
  0
XRECORD
  5
206
102
{ACAD_REACTORS
330
1FC
102
}
330
1FC
100
AcDbXrecord
 90
        0
  0
XRECORD
  5
207
102
{ACAD_REACTORS
330
1FC
102
}
330
1FC
100
AcDbXrecord
  1
{C73E90F4-A5A2-4754-B4E0-1B64B53AB396}
  0
XRECORD
  5
1FF
102
{ACAD_REACTORS
330
1FC
102
}
330
1FC
100
AcDbXrecord
  1

  0
XRECORD
  5
205
102
{ACAD_REACTORS
330
1FC
102
}
330
1FC
100
AcDbXrecord
 90
        0
  0
XRECORD
  5
201
102
{ACAD_REACTORS
330
1FC
102
}
330
1FC
100
AcDbXrecord
340
B1
  0
XRECORD
  5
204
102
{ACAD_REACTORS
330
1FC
102
}
330
1FC
100
AcDbXrecord
 90
    14877
  0
XRECORD
  5
202
102
{ACAD_REACTORS
330
1FC
102
}
330
1FC
100
AcDbXrecord
340
B2
  0
XRECORD
  5
203
102
{ACAD_REACTORS
330
1FC
102
}
330
1FC
100
AcDbXrecord
340
AF
  0
XRECORD
  5
209
102
{ACAD_REACTORS
330
1FC
102
}
330
1FC
100
AcDbXrecord
 40
0.0
  0
XRECORD
  5
20C
102
{ACAD_REACTORS
330
1FC
102
}
330
1FC
100
AcDbXrecord
340
0
  0
XRECORD
  5
212
102
{ACAD_REACTORS
330
1FC
102
}
330
1FC
100
AcDbXrecord
 10
0.0
 20
0.0
 30
0.0
  0
XRECORD
  5
20E
102
{ACAD_REACTORS
330
1FC
102
}
330
1FC
100
AcDbXrecord
 10
0.0
 20
0.0
 30
0.0
  0
XRECORD
  5
211
102
{ACAD_REACTORS
330
1FC
102
}
330
1FC
100
AcDbXrecord
 10
0.0
 20
0.0
 30
0.0
  0
XRECORD
  5
20F
102
{ACAD_REACTORS
330
1FC
102
}
330
1FC
100
AcDbXrecord
 10
0.0
 20
0.0
 30
0.0
  0
XRECORD
  5
210
102
{ACAD_REACTORS
330
1FC
102
}
330
1FC
100
AcDbXrecord
 10
0.0
 20
0.0
 30
0.0
  0
XRECORD
  5
20D
102
{ACAD_REACTORS
330
1FC
102
}
330
1FC
100
AcDbXrecord
 10
0.0
 20
0.0
 30
0.0
  0
XRECORD
  5
20A
102
{ACAD_REACTORS
330
1FC
102
}
330
1FC
100
AcDbXrecord
340
0
  0
XRECORD
  5
20B
102
{ACAD_REACTORS
330
1FC
102
}
330
1FC
100
AcDbXrecord
 70
     0
  0
XRECORD
  5
200
102
{ACAD_REACTORS
330
1FC
102
}
330
1FC
100
AcDbXrecord
  1

  0
XRECORD
  5
1FD
102
{ACAD_REACTORS
330
1FC
102
}
330
1FC
100
AcDbXrecord
 90
        1
  0
XRECORD
  5
1FE
102
{ACAD_REACTORS
330
1FC
102
}
330
1FC
100
AcDbXrecord
 90
       70
  0
XRECORD
  5
215
102
{ACAD_REACTORS
330
1FC
102
}
330
1FC
100
AcDbXrecord
340
0
  0
XRECORD
  5
21B
102
{ACAD_REACTORS
330
1FC
102
}
330
1FC
100
AcDbXrecord
 10
0.0
 20
0.0
 30
0.0
  0
XRECORD
  5
217
102
{ACAD_REACTORS
330
1FC
102
}
330
1FC
100
AcDbXrecord
 10
0.0
 20
0.0
 30
0.0
  0
XRECORD
  5
21A
102
{ACAD_REACTORS
330
1FC
102
}
330
1FC
100
AcDbXrecord
 10
0.0
 20
0.0
 30
0.0
  0
XRECORD
  5
218
102
{ACAD_REACTORS
330
1FC
102
}
330
1FC
100
AcDbXrecord
 10
0.0
 20
0.0
 30
0.0
  0
XRECORD
  5
219
102
{ACAD_REACTORS
330
1FC
102
}
330
1FC
100
AcDbXrecord
 10
0.0
 20
0.0
 30
0.0
  0
XRECORD
  5
216
102
{ACAD_REACTORS
330
1FC
102
}
330
1FC
100
AcDbXrecord
 10
0.0
 20
0.0
 30
0.0
  0
XRECORD
  5
213
102
{ACAD_REACTORS
330
1FC
102
}
330
1FC
100
AcDbXrecord
340
0
  0
XRECORD
  5
214
102
{ACAD_REACTORS
330
1FC
102
}
330
1FC
100
AcDbXrecord
 70
     0
  0
XRECORD
  5
208
102
{ACAD_REACTORS
330
1FC
102
}
330
1FC
100
AcDbXrecord
  1
{615B4357-118E-4E2B-8787-2057CBD46E8E}
  0
DICTIONARYVAR
  5
113
102
{ACAD_REACTORS
330
112
102
}
330
112
100
DictionaryVariables
280
     0
  1
1
  0
ENDSEC
  0
EOF
