  0
SECTION
  2
HEADER
  9
$ACADVER
  1
AC1014
  9
$ACADMAINTVER
 70
     9
  9
$DWGCODEPAGE
  3
ANSI_1252
  9
$INSBASE
 10
5.772954246585587
 20
6.881555533282408
 30
0.0
  9
$EXTMIN
 10
-1.629774777971027
 20
6.085495384216089
 30
0.0
  9
$EXTMAX
 10
11.4216832711422
 20
8.535728299933586
 30
0.0
  9
$LIMMIN
 10
0.0
 20
0.0
  9
$LIMMAX
 10
36.0
 20
36.0
  9
$ORTHOMODE
 70
     1
  9
$REGENMODE
 70
     1
  9
$FILLMODE
 70
     1
  9
$QTEXTMODE
 70
     0
  9
$MIRRTEXT
 70
     1
  9
$DRAGMODE
 70
     0
  9
$LTSCALE
 40
1.0
  9
$OSMODE
 70
    37
  9
$ATTMODE
 70
     1
  9
$TEXTSIZE
 40
0.2
  9
$TRACEWID
 40
0.05
  9
$TEXTSTYLE
  7
STANDARD
  9
$CLAYER
  8
0
  9
$CELTYPE
  6
BYLAYER
  9
$CECOLOR
 62
   256
  9
$CELTSCALE
 40
1.0
  9
$DELOBJ
 70
     1
  9
$DISPSILH
 70
     0
  9
$DIMSCALE
 40
1.0
  9
$DIMASZ
 40
0.125
  9
$DIMEXO
 40
0.0625
  9
$DIMDLI
 40
0.38
  9
$DIMRND
 40
0.0
  9
$DIMDLE
 40
0.0
  9
$DIMEXE
 40
0.18
  9
$DIMTP
 40
0.0
  9
$DIMTM
 40
0.0
  9
$DIMTXT
 40
0.125
  9
$DIMCEN
 40
0.1875
  9
$DIMTSZ
 40
0.125
  9
$DIMTOL
 70
     0
  9
$DIMLIM
 70
     0
  9
$DIMTIH
 70
     0
  9
$DIMTOH
 70
     0
  9
$DIMSE1
 70
     0
  9
$DIMSE2
 70
     0
  9
$DIMTAD
 70
     0
  9
$DIMZIN
 70
     3
  9
$DIMBLK
  1

  9
$DIMASO
 70
     1
  9
$DIMSHO
 70
     1
  9
$DIMPOST
  1

  9
$DIMAPOST
  1

  9
$DIMALT
 70
     0
  9
$DIMALTD
 70
     1
  9
$DIMALTF
 40
25.4
  9
$DIMLFAC
 40
1.0
  9
$DIMTOFL
 70
     0
  9
$DIMTVP
 40
0.0
  9
$DIMTIX
 70
     0
  9
$DIMSOXD
 70
     0
  9
$DIMSAH
 70
     0
  9
$DIMBLK1
  1

  9
$DIMBLK2
  1

  9
$DIMSTYLE
  2
STANDARD
  9
$DIMCLRD
 70
     0
  9
$DIMCLRE
 70
     0
  9
$DIMCLRT
 70
     0
  9
$DIMTFAC
 40
1.0
  9
$DIMGAP
 40
0.125
  9
$DIMJUST
 70
     0
  9
$DIMSD1
 70
     0
  9
$DIMSD2
 70
     0
  9
$DIMTOLJ
 70
     1
  9
$DIMTZIN
 70
     3
  9
$DIMALTZ
 70
     3
  9
$DIMALTTZ
 70
     3
  9
$DIMFIT
 70
     5
  9
$DIMUPT
 70
     0
  9
$DIMUNIT
 70
     5
  9
$DIMDEC
 70
     4
  9
$DIMTDEC
 70
     4
  9
$DIMALTU
 70
     5
  9
$DIMALTTD
 70
     1
  9
$DIMTXSTY
  7
STANDARD
  9
$DIMAUNIT
 70
     0
  9
$LUNITS
 70
     5
  9
$LUPREC
 70
     4
  9
$SKETCHINC
 40
0.1
  9
$FILLETRAD
 40
0.187
  9
$AUNITS
 70
     0
  9
$AUPREC
 70
     0
  9
$MENU
  1
acad
  9
$ELEVATION
 40
0.0
  9
$PELEVATION
 40
0.0
  9
$THICKNESS
 40
0.0
  9
$LIMCHECK
 70
     0
  9
$BLIPMODE
 70
     0
  9
$CHAMFERA
 40
0.0
  9
$CHAMFERB
 40
0.0
  9
$CHAMFERC
 40
0.0
  9
$CHAMFERD
 40
0.0
  9
$SKPOLY
 70
     0
  9
$TDCREATE
 40
2450399.629823877
  9
$TDUPDATE
 40
2452297.093270208
  9
$TDINDWG
 40
0.0221885764
  9
$TDUSRTIMER
 40
0.0221885764
  9
$USRTIMER
 70
     1
  9
$ANGBASE
 50
0.0
  9
$ANGDIR
 70
     0
  9
$PDMODE
 70
     0
  9
$PDSIZE
 40
0.0
  9
$PLINEWID
 40
0.0
  9
$COORDS
 70
     2
  9
$SPLFRAME
 70
     0
  9
$SPLINETYPE
 70
     6
  9
$SPLINESEGS
 70
     8
  9
$ATTDIA
 70
     0
  9
$ATTREQ
 70
     1
  9
$HANDLING
 70
 22529
  9
$HANDSEED
  5
347
  9
$SURFTAB1
 70
     6
  9
$SURFTAB2
 70
     6
  9
$SURFTYPE
 70
     6
  9
$SURFU
 70
     6
  9
$SURFV
 70
     6
  9
$UCSNAME
  2

  9
$UCSORG
 10
0.0
 20
0.0
 30
0.0
  9
$UCSXDIR
 10
1.0
 20
0.0
 30
0.0
  9
$UCSYDIR
 10
0.0
 20
1.0
 30
0.0
  9
$PUCSNAME
  2

  9
$PUCSORG
 10
0.0
 20
0.0
 30
0.0
  9
$PUCSXDIR
 10
1.0
 20
0.0
 30
0.0
  9
$PUCSYDIR
 10
0.0
 20
1.0
 30
0.0
  9
$USERI1
 70
     0
  9
$USERI2
 70
     0
  9
$USERI3
 70
     0
  9
$USERI4
 70
     0
  9
$USERI5
 70
     0
  9
$USERR1
 40
0.0
  9
$USERR2
 40
0.0
  9
$USERR3
 40
0.0
  9
$USERR4
 40
0.0
  9
$USERR5
 40
0.0
  9
$WORLDVIEW
 70
     1
  9
$SHADEDGE
 70
     3
  9
$SHADEDIF
 70
    70
  9
$TILEMODE
 70
     1
  9
$MAXACTVP
 70
    15
  9
$PINSBASE
 10
0.0004882914945483
 20
0.7501408034022604
 30
0.0
  9
$PLIMCHECK
 70
     0
  9
$PEXTMIN
 10
1.000000000000000E+20
 20
1.000000000000000E+20
 30
1.000000000000000E+20
  9
$PEXTMAX
 10
-1.000000000000000E+20
 20
-1.000000000000000E+20
 30
-1.000000000000000E+20
  9
$PLIMMIN
 10
0.0
 20
0.0
  9
$PLIMMAX
 10
12.0
 20
9.0
  9
$UNITMODE
 70
     0
  9
$VISRETAIN
 70
     0
  9
$PLINEGEN
 70
     0
  9
$PSLTSCALE
 70
     1
  9
$TREEDEPTH
 70
  3020
  9
$PICKSTYLE
 70
     1
  9
$CMLSTYLE
  2
STANDARD
  9
$CMLJUST
 70
     0
  9
$CMLSCALE
 40
1.0
  9
$PROXYGRAPHICS
 70
     1
  9
$MEASUREMENT
 70
     0
  0
ENDSEC
  0
SECTION
  2
CLASSES
  0
CLASS
  1
ACDBDICTIONARYWDFLT
  2
AcDbDictionaryWithDefault
  3
AutoCAD 2000
 90
        0
280
     0
281
     0
  0
CLASS
  1
ACDBPLACEHOLDER
  2
AcDbPlaceHolder
  3
AutoCAD 2000
 90
        0
280
     0
281
     0
  0
CLASS
  1
LAYOUT
  2
AcDbLayout
  3
AutoCAD 2000
 90
        0
280
     0
281
     0
  0
CLASS
  1
DICTIONARYVAR
  2
AcDbDictionaryVar
  3
AutoCAD 2000
 90
        0
280
     0
281
     0
  0
CLASS
  1
LONG_TRANSACTION
  2
AcDbLongTransaction
  3
AutoCAD 2000
 90
        0
280
     0
281
     0
  0
CLASS
  1
LWPOLYLINE
  2
AcDbPolyline
  3
AutoCAD 2000
 90
        0
280
     0
281
     1
  0
CLASS
  1
HATCH
  2
AcDbHatch
  3
AutoCAD 2000
 90
        0
280
     0
281
     1
  0
CLASS
  1
XRECORD
  2
AcDbXrecord
  3
AutoCAD 2000
 90
        0
280
     0
281
     0
  0
CLASS
  1
LONG_TRANSACTION
  2
AcDbLongTransaction
  3
AutoCAD 2000
 90
        0
280
     0
281
     0
  0
CLASS
  1
LWPOLYLINE
  2
AcDbPolyline
  3
AutoCAD 2000
 90
        0
280
     0
281
     1
  0
CLASS
  1
HATCH
  2
AcDbHatch
  3
AutoCAD 2000
 90
        0
280
     0
281
     1
  0
CLASS
  1
XRECORD
  2
AcDbXrecord
  3
AutoCAD 2000
 90
        0
280
     0
281
     0
  0
CLASS
  1
LONG_TRANSACTION
  2
AcDbLongTransaction
  3
AutoCAD 2000
 90
        0
280
     0
281
     0
  0
CLASS
  1
LWPOLYLINE
  2
AcDbPolyline
  3
AutoCAD 2000
 90
        0
280
     0
281
     1
  0
CLASS
  1
HATCH
  2
AcDbHatch
  3
AutoCAD 2000
 90
        0
280
     0
281
     1
  0
CLASS
  1
XRECORD
  2
AcDbXrecord
  3
AutoCAD 2000
 90
        0
280
     0
281
     0
  0
CLASS
  1
LONG_TRANSACTION
  2
AcDbLongTransaction
  3
AutoCAD 2000
 90
        0
280
     0
281
     0
  0
CLASS
  1
LWPOLYLINE
  2
AcDbPolyline
  3
AutoCAD 2000
 90
        0
280
     0
281
     1
  0
CLASS
  1
HATCH
  2
AcDbHatch
  3
AutoCAD 2000
 90
        0
280
     0
281
     1
  0
CLASS
  1
XRECORD
  2
AcDbXrecord
  3
AutoCAD 2000
 90
        0
280
     0
281
     0
  0
CLASS
  1
LONG_TRANSACTION
  2
AcDbLongTransaction
  3
AutoCAD 2000
 90
        0
280
     0
281
     0
  0
CLASS
  1
LWPOLYLINE
  2
AcDbPolyline
  3
AutoCAD 2000
 90
        0
280
     0
281
     1
  0
CLASS
  1
HATCH
  2
AcDbHatch
  3
AutoCAD 2000
 90
        0
280
     0
281
     1
  0
CLASS
  1
XRECORD
  2
AcDbXrecord
  3
AutoCAD 2000
 90
        0
280
     0
281
     0
  0
ENDSEC
  0
SECTION
  2
TABLES
  0
TABLE
  2
VPORT
  5
8
330
0
100
AcDbSymbolTable
 70
     2
  0
VPORT
  5
323
330
8
100
AcDbSymbolTableRecord
100
AcDbViewportTableRecord
  2
*ACTIVE
 70
     0
 10
0.0
 20
0.0
 11
1.0
 21
1.0
 12
4.906443382158544
 22
7.311676096766811
 13
0.0
 23
0.0
 14
0.5740882589684922
 24
0.5740882589684922
 15
0.5
 25
0.5
 16
0.0
 26
0.0
 36
1.0
 17
0.0
 27
0.0
 37
0.0
 40
8.363875442212112
 41
1.570528967254408
 42
50.0
 43
0.0
 44
0.0
 50
0.0
 51
0.0
 71
     0
 72
   100
 73
     1
 74
     0
 75
     0
 76
     0
 77
     0
 78
     0
  0
ENDTAB
  0
TABLE
  2
LTYPE
  5
5
330
0
100
AcDbSymbolTable
 70
     1
  0
LTYPE
  5
13
330
5
100
AcDbSymbolTableRecord
100
AcDbLinetypeTableRecord
  2
BYBLOCK
 70
     0
  3

 72
    65
 73
     0
 40
0.0
  0
LTYPE
  5
14
330
5
100
AcDbSymbolTableRecord
100
AcDbLinetypeTableRecord
  2
BYLAYER
 70
     0
  3

 72
    65
 73
     0
 40
0.0
  0
LTYPE
  5
15
330
5
100
AcDbSymbolTableRecord
100
AcDbLinetypeTableRecord
  2
CONTINUOUS
 70
     0
  3
Solid line
 72
    65
 73
     0
 40
0.0
  0
ENDTAB
  0
TABLE
  2
LAYER
  5
2
330
0
100
AcDbSymbolTable
 70
     4
  0
LAYER
  5
10
330
2
100
AcDbSymbolTableRecord
100
AcDbLayerTableRecord
  2
0
 70
     0
 62
     7
  6
CONTINUOUS
  0
LAYER
  5
14B
330
2
100
AcDbSymbolTableRecord
100
AcDbLayerTableRecord
  2
ADP1DETAIL
 70
     0
 62
     7
  6
CONTINUOUS
  0
LAYER
  5
14D
330
2
100
AcDbSymbolTableRecord
100
AcDbLayerTableRecord
  2
DEFPOINTS
 70
     0
 62
     7
  6
CONTINUOUS
  0
LAYER
  5
150
330
2
100
AcDbSymbolTableRecord
100
AcDbLayerTableRecord
  2
ADPDIM
 70
     0
 62
     3
  6
CONTINUOUS
  0
ENDTAB
  0
TABLE
  2
STYLE
  5
3
330
0
100
AcDbSymbolTable
 70
     2
  0
STYLE
  5
11
330
3
100
AcDbSymbolTableRecord
100
AcDbTextStyleTableRecord
  2
STANDARD
 70
     0
 40
0.0
 41
1.0
 50
0.0
 71
     0
 42
0.2
  3
txt
  4

  0
STYLE
  5
190
330
3
100
AcDbSymbolTableRecord
100
AcDbTextStyleTableRecord
  2
ARIAL_WIDE
 70
     0
 40
0.0
 41
1.25
 50
0.0
 71
     0
 42
0.2
  3
ARIAL.TTF
  4

1001
ACAD
1000
Arial
1071
       34
  0
ENDTAB
  0
TABLE
  2
VIEW
  5
6
330
0
100
AcDbSymbolTable
 70
     0
  0
ENDTAB
  0
TABLE
  2
UCS
  5
7
330
0
100
AcDbSymbolTable
 70
     0
  0
ENDTAB
  0
TABLE
  2
APPID
  5
9
330
0
100
AcDbSymbolTable
 70
     1
  0
APPID
  5
12
330
9
100
AcDbSymbolTableRecord
100
AcDbRegAppTableRecord
  2
ACAD
 70
     0
  0
ENDTAB
  0
TABLE
  2
DIMSTYLE
  5
A
330
0
100
AcDbSymbolTable
 70
     1
  0
DIMSTYLE
105
18E
330
A
100
AcDbSymbolTableRecord
100
AcDbDimStyleTableRecord
  2
STANDARD
 70
     0
  3

  4

  5

  6

  7

 40
1.0
 41
0.18
 42
0.0625
 43
0.38
 44
0.18
 45
0.0
 46
0.0
 47
0.0
 48
0.0
140
0.18
141
0.09
142
0.0
143
25.4
144
1.0
145
0.0
146
1.0
147
0.09
 71
     0
 72
     0
 73
     1
 74
     1
 75
     0
 76
     0
 77
     0
 78
     0
170
     0
171
     2
172
     0
173
     0
174
     0
175
     0
176
     0
177
     0
178
     0
270
     2
271
     4
272
     4
273
     2
274
     2
340
11
275
     0
280
     0
281
     0
282
     0
283
     1
284
     0
285
     0
286
     0
287
     3
288
     0
  0
ENDTAB
  0
TABLE
  2
BLOCK_RECORD
  5
1
330
0
100
AcDbSymbolTable
 70
     3
  0
BLOCK_RECORD
  5
1E
102
{ACAD_XDICTIONARY
360
1CD
102
}
330
1
100
AcDbSymbolTableRecord
100
AcDbBlockTableRecord
  2
*MODEL_SPACE
  0
BLOCK_RECORD
  5
1A
102
{ACAD_XDICTIONARY
360
1CF
102
}
330
1
100
AcDbSymbolTableRecord
100
AcDbBlockTableRecord
  2
*PAPER_SPACE
  0
BLOCK_RECORD
  5
145
330
1
100
AcDbSymbolTableRecord
100
AcDbBlockTableRecord
  2
*D0
  0
BLOCK_RECORD
  5
146
330
1
100
AcDbSymbolTableRecord
100
AcDbBlockTableRecord
  2
*D1
  0
BLOCK_RECORD
  5
147
330
1
100
AcDbSymbolTableRecord
100
AcDbBlockTableRecord
  2
*D2
  0
ENDTAB
  0
ENDSEC
  0
SECTION
  2
BLOCKS
  0
BLOCK
  5
153
330
1E
100
AcDbEntity
  8
0
100
AcDbBlockBegin
  2
*MODEL_SPACE
 70
     0
 10
0.0
 20
0.0
 30
0.0
  3
*MODEL_SPACE
  1

  0
ENDBLK
  5
154
330
1E
100
AcDbEntity
  8
0
100
AcDbBlockEnd
  0
BLOCK
  5
151
330
1A
100
AcDbEntity
 67
     1
  8
0
100
AcDbBlockBegin
  2
*PAPER_SPACE
 70
     0
 10
0.0
 20
0.0
 30
0.0
  3
*PAPER_SPACE
  1

  0
ENDBLK
  5
152
330
1A
100
AcDbEntity
 67
     1
  8
0
100
AcDbBlockEnd
  0
BLOCK
  5
156
330
145
100
AcDbEntity
  8
0
100
AcDbBlockBegin
  2
*D0
 70
     1
 10
0.0
 20
0.0
 30
0.0
  3
*D0
  1

  0
LINE
  5
157
330
145
100
AcDbEntity
  8
0
  6
BYBLOCK
 62
     0
100
AcDbLine
 10
3.395954246585588
 20
7.571055533282409
 30
0.0
 11
3.395954246585588
 21
8.535728299933586
 31
0.0
  0
LINE
  5
158
330
145
100
AcDbEntity
  8
0
  6
BYBLOCK
 62
     0
100
AcDbLine
 10
6.395954246585588
 20
7.567055533282408
 30
0.0
 11
6.395954246585588
 21
8.535728299933586
 31
0.0
  0
LINE
  5
159
330
145
100
AcDbEntity
  8
0
  6
BYBLOCK
 62
     0
100
AcDbLine
 10
3.395954246585588
 20
8.355728299933586
 30
0.0
 11
4.729287579918922
 21
8.355728299933586
 31
0.0
  0
LINE
  5
15A
330
145
100
AcDbEntity
  8
0
  6
BYBLOCK
 62
     0
100
AcDbLine
 10
6.395954246585588
 20
8.355728299933586
 30
0.0
 11
5.062620913252255
 21
8.355728299933586
 31
0.0
  0
LINE
  5
15B
330
145
100
AcDbEntity
  8
0
  6
BYBLOCK
 62
     0
100
AcDbLine
 10
3.270954246585588
 20
8.230728299933586
 30
0.0
 11
3.520954246585588
 21
8.480728299933586
 31
0.0
  0
LINE
  5
15C
330
145
100
AcDbEntity
  8
0
  6
BYBLOCK
 62
     0
100
AcDbLine
 10
6.270954246585588
 20
8.230728299933586
 30
0.0
 11
6.520954246585588
 21
8.480728299933586
 31
0.0
  0
TEXT
  5
15D
330
145
100
AcDbEntity
  8
0
  6
BYBLOCK
 62
     0
100
AcDbText
 10
4.854287579918922
 20
8.293228299933586
 30
0.0
 40
0.125
  1
3
 72
     1
 11
4.895954246585588
 21
8.355728299933586
 31
0.0
100
AcDbText
 73
     2
  0
POINT
  5
15F
330
145
100
AcDbEntity
  8
DEFPOINTS
  6
BYBLOCK
 62
     0
100
AcDbPoint
 10
3.395954246585588
 20
7.508555533282409
 30
0.0
  0
POINT
  5
160
330
145
100
AcDbEntity
  8
DEFPOINTS
  6
BYBLOCK
 62
     0
100
AcDbPoint
 10
6.395954246585588
 20
7.504555533282408
 30
0.0
  0
POINT
  5
161
330
145
100
AcDbEntity
  8
DEFPOINTS
  6
BYBLOCK
 62
     0
100
AcDbPoint
 10
6.395954246585588
 20
8.355728299933586
 30
0.0
  0
ENDBLK
  5
162
330
145
100
AcDbEntity
  8
0
100
AcDbBlockEnd
  0
BLOCK
  5
163
330
146
100
AcDbEntity
  8
0
100
AcDbBlockBegin
  2
*D1
 70
     1
 10
0.0
 20
0.0
 30
0.0
  3
*D1
  1

  0
LINE
  5
164
330
146
100
AcDbEntity
  8
0
  6
BYBLOCK
 62
     0
100
AcDbLine
 10
3.956454246585589
 20
8.131555533282407
 30
0.0
 11
2.759956358441337
 21
8.131555533282407
 31
0.0
  0
LINE
  5
165
330
146
100
AcDbEntity
  8
0
  6
BYBLOCK
 62
     0
100
AcDbLine
 10
3.95645424658559
 20
6.881555533282407
 30
0.0
 11
2.759956358441337
 21
6.881555533282407
 31
0.0
  0
LINE
  5
166
330
146
100
AcDbEntity
  8
0
  6
BYBLOCK
 62
     0
100
AcDbLine
 10
2.939956358441337
 20
8.131555533282407
 30
0.0
 11
2.939956358441337
 21
7.881555533282407
 31
0.0
  0
LINE
  5
167
330
146
100
AcDbEntity
  8
0
  6
BYBLOCK
 62
     0
100
AcDbLine
 10
2.939956358441337
 20
6.881555533282407
 30
0.0
 11
2.939956358441337
 21
7.131555533282407
 31
0.0
  0
LINE
  5
168
330
146
100
AcDbEntity
  8
0
  6
BYBLOCK
 62
     0
100
AcDbLine
 10
3.064956358441337
 20
8.006555533282407
 30
0.0
 11
2.814956358441337
 21
8.256555533282407
 31
0.0
  0
LINE
  5
169
330
146
100
AcDbEntity
  8
0
  6
BYBLOCK
 62
     0
100
AcDbLine
 10
3.064956358441337
 20
6.756555533282407
 30
0.0
 11
2.814956358441337
 21
7.006555533282407
 31
0.0
  0
TEXT
  5
16A
330
146
100
AcDbEntity
  8
0
  6
BYBLOCK
 62
     0
100
AcDbText
 10
3.002456358441337
 20
7.256555533282407
 30
0.0
 40
0.125
  1
1 1/4
 50
90.0
 72
     1
 11
2.939956358441337
 21
7.506555533282407
 31
0.0
100
AcDbText
 73
     2
  0
POINT
  5
16B
330
146
100
AcDbEntity
  8
DEFPOINTS
  6
BYBLOCK
 62
     0
100
AcDbPoint
 10
4.01895424658559
 20
8.131555533282407
 30
0.0
  0
POINT
  5
16C
330
146
100
AcDbEntity
  8
DEFPOINTS
  6
BYBLOCK
 62
     0
100
AcDbPoint
 10
4.01895424658559
 20
6.881555533282407
 30
0.0
  0
POINT
  5
16D
330
146
100
AcDbEntity
  8
DEFPOINTS
  6
BYBLOCK
 62
     0
100
AcDbPoint
 10
2.939956358441337
 20
6.881555533282407
 30
0.0
  0
ENDBLK
  5
16E
330
146
100
AcDbEntity
  8
0
100
AcDbBlockEnd
  0
BLOCK
  5
16F
330
147
100
AcDbEntity
  8
0
100
AcDbBlockBegin
  2
*D2
 70
     1
 10
0.0
 20
0.0
 30
0.0
  3
*D2
  1

  0
LINE
  5
170
330
147
100
AcDbEntity
  8
0
  6
BYBLOCK
 62
     0
100
AcDbLine
 10
6.270954246585588
 20
7.569055533282407
 30
0.0
 11
6.270954246585588
 21
7.687243466458463
 31
0.0
  0
LINE
  5
171
330
147
100
AcDbEntity
  8
0
  6
BYBLOCK
 62
     0
100
AcDbLine
 10
6.395954246585588
 20
7.569055533282407
 30
0.0
 11
6.395954246585588
 21
7.687243466458463
 31
0.0
  0
LINE
  5
172
330
147
100
AcDbEntity
  8
0
  6
BYBLOCK
 62
     0
100
AcDbLine
 10
6.270954246585588
 20
7.507243466458463
 30
0.0
 11
6.020954246585588
 21
7.507243466458463
 31
0.0
  0
LINE
  5
173
330
147
100
AcDbEntity
  8
0
  6
BYBLOCK
 62
     0
100
AcDbLine
 10
6.395954246585588
 20
7.507243466458463
 30
0.0
 11
6.645954246585588
 21
7.507243466458463
 31
0.0
  0
LINE
  5
174
330
147
100
AcDbEntity
  8
0
  6
BYBLOCK
 62
     0
100
AcDbLine
 10
6.145954246585588
 20
7.382243466458463
 30
0.0
 11
6.395954246585588
 21
7.632243466458463
 31
0.0
  0
LINE
  5
175
330
147
100
AcDbEntity
  8
0
  6
BYBLOCK
 62
     0
100
AcDbLine
 10
6.270954246585588
 20
7.382243466458463
 30
0.0
 11
6.520954246585588
 21
7.632243466458463
 31
0.0
  0
TEXT
  5
176
330
147
100
AcDbEntity
  8
0
  6
BYBLOCK
 62
     0
100
AcDbText
 10
6.770954246585588
 20
7.444743466458463
 30
0.0
 40
0.125
  1
1/8
 72
     1
 11
6.916787579918922
 21
7.507243466458463
 31
0.0
100
AcDbText
 73
     2
  0
POINT
  5
177
330
147
100
AcDbEntity
  8
DEFPOINTS
  6
BYBLOCK
 62
     0
100
AcDbPoint
 10
6.270954246585588
 20
7.506555533282407
 30
0.0
  0
POINT
  5
178
330
147
100
AcDbEntity
  8
DEFPOINTS
  6
BYBLOCK
 62
     0
100
AcDbPoint
 10
6.395954246585588
 20
7.506555533282407
 30
0.0
  0
POINT
  5
179
330
147
100
AcDbEntity
  8
DEFPOINTS
  6
BYBLOCK
 62
     0
100
AcDbPoint
 10
6.395954246585588
 20
7.507243466458463
 30
0.0
  0
ENDBLK
  5
17A
330
147
100
AcDbEntity
  8
0
100
AcDbBlockEnd
  0
ENDSEC
  0
SECTION
  2
ENTITIES
  0
DIMENSION
  5
17B
330
1E
100
AcDbEntity
  8
ADPDIM
100
AcDbDimension
  2
*D0
 10
6.395954246585588
 20
8.355728299933586
 30
0.0
 11
4.895954246585588
 21
8.355728299933586
 31
0.0
100
AcDbAlignedDimension
 13
3.395954246585588
 23
7.508555533282409
 33
0.0
 14
6.395954246585588
 24
7.504555533282408
 34
0.0
100
AcDbRotatedDimension
  0
LINE
  5
17C
330
1E
100
AcDbEntity
  8
ADP1DETAIL
100
AcDbLine
 10
4.01895424658559
 20
8.131555533282407
 30
0.0
 11
5.772954246585587
 21
8.131555533282407
 31
0.0
  0
LINE
  5
17D
330
1E
100
AcDbEntity
  8
ADP1DETAIL
100
AcDbLine
 10
5.772954246585587
 20
6.881555533282408
 30
0.0
 11
4.01895424658559
 21
6.881555533282408
 31
0.0
  0
LINE
  5
17E
330
1E
100
AcDbEntity
  8
ADP1DETAIL
100
AcDbLine
 10
4.000954246585589
 20
8.006555533282407
 30
0.0
 11
5.790954246585588
 21
8.006555533282407
 31
0.0
  0
LINE
  5
17F
330
1E
100
AcDbEntity
  8
ADP1DETAIL
100
AcDbLine
 10
5.790954246585588
 20
7.006555533282408
 30
0.0
 11
4.000954246585589
 21
7.006555533282408
 31
0.0
  0
DIMENSION
  5
180
330
1E
100
AcDbEntity
  8
ADPDIM
100
AcDbDimension
  2
*D1
 10
2.939956358441337
 20
6.881555533282407
 30
0.0
 11
2.939956358441337
 21
7.506555533282407
 31
0.0
100
AcDbAlignedDimension
 13
4.01895424658559
 23
8.131555533282407
 33
0.0
 14
4.01895424658559
 24
6.881555533282407
 34
0.0
 50
90.0
100
AcDbRotatedDimension
  0
ARC
  5
181
330
1E
100
AcDbEntity
  8
ADP1DETAIL
100
AcDbCircle
 10
4.01895424658559
 20
7.504555533282407
 30
0.0
 40
0.6230000000000003
100
AcDbArc
 50
180.0
 51
270.0
  0
ARC
  5
182
330
1E
100
AcDbEntity
  8
ADP1DETAIL
100
AcDbCircle
 10
4.000954246585589
 20
7.486555533282406
 30
0.0
 40
0.4799999999999996
100
AcDbArc
 50
180.0
 51
270.0
  0
ARC
  5
183
330
1E
100
AcDbEntity
  8
ADP1DETAIL
100
AcDbCircle
 10
4.01895424658559
 20
7.508555533282408
 30
0.0
 40
0.6230000000000003
100
AcDbArc
 50
90.0
 51
180.0
  0
ARC
  5
184
330
1E
100
AcDbEntity
  8
ADP1DETAIL
100
AcDbCircle
 10
4.000954246585589
 20
7.526555533282409
 30
0.0
 40
0.4800000000000005
100
AcDbArc
 50
90.0
 51
180.0
  0
LINE
  5
185
330
1E
100
AcDbEntity
  8
ADP1DETAIL
100
AcDbLine
 10
3.520954246585588
 20
7.486555533282406
 30
0.0
 11
3.520954246585588
 21
7.526555533282409
 31
0.0
  0
LINE
  5
186
330
1E
100
AcDbEntity
  8
ADP1DETAIL
100
AcDbLine
 10
3.395954246585588
 20
7.504555533282407
 30
0.0
 11
3.395954246585588
 21
7.508555533282408
 31
0.0
  0
ARC
  5
187
330
1E
100
AcDbEntity
  8
ADP1DETAIL
100
AcDbCircle
 10
5.790954246585588
 20
7.486555533282406
 30
0.0
 40
0.4800000000000005
100
AcDbArc
 50
270.0
 51
0.0
  0
ARC
  5
188
330
1E
100
AcDbEntity
  8
ADP1DETAIL
100
AcDbCircle
 10
5.772954246585587
 20
7.504555533282407
 30
0.0
 40
0.6230000000000011
100
AcDbArc
 50
270.0
 51
0.0
  0
DIMENSION
  5
189
330
1E
100
AcDbEntity
  8
ADPDIM
100
AcDbDimension
  2
*D2
 10
6.395954246585588
 20
7.507243466458463
 30
0.0
 11
6.916787579918922
 21
7.507243466458463
 31
0.0
100
AcDbAlignedDimension
 13
6.270954246585588
 23
7.506555533282407
 33
0.0
 14
6.395954246585588
 24
7.506555533282407
 34
0.0
100
AcDbRotatedDimension
  0
ARC
  5
18A
330
1E
100
AcDbEntity
  8
ADP1DETAIL
100
AcDbCircle
 10
5.772954246585587
 20
7.508555533282408
 30
0.0
 40
0.6230000000000003
100
AcDbArc
 50
0.0
 51
90.0
  0
ARC
  5
18B
330
1E
100
AcDbEntity
  8
ADP1DETAIL
100
AcDbCircle
 10
5.790954246585588
 20
7.526555533282409
 30
0.0
 40
0.4799999999999996
100
AcDbArc
 50
0.0
 51
90.0
  0
LINE
  5
18C
330
1E
100
AcDbEntity
  8
ADP1DETAIL
100
AcDbLine
 10
6.395954246585588
 20
7.508555533282408
 30
0.0
 11
6.395954246585588
 21
7.504555533282407
 31
0.0
  0
LINE
  5
18D
330
1E
100
AcDbEntity
  8
ADP1DETAIL
100
AcDbLine
 10
6.270954246585588
 20
7.526555533282409
 30
0.0
 11
6.270954246585588
 21
7.486555533282406
 31
0.0
  0
TEXT
  5
191
330
1E
100
AcDbEntity
  8
ADPDIM
100
AcDbText
 10
-1.629774777971027
 20
6.12250084124201
 30
0.0
 40
0.125
  1
J U L I U S  B L U M  &  C O . ,  I N C .      ( 8 0 0 )  5 2 6 - 6 2 9 3        W W W . J U L I U S B L U M . C O M        P A R T  N o .  6 4 3 7
 41
1.25
  7
ARIAL_WIDE
 72
     1
 11
4.895954246585588
 21
6.24750084124201
 31
0.0
100
AcDbText
 73
     3
  0
ENDSEC
  0
SECTION
  2
OBJECTS
  0
DICTIONARY
  5
C
330
0
100
AcDbDictionary
  3
ACAD_GROUP
350
D
  3
ACAD_LAYOUT
350
19
  3
ACAD_MLINESTYLE
350
16
  3
ACAD_PLOTSETTINGS
350
18
  3
ACAD_PLOTSTYLENAME
350
E
  3
ACDBHEADERROUNDTRIPXREC
350
324
  3
ACDBVARIABLEDICTIONARY
350
202
  0
DICTIONARY
  5
1CD
330
1E
100
AcDbDictionary
280
     1
  3
ACAD_LAYOUTSELFREF
360
346
  0
DICTIONARY
  5
1CF
330
1A
100
AcDbDictionary
280
     1
  3
ACAD_LAYOUTSELFREF
360
345
  0
DICTIONARY
  5
D
102
{ACAD_REACTORS
330
C
102
}
330
C
100
AcDbDictionary
  0
DICTIONARY
  5
19
102
{ACAD_REACTORS
330
C
102
}
330
C
100
AcDbDictionary
  0
DICTIONARY
  5
16
102
{ACAD_REACTORS
330
C
102
}
330
C
100
AcDbDictionary
  3
STANDARD
350
17
  0
DICTIONARY
  5
18
102
{ACAD_REACTORS
330
C
102
}
330
C
100
AcDbDictionary
  0
ACDBDICTIONARYWDFLT
  5
E
102
{ACAD_REACTORS
330
C
102
}
330
C
100
AcDbDictionary
281
     1
  3
Normal
350
F
100
AcDbDictionaryWithDefault
340
F
  0
DICTIONARY
  5
324
102
{ACAD_REACTORS
330
C
102
}
330
C
100
AcDbDictionary
  3
CEPSNTYPE
350
32E
  3
DIMSTYLEDATA
350
332
  3
FINGERPRINTGUID
350
32F
  3
HYPERLINKBASE
350
327
  3
INSUNITS
350
32D
  3
LAYOUTDICT
350
329
  3
LWETCUNION
350
32C
  3
PLOTSETDICT
350
32A
  3
PLOTSTYLNAMDICT
350
32B
  3
PSVPSCALE
350
331
  3
PUCSBASE
350
335
  3
PUCSORGBACK
350
33B
  3
PUCSORGBOTTOM
350
337
  3
PUCSORGFRONT
350
33A
  3
PUCSORGLEFT
350
338
  3
PUCSORGRIGHT
350
339
  3
PUCSORGTOP
350
336
  3
PUCSORTHOREF
350
333
  3
PUCSORTHOVIEW
350
334
  3
STYLESHEET
350
328
  3
TSTACKALIGN
350
325
  3
TSTACKSIZE
350
326
  3
UCSBASE
350
33E
  3
UCSORGBACK
350
344
  3
UCSORGBOTTOM
350
340
  3
UCSORGFRONT
350
343
  3
UCSORGLEFT
350
341
  3
UCSORGRIGHT
350
342
  3
UCSORGTOP
350
33F
  3
UCSORTHOREF
350
33C
  3
UCSORTHOVIEW
350
33D
  3
VERSIONGUID
350
330
  0
DICTIONARY
  5
202
102
{ACAD_REACTORS
330
C
102
}
330
C
100
AcDbDictionary
  3
DIMASSOC
350
204
  3
HIDETEXT
350
203
  0
XRECORD
  5
346
102
{ACAD_REACTORS
330
1CD
102
}
330
1CD
100
AcDbXrecord
340
1E
  0
XRECORD
  5
345
102
{ACAD_REACTORS
330
1CF
102
}
330
1CF
100
AcDbXrecord
340
1A
  0
MLINESTYLE
  5
17
102
{ACAD_REACTORS
330
16
102
}
330
16
100
AcDbMlineStyle
  2
STANDARD
 70
     0
  3

 62
   256
 51
90.0
 52
90.0
 71
     2
 49
0.5
 62
   256
  6
BYLAYER
 49
-0.5
 62
   256
  6
BYLAYER
  0
ACDBPLACEHOLDER
  5
F
102
{ACAD_REACTORS
330
E
102
}
330
E
100
AcDbPlaceHolder
280
     0
  0
XRECORD
  5
32E
102
{ACAD_REACTORS
330
324
102
}
330
324
100
AcDbXrecord
 90
        0
  0
XRECORD
  5
332
102
{ACAD_REACTORS
330
324
102
}
330
324
100
AcDbXrecord
1000
DSTYLE
1002
{
1070
   277
 70
     5
1070
   279
 70
     2
1002
}
  0
XRECORD
  5
32F
102
{ACAD_REACTORS
330
324
102
}
330
324
100
AcDbXrecord
  1
{49668290-8EEA-4760-AC33-0FA49F4A845B}
  0
XRECORD
  5
327
102
{ACAD_REACTORS
330
324
102
}
330
324
100
AcDbXrecord
  1

  0
XRECORD
  5
32D
102
{ACAD_REACTORS
330
324
102
}
330
324
100
AcDbXrecord
 90
        0
  0
XRECORD
  5
329
102
{ACAD_REACTORS
330
324
102
}
330
324
100
AcDbXrecord
340
19
  0
XRECORD
  5
32C
102
{ACAD_REACTORS
330
324
102
}
330
324
100
AcDbXrecord
 90
    14877
  0
XRECORD
  5
32A
102
{ACAD_REACTORS
330
324
102
}
330
324
100
AcDbXrecord
340
18
  0
XRECORD
  5
32B
102
{ACAD_REACTORS
330
324
102
}
330
324
100
AcDbXrecord
340
E
  0
XRECORD
  5
331
102
{ACAD_REACTORS
330
324
102
}
330
324
100
AcDbXrecord
 40
0.0
  0
XRECORD
  5
335
102
{ACAD_REACTORS
330
324
102
}
330
324
100
AcDbXrecord
340
0
  0
XRECORD
  5
33B
102
{ACAD_REACTORS
330
324
102
}
330
324
100
AcDbXrecord
 10
0.0
 20
0.0
 30
0.0
  0
XRECORD
  5
337
102
{ACAD_REACTORS
330
324
102
}
330
324
100
AcDbXrecord
 10
0.0
 20
0.0
 30
0.0
  0
XRECORD
  5
33A
102
{ACAD_REACTORS
330
324
102
}
330
324
100
AcDbXrecord
 10
0.0
 20
0.0
 30
0.0
  0
XRECORD
  5
338
102
{ACAD_REACTORS
330
324
102
}
330
324
100
AcDbXrecord
 10
0.0
 20
0.0
 30
0.0
  0
XRECORD
  5
339
102
{ACAD_REACTORS
330
324
102
}
330
324
100
AcDbXrecord
 10
0.0
 20
0.0
 30
0.0
  0
XRECORD
  5
336
102
{ACAD_REACTORS
330
324
102
}
330
324
100
AcDbXrecord
 10
0.0
 20
0.0
 30
0.0
  0
XRECORD
  5
333
102
{ACAD_REACTORS
330
324
102
}
330
324
100
AcDbXrecord
340
0
  0
XRECORD
  5
334
102
{ACAD_REACTORS
330
324
102
}
330
324
100
AcDbXrecord
 70
     0
  0
XRECORD
  5
328
102
{ACAD_REACTORS
330
324
102
}
330
324
100
AcDbXrecord
  1

  0
XRECORD
  5
325
102
{ACAD_REACTORS
330
324
102
}
330
324
100
AcDbXrecord
 90
        1
  0
XRECORD
  5
326
102
{ACAD_REACTORS
330
324
102
}
330
324
100
AcDbXrecord
 90
       70
  0
XRECORD
  5
33E
102
{ACAD_REACTORS
330
324
102
}
330
324
100
AcDbXrecord
340
0
  0
XRECORD
  5
344
102
{ACAD_REACTORS
330
324
102
}
330
324
100
AcDbXrecord
 10
0.0
 20
0.0
 30
0.0
  0
XRECORD
  5
340
102
{ACAD_REACTORS
330
324
102
}
330
324
100
AcDbXrecord
 10
0.0
 20
0.0
 30
0.0
  0
XRECORD
  5
343
102
{ACAD_REACTORS
330
324
102
}
330
324
100
AcDbXrecord
 10
0.0
 20
0.0
 30
0.0
  0
XRECORD
  5
341
102
{ACAD_REACTORS
330
324
102
}
330
324
100
AcDbXrecord
 10
0.0
 20
0.0
 30
0.0
  0
XRECORD
  5
342
102
{ACAD_REACTORS
330
324
102
}
330
324
100
AcDbXrecord
 10
0.0
 20
0.0
 30
0.0
  0
XRECORD
  5
33F
102
{ACAD_REACTORS
330
324
102
}
330
324
100
AcDbXrecord
 10
0.0
 20
0.0
 30
0.0
  0
XRECORD
  5
33C
102
{ACAD_REACTORS
330
324
102
}
330
324
100
AcDbXrecord
340
0
  0
XRECORD
  5
33D
102
{ACAD_REACTORS
330
324
102
}
330
324
100
AcDbXrecord
 70
     0
  0
XRECORD
  5
330
102
{ACAD_REACTORS
330
324
102
}
330
324
100
AcDbXrecord
  1
{5CA8BBA3-13F4-4A56-904D-58879492B334}
  0
DICTIONARYVAR
  5
204
102
{ACAD_REACTORS
330
202
102
}
330
202
100
DictionaryVariables
280
     0
  1
2
  0
DICTIONARYVAR
  5
203
102
{ACAD_REACTORS
330
202
102
}
330
202
100
DictionaryVariables
280
     0
  1
1
  0
ENDSEC
  0
EOF
