  0
SECTION
  2
HEADER
  9
$ACADVER
  1
AC1014
  9
$ACADMAINTVER
 70
     9
  9
$DWGCODEPAGE
  3
ANSI_1252
  9
$INSBASE
 10
8.157463752336546
 20
-17.1574704432205
 30
0.0
  9
$EXTMIN
 10
-1.842124931099551
 20
-18.73242928951533
 30
0.0
  9
$EXTMAX
 10
17.46199768145161
 20
-7.195291281877758
 30
0.0
  9
$LIMMIN
 10
0.0
 20
0.0
  9
$LIMMAX
 10
36.0
 20
36.0
  9
$ORTHOMODE
 70
     1
  9
$REGENMODE
 70
     1
  9
$FILLMODE
 70
     1
  9
$QTEXTMODE
 70
     0
  9
$MIRRTEXT
 70
     1
  9
$DRAGMODE
 70
     0
  9
$LTSCALE
 40
1.0
  9
$OSMODE
 70
    37
  9
$ATTMODE
 70
     1
  9
$TEXTSIZE
 40
0.2
  9
$TRACEWID
 40
0.05
  9
$TEXTSTYLE
  7
STANDARD
  9
$CLAYER
  8
ADPDIM
  9
$CELTYPE
  6
BYLAYER
  9
$CECOLOR
 62
   256
  9
$CELTSCALE
 40
1.0
  9
$DELOBJ
 70
     1
  9
$DISPSILH
 70
     0
  9
$DIMSCALE
 40
1.0
  9
$DIMASZ
 40
0.125
  9
$DIMEXO
 40
0.0625
  9
$DIMDLI
 40
0.38
  9
$DIMRND
 40
0.0
  9
$DIMDLE
 40
0.0
  9
$DIMEXE
 40
0.18
  9
$DIMTP
 40
0.0
  9
$DIMTM
 40
0.0
  9
$DIMTXT
 40
0.125
  9
$DIMCEN
 40
0.1875
  9
$DIMTSZ
 40
0.125
  9
$DIMTOL
 70
     0
  9
$DIMLIM
 70
     0
  9
$DIMTIH
 70
     0
  9
$DIMTOH
 70
     0
  9
$DIMSE1
 70
     0
  9
$DIMSE2
 70
     0
  9
$DIMTAD
 70
     0
  9
$DIMZIN
 70
     3
  9
$DIMBLK
  1

  9
$DIMASO
 70
     1
  9
$DIMSHO
 70
     1
  9
$DIMPOST
  1

  9
$DIMAPOST
  1

  9
$DIMALT
 70
     0
  9
$DIMALTD
 70
     1
  9
$DIMALTF
 40
25.4
  9
$DIMLFAC
 40
1.0
  9
$DIMTOFL
 70
     0
  9
$DIMTVP
 40
0.0
  9
$DIMTIX
 70
     0
  9
$DIMSOXD
 70
     0
  9
$DIMSAH
 70
     0
  9
$DIMBLK1
  1

  9
$DIMBLK2
  1

  9
$DIMSTYLE
  2
STANDARD
  9
$DIMCLRD
 70
     0
  9
$DIMCLRE
 70
     0
  9
$DIMCLRT
 70
     0
  9
$DIMTFAC
 40
1.0
  9
$DIMGAP
 40
0.125
  9
$DIMJUST
 70
     0
  9
$DIMSD1
 70
     0
  9
$DIMSD2
 70
     0
  9
$DIMTOLJ
 70
     1
  9
$DIMTZIN
 70
     0
  9
$DIMALTZ
 70
     0
  9
$DIMALTTZ
 70
     0
  9
$DIMFIT
 70
     3
  9
$DIMUPT
 70
     0
  9
$DIMUNIT
 70
     2
  9
$DIMDEC
 70
     4
  9
$DIMTDEC
 70
     4
  9
$DIMALTU
 70
     2
  9
$DIMALTTD
 70
     2
  9
$DIMTXSTY
  7
STANDARD
  9
$DIMAUNIT
 70
     0
  9
$LUNITS
 70
     5
  9
$LUPREC
 70
     5
  9
$SKETCHINC
 40
0.1
  9
$FILLETRAD
 40
0.062
  9
$AUNITS
 70
     0
  9
$AUPREC
 70
     0
  9
$MENU
  1
acad
  9
$ELEVATION
 40
0.0
  9
$PELEVATION
 40
0.0
  9
$THICKNESS
 40
0.0
  9
$LIMCHECK
 70
     0
  9
$BLIPMODE
 70
     0
  9
$CHAMFERA
 40
0.0
  9
$CHAMFERB
 40
0.0
  9
$CHAMFERC
 40
0.0
  9
$CHAMFERD
 40
0.0
  9
$SKPOLY
 70
     0
  9
$TDCREATE
 40
2450409.629211227
  9
$TDUPDATE
 40
2452297.073908229
  9
$TDINDWG
 40
0.0022104167
  9
$TDUSRTIMER
 40
0.0022104167
  9
$USRTIMER
 70
     1
  9
$ANGBASE
 50
0.0
  9
$ANGDIR
 70
     0
  9
$PDMODE
 70
     0
  9
$PDSIZE
 40
0.0
  9
$PLINEWID
 40
0.0
  9
$COORDS
 70
     2
  9
$SPLFRAME
 70
     0
  9
$SPLINETYPE
 70
     6
  9
$SPLINESEGS
 70
     8
  9
$ATTDIA
 70
     0
  9
$ATTREQ
 70
     1
  9
$HANDLING
 70
 22529
  9
$HANDSEED
  5
2BC
  9
$SURFTAB1
 70
     6
  9
$SURFTAB2
 70
     6
  9
$SURFTYPE
 70
     6
  9
$SURFU
 70
     6
  9
$SURFV
 70
     6
  9
$UCSNAME
  2

  9
$UCSORG
 10
0.0
 20
0.0
 30
0.0
  9
$UCSXDIR
 10
1.0
 20
0.0
 30
0.0
  9
$UCSYDIR
 10
0.0
 20
1.0
 30
0.0
  9
$PUCSNAME
  2

  9
$PUCSORG
 10
0.0
 20
0.0
 30
0.0
  9
$PUCSXDIR
 10
1.0
 20
0.0
 30
0.0
  9
$PUCSYDIR
 10
0.0
 20
1.0
 30
0.0
  9
$USERI1
 70
     0
  9
$USERI2
 70
     0
  9
$USERI3
 70
     0
  9
$USERI4
 70
     0
  9
$USERI5
 70
     0
  9
$USERR1
 40
0.0
  9
$USERR2
 40
0.0
  9
$USERR3
 40
0.0
  9
$USERR4
 40
0.0
  9
$USERR5
 40
0.0
  9
$WORLDVIEW
 70
     1
  9
$SHADEDGE
 70
     3
  9
$SHADEDIF
 70
    70
  9
$TILEMODE
 70
     1
  9
$MAXACTVP
 70
    15
  9
$PINSBASE
 10
0.0009765857830644
 20
1.500170956078392
 30
0.0
  9
$PLIMCHECK
 70
     0
  9
$PEXTMIN
 10
1.000000000000000E+20
 20
1.000000000000000E+20
 30
1.000000000000000E+20
  9
$PEXTMAX
 10
-1.000000000000000E+20
 20
-1.000000000000000E+20
 30
-1.000000000000000E+20
  9
$PLIMMIN
 10
0.0
 20
0.0
  9
$PLIMMAX
 10
12.0
 20
9.0
  9
$UNITMODE
 70
     0
  9
$VISRETAIN
 70
     0
  9
$PLINEGEN
 70
     0
  9
$PSLTSCALE
 70
     1
  9
$TREEDEPTH
 70
  3020
  9
$PICKSTYLE
 70
     1
  9
$CMLSTYLE
  2
STANDARD
  9
$CMLJUST
 70
     0
  9
$CMLSCALE
 40
1.0
  9
$PROXYGRAPHICS
 70
     1
  9
$MEASUREMENT
 70
     0
  0
ENDSEC
  0
SECTION
  2
CLASSES
  0
CLASS
  1
ACDBDICTIONARYWDFLT
  2
AcDbDictionaryWithDefault
  3
AutoCAD 2000
 90
        0
280
     0
281
     0
  0
CLASS
  1
ACDBPLACEHOLDER
  2
AcDbPlaceHolder
  3
AutoCAD 2000
 90
        0
280
     0
281
     0
  0
CLASS
  1
LAYOUT
  2
AcDbLayout
  3
AutoCAD 2000
 90
        0
280
     0
281
     0
  0
CLASS
  1
DICTIONARYVAR
  2
AcDbDictionaryVar
  3
AutoCAD 2000
 90
        0
280
     0
281
     0
  0
CLASS
  1
LONG_TRANSACTION
  2
AcDbLongTransaction
  3
AutoCAD 2000
 90
        0
280
     0
281
     0
  0
CLASS
  1
LWPOLYLINE
  2
AcDbPolyline
  3
AutoCAD 2000
 90
        0
280
     0
281
     1
  0
CLASS
  1
HATCH
  2
AcDbHatch
  3
AutoCAD 2000
 90
        0
280
     0
281
     1
  0
CLASS
  1
XRECORD
  2
AcDbXrecord
  3
AutoCAD 2000
 90
        0
280
     0
281
     0
  0
CLASS
  1
LONG_TRANSACTION
  2
AcDbLongTransaction
  3
AutoCAD 2000
 90
        0
280
     0
281
     0
  0
CLASS
  1
LWPOLYLINE
  2
AcDbPolyline
  3
AutoCAD 2000
 90
        0
280
     0
281
     1
  0
CLASS
  1
HATCH
  2
AcDbHatch
  3
AutoCAD 2000
 90
        0
280
     0
281
     1
  0
CLASS
  1
XRECORD
  2
AcDbXrecord
  3
AutoCAD 2000
 90
        0
280
     0
281
     0
  0
CLASS
  1
LONG_TRANSACTION
  2
AcDbLongTransaction
  3
AutoCAD 2000
 90
        0
280
     0
281
     0
  0
CLASS
  1
LWPOLYLINE
  2
AcDbPolyline
  3
AutoCAD 2000
 90
        0
280
     0
281
     1
  0
CLASS
  1
HATCH
  2
AcDbHatch
  3
AutoCAD 2000
 90
        0
280
     0
281
     1
  0
CLASS
  1
XRECORD
  2
AcDbXrecord
  3
AutoCAD 2000
 90
        0
280
     0
281
     0
  0
CLASS
  1
LONG_TRANSACTION
  2
AcDbLongTransaction
  3
AutoCAD 2000
 90
        0
280
     0
281
     0
  0
CLASS
  1
LWPOLYLINE
  2
AcDbPolyline
  3
AutoCAD 2000
 90
        0
280
     0
281
     1
  0
CLASS
  1
HATCH
  2
AcDbHatch
  3
AutoCAD 2000
 90
        0
280
     0
281
     1
  0
CLASS
  1
XRECORD
  2
AcDbXrecord
  3
AutoCAD 2000
 90
        0
280
     0
281
     0
  0
CLASS
  1
LONG_TRANSACTION
  2
AcDbLongTransaction
  3
AutoCAD 2000
 90
        0
280
     0
281
     0
  0
CLASS
  1
LWPOLYLINE
  2
AcDbPolyline
  3
AutoCAD 2000
 90
        0
280
     0
281
     1
  0
CLASS
  1
HATCH
  2
AcDbHatch
  3
AutoCAD 2000
 90
        0
280
     0
281
     1
  0
CLASS
  1
XRECORD
  2
AcDbXrecord
  3
AutoCAD 2000
 90
        0
280
     0
281
     0
  0
ENDSEC
  0
SECTION
  2
TABLES
  0
TABLE
  2
VPORT
  5
8
330
0
100
AcDbSymbolTable
 70
     2
  0
VPORT
  5
299
330
8
100
AcDbSymbolTableRecord
100
AcDbViewportTableRecord
  2
*ACTIVE
 70
     0
 10
0.0
 20
0.0
 11
1.0
 21
1.0
 12
7.824711179916915
 22
-12.96349961170403
 13
0.0
 23
0.0
 14
0.5740882589684922
 24
0.5740882589684922
 15
0.5
 25
0.5
 16
0.0
 26
0.0
 36
1.0
 17
0.0
 27
0.0
 37
0.0
 40
12.37211893157582
 41
1.570528967254408
 42
50.0
 43
0.0
 44
0.0
 50
0.0
 51
0.0
 71
     0
 72
   100
 73
     1
 74
     0
 75
     0
 76
     0
 77
     0
 78
     0
  0
ENDTAB
  0
TABLE
  2
LTYPE
  5
5
330
0
100
AcDbSymbolTable
 70
     1
  0
LTYPE
  5
12
330
5
100
AcDbSymbolTableRecord
100
AcDbLinetypeTableRecord
  2
BYBLOCK
 70
     0
  3

 72
    65
 73
     0
 40
0.0
  0
LTYPE
  5
13
330
5
100
AcDbSymbolTableRecord
100
AcDbLinetypeTableRecord
  2
BYLAYER
 70
     0
  3

 72
    65
 73
     0
 40
0.0
  0
LTYPE
  5
14
330
5
100
AcDbSymbolTableRecord
100
AcDbLinetypeTableRecord
  2
CONTINUOUS
 70
     0
  3
Solid line
 72
    65
 73
     0
 40
0.0
  0
ENDTAB
  0
TABLE
  2
LAYER
  5
2
330
0
100
AcDbSymbolTable
 70
     3
  0
LAYER
  5
F
330
2
100
AcDbSymbolTableRecord
100
AcDbLayerTableRecord
  2
0
 70
     0
 62
     7
  6
CONTINUOUS
  0
LAYER
  5
88
330
2
100
AcDbSymbolTableRecord
100
AcDbLayerTableRecord
  2
DEFPOINTS
 70
     0
 62
     7
  6
CONTINUOUS
  0
LAYER
  5
8B
330
2
100
AcDbSymbolTableRecord
100
AcDbLayerTableRecord
  2
ADPDIM
 70
     0
 62
     3
  6
CONTINUOUS
  0
ENDTAB
  0
TABLE
  2
STYLE
  5
3
330
0
100
AcDbSymbolTable
 70
     2
  0
STYLE
  5
10
330
3
100
AcDbSymbolTableRecord
100
AcDbTextStyleTableRecord
  2
STANDARD
 70
     0
 40
0.0
 41
1.0
 50
0.0
 71
     0
 42
0.2
  3
txt
  4

  0
STYLE
  5
155
330
3
100
AcDbSymbolTableRecord
100
AcDbTextStyleTableRecord
  2
ARIAL_WIDE
 70
     0
 40
0.0
 41
1.25
 50
0.0
 71
     0
 42
0.2
  3
ARIAL.TTF
  4

1001
ACAD
1000
Arial
1071
       34
  0
ENDTAB
  0
TABLE
  2
VIEW
  5
6
330
0
100
AcDbSymbolTable
 70
     0
  0
ENDTAB
  0
TABLE
  2
UCS
  5
7
330
0
100
AcDbSymbolTable
 70
     0
  0
ENDTAB
  0
TABLE
  2
APPID
  5
9
330
0
100
AcDbSymbolTable
 70
     1
  0
APPID
  5
11
330
9
100
AcDbSymbolTableRecord
100
AcDbRegAppTableRecord
  2
ACAD
 70
     0
  0
ENDTAB
  0
TABLE
  2
DIMSTYLE
  5
A
330
0
100
AcDbSymbolTable
 70
     1
  0
DIMSTYLE
105
149
330
A
100
AcDbSymbolTableRecord
100
AcDbDimStyleTableRecord
  2
STANDARD
 70
     0
  3

  4

  5

  6

  7

 40
1.0
 41
0.18
 42
0.0625
 43
0.38
 44
0.18
 45
0.0
 46
0.0
 47
0.0
 48
0.0
140
0.18
141
0.09
142
0.0
143
25.4
144
1.0
145
0.0
146
1.0
147
0.09
 71
     0
 72
     0
 73
     1
 74
     1
 75
     0
 76
     0
 77
     0
 78
     0
170
     0
171
     2
172
     0
173
     0
174
     0
175
     0
176
     0
177
     0
178
     0
270
     2
271
     4
272
     4
273
     2
274
     2
340
10
275
     0
280
     0
281
     0
282
     0
283
     1
284
     0
285
     0
286
     0
287
     3
288
     0
  0
ENDTAB
  0
TABLE
  2
BLOCK_RECORD
  5
1
330
0
100
AcDbSymbolTable
 70
     2
  0
BLOCK_RECORD
  5
18
102
{ACAD_XDICTIONARY
360
1AA
102
}
330
1
100
AcDbSymbolTableRecord
100
AcDbBlockTableRecord
  2
*MODEL_SPACE
  0
BLOCK_RECORD
  5
15
102
{ACAD_XDICTIONARY
360
1A8
102
}
330
1
100
AcDbSymbolTableRecord
100
AcDbBlockTableRecord
  2
*PAPER_SPACE
  0
BLOCK_RECORD
  5
79
330
1
100
AcDbSymbolTableRecord
100
AcDbBlockTableRecord
  2
*D0
  0
BLOCK_RECORD
  5
83
330
1
100
AcDbSymbolTableRecord
100
AcDbBlockTableRecord
  2
*D1
  0
ENDTAB
  0
ENDSEC
  0
SECTION
  2
BLOCKS
  0
BLOCK
  5
8E
330
18
100
AcDbEntity
  8
0
100
AcDbBlockBegin
  2
*MODEL_SPACE
 70
     0
 10
0.0
 20
0.0
 30
0.0
  3
*MODEL_SPACE
  1

  0
ENDBLK
  5
8F
330
18
100
AcDbEntity
  8
0
100
AcDbBlockEnd
  0
BLOCK
  5
8C
330
15
100
AcDbEntity
 67
     1
  8
0
100
AcDbBlockBegin
  2
*PAPER_SPACE
 70
     0
 10
0.0
 20
0.0
 30
0.0
  3
*PAPER_SPACE
  1

  0
ENDBLK
  5
8D
330
15
100
AcDbEntity
 67
     1
  8
0
100
AcDbBlockEnd
  0
BLOCK
  5
91
330
79
100
AcDbEntity
  8
0
100
AcDbBlockBegin
  2
*D0
 70
     1
 10
0.0
 20
0.0
 30
0.0
  3
*D0
  1

  0
LINE
  5
92
330
79
100
AcDbEntity
  8
0
  6
BYBLOCK
 62
     0
100
AcDbLine
 10
3.826485411238593
 20
-10.74679563321856
 30
0.0
 11
3.826485411238593
 21
-18.02610605183655
 31
0.0
  0
LINE
  5
93
330
79
100
AcDbEntity
  8
0
  6
BYBLOCK
 62
     0
100
AcDbLine
 10
11.82648541123859
 20
-11.25179506964689
 30
0.0
 11
11.82648541123859
 21
-18.02610605183655
 31
0.0
  0
LINE
  5
94
330
79
100
AcDbEntity
  8
0
  6
BYBLOCK
 62
     0
100
AcDbLine
 10
3.826485411238593
 20
-17.84610605183655
 30
0.0
 11
7.659818744571926
 21
-17.84610605183655
 31
0.0
  0
LINE
  5
95
330
79
100
AcDbEntity
  8
0
  6
BYBLOCK
 62
     0
100
AcDbLine
 10
11.82648541123859
 20
-17.84610605183655
 30
0.0
 11
7.99315207790526
 21
-17.84610605183655
 31
0.0
  0
LINE
  5
96
330
79
100
AcDbEntity
  8
0
  6
BYBLOCK
 62
     0
100
AcDbLine
 10
3.701485411238593
 20
-17.97110605183655
 30
0.0
 11
3.951485411238593
 21
-17.72110605183655
 31
0.0
  0
LINE
  5
97
330
79
100
AcDbEntity
  8
0
  6
BYBLOCK
 62
     0
100
AcDbLine
 10
11.70148541123859
 20
-17.97110605183655
 30
0.0
 11
11.95148541123859
 21
-17.72110605183655
 31
0.0
  0
TEXT
  5
98
330
79
100
AcDbEntity
  8
0
  6
BYBLOCK
 62
     0
100
AcDbText
 10
7.784818744571926
 20
-17.90860605183655
 30
0.0
 40
0.125
  1
8
 72
     1
 11
7.826485411238593
 21
-17.84610605183655
 31
0.0
100
AcDbText
 73
     2
  0
POINT
  5
99
330
79
100
AcDbEntity
  8
DEFPOINTS
  6
BYBLOCK
 62
     0
100
AcDbPoint
 10
3.826485411238593
 20
-10.68429563321856
 30
0.0
  0
POINT
  5
9A
330
79
100
AcDbEntity
  8
DEFPOINTS
  6
BYBLOCK
 62
     0
100
AcDbPoint
 10
11.82648541123859
 20
-11.18929506964689
 30
0.0
  0
POINT
  5
9B
330
79
100
AcDbEntity
  8
DEFPOINTS
  6
BYBLOCK
 62
     0
100
AcDbPoint
 10
11.82648541123859
 20
-17.84610605183655
 30
0.0
  0
ENDBLK
  5
9C
330
79
100
AcDbEntity
  8
0
100
AcDbBlockEnd
  0
BLOCK
  5
9D
330
83
100
AcDbEntity
  8
0
100
AcDbBlockBegin
  2
*D1
 70
     1
 10
0.0
 20
0.0
 30
0.0
  3
*D1
  1

  0
LINE
  5
9E
330
83
100
AcDbEntity
  8
0
  6
BYBLOCK
 62
     0
100
AcDbLine
 10
8.240834897901459
 20
-17.15043503848462
 30
0.0
 11
13.68511306739885
 21
-17.15043503848462
 31
0.0
  0
LINE
  5
9F
330
83
100
AcDbEntity
  8
0
  6
BYBLOCK
 62
     0
100
AcDbLine
 10
9.893972882811745
 20
-7.837935038484623
 30
0.0
 11
13.68511306739885
 21
-7.837935038484623
 31
0.0
  0
LINE
  5
A0
330
83
100
AcDbEntity
  8
0
  6
BYBLOCK
 62
     0
100
AcDbLine
 10
13.50511306739885
 20
-17.15043503848462
 30
0.0
 11
13.50511306739885
 21
-12.95251837181795
 31
0.0
  0
LINE
  5
A1
330
83
100
AcDbEntity
  8
0
  6
BYBLOCK
 62
     0
100
AcDbLine
 10
13.50511306739885
 20
-7.837935038484623
 30
0.0
 11
13.50511306739885
 21
-12.03585170515129
 31
0.0
  0
LINE
  5
A2
330
83
100
AcDbEntity
  8
0
  6
BYBLOCK
 62
     0
100
AcDbLine
 10
13.63011306739885
 20
-17.27543503848462
 30
0.0
 11
13.38011306739885
 21
-17.02543503848462
 31
0.0
  0
LINE
  5
A3
330
83
100
AcDbEntity
  8
0
  6
BYBLOCK
 62
     0
100
AcDbLine
 10
13.63011306739885
 20
-7.962935038484623
 30
0.0
 11
13.38011306739885
 21
-7.712935038484623
 31
0.0
  0
TEXT
  5
A4
330
83
100
AcDbEntity
  8
0
  6
BYBLOCK
 62
     0
100
AcDbText
 10
13.56761306739885
 20
-12.82751837181795
 30
0.0
 40
0.125
  1
9 5/16
 50
90.0
 72
     1
 11
13.50511306739885
 21
-12.49418503848462
 31
0.0
100
AcDbText
 73
     2
  0
POINT
  5
A5
330
83
100
AcDbEntity
  8
DEFPOINTS
  6
BYBLOCK
 62
     0
100
AcDbPoint
 10
8.178334897901459
 20
-17.15043503848462
 30
0.0
  0
POINT
  5
A6
330
83
100
AcDbEntity
  8
DEFPOINTS
  6
BYBLOCK
 62
     0
100
AcDbPoint
 10
9.831472882811745
 20
-7.837935038484623
 30
0.0
  0
POINT
  5
A7
330
83
100
AcDbEntity
  8
DEFPOINTS
  6
BYBLOCK
 62
     0
100
AcDbPoint
 10
13.50511306739885
 20
-7.837935038484623
 30
0.0
  0
ENDBLK
  5
A8
330
83
100
AcDbEntity
  8
0
100
AcDbBlockEnd
  0
ENDSEC
  0
SECTION
  2
ENTITIES
  0
LWPOLYLINE
  5
A9
330
18
100
AcDbEntity
  8
0
100
AcDbPolyline
 90
        8
 70
     0
 43
0.0
 10
7.520263583473152
 20
-8.921883922017089
 42
0.229357724300631
 10
6.76735424369447
 20
-8.045187950909454
 42
0.5770406067311554
 10
3.821645885850372
 20
-10.03015988596962
 42
0.1313362064129519
 10
4.235368897228298
 20
-12.21362875734758
 42
0.0988873368461676
 10
5.013168321829304
 20
-13.17303178525429
 42
-0.0018991777539452
 10
6.634962975259668
 20
-14.82717502550319
 42
-0.1131375642439248
 10
7.048685986637586
 20
-15.47229076995844
 42
-0.0394977842636178
 10
7.429311265912282
 20
-16.92589021656812
 42
16.30904472496884
  0
DIMENSION
  5
B3
330
18
100
AcDbEntity
  8
ADPDIM
100
AcDbDimension
  2
*D0
 10
11.82648541123859
 20
-17.84610605183655
 30
0.0
 11
7.826485411238593
 21
-17.84610605183655
 31
0.0
100
AcDbAlignedDimension
 13
3.826485411238593
 23
-10.68429563321856
 33
0.0
 14
11.82648541123859
 24
-11.18929506964689
 34
0.0
100
AcDbRotatedDimension
  0
LWPOLYLINE
  5
B4
330
18
100
AcDbEntity
  8
0
100
AcDbPolyline
 90
        5
 70
     0
 43
0.0
 10
5.989554819093463
 20
-9.61662413435927
 42
0.5188452632538292
 10
5.575831807715545
 20
-9.633165545719085
 42
0.3489155619502799
 10
5.691674210098732
 20
-10.31136411289397
 42
0.3882426222918933
 10
6.949392450306007
 20
-10.29482270153415
 42
0.1140915965584184
 10
7.185869093433566
 20
-9.666248368438715
 42
0.2724703907849761
  0
LWPOLYLINE
  5
BB
330
18
100
AcDbEntity
  8
0
100
AcDbPolyline
 90
        8
 70
     0
 43
0.0
 10
5.989554819093463
 20
-9.61662413435927
 42
0.3841314956127248
 10
5.724771942201954
 20
-9.831662715844355
 42
0.4622696905354401
 10
6.188141891756615
 20
-9.980535651890175
 42
0.738008428247246
 10
5.774418880378696
 20
-9.252712616828365
 42
0.4483164422018823
 10
5.195206528440841
 20
-9.864745538563987
 42
0.3984540815035096
 10
6.171593025705007
 20
-10.85723138919033
 42
0.4679131672385723
 10
7.495507070140632
 20
-9.682789779798532
 42
0.0032826615479721
 10
7.500936428757825
 20
-9.666248368438715
 42
0.5770406067311554
  0
LWPOLYLINE
  5
C5
330
18
100
AcDbEntity
  8
0
100
AcDbPolyline
 90
        9
 70
     0
 43
0.0
 10
7.09489173431195
 20
-8.921883922017089
 42
0.0370167941852878
 10
6.999039048460844
 20
-8.723386751891819
 42
0.2724703907849761
 10
5.691674210098732
 20
-8.227143709674908
 42
0.3084487434553329
 10
4.251917763279905
 20
-9.61662413435927
 42
0.1230895691235545
 10
4.582896444399764
 20
-11.9985901758625
 42
0.069744905123636
 10
5.211755394492456
 20
-12.87528614697013
 42
0.0151481291747617
 10
6.303984294139809
 20
-14.0166449336423
 42
0.0284797177462759
 10
6.850098913974434
 20
-14.62867785537792
 42
-0.1926144779287384
 10
7.247273059300738
 20
-15.22416936575373
 42
0.8112720862930284
  0
LWPOLYLINE
  5
D0
330
18
100
AcDbEntity
  8
0
100
AcDbPolyline
 90
       16
 70
     0
 43
0.0
 10
7.826485411238593
 20
-12.5940816862383
 42
-0.2704871957154258
 10
7.429311265912282
 20
-12.44520898399996
 42
0.3325431245085124
 10
7.363115461683932
 20
-12.42866733883267
 42
-0.7547251386697852
 10
7.296919657455575
 20
-12.34596028203359
 42
-0.152186403466533
 10
7.164528389020773
 20
-11.9985901758625
 42
0.259173703350849
 10
6.883196646077657
 20
-11.56851301289232
 42
0.347433022801881
 10
6.287435428088194
 20
-11.55197160153251
 42
0.4971250522901649
 10
5.526184869538802
 20
-11.50234736745306
 42
-0.1357249406265586
 10
5.426891333207223
 20
-11.56851301289232
 42
0.2082364059811506
 10
5.079364126057654
 20
-11.7670101830176
 42
0.2426071972564027
 10
5.029717187880912
 20
-12.06475605510924
 42
0.7291158791566753
 10
5.228304260544071
 20
-12.06475605510924
 42
-0.1973498635304387
 10
5.857163550658661
 20
-11.84971723981668
 42
-0.3488872638687741
 10
7.015588254534364
 20
-12.74295462228412
 42
-0.0604108249045099
 10
7.131430656917551
 20
-13.58656777067213
 42
-0.0181601812056252
 10
7.23072419324913
 20
-15.24071077711354
 42
0.9766361940522346
  0
DIMENSION
  5
E2
330
18
100
AcDbEntity
  8
ADPDIM
100
AcDbDimension
  2
*D1
 10
13.50511306739885
 20
-7.837935038484623
 30
0.0
 11
13.50511306739885
 21
-12.49418503848462
 31
0.0
100
AcDbAlignedDimension
 13
8.178334897901459
 23
-17.15043503848462
 33
0.0
 14
9.831472882811745
 24
-7.837935038484623
 34
0.0
 50
90.0
100
AcDbRotatedDimension
  0
LWPOLYLINE
  5
E3
330
18
100
AcDbEntity
  8
0
100
AcDbPolyline
 90
        8
 70
     0
 43
0.0
 10
8.132707239004027
 20
-8.921883922017089
 42
-0.2293577243006308
 10
8.885616578782716
 20
-8.045187950909454
 42
-0.5770406067311554
 10
11.83132493662679
 20
-10.03015988596962
 42
-0.1313362064129519
 10
11.41760192524888
 20
-12.21362875734758
 42
-0.0988873368461676
 10
10.63980250064787
 20
-13.17303178525429
 42
0.0018991777539452
 10
9.018007847217518
 20
-14.82717502550319
 42
0.1131375642439248
 10
8.604284835839592
 20
-15.47229076995844
 42
0.0394977842636178
 10
8.223659556564896
 20
-16.92589021656812
 42
-16.30904472496884
  0
LWPOLYLINE
  5
ED
330
18
100
AcDbEntity
  8
0
100
AcDbPolyline
 90
        8
 70
     0
 43
0.0
 10
7.445860131963897
 20
-16.99205609581486
 10
7.313468863529095
 20
-15.58808088328463
 42
0.630500203607038
 10
7.280370791403967
 20
-15.27379359983318
 42
-0.2050065933848537
 10
7.396213193787154
 20
-14.06626916772174
 42
-0.3404219149421345
 10
7.23072419324913
 20
-13.68581623883102
 42
-0.1460055359498011
 10
7.346566595632317
 20
-13.25573907586085
 42
0.2592286791355618
 10
7.429311265912282
 20
-12.92491038104958
 42
-0.539229343321072
 10
7.826485411238593
 20
-12.47829180671959
 42
0.0706161824046981
  0
LWPOLYLINE
  5
F7
330
18
100
AcDbEntity
  8
0
100
AcDbPolyline
 90
        8
 70
     0
 43
0.0
 10
8.207110690513282
 20
-16.99205609581486
 10
8.339501958948083
 20
-15.58808088328463
 42
-0.630500203607038
 10
8.372600031073218
 20
-15.27379359983318
 42
0.2050065933848537
 10
8.256757628690024
 20
-14.06626916772174
 42
0.3404219149421345
 10
8.422246629228048
 20
-13.68581623883102
 42
0.1460055359498011
 10
8.306404226844861
 20
-13.25573907586085
 42
-0.2592286791355618
 10
8.223659556564896
 20
-12.92491038104958
 42
0.539229343321072
 10
7.826485411238593
 20
-12.47829180671959
 42
-0.0706161824046981
  0
LWPOLYLINE
  5
101
330
18
100
AcDbEntity
  8
0
100
AcDbPolyline
 90
       16
 70
     0
 43
0.0
 10
7.826485411238593
 20
-12.5940816862383
 42
0.2704871957154258
 10
8.223659556564896
 20
-12.44520898399996
 42
-0.3325431245085124
 10
8.289855360793247
 20
-12.42866733883267
 42
0.7547251386697852
 10
8.356051165021604
 20
-12.34596028203359
 42
0.152186403466533
 10
8.488442433456405
 20
-11.9985901758625
 42
-0.259173703350849
 10
8.769774176399522
 20
-11.56851301289232
 42
-0.347433022801881
 10
9.365535394388984
 20
-11.55197160153251
 42
-0.4971250522901649
 10
10.12678595293837
 20
-11.50234736745306
 42
0.1357249406265586
 10
10.22607948926995
 20
-11.56851301289232
 42
-0.2082364059811506
 10
10.57360669641952
 20
-11.7670101830176
 42
-0.2426071972564027
 10
10.62325363459626
 20
-12.06475605510924
 42
-0.7291158791566753
 10
10.4246665619331
 20
-12.06475605510924
 42
0.1973498635304387
 10
9.795807271818517
 20
-11.84971723981668
 42
0.3488872638687741
 10
8.637382567942822
 20
-12.74295462228412
 42
0.0604108249045099
 10
8.521540165559628
 20
-13.58656777067213
 42
0.0181601812056252
 10
8.422246629228048
 20
-15.24071077711354
 42
-0.9766361940522346
  0
LWPOLYLINE
  5
113
330
18
100
AcDbEntity
  8
0
100
AcDbPolyline
 90
        9
 70
     0
 43
0.0
 10
8.554637897662857
 20
-8.930685583297913
 42
-0.0386039134348193
 10
8.653931774016335
 20
-8.723386751891819
 42
-0.2724703907849761
 10
9.961296612378447
 20
-8.227143709674908
 42
-0.3084487434553329
 10
11.40105305919726
 20
-9.61662413435927
 42
-0.1230895691235545
 10
11.0700743780774
 20
-11.9985901758625
 42
-0.069744905123636
 10
10.44121542798472
 20
-12.87528614697013
 42
-0.0151481291747617
 10
9.348986528337377
 20
-14.0166449336423
 42
-0.0284797177462759
 10
8.802871908502751
 20
-14.62867785537792
 42
0.1926144779287384
 10
8.405697763176441
 20
-15.22416936575373
 42
-0.8112720862930284
  0
LWPOLYLINE
  5
11E
330
18
100
AcDbEntity
  8
0
100
AcDbPolyline
 90
        4
 70
     0
 43
0.0
 10
7.826485411238593
 20
-17.1574704432205
 10
8.157463752336546
 20
-17.1574704432205
 10
8.223659556564896
 20
-16.99205609581486
 10
7.826485411238593
 20
-16.99205609581486
  0
LWPOLYLINE
  5
124
330
18
100
AcDbEntity
  8
0
100
AcDbPolyline
 90
        4
 70
     0
 43
0.0
 10
7.826485411238593
 20
-17.1574704432205
 10
7.495507070140632
 20
-17.1574704432205
 10
7.429311265912282
 20
-16.99205609581486
 10
7.826485411238593
 20
-16.99205609581486
  0
LWPOLYLINE
  5
12A
330
18
100
AcDbEntity
  8
0
100
AcDbPolyline
 90
        5
 70
     0
 43
0.0
 10
9.663416003383716
 20
-9.61662413435927
 42
-0.5188452632538292
 10
10.07713901476164
 20
-9.633165545719085
 42
-0.3489155619502799
 10
9.961296612378447
 20
-10.31136411289397
 42
-0.3882426222918933
 10
8.703578372171172
 20
-10.29482270153415
 42
-0.1140915965584183
 10
8.467101729043619
 20
-9.666248368438715
 42
-0.2724703907849761
  0
LWPOLYLINE
  5
131
330
18
100
AcDbEntity
  8
0
100
AcDbPolyline
 90
        8
 70
     0
 43
0.0
 10
9.663416003383716
 20
-9.61662413435927
 42
-0.3841314956127248
 10
9.928198880275225
 20
-9.831662715844355
 42
-0.4622696905354401
 10
9.464828930720564
 20
-9.980535651890175
 42
-0.738008428247246
 10
9.878551942098482
 20
-9.252712616828365
 42
-0.4483164422018823
 10
10.45776429403633
 20
-9.864745538563987
 42
-0.3984540815035096
 10
9.481377796772179
 20
-10.85723138919033
 42
-0.4679131672385723
 10
8.157463752336546
 20
-9.682789779798532
 42
-0.0032826615479721
 10
8.152034393719361
 20
-9.666248368438715
 42
-0.5770406067311554
  0
LWPOLYLINE
  5
13B
330
18
100
AcDbEntity
  8
0
100
AcDbPolyline
 90
        4
 70
     1
 43
0.0
 10
7.065234852689201
 20
-9.517375432392896
 10
7.065234852689201
 20
-9.666248368438715
 10
8.554637897662857
 20
-9.666248368438715
 10
8.554637897662857
 20
-9.517375432392896
  0
LWPOLYLINE
  5
141
330
18
100
AcDbEntity
  8
0
100
AcDbPolyline
 90
        4
 70
     1
 43
0.0
 10
7.065234852689201
 20
-8.921883922017089
 10
7.065234852689201
 20
-9.07075685806291
 10
8.554637897662857
 20
-9.07075685806291
 10
8.554637897662857
 20
-8.921883922017089
  0
ARC
  5
147
330
18
100
AcDbEntity
  8
0
100
AcDbCircle
 10
7.147241866529228
 20
-9.292464233656669
 30
0.0
 40
0.2363880511185591
100
AcDbArc
 50
110.2988554882589
 51
251.1889062774506
  0
ARC
  5
148
330
18
100
AcDbEntity
  8
0
100
AcDbCircle
 10
8.505728955947958
 20
-9.292464233656669
 30
0.0
 40
0.2363880511185591
100
AcDbArc
 50
288.8110937225492
 51
69.70114451174108
  0
TEXT
  5
156
330
18
100
AcDbEntity
  8
ADPDIM
100
AcDbText
 10
-1.842124931099551
 20
-18.67692110397645
 30
0.0
 40
0.1875
  1
J U L I U S  B L U M  &  C O . ,  I N C .      ( 8 0 0 )  5 2 6 - 6 2 9 3        W W W . J U L I U S B L U M . C O M        P A R T  N o .  5 9 7
 41
1.25
  7
ARIAL_WIDE
 72
     1
 11
7.809936375176029
 21
-18.48942110397645
 31
0.0
100
AcDbText
 73
     3
  0
ENDSEC
  0
SECTION
  2
OBJECTS
  0
DICTIONARY
  5
C
330
0
100
AcDbDictionary
  3
ACAD_GROUP
350
D
  3
ACAD_LAYOUT
350
14F
  3
ACAD_MLINESTYLE
350
E
  3
ACAD_PLOTSETTINGS
350
150
  3
ACAD_PLOTSTYLENAME
350
14D
  3
ACDBHEADERROUNDTRIPXREC
350
29A
  3
ACDBVARIABLEDICTIONARY
350
1B0
  0
DICTIONARY
  5
1AA
330
18
100
AcDbDictionary
280
     1
  3
ACAD_LAYOUTSELFREF
360
2BB
  0
DICTIONARY
  5
1A8
330
15
100
AcDbDictionary
280
     1
  3
ACAD_LAYOUTSELFREF
360
2BA
  0
DICTIONARY
  5
D
102
{ACAD_REACTORS
330
C
102
}
330
C
100
AcDbDictionary
  0
DICTIONARY
  5
14F
102
{ACAD_REACTORS
330
C
102
}
330
C
100
AcDbDictionary
  0
DICTIONARY
  5
E
102
{ACAD_REACTORS
330
C
102
}
330
C
100
AcDbDictionary
  3
STANDARD
350
1B
  0
DICTIONARY
  5
150
102
{ACAD_REACTORS
330
C
102
}
330
C
100
AcDbDictionary
  0
ACDBDICTIONARYWDFLT
  5
14D
102
{ACAD_REACTORS
330
C
102
}
330
C
100
AcDbDictionary
281
     1
  3
Normal
350
14E
100
AcDbDictionaryWithDefault
340
14E
  0
DICTIONARY
  5
29A
102
{ACAD_REACTORS
330
C
102
}
330
C
100
AcDbDictionary
  3
CEPSNTYPE
350
2A4
  3
FINGERPRINTGUID
350
2A5
  3
HYPERLINKBASE
350
29D
  3
INSUNITS
350
2A3
  3
LAYOUTDICT
350
29F
  3
LWETCUNION
350
2A2
  3
PLOTSETDICT
350
2A0
  3
PLOTSTYLNAMDICT
350
2A1
  3
PSVPSCALE
350
2A7
  3
PUCSBASE
350
2AA
  3
PUCSORGBACK
350
2B0
  3
PUCSORGBOTTOM
350
2AC
  3
PUCSORGFRONT
350
2AF
  3
PUCSORGLEFT
350
2AD
  3
PUCSORGRIGHT
350
2AE
  3
PUCSORGTOP
350
2AB
  3
PUCSORTHOREF
350
2A8
  3
PUCSORTHOVIEW
350
2A9
  3
STYLESHEET
350
29E
  3
TSTACKALIGN
350
29B
  3
TSTACKSIZE
350
29C
  3
UCSBASE
350
2B3
  3
UCSORGBACK
350
2B9
  3
UCSORGBOTTOM
350
2B5
  3
UCSORGFRONT
350
2B8
  3
UCSORGLEFT
350
2B6
  3
UCSORGRIGHT
350
2B7
  3
UCSORGTOP
350
2B4
  3
UCSORTHOREF
350
2B1
  3
UCSORTHOVIEW
350
2B2
  3
VERSIONGUID
350
2A6
  0
DICTIONARY
  5
1B0
102
{ACAD_REACTORS
330
C
102
}
330
C
100
AcDbDictionary
  3
DIMASSOC
350
1B1
  0
XRECORD
  5
2BB
102
{ACAD_REACTORS
330
1AA
102
}
330
1AA
100
AcDbXrecord
340
18
  0
XRECORD
  5
2BA
102
{ACAD_REACTORS
330
1A8
102
}
330
1A8
100
AcDbXrecord
340
15
  0
MLINESTYLE
  5
1B
102
{ACAD_REACTORS
330
E
102
}
330
E
100
AcDbMlineStyle
  2
STANDARD
 70
     0
  3

 62
     0
 51
90.0
 52
90.0
 71
     2
 49
0.5
 62
   256
  6
BYLAYER
 49
-0.5
 62
   256
  6
BYLAYER
  0
ACDBPLACEHOLDER
  5
14E
102
{ACAD_REACTORS
330
14D
102
}
330
14D
100
AcDbPlaceHolder
280
     0
  0
XRECORD
  5
2A4
102
{ACAD_REACTORS
330
29A
102
}
330
29A
100
AcDbXrecord
 90
        0
  0
XRECORD
  5
2A5
102
{ACAD_REACTORS
330
29A
102
}
330
29A
100
AcDbXrecord
  1
{4B59983B-5D86-4F87-8412-93AAC3237B2B}
  0
XRECORD
  5
29D
102
{ACAD_REACTORS
330
29A
102
}
330
29A
100
AcDbXrecord
  1

  0
XRECORD
  5
2A3
102
{ACAD_REACTORS
330
29A
102
}
330
29A
100
AcDbXrecord
 90
        0
  0
XRECORD
  5
29F
102
{ACAD_REACTORS
330
29A
102
}
330
29A
100
AcDbXrecord
340
14F
  0
XRECORD
  5
2A2
102
{ACAD_REACTORS
330
29A
102
}
330
29A
100
AcDbXrecord
 90
    14877
  0
XRECORD
  5
2A0
102
{ACAD_REACTORS
330
29A
102
}
330
29A
100
AcDbXrecord
340
150
  0
XRECORD
  5
2A1
102
{ACAD_REACTORS
330
29A
102
}
330
29A
100
AcDbXrecord
340
14D
  0
XRECORD
  5
2A7
102
{ACAD_REACTORS
330
29A
102
}
330
29A
100
AcDbXrecord
 40
0.0
  0
XRECORD
  5
2AA
102
{ACAD_REACTORS
330
29A
102
}
330
29A
100
AcDbXrecord
340
0
  0
XRECORD
  5
2B0
102
{ACAD_REACTORS
330
29A
102
}
330
29A
100
AcDbXrecord
 10
0.0
 20
0.0
 30
0.0
  0
XRECORD
  5
2AC
102
{ACAD_REACTORS
330
29A
102
}
330
29A
100
AcDbXrecord
 10
0.0
 20
0.0
 30
0.0
  0
XRECORD
  5
2AF
102
{ACAD_REACTORS
330
29A
102
}
330
29A
100
AcDbXrecord
 10
0.0
 20
0.0
 30
0.0
  0
XRECORD
  5
2AD
102
{ACAD_REACTORS
330
29A
102
}
330
29A
100
AcDbXrecord
 10
0.0
 20
0.0
 30
0.0
  0
XRECORD
  5
2AE
102
{ACAD_REACTORS
330
29A
102
}
330
29A
100
AcDbXrecord
 10
0.0
 20
0.0
 30
0.0
  0
XRECORD
  5
2AB
102
{ACAD_REACTORS
330
29A
102
}
330
29A
100
AcDbXrecord
 10
0.0
 20
0.0
 30
0.0
  0
XRECORD
  5
2A8
102
{ACAD_REACTORS
330
29A
102
}
330
29A
100
AcDbXrecord
340
0
  0
XRECORD
  5
2A9
102
{ACAD_REACTORS
330
29A
102
}
330
29A
100
AcDbXrecord
 70
     0
  0
XRECORD
  5
29E
102
{ACAD_REACTORS
330
29A
102
}
330
29A
100
AcDbXrecord
  1

  0
XRECORD
  5
29B
102
{ACAD_REACTORS
330
29A
102
}
330
29A
100
AcDbXrecord
 90
        1
  0
XRECORD
  5
29C
102
{ACAD_REACTORS
330
29A
102
}
330
29A
100
AcDbXrecord
 90
       70
  0
XRECORD
  5
2B3
102
{ACAD_REACTORS
330
29A
102
}
330
29A
100
AcDbXrecord
340
0
  0
XRECORD
  5
2B9
102
{ACAD_REACTORS
330
29A
102
}
330
29A
100
AcDbXrecord
 10
0.0
 20
0.0
 30
0.0
  0
XRECORD
  5
2B5
102
{ACAD_REACTORS
330
29A
102
}
330
29A
100
AcDbXrecord
 10
0.0
 20
0.0
 30
0.0
  0
XRECORD
  5
2B8
102
{ACAD_REACTORS
330
29A
102
}
330
29A
100
AcDbXrecord
 10
0.0
 20
0.0
 30
0.0
  0
XRECORD
  5
2B6
102
{ACAD_REACTORS
330
29A
102
}
330
29A
100
AcDbXrecord
 10
0.0
 20
0.0
 30
0.0
  0
XRECORD
  5
2B7
102
{ACAD_REACTORS
330
29A
102
}
330
29A
100
AcDbXrecord
 10
0.0
 20
0.0
 30
0.0
  0
XRECORD
  5
2B4
102
{ACAD_REACTORS
330
29A
102
}
330
29A
100
AcDbXrecord
 10
0.0
 20
0.0
 30
0.0
  0
XRECORD
  5
2B1
102
{ACAD_REACTORS
330
29A
102
}
330
29A
100
AcDbXrecord
340
0
  0
XRECORD
  5
2B2
102
{ACAD_REACTORS
330
29A
102
}
330
29A
100
AcDbXrecord
 70
     0
  0
XRECORD
  5
2A6
102
{ACAD_REACTORS
330
29A
102
}
330
29A
100
AcDbXrecord
  1
{64D544EF-D579-46DA-9E43-7BD2B7E6F286}
  0
DICTIONARYVAR
  5
1B1
102
{ACAD_REACTORS
330
1B0
102
}
330
1B0
100
DictionaryVariables
280
     0
  1
1
  0
ENDSEC
  0
EOF
