  0
SECTION
  2
HEADER
  9
$ACADVER
  1
AC1014
  9
$ACADMAINTVER
 70
     9
  9
$DWGCODEPAGE
  3
ANSI_1252
  9
$INSBASE
 10
10.69414308592592
 20
-2.680303071674279
 30
0.0
  9
$EXTMIN
 10
-1.156950450908997
 20
-3.917195485724841
 30
0.0
  9
$EXTMAX
 10
18.42023662276085
 20
4.623211564863225
 30
0.0
  9
$LIMMIN
 10
0.0
 20
0.0
  9
$LIMMAX
 10
36.0
 20
36.0
  9
$ORTHOMODE
 70
     1
  9
$REGENMODE
 70
     1
  9
$FILLMODE
 70
     1
  9
$QTEXTMODE
 70
     0
  9
$MIRRTEXT
 70
     1
  9
$DRAGMODE
 70
     0
  9
$LTSCALE
 40
1.0
  9
$OSMODE
 70
    37
  9
$ATTMODE
 70
     1
  9
$TEXTSIZE
 40
0.2
  9
$TRACEWID
 40
0.05
  9
$TEXTSTYLE
  7
STANDARD
  9
$CLAYER
  8
ADP1DETAIL
  9
$CELTYPE
  6
BYLAYER
  9
$CECOLOR
 62
   256
  9
$CELTSCALE
 40
1.0
  9
$DELOBJ
 70
     1
  9
$DISPSILH
 70
     0
  9
$DIMSCALE
 40
1.0
  9
$DIMASZ
 40
0.125
  9
$DIMEXO
 40
0.0625
  9
$DIMDLI
 40
0.38
  9
$DIMRND
 40
0.0
  9
$DIMDLE
 40
0.0
  9
$DIMEXE
 40
0.18
  9
$DIMTP
 40
0.0
  9
$DIMTM
 40
0.0
  9
$DIMTXT
 40
0.125
  9
$DIMCEN
 40
0.1875
  9
$DIMTSZ
 40
0.125
  9
$DIMTOL
 70
     0
  9
$DIMLIM
 70
     0
  9
$DIMTIH
 70
     0
  9
$DIMTOH
 70
     0
  9
$DIMSE1
 70
     0
  9
$DIMSE2
 70
     0
  9
$DIMTAD
 70
     0
  9
$DIMZIN
 70
     3
  9
$DIMBLK
  1

  9
$DIMASO
 70
     1
  9
$DIMSHO
 70
     1
  9
$DIMPOST
  1

  9
$DIMAPOST
  1

  9
$DIMALT
 70
     0
  9
$DIMALTD
 70
     1
  9
$DIMALTF
 40
25.4
  9
$DIMLFAC
 40
1.0
  9
$DIMTOFL
 70
     0
  9
$DIMTVP
 40
0.0
  9
$DIMTIX
 70
     0
  9
$DIMSOXD
 70
     0
  9
$DIMSAH
 70
     0
  9
$DIMBLK1
  1

  9
$DIMBLK2
  1

  9
$DIMSTYLE
  2
STANDARD
  9
$DIMCLRD
 70
     0
  9
$DIMCLRE
 70
     0
  9
$DIMCLRT
 70
     0
  9
$DIMTFAC
 40
1.0
  9
$DIMGAP
 40
0.125
  9
$DIMJUST
 70
     0
  9
$DIMSD1
 70
     0
  9
$DIMSD2
 70
     0
  9
$DIMTOLJ
 70
     1
  9
$DIMTZIN
 70
     0
  9
$DIMALTZ
 70
     0
  9
$DIMALTTZ
 70
     0
  9
$DIMFIT
 70
     3
  9
$DIMUPT
 70
     0
  9
$DIMUNIT
 70
     2
  9
$DIMDEC
 70
     4
  9
$DIMTDEC
 70
     4
  9
$DIMALTU
 70
     2
  9
$DIMALTTD
 70
     2
  9
$DIMTXSTY
  7
STANDARD
  9
$DIMAUNIT
 70
     0
  9
$LUNITS
 70
     5
  9
$LUPREC
 70
     4
  9
$SKETCHINC
 40
0.1
  9
$FILLETRAD
 40
0.0625
  9
$AUNITS
 70
     0
  9
$AUPREC
 70
     0
  9
$MENU
  1
acad
  9
$ELEVATION
 40
0.0
  9
$PELEVATION
 40
0.0
  9
$THICKNESS
 40
0.0
  9
$LIMCHECK
 70
     0
  9
$BLIPMODE
 70
     0
  9
$CHAMFERA
 40
0.0
  9
$CHAMFERB
 40
0.0
  9
$CHAMFERC
 40
0.0
  9
$CHAMFERD
 40
0.0
  9
$SKPOLY
 70
     0
  9
$TDCREATE
 40
2450281.702799953
  9
$TDUPDATE
 40
2452297.092519340
  9
$TDINDWG
 40
0.0078729861
  9
$TDUSRTIMER
 40
0.0078729861
  9
$USRTIMER
 70
     1
  9
$ANGBASE
 50
0.0
  9
$ANGDIR
 70
     0
  9
$PDMODE
 70
     0
  9
$PDSIZE
 40
0.0
  9
$PLINEWID
 40
0.0
  9
$COORDS
 70
     2
  9
$SPLFRAME
 70
     0
  9
$SPLINETYPE
 70
     6
  9
$SPLINESEGS
 70
     8
  9
$ATTDIA
 70
     0
  9
$ATTREQ
 70
     1
  9
$HANDLING
 70
 22529
  9
$HANDSEED
  5
216
  9
$SURFTAB1
 70
     6
  9
$SURFTAB2
 70
     6
  9
$SURFTYPE
 70
     6
  9
$SURFU
 70
     6
  9
$SURFV
 70
     6
  9
$UCSNAME
  2

  9
$UCSORG
 10
0.0
 20
0.0
 30
0.0
  9
$UCSXDIR
 10
1.0
 20
0.0
 30
0.0
  9
$UCSYDIR
 10
0.0
 20
1.0
 30
0.0
  9
$PUCSNAME
  2

  9
$PUCSORG
 10
0.0
 20
0.0
 30
0.0
  9
$PUCSXDIR
 10
1.0
 20
0.0
 30
0.0
  9
$PUCSYDIR
 10
0.0
 20
1.0
 30
0.0
  9
$USERI1
 70
     0
  9
$USERI2
 70
     0
  9
$USERI3
 70
     0
  9
$USERI4
 70
     0
  9
$USERI5
 70
     0
  9
$USERR1
 40
0.0
  9
$USERR2
 40
0.0
  9
$USERR3
 40
0.0
  9
$USERR4
 40
0.0
  9
$USERR5
 40
0.0
  9
$WORLDVIEW
 70
     1
  9
$SHADEDGE
 70
     3
  9
$SHADEDIF
 70
    70
  9
$TILEMODE
 70
     1
  9
$MAXACTVP
 70
    15
  9
$PINSBASE
 10
0.1250029802322391
 20
0.0
 30
0.0
  9
$PLIMCHECK
 70
     0
  9
$PEXTMIN
 10
1.000000000000000E+20
 20
1.000000000000000E+20
 30
1.000000000000000E+20
  9
$PEXTMAX
 10
-1.000000000000000E+20
 20
-1.000000000000000E+20
 30
-1.000000000000000E+20
  9
$PLIMMIN
 10
0.0
 20
0.0
  9
$PLIMMAX
 10
12.0
 20
9.0
  9
$UNITMODE
 70
     0
  9
$VISRETAIN
 70
     0
  9
$PLINEGEN
 70
     0
  9
$PSLTSCALE
 70
     1
  9
$TREEDEPTH
 70
  3020
  9
$PICKSTYLE
 70
     1
  9
$CMLSTYLE
  2
STANDARD
  9
$CMLJUST
 70
     0
  9
$CMLSCALE
 40
1.0
  9
$PROXYGRAPHICS
 70
     1
  9
$MEASUREMENT
 70
     0
  0
ENDSEC
  0
SECTION
  2
CLASSES
  0
CLASS
  1
ACDBDICTIONARYWDFLT
  2
AcDbDictionaryWithDefault
  3
AutoCAD 2000
 90
        0
280
     0
281
     0
  0
CLASS
  1
ACDBPLACEHOLDER
  2
AcDbPlaceHolder
  3
AutoCAD 2000
 90
        0
280
     0
281
     0
  0
CLASS
  1
LAYOUT
  2
AcDbLayout
  3
AutoCAD 2000
 90
        0
280
     0
281
     0
  0
CLASS
  1
DICTIONARYVAR
  2
AcDbDictionaryVar
  3
AutoCAD 2000
 90
        0
280
     0
281
     0
  0
CLASS
  1
LONG_TRANSACTION
  2
AcDbLongTransaction
  3
AutoCAD 2000
 90
        0
280
     0
281
     0
  0
CLASS
  1
LWPOLYLINE
  2
AcDbPolyline
  3
AutoCAD 2000
 90
        0
280
     0
281
     1
  0
CLASS
  1
HATCH
  2
AcDbHatch
  3
AutoCAD 2000
 90
        0
280
     0
281
     1
  0
CLASS
  1
XRECORD
  2
AcDbXrecord
  3
AutoCAD 2000
 90
        0
280
     0
281
     0
  0
CLASS
  1
LONG_TRANSACTION
  2
AcDbLongTransaction
  3
AutoCAD 2000
 90
        0
280
     0
281
     0
  0
CLASS
  1
LWPOLYLINE
  2
AcDbPolyline
  3
AutoCAD 2000
 90
        0
280
     0
281
     1
  0
CLASS
  1
HATCH
  2
AcDbHatch
  3
AutoCAD 2000
 90
        0
280
     0
281
     1
  0
CLASS
  1
XRECORD
  2
AcDbXrecord
  3
AutoCAD 2000
 90
        0
280
     0
281
     0
  0
CLASS
  1
LONG_TRANSACTION
  2
AcDbLongTransaction
  3
AutoCAD 2000
 90
        0
280
     0
281
     0
  0
CLASS
  1
LWPOLYLINE
  2
AcDbPolyline
  3
AutoCAD 2000
 90
        0
280
     0
281
     1
  0
CLASS
  1
HATCH
  2
AcDbHatch
  3
AutoCAD 2000
 90
        0
280
     0
281
     1
  0
CLASS
  1
XRECORD
  2
AcDbXrecord
  3
AutoCAD 2000
 90
        0
280
     0
281
     0
  0
CLASS
  1
LONG_TRANSACTION
  2
AcDbLongTransaction
  3
AutoCAD 2000
 90
        0
280
     0
281
     0
  0
CLASS
  1
LWPOLYLINE
  2
AcDbPolyline
  3
AutoCAD 2000
 90
        0
280
     0
281
     1
  0
CLASS
  1
HATCH
  2
AcDbHatch
  3
AutoCAD 2000
 90
        0
280
     0
281
     1
  0
CLASS
  1
XRECORD
  2
AcDbXrecord
  3
AutoCAD 2000
 90
        0
280
     0
281
     0
  0
CLASS
  1
LONG_TRANSACTION
  2
AcDbLongTransaction
  3
AutoCAD 2000
 90
        0
280
     0
281
     0
  0
CLASS
  1
LWPOLYLINE
  2
AcDbPolyline
  3
AutoCAD 2000
 90
        0
280
     0
281
     1
  0
CLASS
  1
HATCH
  2
AcDbHatch
  3
AutoCAD 2000
 90
        0
280
     0
281
     1
  0
CLASS
  1
XRECORD
  2
AcDbXrecord
  3
AutoCAD 2000
 90
        0
280
     0
281
     0
  0
ENDSEC
  0
SECTION
  2
TABLES
  0
TABLE
  2
VPORT
  5
8
330
0
100
AcDbSymbolTable
 70
     2
  0
VPORT
  5
1F3
330
8
100
AcDbSymbolTableRecord
100
AcDbViewportTableRecord
  2
*ACTIVE
 70
     0
 10
0.0
 20
0.0
 11
1.0
 21
1.0
 12
8.64858496929477
 22
0.3542498327805958
 13
0.0
 23
0.0
 14
0.5740882589684922
 24
0.5740882589684922
 15
0.5
 25
0.5
 16
0.0
 26
0.0
 36
1.0
 17
0.0
 27
0.0
 37
0.0
 40
12.54751368323494
 41
1.570528967254408
 42
50.0
 43
0.0
 44
0.0
 50
0.0
 51
0.0
 71
     0
 72
   100
 73
     1
 74
     0
 75
     0
 76
     0
 77
     0
 78
     0
  0
ENDTAB
  0
TABLE
  2
LTYPE
  5
5
330
0
100
AcDbSymbolTable
 70
     2
  0
LTYPE
  5
12
330
5
100
AcDbSymbolTableRecord
100
AcDbLinetypeTableRecord
  2
BYBLOCK
 70
     0
  3

 72
    65
 73
     0
 40
0.0
  0
LTYPE
  5
13
330
5
100
AcDbSymbolTableRecord
100
AcDbLinetypeTableRecord
  2
BYLAYER
 70
     0
  3

 72
    65
 73
     0
 40
0.0
  0
LTYPE
  5
14
330
5
100
AcDbSymbolTableRecord
100
AcDbLinetypeTableRecord
  2
CONTINUOUS
 70
     0
  3
Solid line
 72
    65
 73
     0
 40
0.0
  0
LTYPE
  5
4E
330
5
100
AcDbSymbolTableRecord
100
AcDbLinetypeTableRecord
  2
HIDDEN2
 70
     0
  3
_ _ _ _ _ _ _ _ _ _ _ _ _ _ _ _ _ _ _ _ _ _ _ _
 72
    65
 73
     2
 40
0.1875
 49
0.125
 74
     0
 49
-0.0625
 74
     0
  0
ENDTAB
  0
TABLE
  2
LAYER
  5
2
330
0
100
AcDbSymbolTable
 70
     5
  0
LAYER
  5
F
330
2
100
AcDbSymbolTableRecord
100
AcDbLayerTableRecord
  2
0
 70
     0
 62
     7
  6
CONTINUOUS
  0
LAYER
  5
4F
330
2
100
AcDbSymbolTableRecord
100
AcDbLayerTableRecord
  2
ADP2DETAIL
 70
     0
 62
     5
  6
CONTINUOUS
  0
LAYER
  5
50
330
2
100
AcDbSymbolTableRecord
100
AcDbLayerTableRecord
  2
ADPDIM
 70
     0
 62
     3
  6
CONTINUOUS
  0
LAYER
  5
52
330
2
100
AcDbSymbolTableRecord
100
AcDbLayerTableRecord
  2
ADP1DETAIL
 70
     0
 62
     7
  6
CONTINUOUS
  0
LAYER
  5
54
330
2
100
AcDbSymbolTableRecord
100
AcDbLayerTableRecord
  2
DEFPOINTS
 70
     0
 62
     7
  6
CONTINUOUS
  0
ENDTAB
  0
TABLE
  2
STYLE
  5
3
330
0
100
AcDbSymbolTable
 70
     2
  0
STYLE
  5
10
330
3
100
AcDbSymbolTableRecord
100
AcDbTextStyleTableRecord
  2
STANDARD
 70
     0
 40
0.0
 41
1.0
 50
0.0
 71
     0
 42
0.2
  3
txt
  4

  0
STYLE
  5
AF
330
3
100
AcDbSymbolTableRecord
100
AcDbTextStyleTableRecord
  2
ARIAL_WIDE
 70
     0
 40
0.0
 41
1.25
 50
0.0
 71
     0
 42
0.2
  3
ARIAL.TTF
  4

1001
ACAD
1000
Arial
1071
       34
  0
ENDTAB
  0
TABLE
  2
VIEW
  5
6
330
0
100
AcDbSymbolTable
 70
     0
  0
ENDTAB
  0
TABLE
  2
UCS
  5
7
330
0
100
AcDbSymbolTable
 70
     0
  0
ENDTAB
  0
TABLE
  2
APPID
  5
9
330
0
100
AcDbSymbolTable
 70
     1
  0
APPID
  5
11
330
9
100
AcDbSymbolTableRecord
100
AcDbRegAppTableRecord
  2
ACAD
 70
     0
  0
ENDTAB
  0
TABLE
  2
DIMSTYLE
  5
A
330
0
100
AcDbSymbolTable
 70
     1
  0
DIMSTYLE
105
A3
330
A
100
AcDbSymbolTableRecord
100
AcDbDimStyleTableRecord
  2
STANDARD
 70
     0
  3

  4

  5

  6

  7

 40
1.0
 41
0.18
 42
0.0625
 43
0.38
 44
0.18
 45
0.0
 46
0.0
 47
0.0
 48
0.0
140
0.18
141
0.09
142
0.0
143
25.4
144
1.0
145
0.0
146
1.0
147
0.09
 71
     0
 72
     0
 73
     1
 74
     1
 75
     0
 76
     0
 77
     0
 78
     0
170
     0
171
     2
172
     0
173
     0
174
     0
175
     0
176
     0
177
     0
178
     0
270
     2
271
     4
272
     4
273
     2
274
     2
340
10
275
     0
280
     0
281
     0
282
     0
283
     1
284
     0
285
     0
286
     0
287
     3
288
     0
  0
ENDTAB
  0
TABLE
  2
BLOCK_RECORD
  5
1
330
0
100
AcDbSymbolTable
 70
     2
  0
BLOCK_RECORD
  5
18
102
{ACAD_XDICTIONARY
360
104
102
}
330
1
100
AcDbSymbolTableRecord
100
AcDbBlockTableRecord
  2
*MODEL_SPACE
  0
BLOCK_RECORD
  5
15
102
{ACAD_XDICTIONARY
360
102
102
}
330
1
100
AcDbSymbolTableRecord
100
AcDbBlockTableRecord
  2
*PAPER_SPACE
  0
BLOCK_RECORD
  5
39
330
1
100
AcDbSymbolTableRecord
100
AcDbBlockTableRecord
  2
*D0
  0
BLOCK_RECORD
  5
3A
330
1
100
AcDbSymbolTableRecord
100
AcDbBlockTableRecord
  2
*D1
  0
ENDTAB
  0
ENDSEC
  0
SECTION
  2
BLOCKS
  0
BLOCK
  5
57
330
18
100
AcDbEntity
  8
0
100
AcDbBlockBegin
  2
*MODEL_SPACE
 70
     0
 10
0.0
 20
0.0
 30
0.0
  3
*MODEL_SPACE
  1

  0
ENDBLK
  5
58
330
18
100
AcDbEntity
  8
0
100
AcDbBlockEnd
  0
BLOCK
  5
55
330
15
100
AcDbEntity
 67
     1
  8
0
100
AcDbBlockBegin
  2
*PAPER_SPACE
 70
     0
 10
0.0
 20
0.0
 30
0.0
  3
*PAPER_SPACE
  1

  0
ENDBLK
  5
56
330
15
100
AcDbEntity
 67
     1
  8
0
100
AcDbBlockEnd
  0
BLOCK
  5
5A
330
39
100
AcDbEntity
  8
0
100
AcDbBlockBegin
  2
*D0
 70
     1
 10
0.0
 20
0.0
 30
0.0
  3
*D0
  1

  0
LINE
  5
5B
330
39
100
AcDbEntity
  8
0
  6
BYBLOCK
 62
     0
100
AcDbLine
 10
8.973661851933954
 20
-0.9615050800850376
 30
0.0
 11
11.14373224180197
 21
-0.9615050800850378
 31
0.0
  0
LINE
  5
5C
330
39
100
AcDbEntity
  8
0
  6
BYBLOCK
 62
     0
100
AcDbLine
 10
10.75664308592592
 20
-2.680303071674279
 30
0.0
 11
11.14373224180197
 21
-2.680303071674279
 31
0.0
  0
LINE
  5
5D
330
39
100
AcDbEntity
  8
0
  6
BYBLOCK
 62
     0
100
AcDbLine
 10
10.96373224180197
 20
-0.9615050800850378
 30
0.0
 11
10.96373224180197
 21
-1.425070742546325
 31
0.0
  0
LINE
  5
5E
330
39
100
AcDbEntity
  8
0
  6
BYBLOCK
 62
     0
100
AcDbLine
 10
10.96373224180197
 20
-2.680303071674279
 30
0.0
 11
10.96373224180197
 21
-2.216737409212992
 31
0.0
  0
LINE
  5
5F
330
39
100
AcDbEntity
  8
0
  6
BYBLOCK
 62
     0
100
AcDbLine
 10
11.08873224180197
 20
-1.086505080085037
 30
0.0
 11
10.83873224180197
 21
-0.8365050800850378
 31
0.0
  0
LINE
  5
60
330
39
100
AcDbEntity
  8
0
  6
BYBLOCK
 62
     0
100
AcDbLine
 10
11.08873224180197
 20
-2.805303071674279
 30
0.0
 11
10.83873224180197
 21
-2.555303071674279
 31
0.0
  0
TEXT
  5
61
330
39
100
AcDbEntity
  8
0
  6
BYBLOCK
 62
     0
100
AcDbText
 10
11.02623224180197
 20
-2.091737409212992
 30
0.0
 40
0.125
  1
1 3/4
 50
90.0
 72
     1
 11
10.96373224180197
 21
-1.820904075879658
 31
0.0
100
AcDbText
 73
     2
  0
POINT
  5
62
330
39
100
AcDbEntity
  8
DEFPOINTS
  6
BYBLOCK
 62
     0
100
AcDbPoint
 10
8.911161851933954
 20
-0.9615050800850376
 30
0.0
  0
POINT
  5
63
330
39
100
AcDbEntity
  8
DEFPOINTS
  6
BYBLOCK
 62
     0
100
AcDbPoint
 10
10.69414308592592
 20
-2.680303071674279
 30
0.0
  0
POINT
  5
64
330
39
100
AcDbEntity
  8
DEFPOINTS
  6
BYBLOCK
 62
     0
100
AcDbPoint
 10
10.96373224180197
 20
-2.680303071674279
 30
0.0
  0
ENDBLK
  5
65
330
39
100
AcDbEntity
  8
0
100
AcDbBlockEnd
  0
BLOCK
  5
66
330
3A
100
AcDbEntity
  8
0
100
AcDbBlockBegin
  2
*D1
 70
     1
 10
0.0
 20
0.0
 30
0.0
  3
*D1
  1

  0
LINE
  5
67
330
3A
100
AcDbEntity
  8
0
  6
BYBLOCK
 62
     0
100
AcDbLine
 10
6.569143085925928
 20
-2.742803071674279
 30
0.0
 11
6.569143085925928
 21
-3.040553968456509
 31
0.0
  0
LINE
  5
68
330
3A
100
AcDbEntity
  8
0
  6
BYBLOCK
 62
     0
100
AcDbLine
 10
10.69414308592592
 20
-2.742803071674279
 30
0.0
 11
10.69414308592592
 21
-3.040553968456509
 31
0.0
  0
LINE
  5
69
330
3A
100
AcDbEntity
  8
0
  6
BYBLOCK
 62
     0
100
AcDbLine
 10
6.569143085925928
 20
-2.860553968456509
 30
0.0
 11
8.235809752592594
 21
-2.860553968456509
 31
0.0
  0
LINE
  5
6A
330
3A
100
AcDbEntity
  8
0
  6
BYBLOCK
 62
     0
100
AcDbLine
 10
10.69414308592592
 20
-2.860553968456509
 30
0.0
 11
9.027476419259262
 21
-2.860553968456509
 31
0.0
  0
LINE
  5
6B
330
3A
100
AcDbEntity
  8
0
  6
BYBLOCK
 62
     0
100
AcDbLine
 10
6.444143085925928
 20
-2.985553968456509
 30
0.0
 11
6.694143085925928
 21
-2.735553968456509
 31
0.0
  0
LINE
  5
6C
330
3A
100
AcDbEntity
  8
0
  6
BYBLOCK
 62
     0
100
AcDbLine
 10
10.56914308592592
 20
-2.985553968456509
 30
0.0
 11
10.81914308592592
 21
-2.735553968456509
 31
0.0
  0
TEXT
  5
6D
330
3A
100
AcDbEntity
  8
0
  6
BYBLOCK
 62
     0
100
AcDbText
 10
8.360809752592594
 20
-2.923053968456509
 30
0.0
 40
0.125
  1
4 1/8
 72
     1
 11
8.631643085925928
 21
-2.860553968456509
 31
0.0
100
AcDbText
 73
     2
  0
POINT
  5
6E
330
3A
100
AcDbEntity
  8
DEFPOINTS
  6
BYBLOCK
 62
     0
100
AcDbPoint
 10
6.569143085925928
 20
-2.680303071674279
 30
0.0
  0
POINT
  5
6F
330
3A
100
AcDbEntity
  8
DEFPOINTS
  6
BYBLOCK
 62
     0
100
AcDbPoint
 10
10.69414308592592
 20
-2.680303071674279
 30
0.0
  0
POINT
  5
70
330
3A
100
AcDbEntity
  8
DEFPOINTS
  6
BYBLOCK
 62
     0
100
AcDbPoint
 10
10.69414308592592
 20
-2.860553968456509
 30
0.0
  0
ENDBLK
  5
71
330
3A
100
AcDbEntity
  8
0
100
AcDbBlockEnd
  0
ENDSEC
  0
SECTION
  2
ENTITIES
  0
ARC
  5
72
330
18
100
AcDbEntity
  8
ADP1DETAIL
100
AcDbCircle
 10
6.756643085925928
 20
0.6468790433907471
 30
0.0
 40
0.1875
100
AcDbArc
 50
180.0
 51
270.0
  0
ARC
  5
73
330
18
100
AcDbEntity
  8
ADP1DETAIL
100
AcDbCircle
 10
10.50664308592592
 20
0.6468790433907471
 30
0.0
 40
0.1875
100
AcDbArc
 50
270.0
 51
0.0
  0
DIMENSION
  5
74
330
18
100
AcDbEntity
  8
ADPDIM
100
AcDbDimension
  2
*D1
 10
10.69414308592592
 20
-2.860553968456509
 30
0.0
 11
8.631643085925928
 21
-2.860553968456509
 31
0.0
100
AcDbAlignedDimension
 13
6.569143085925928
 23
-2.680303071674279
 33
0.0
 14
10.69414308592592
 24
-2.680303071674279
 34
0.0
100
AcDbRotatedDimension
  0
DIMENSION
  5
75
330
18
100
AcDbEntity
  8
ADPDIM
100
AcDbDimension
  2
*D0
 10
10.96373224180197
 20
-2.680303071674279
 30
0.0
 11
10.96373224180197
 21
-1.820904075879658
 31
0.0
100
AcDbAlignedDimension
 13
8.911161851933954
 23
-0.9615050800850376
 33
0.0
 14
10.69414308592592
 24
-2.680303071674279
 34
0.0
 50
90.0
100
AcDbRotatedDimension
  0
ARC
  5
76
330
18
100
AcDbEntity
  8
ADP2DETAIL
  6
HIDDEN2
100
AcDbCircle
 10
8.803391902571204
 20
-2.903841518738583
 30
0.0
 40
1.945323932641293
100
AcDbArc
 50
35.80537591538416
 51
86.82421728279114
  0
LINE
  5
77
330
18
100
AcDbEntity
  8
ADP1DETAIL
100
AcDbLine
 10
6.725393085925927
 20
-1.742803071674279
 30
0.0
 11
10.53789308592593
 21
-1.742803071674279
 31
0.0
  0
ARC
  5
78
330
18
100
AcDbEntity
  8
ADP1DETAIL
100
AcDbCircle
 10
8.803391902571204
 20
-2.903841518738583
 30
0.0
 40
1.976573932641293
100
AcDbArc
 50
35.80537591538416
 51
86.82421728279114
  0
LINE
  5
79
330
18
100
AcDbEntity
  8
ADP1DETAIL
100
AcDbLine
 10
6.631643085925927
 20
-1.930303071674279
 30
0.0
 11
10.63164308592592
 21
-1.930303071674279
 31
0.0
  0
LINE
  5
7A
330
18
100
AcDbEntity
  8
ADP1DETAIL
100
AcDbLine
 10
6.569143085925928
 20
-2.680303071674279
 30
0.0
 11
10.69414308592592
 21
-2.680303071674279
 31
0.0
  0
LINE
  5
7B
330
18
100
AcDbEntity
  8
ADP2DETAIL
  6
HIDDEN2
100
AcDbLine
 10
6.600393085925928
 20
-2.680303071674279
 30
0.0
 11
6.600393085925927
 21
-1.992803071674279
 31
0.0
  0
LINE
  5
7C
330
18
100
AcDbEntity
  8
ADP1DETAIL
100
AcDbLine
 10
6.569143085925928
 20
-2.680303071674279
 30
0.0
 11
6.569143085925927
 21
-1.992803071674279
 31
0.0
  0
ARC
  5
7D
330
18
100
AcDbEntity
  8
ADP2DETAIL
  6
HIDDEN2
100
AcDbCircle
 10
8.459894269280651
 20
-2.903841518738583
 30
0.0
 40
1.945323932641293
100
AcDbArc
 50
93.17578271720886
 51
144.1946240846158
  0
ARC
  5
7E
330
18
100
AcDbEntity
  8
ADP1DETAIL
100
AcDbCircle
 10
8.459894269280651
 20
-2.903841518738583
 30
0.0
 40
1.976573932641293
100
AcDbArc
 50
93.17578271720886
 51
144.1946240846158
  0
LINE
  5
7F
330
18
100
AcDbEntity
  8
ADP2DETAIL
  6
HIDDEN2
100
AcDbLine
 10
6.882219187489614
 20
-1.765761319805911
 30
0.0
 11
6.694143085925927
 21
-1.805303071674279
 31
0.0
  0
LINE
  5
80
330
18
100
AcDbEntity
  8
ADP2DETAIL
  6
HIDDEN2
100
AcDbLine
 10
6.694143085925927
 20
-1.930303071674279
 30
0.0
 11
6.694143085925927
 21
-1.805303071674279
 31
0.0
  0
LINE
  5
81
330
18
100
AcDbEntity
  8
ADP1DETAIL
100
AcDbLine
 10
6.662893085925927
 20
-1.930303071674279
 30
0.0
 11
6.662893085925927
 21
-1.805303071674279
 31
0.0
  0
ARC
  5
82
330
18
100
AcDbEntity
  8
ADP1DETAIL
100
AcDbCircle
 10
6.725393085925927
 20
-1.805303071674279
 30
0.0
 40
0.0625
100
AcDbArc
 50
90.0
 51
180.0
  0
ARC
  5
83
330
18
100
AcDbEntity
  8
ADP1DETAIL
100
AcDbCircle
 10
6.631643085925927
 20
-1.992803071674279
 30
0.0
 40
0.0625
100
AcDbArc
 50
90.0
 51
180.0
  0
LINE
  5
84
330
18
100
AcDbEntity
  8
ADP2DETAIL
  6
HIDDEN2
100
AcDbLine
 10
8.350393085925929
 20
-0.9615530716742792
 30
0.0
 11
8.912893085925928
 21
-0.9615530716742791
 31
0.0
  0
LINE
  5
85
330
18
100
AcDbEntity
  8
ADP1DETAIL
100
AcDbLine
 10
8.350393085925929
 20
-0.9303030716742792
 30
0.0
 11
8.912893085925928
 21
-0.9303030716742791
 31
0.0
  0
LINE
  5
86
330
18
100
AcDbEntity
  8
ADP2DETAIL
  6
HIDDEN2
100
AcDbLine
 10
10.66289308592592
 20
-1.992803071674279
 30
0.0
 11
10.66289308592592
 21
-2.680303071674279
 31
0.0
  0
LINE
  5
87
330
18
100
AcDbEntity
  8
ADP1DETAIL
100
AcDbLine
 10
10.69414308592592
 20
-1.992803071674279
 30
0.0
 11
10.69414308592592
 21
-2.680303071674279
 31
0.0
  0
ARC
  5
88
330
18
100
AcDbEntity
  8
ADP1DETAIL
100
AcDbCircle
 10
10.63164308592592
 20
-1.992803071674279
 30
0.0
 40
0.0625
100
AcDbArc
 50
0.0
 51
90.0
  0
LINE
  5
89
330
18
100
AcDbEntity
  8
ADP2DETAIL
  6
HIDDEN2
100
AcDbLine
 10
10.38106698436224
 20
-1.765761319805911
 30
0.0
 11
10.56914308592592
 21
-1.805303071674279
 31
0.0
  0
LINE
  5
8A
330
18
100
AcDbEntity
  8
ADP2DETAIL
  6
HIDDEN2
100
AcDbLine
 10
10.56914308592592
 20
-1.930303071674279
 30
0.0
 11
10.56914308592592
 21
-1.805303071674279
 31
0.0
  0
LINE
  5
8B
330
18
100
AcDbEntity
  8
ADP1DETAIL
100
AcDbLine
 10
10.60039308592592
 20
-1.930303071674279
 30
0.0
 11
10.60039308592592
 21
-1.805303071674279
 31
0.0
  0
ARC
  5
8C
330
18
100
AcDbEntity
  8
ADP1DETAIL
100
AcDbCircle
 10
10.53789308592593
 20
-1.805303071674279
 30
0.0
 40
0.0625
100
AcDbArc
 50
0.000000000000007
 51
90.0
  0
LINE
  5
8D
330
18
100
AcDbEntity
  8
ADP1DETAIL
100
AcDbLine
 10
10.50664308592592
 20
0.5531290433907471
 30
0.0
 11
6.756643085925928
 21
0.5531290433907471
 31
0.0
  0
LINE
  5
8E
330
18
100
AcDbEntity
  8
ADP1DETAIL
100
AcDbLine
 10
6.756643085925928
 20
4.490629043390746
 30
0.0
 11
10.50664308592592
 21
4.490629043390747
 31
0.0
  0
LINE
  5
8F
330
18
100
AcDbEntity
  8
ADP1DETAIL
100
AcDbLine
 10
10.41289308592592
 20
0.7406290433907471
 30
0.0
 11
6.850393085925928
 21
0.7406290433907471
 31
0.0
  0
LINE
  5
90
330
18
100
AcDbEntity
  8
ADP1DETAIL
100
AcDbLine
 10
6.850393085925928
 20
4.303129043390746
 30
0.0
 11
10.41289308592592
 21
4.303129043390747
 31
0.0
  0
LINE
  5
91
330
18
100
AcDbEntity
  8
ADP1DETAIL
100
AcDbLine
 10
10.50664308592592
 20
0.4593790433907471
 30
0.0
 11
6.756643085925928
 21
0.4593790433907471
 31
0.0
  0
LINE
  5
92
330
18
100
AcDbEntity
  8
ADP1DETAIL
100
AcDbLine
 10
6.756643085925928
 20
4.584379043390747
 30
0.0
 11
10.50664308592592
 21
4.584379043390747
 31
0.0
  0
LINE
  5
93
330
18
100
AcDbEntity
  8
ADP1DETAIL
100
AcDbLine
 10
6.662893085925928
 20
0.6468790433907471
 30
0.0
 11
6.662893085925928
 21
4.396879043390747
 31
0.0
  0
LINE
  5
94
330
18
100
AcDbEntity
  8
ADP1DETAIL
100
AcDbLine
 10
6.850393085925928
 20
0.7406290433907471
 30
0.0
 11
6.850393085925928
 21
4.303129043390746
 31
0.0
  0
LINE
  5
95
330
18
100
AcDbEntity
  8
ADP1DETAIL
100
AcDbLine
 10
6.569143085925928
 20
0.6468790433907471
 30
0.0
 11
6.569143085925928
 21
4.396879043390747
 31
0.0
  0
ARC
  5
96
330
18
100
AcDbEntity
  8
ADP1DETAIL
100
AcDbCircle
 10
6.756643085925928
 20
0.6468790433907471
 30
0.0
 40
0.09375
100
AcDbArc
 50
180.0
 51
270.0
  0
LINE
  5
97
330
18
100
AcDbEntity
  8
ADP1DETAIL
100
AcDbLine
 10
8.912893085925928
 20
2.240629043390747
 30
0.0
 11
8.350393085925929
 21
2.240629043390746
 31
0.0
  0
LINE
  5
98
330
18
100
AcDbEntity
  8
ADP1DETAIL
100
AcDbLine
 10
8.350393085925929
 20
2.803129043390746
 30
0.0
 11
8.912893085925928
 21
2.803129043390747
 31
0.0
  0
LINE
  5
99
330
18
100
AcDbEntity
  8
ADP1DETAIL
100
AcDbLine
 10
8.350393085925929
 20
2.240629043390746
 30
0.0
 11
8.350393085925929
 21
2.803129043390746
 31
0.0
  0
LINE
  5
9A
330
18
100
AcDbEntity
  8
ADP1DETAIL
100
AcDbLine
 10
8.912893085925928
 20
2.803129043390747
 30
0.0
 11
8.912893085925928
 21
2.240629043390747
 31
0.0
  0
ARC
  5
9B
330
18
100
AcDbEntity
  8
ADP1DETAIL
100
AcDbCircle
 10
6.756643085925928
 20
4.396879043390746
 30
0.0
 40
0.09375
100
AcDbArc
 50
90.0
 51
179.9999999999994
  0
ARC
  5
9C
330
18
100
AcDbEntity
  8
ADP1DETAIL
100
AcDbCircle
 10
6.756643085925928
 20
4.396879043390747
 30
0.0
 40
0.1875
100
AcDbArc
 50
90.0
 51
180.0
  0
LINE
  5
9D
330
18
100
AcDbEntity
  8
ADP1DETAIL
100
AcDbLine
 10
10.60039308592592
 20
4.396879043390747
 30
0.0
 11
10.60039308592592
 21
0.6468790433907471
 31
0.0
  0
LINE
  5
9E
330
18
100
AcDbEntity
  8
ADP1DETAIL
100
AcDbLine
 10
10.41289308592592
 20
4.303129043390747
 30
0.0
 11
10.41289308592592
 21
0.7406290433907471
 31
0.0
  0
LINE
  5
9F
330
18
100
AcDbEntity
  8
ADP1DETAIL
100
AcDbLine
 10
10.69414308592592
 20
4.396879043390747
 30
0.0
 11
10.69414308592592
 21
0.6468790433907471
 31
0.0
  0
ARC
  5
A0
330
18
100
AcDbEntity
  8
ADP1DETAIL
100
AcDbCircle
 10
10.50664308592592
 20
0.6468790433907471
 30
0.0
 40
0.09375
100
AcDbArc
 50
270.0
 51
0.0
  0
ARC
  5
A1
330
18
100
AcDbEntity
  8
ADP1DETAIL
100
AcDbCircle
 10
10.50664308592592
 20
4.396879043390747
 30
0.0
 40
0.1875
100
AcDbArc
 50
0.0
 51
90.0
  0
ARC
  5
A2
330
18
100
AcDbEntity
  8
ADP1DETAIL
100
AcDbCircle
 10
10.50664308592592
 20
4.396879043390747
 30
0.0
 40
0.09375
100
AcDbArc
 50
0.0
 51
90.0
  0
TEXT
  5
B0
330
18
100
AcDbEntity
  8
ADPDIM
100
AcDbText
 10
-1.156950450908997
 20
-3.86168730018596
 30
0.0
 40
0.1875
  1
J U L I U S  B L U M  &  C O . ,  I N C .      ( 8 0 0 )  5 2 6 - 6 2 9 3        W W W . J U L I U S B L U M . C O M        P A R T  N o .  5 9 4 4
 41
1.25
  7
ARIAL_WIDE
 72
     1
 11
8.631643085925928
 21
-3.67418730018596
 31
0.0
100
AcDbText
 73
     3
  0
ENDSEC
  0
SECTION
  2
OBJECTS
  0
DICTIONARY
  5
C
330
0
100
AcDbDictionary
  3
ACAD_GROUP
350
D
  3
ACAD_LAYOUT
350
A9
  3
ACAD_MLINESTYLE
350
E
  3
ACAD_PLOTSETTINGS
350
AA
  3
ACAD_PLOTSTYLENAME
350
A7
  3
ACDBHEADERROUNDTRIPXREC
350
1F4
  3
ACDBVARIABLEDICTIONARY
350
10A
  0
DICTIONARY
  5
104
330
18
100
AcDbDictionary
280
     1
  3
ACAD_LAYOUTSELFREF
360
215
  0
DICTIONARY
  5
102
330
15
100
AcDbDictionary
280
     1
  3
ACAD_LAYOUTSELFREF
360
214
  0
DICTIONARY
  5
D
102
{ACAD_REACTORS
330
C
102
}
330
C
100
AcDbDictionary
  0
DICTIONARY
  5
A9
102
{ACAD_REACTORS
330
C
102
}
330
C
100
AcDbDictionary
  0
DICTIONARY
  5
E
102
{ACAD_REACTORS
330
C
102
}
330
C
100
AcDbDictionary
  3
STANDARD
350
1B
  0
DICTIONARY
  5
AA
102
{ACAD_REACTORS
330
C
102
}
330
C
100
AcDbDictionary
  0
ACDBDICTIONARYWDFLT
  5
A7
102
{ACAD_REACTORS
330
C
102
}
330
C
100
AcDbDictionary
281
     1
  3
Normal
350
A8
100
AcDbDictionaryWithDefault
340
A8
  0
DICTIONARY
  5
1F4
102
{ACAD_REACTORS
330
C
102
}
330
C
100
AcDbDictionary
  3
CEPSNTYPE
350
1FE
  3
FINGERPRINTGUID
350
1FF
  3
HYPERLINKBASE
350
1F7
  3
INSUNITS
350
1FD
  3
LAYOUTDICT
350
1F9
  3
LWETCUNION
350
1FC
  3
PLOTSETDICT
350
1FA
  3
PLOTSTYLNAMDICT
350
1FB
  3
PSVPSCALE
350
201
  3
PUCSBASE
350
204
  3
PUCSORGBACK
350
20A
  3
PUCSORGBOTTOM
350
206
  3
PUCSORGFRONT
350
209
  3
PUCSORGLEFT
350
207
  3
PUCSORGRIGHT
350
208
  3
PUCSORGTOP
350
205
  3
PUCSORTHOREF
350
202
  3
PUCSORTHOVIEW
350
203
  3
STYLESHEET
350
1F8
  3
TSTACKALIGN
350
1F5
  3
TSTACKSIZE
350
1F6
  3
UCSBASE
350
20D
  3
UCSORGBACK
350
213
  3
UCSORGBOTTOM
350
20F
  3
UCSORGFRONT
350
212
  3
UCSORGLEFT
350
210
  3
UCSORGRIGHT
350
211
  3
UCSORGTOP
350
20E
  3
UCSORTHOREF
350
20B
  3
UCSORTHOVIEW
350
20C
  3
VERSIONGUID
350
200
  0
DICTIONARY
  5
10A
102
{ACAD_REACTORS
330
C
102
}
330
C
100
AcDbDictionary
  3
DIMASSOC
350
10B
  0
XRECORD
  5
215
102
{ACAD_REACTORS
330
104
102
}
330
104
100
AcDbXrecord
340
18
  0
XRECORD
  5
214
102
{ACAD_REACTORS
330
102
102
}
330
102
100
AcDbXrecord
340
15
  0
MLINESTYLE
  5
1B
102
{ACAD_REACTORS
330
E
102
}
330
E
100
AcDbMlineStyle
  2
STANDARD
 70
     0
  3

 62
     0
 51
90.0
 52
90.0
 71
     2
 49
0.5
 62
   256
  6
BYLAYER
 49
-0.5
 62
   256
  6
BYLAYER
  0
ACDBPLACEHOLDER
  5
A8
102
{ACAD_REACTORS
330
A7
102
}
330
A7
100
AcDbPlaceHolder
280
     0
  0
XRECORD
  5
1FE
102
{ACAD_REACTORS
330
1F4
102
}
330
1F4
100
AcDbXrecord
 90
        0
  0
XRECORD
  5
1FF
102
{ACAD_REACTORS
330
1F4
102
}
330
1F4
100
AcDbXrecord
  1
{C69F8819-DEA1-4B09-9682-EC040782EA19}
  0
XRECORD
  5
1F7
102
{ACAD_REACTORS
330
1F4
102
}
330
1F4
100
AcDbXrecord
  1

  0
XRECORD
  5
1FD
102
{ACAD_REACTORS
330
1F4
102
}
330
1F4
100
AcDbXrecord
 90
        0
  0
XRECORD
  5
1F9
102
{ACAD_REACTORS
330
1F4
102
}
330
1F4
100
AcDbXrecord
340
A9
  0
XRECORD
  5
1FC
102
{ACAD_REACTORS
330
1F4
102
}
330
1F4
100
AcDbXrecord
 90
    14877
  0
XRECORD
  5
1FA
102
{ACAD_REACTORS
330
1F4
102
}
330
1F4
100
AcDbXrecord
340
AA
  0
XRECORD
  5
1FB
102
{ACAD_REACTORS
330
1F4
102
}
330
1F4
100
AcDbXrecord
340
A7
  0
XRECORD
  5
201
102
{ACAD_REACTORS
330
1F4
102
}
330
1F4
100
AcDbXrecord
 40
0.0
  0
XRECORD
  5
204
102
{ACAD_REACTORS
330
1F4
102
}
330
1F4
100
AcDbXrecord
340
0
  0
XRECORD
  5
20A
102
{ACAD_REACTORS
330
1F4
102
}
330
1F4
100
AcDbXrecord
 10
0.0
 20
0.0
 30
0.0
  0
XRECORD
  5
206
102
{ACAD_REACTORS
330
1F4
102
}
330
1F4
100
AcDbXrecord
 10
0.0
 20
0.0
 30
0.0
  0
XRECORD
  5
209
102
{ACAD_REACTORS
330
1F4
102
}
330
1F4
100
AcDbXrecord
 10
0.0
 20
0.0
 30
0.0
  0
XRECORD
  5
207
102
{ACAD_REACTORS
330
1F4
102
}
330
1F4
100
AcDbXrecord
 10
0.0
 20
0.0
 30
0.0
  0
XRECORD
  5
208
102
{ACAD_REACTORS
330
1F4
102
}
330
1F4
100
AcDbXrecord
 10
0.0
 20
0.0
 30
0.0
  0
XRECORD
  5
205
102
{ACAD_REACTORS
330
1F4
102
}
330
1F4
100
AcDbXrecord
 10
0.0
 20
0.0
 30
0.0
  0
XRECORD
  5
202
102
{ACAD_REACTORS
330
1F4
102
}
330
1F4
100
AcDbXrecord
340
0
  0
XRECORD
  5
203
102
{ACAD_REACTORS
330
1F4
102
}
330
1F4
100
AcDbXrecord
 70
     0
  0
XRECORD
  5
1F8
102
{ACAD_REACTORS
330
1F4
102
}
330
1F4
100
AcDbXrecord
  1

  0
XRECORD
  5
1F5
102
{ACAD_REACTORS
330
1F4
102
}
330
1F4
100
AcDbXrecord
 90
        1
  0
XRECORD
  5
1F6
102
{ACAD_REACTORS
330
1F4
102
}
330
1F4
100
AcDbXrecord
 90
       70
  0
XRECORD
  5
20D
102
{ACAD_REACTORS
330
1F4
102
}
330
1F4
100
AcDbXrecord
340
0
  0
XRECORD
  5
213
102
{ACAD_REACTORS
330
1F4
102
}
330
1F4
100
AcDbXrecord
 10
0.0
 20
0.0
 30
0.0
  0
XRECORD
  5
20F
102
{ACAD_REACTORS
330
1F4
102
}
330
1F4
100
AcDbXrecord
 10
0.0
 20
0.0
 30
0.0
  0
XRECORD
  5
212
102
{ACAD_REACTORS
330
1F4
102
}
330
1F4
100
AcDbXrecord
 10
0.0
 20
0.0
 30
0.0
  0
XRECORD
  5
210
102
{ACAD_REACTORS
330
1F4
102
}
330
1F4
100
AcDbXrecord
 10
0.0
 20
0.0
 30
0.0
  0
XRECORD
  5
211
102
{ACAD_REACTORS
330
1F4
102
}
330
1F4
100
AcDbXrecord
 10
0.0
 20
0.0
 30
0.0
  0
XRECORD
  5
20E
102
{ACAD_REACTORS
330
1F4
102
}
330
1F4
100
AcDbXrecord
 10
0.0
 20
0.0
 30
0.0
  0
XRECORD
  5
20B
102
{ACAD_REACTORS
330
1F4
102
}
330
1F4
100
AcDbXrecord
340
0
  0
XRECORD
  5
20C
102
{ACAD_REACTORS
330
1F4
102
}
330
1F4
100
AcDbXrecord
 70
     0
  0
XRECORD
  5
200
102
{ACAD_REACTORS
330
1F4
102
}
330
1F4
100
AcDbXrecord
  1
{D237B501-7618-4B23-86AB-F7BB459E16BA}
  0
DICTIONARYVAR
  5
10B
102
{ACAD_REACTORS
330
10A
102
}
330
10A
100
DictionaryVariables
280
     0
  1
1
  0
ENDSEC
  0
EOF
