  0
SECTION
  2
HEADER
  9
$ACADVER
  1
AC1014
  9
$ACADMAINTVER
 70
     9
  9
$DWGCODEPAGE
  3
ANSI_1252
  9
$INSBASE
 10
13.6155586701457
 20
0.3384034027904343
 30
0.0
  9
$EXTMIN
 10
3.895897389449935
 20
-0.8860464199495194
 30
0.0
  9
$EXTMAX
 10
20.21021995084147
 20
6.191252041544668
 30
0.0
  9
$LIMMIN
 10
0.0
 20
0.0
  9
$LIMMAX
 10
36.0
 20
36.0
  9
$ORTHOMODE
 70
     1
  9
$REGENMODE
 70
     1
  9
$FILLMODE
 70
     1
  9
$QTEXTMODE
 70
     0
  9
$MIRRTEXT
 70
     1
  9
$DRAGMODE
 70
     0
  9
$LTSCALE
 40
1.0
  9
$OSMODE
 70
    37
  9
$ATTMODE
 70
     1
  9
$TEXTSIZE
 40
0.2
  9
$TRACEWID
 40
0.05
  9
$TEXTSTYLE
  7
STANDARD
  9
$CLAYER
  8
ADPDIM
  9
$CELTYPE
  6
BYLAYER
  9
$CECOLOR
 62
   256
  9
$CELTSCALE
 40
1.0
  9
$DELOBJ
 70
     1
  9
$DISPSILH
 70
     0
  9
$DIMSCALE
 40
1.0
  9
$DIMASZ
 40
0.125
  9
$DIMEXO
 40
0.0625
  9
$DIMDLI
 40
0.38
  9
$DIMRND
 40
0.0
  9
$DIMDLE
 40
0.0
  9
$DIMEXE
 40
0.18
  9
$DIMTP
 40
0.0
  9
$DIMTM
 40
0.0
  9
$DIMTXT
 40
0.125
  9
$DIMCEN
 40
0.1875
  9
$DIMTSZ
 40
0.125
  9
$DIMTOL
 70
     0
  9
$DIMLIM
 70
     0
  9
$DIMTIH
 70
     0
  9
$DIMTOH
 70
     0
  9
$DIMSE1
 70
     0
  9
$DIMSE2
 70
     0
  9
$DIMTAD
 70
     0
  9
$DIMZIN
 70
     3
  9
$DIMBLK
  1

  9
$DIMASO
 70
     1
  9
$DIMSHO
 70
     1
  9
$DIMPOST
  1

  9
$DIMAPOST
  1

  9
$DIMALT
 70
     0
  9
$DIMALTD
 70
     1
  9
$DIMALTF
 40
25.4
  9
$DIMLFAC
 40
1.0
  9
$DIMTOFL
 70
     0
  9
$DIMTVP
 40
0.0
  9
$DIMTIX
 70
     0
  9
$DIMSOXD
 70
     0
  9
$DIMSAH
 70
     0
  9
$DIMBLK1
  1

  9
$DIMBLK2
  1

  9
$DIMSTYLE
  2
STANDARD
  9
$DIMCLRD
 70
     0
  9
$DIMCLRE
 70
     0
  9
$DIMCLRT
 70
     0
  9
$DIMTFAC
 40
1.0
  9
$DIMGAP
 40
0.125
  9
$DIMJUST
 70
     0
  9
$DIMSD1
 70
     0
  9
$DIMSD2
 70
     0
  9
$DIMTOLJ
 70
     1
  9
$DIMTZIN
 70
     0
  9
$DIMALTZ
 70
     0
  9
$DIMALTTZ
 70
     0
  9
$DIMFIT
 70
     3
  9
$DIMUPT
 70
     0
  9
$DIMUNIT
 70
     2
  9
$DIMDEC
 70
     4
  9
$DIMTDEC
 70
     4
  9
$DIMALTU
 70
     2
  9
$DIMALTTD
 70
     2
  9
$DIMTXSTY
  7
STANDARD
  9
$DIMAUNIT
 70
     0
  9
$LUNITS
 70
     5
  9
$LUPREC
 70
     5
  9
$SKETCHINC
 40
0.1
  9
$FILLETRAD
 40
0.0
  9
$AUNITS
 70
     0
  9
$AUPREC
 70
     0
  9
$MENU
  1
acad
  9
$ELEVATION
 40
0.0
  9
$PELEVATION
 40
0.0
  9
$THICKNESS
 40
0.0
  9
$LIMCHECK
 70
     0
  9
$BLIPMODE
 70
     0
  9
$CHAMFERA
 40
0.03125
  9
$CHAMFERB
 40
0.03125
  9
$CHAMFERC
 40
0.0
  9
$CHAMFERD
 40
0.0
  9
$SKPOLY
 70
     0
  9
$TDCREATE
 40
2450281.663242477
  9
$TDUPDATE
 40
2452297.092415173
  9
$TDINDWG
 40
0.0093992361
  9
$TDUSRTIMER
 40
0.0093992361
  9
$USRTIMER
 70
     1
  9
$ANGBASE
 50
0.0
  9
$ANGDIR
 70
     0
  9
$PDMODE
 70
     0
  9
$PDSIZE
 40
0.0
  9
$PLINEWID
 40
0.0
  9
$COORDS
 70
     2
  9
$SPLFRAME
 70
     0
  9
$SPLINETYPE
 70
     6
  9
$SPLINESEGS
 70
     8
  9
$ATTDIA
 70
     0
  9
$ATTREQ
 70
     1
  9
$HANDLING
 70
 22529
  9
$HANDSEED
  5
1FE
  9
$SURFTAB1
 70
     6
  9
$SURFTAB2
 70
     6
  9
$SURFTYPE
 70
     6
  9
$SURFU
 70
     6
  9
$SURFV
 70
     6
  9
$UCSNAME
  2

  9
$UCSORG
 10
0.0
 20
0.0
 30
0.0
  9
$UCSXDIR
 10
1.0
 20
0.0
 30
0.0
  9
$UCSYDIR
 10
0.0
 20
1.0
 30
0.0
  9
$PUCSNAME
  2

  9
$PUCSORG
 10
0.0
 20
0.0
 30
0.0
  9
$PUCSXDIR
 10
1.0
 20
0.0
 30
0.0
  9
$PUCSYDIR
 10
0.0
 20
1.0
 30
0.0
  9
$USERI1
 70
     0
  9
$USERI2
 70
     0
  9
$USERI3
 70
     0
  9
$USERI4
 70
     0
  9
$USERI5
 70
     0
  9
$USERR1
 40
0.0
  9
$USERR2
 40
0.0
  9
$USERR3
 40
0.0
  9
$USERR4
 40
0.0
  9
$USERR5
 40
0.0
  9
$WORLDVIEW
 70
     1
  9
$SHADEDGE
 70
     3
  9
$SHADEDIF
 70
    70
  9
$TILEMODE
 70
     1
  9
$MAXACTVP
 70
    15
  9
$PINSBASE
 10
0.1250029802322391
 20
0.0
 30
0.0
  9
$PLIMCHECK
 70
     0
  9
$PEXTMIN
 10
1.000000000000000E+20
 20
1.000000000000000E+20
 30
1.000000000000000E+20
  9
$PEXTMAX
 10
-1.000000000000000E+20
 20
-1.000000000000000E+20
 30
-1.000000000000000E+20
  9
$PLIMMIN
 10
0.0
 20
0.0
  9
$PLIMMAX
 10
12.0
 20
9.0
  9
$UNITMODE
 70
     0
  9
$VISRETAIN
 70
     0
  9
$PLINEGEN
 70
     0
  9
$PSLTSCALE
 70
     1
  9
$TREEDEPTH
 70
  3020
  9
$PICKSTYLE
 70
     1
  9
$CMLSTYLE
  2
STANDARD
  9
$CMLJUST
 70
     0
  9
$CMLSCALE
 40
1.0
  9
$PROXYGRAPHICS
 70
     1
  9
$MEASUREMENT
 70
     0
  0
ENDSEC
  0
SECTION
  2
CLASSES
  0
CLASS
  1
ACDBDICTIONARYWDFLT
  2
AcDbDictionaryWithDefault
  3
AutoCAD 2000
 90
        0
280
     0
281
     0
  0
CLASS
  1
ACDBPLACEHOLDER
  2
AcDbPlaceHolder
  3
AutoCAD 2000
 90
        0
280
     0
281
     0
  0
CLASS
  1
LAYOUT
  2
AcDbLayout
  3
AutoCAD 2000
 90
        0
280
     0
281
     0
  0
CLASS
  1
DICTIONARYVAR
  2
AcDbDictionaryVar
  3
AutoCAD 2000
 90
        0
280
     0
281
     0
  0
CLASS
  1
LONG_TRANSACTION
  2
AcDbLongTransaction
  3
AutoCAD 2000
 90
        0
280
     0
281
     0
  0
CLASS
  1
LWPOLYLINE
  2
AcDbPolyline
  3
AutoCAD 2000
 90
        0
280
     0
281
     1
  0
CLASS
  1
HATCH
  2
AcDbHatch
  3
AutoCAD 2000
 90
        0
280
     0
281
     1
  0
CLASS
  1
XRECORD
  2
AcDbXrecord
  3
AutoCAD 2000
 90
        0
280
     0
281
     0
  0
CLASS
  1
LONG_TRANSACTION
  2
AcDbLongTransaction
  3
AutoCAD 2000
 90
        0
280
     0
281
     0
  0
CLASS
  1
LWPOLYLINE
  2
AcDbPolyline
  3
AutoCAD 2000
 90
        0
280
     0
281
     1
  0
CLASS
  1
HATCH
  2
AcDbHatch
  3
AutoCAD 2000
 90
        0
280
     0
281
     1
  0
CLASS
  1
XRECORD
  2
AcDbXrecord
  3
AutoCAD 2000
 90
        0
280
     0
281
     0
  0
CLASS
  1
LONG_TRANSACTION
  2
AcDbLongTransaction
  3
AutoCAD 2000
 90
        0
280
     0
281
     0
  0
CLASS
  1
LWPOLYLINE
  2
AcDbPolyline
  3
AutoCAD 2000
 90
        0
280
     0
281
     1
  0
CLASS
  1
HATCH
  2
AcDbHatch
  3
AutoCAD 2000
 90
        0
280
     0
281
     1
  0
CLASS
  1
XRECORD
  2
AcDbXrecord
  3
AutoCAD 2000
 90
        0
280
     0
281
     0
  0
CLASS
  1
LONG_TRANSACTION
  2
AcDbLongTransaction
  3
AutoCAD 2000
 90
        0
280
     0
281
     0
  0
CLASS
  1
LWPOLYLINE
  2
AcDbPolyline
  3
AutoCAD 2000
 90
        0
280
     0
281
     1
  0
CLASS
  1
HATCH
  2
AcDbHatch
  3
AutoCAD 2000
 90
        0
280
     0
281
     1
  0
CLASS
  1
XRECORD
  2
AcDbXrecord
  3
AutoCAD 2000
 90
        0
280
     0
281
     0
  0
CLASS
  1
LONG_TRANSACTION
  2
AcDbLongTransaction
  3
AutoCAD 2000
 90
        0
280
     0
281
     0
  0
CLASS
  1
LWPOLYLINE
  2
AcDbPolyline
  3
AutoCAD 2000
 90
        0
280
     0
281
     1
  0
CLASS
  1
HATCH
  2
AcDbHatch
  3
AutoCAD 2000
 90
        0
280
     0
281
     1
  0
CLASS
  1
XRECORD
  2
AcDbXrecord
  3
AutoCAD 2000
 90
        0
280
     0
281
     0
  0
ENDSEC
  0
SECTION
  2
TABLES
  0
TABLE
  2
VPORT
  5
8
330
0
100
AcDbSymbolTable
 70
     2
  0
VPORT
  5
1DB
330
8
100
AcDbSymbolTableRecord
100
AcDbViewportTableRecord
  2
*ACTIVE
 70
     0
 10
0.0
 20
0.0
 11
1.0
 21
1.0
 12
12.06544615263446
 22
2.653245578874592
 13
0.0
 23
0.0
 14
0.5740882589684922
 24
0.5740882589684922
 15
0.5
 25
0.5
 16
0.0
 26
0.0
 36
1.0
 17
0.0
 27
0.0
 37
0.0
 40
10.45655474262775
 41
1.570528967254408
 42
50.0
 43
0.0
 44
0.0
 50
0.0
 51
0.0
 71
     0
 72
   100
 73
     1
 74
     0
 75
     0
 76
     0
 77
     0
 78
     0
  0
ENDTAB
  0
TABLE
  2
LTYPE
  5
5
330
0
100
AcDbSymbolTable
 70
     2
  0
LTYPE
  5
12
330
5
100
AcDbSymbolTableRecord
100
AcDbLinetypeTableRecord
  2
BYBLOCK
 70
     0
  3

 72
    65
 73
     0
 40
0.0
  0
LTYPE
  5
13
330
5
100
AcDbSymbolTableRecord
100
AcDbLinetypeTableRecord
  2
BYLAYER
 70
     0
  3

 72
    65
 73
     0
 40
0.0
  0
LTYPE
  5
14
330
5
100
AcDbSymbolTableRecord
100
AcDbLinetypeTableRecord
  2
CONTINUOUS
 70
     0
  3
Solid line
 72
    65
 73
     0
 40
0.0
  0
LTYPE
  5
20
330
5
100
AcDbSymbolTableRecord
100
AcDbLinetypeTableRecord
  2
HIDDEN2
 70
     0
  3
_ _ _ _ _ _ _ _ _ _ _ _ _ _ _ _ _ _ _ _ _ _ _ _
 72
    65
 73
     2
 40
0.1875
 49
0.125
 74
     0
 49
-0.0625
 74
     0
  0
ENDTAB
  0
TABLE
  2
LAYER
  5
2
330
0
100
AcDbSymbolTable
 70
     5
  0
LAYER
  5
F
330
2
100
AcDbSymbolTableRecord
100
AcDbLayerTableRecord
  2
0
 70
     0
 62
     7
  6
CONTINUOUS
  0
LAYER
  5
21
330
2
100
AcDbSymbolTableRecord
100
AcDbLayerTableRecord
  2
ADP2DETAIL
 70
     0
 62
     5
  6
CONTINUOUS
  0
LAYER
  5
22
330
2
100
AcDbSymbolTableRecord
100
AcDbLayerTableRecord
  2
ADPDIM
 70
     0
 62
     3
  6
CONTINUOUS
  0
LAYER
  5
23
330
2
100
AcDbSymbolTableRecord
100
AcDbLayerTableRecord
  2
ADP1DETAIL
 70
     0
 62
     7
  6
CONTINUOUS
  0
LAYER
  5
24
330
2
100
AcDbSymbolTableRecord
100
AcDbLayerTableRecord
  2
DEFPOINTS
 70
     0
 62
     7
  6
CONTINUOUS
  0
ENDTAB
  0
TABLE
  2
STYLE
  5
3
330
0
100
AcDbSymbolTable
 70
     2
  0
STYLE
  5
10
330
3
100
AcDbSymbolTableRecord
100
AcDbTextStyleTableRecord
  2
STANDARD
 70
     0
 40
0.0
 41
1.0
 50
0.0
 71
     0
 42
0.2
  3
txt
  4

  0
STYLE
  5
97
330
3
100
AcDbSymbolTableRecord
100
AcDbTextStyleTableRecord
  2
ARIAL_WIDE
 70
     0
 40
0.0
 41
1.25
 50
0.0
 71
     0
 42
0.2
  3
ARIAL.TTF
  4

1001
ACAD
1000
Arial
1071
       34
  0
ENDTAB
  0
TABLE
  2
VIEW
  5
6
330
0
100
AcDbSymbolTable
 70
     0
  0
ENDTAB
  0
TABLE
  2
UCS
  5
7
330
0
100
AcDbSymbolTable
 70
     0
  0
ENDTAB
  0
TABLE
  2
APPID
  5
9
330
0
100
AcDbSymbolTable
 70
     1
  0
APPID
  5
11
330
9
100
AcDbSymbolTableRecord
100
AcDbRegAppTableRecord
  2
ACAD
 70
     0
  0
ENDTAB
  0
TABLE
  2
DIMSTYLE
  5
A
330
0
100
AcDbSymbolTable
 70
     1
  0
DIMSTYLE
105
8B
330
A
100
AcDbSymbolTableRecord
100
AcDbDimStyleTableRecord
  2
STANDARD
 70
     0
  3

  4

  5

  6

  7

 40
1.0
 41
0.18
 42
0.0625
 43
0.38
 44
0.18
 45
0.0
 46
0.0
 47
0.0
 48
0.0
140
0.18
141
0.09
142
0.0
143
25.4
144
1.0
145
0.0
146
1.0
147
0.09
 71
     0
 72
     0
 73
     1
 74
     1
 75
     0
 76
     0
 77
     0
 78
     0
170
     0
171
     2
172
     0
173
     0
174
     0
175
     0
176
     0
177
     0
178
     0
270
     2
271
     4
272
     4
273
     2
274
     2
340
10
275
     0
280
     0
281
     0
282
     0
283
     1
284
     0
285
     0
286
     0
287
     3
288
     0
  0
ENDTAB
  0
TABLE
  2
BLOCK_RECORD
  5
1
330
0
100
AcDbSymbolTable
 70
     2
  0
BLOCK_RECORD
  5
18
102
{ACAD_XDICTIONARY
360
EC
102
}
330
1
100
AcDbSymbolTableRecord
100
AcDbBlockTableRecord
  2
*MODEL_SPACE
  0
BLOCK_RECORD
  5
15
102
{ACAD_XDICTIONARY
360
EA
102
}
330
1
100
AcDbSymbolTableRecord
100
AcDbBlockTableRecord
  2
*PAPER_SPACE
  0
BLOCK_RECORD
  5
1E
330
1
100
AcDbSymbolTableRecord
100
AcDbBlockTableRecord
  2
*D0
  0
BLOCK_RECORD
  5
1F
330
1
100
AcDbSymbolTableRecord
100
AcDbBlockTableRecord
  2
*D1
  0
ENDTAB
  0
ENDSEC
  0
SECTION
  2
BLOCKS
  0
BLOCK
  5
27
330
18
100
AcDbEntity
  8
0
100
AcDbBlockBegin
  2
*MODEL_SPACE
 70
     0
 10
0.0
 20
0.0
 30
0.0
  3
*MODEL_SPACE
  1

  0
ENDBLK
  5
28
330
18
100
AcDbEntity
  8
0
100
AcDbBlockEnd
  0
BLOCK
  5
25
330
15
100
AcDbEntity
 67
     1
  8
0
100
AcDbBlockBegin
  2
*PAPER_SPACE
 70
     0
 10
0.0
 20
0.0
 30
0.0
  3
*PAPER_SPACE
  1

  0
ENDBLK
  5
26
330
15
100
AcDbEntity
 67
     1
  8
0
100
AcDbBlockEnd
  0
BLOCK
  5
2A
330
1E
100
AcDbEntity
  8
0
100
AcDbBlockBegin
  2
*D0
 70
     1
 10
0.0
 20
0.0
 30
0.0
  3
*D0
  1

  0
LINE
  5
2B
330
1E
100
AcDbEntity
  8
0
  6
BYBLOCK
 62
     0
100
AcDbLine
 10
10.4905586701457
 20
0.2759034027904343
 30
0.0
 11
10.4905586701457
 21
-0.1267447559053419
 31
0.0
  0
LINE
  5
2C
330
1E
100
AcDbEntity
  8
0
  6
BYBLOCK
 62
     0
100
AcDbLine
 10
13.6155586701457
 20
0.2759034027904343
 30
0.0
 11
13.6155586701457
 21
-0.1267447559053419
 31
0.0
  0
LINE
  5
2D
330
1E
100
AcDbEntity
  8
0
  6
BYBLOCK
 62
     0
100
AcDbLine
 10
10.4905586701457
 20
0.053255244094658
 30
0.0
 11
11.65722533681237
 21
0.053255244094658
 31
0.0
  0
LINE
  5
2E
330
1E
100
AcDbEntity
  8
0
  6
BYBLOCK
 62
     0
100
AcDbLine
 10
13.6155586701457
 20
0.053255244094658
 30
0.0
 11
12.44889200347904
 21
0.053255244094658
 31
0.0
  0
LINE
  5
2F
330
1E
100
AcDbEntity
  8
0
  6
BYBLOCK
 62
     0
100
AcDbLine
 10
10.3655586701457
 20
-0.071744755905342
 30
0.0
 11
10.6155586701457
 21
0.178255244094658
 31
0.0
  0
LINE
  5
30
330
1E
100
AcDbEntity
  8
0
  6
BYBLOCK
 62
     0
100
AcDbLine
 10
13.4905586701457
 20
-0.071744755905342
 30
0.0
 11
13.7405586701457
 21
0.178255244094658
 31
0.0
  0
TEXT
  5
31
330
1E
100
AcDbEntity
  8
0
  6
BYBLOCK
 62
     0
100
AcDbText
 10
11.78222533681237
 20
-0.009244755905342
 30
0.0
 40
0.125
  1
3 1/8
 72
     1
 11
12.0530586701457
 21
0.053255244094658
 31
0.0
100
AcDbText
 73
     2
  0
POINT
  5
32
330
1E
100
AcDbEntity
  8
DEFPOINTS
  6
BYBLOCK
 62
     0
100
AcDbPoint
 10
10.4905586701457
 20
0.3384034027904343
 30
0.0
  0
POINT
  5
33
330
1E
100
AcDbEntity
  8
DEFPOINTS
  6
BYBLOCK
 62
     0
100
AcDbPoint
 10
13.6155586701457
 20
0.3384034027904343
 30
0.0
  0
POINT
  5
34
330
1E
100
AcDbEntity
  8
DEFPOINTS
  6
BYBLOCK
 62
     0
100
AcDbPoint
 10
13.6155586701457
 20
0.053255244094658
 30
0.0
  0
ENDBLK
  5
35
330
1E
100
AcDbEntity
  8
0
100
AcDbBlockEnd
  0
BLOCK
  5
36
330
1F
100
AcDbEntity
  8
0
100
AcDbBlockBegin
  2
*D1
 70
     1
 10
0.0
 20
0.0
 30
0.0
  3
*D1
  1

  0
LINE
  5
37
330
1F
100
AcDbEntity
  8
0
  6
BYBLOCK
 62
     0
100
AcDbLine
 10
12.7655586701457
 20
1.838403402790434
 30
0.0
 11
14.0476777568667
 21
1.838403402790434
 31
0.0
  0
LINE
  5
38
330
1F
100
AcDbEntity
  8
0
  6
BYBLOCK
 62
     0
100
AcDbLine
 10
13.6780586701457
 20
0.3384034027904343
 30
0.0
 11
14.0476777568667
 21
0.3384034027904343
 31
0.0
  0
LINE
  5
39
330
1F
100
AcDbEntity
  8
0
  6
BYBLOCK
 62
     0
100
AcDbLine
 10
13.8676777568667
 20
1.838403402790434
 30
0.0
 11
13.8676777568667
 21
1.463403402790434
 31
0.0
  0
LINE
  5
3A
330
1F
100
AcDbEntity
  8
0
  6
BYBLOCK
 62
     0
100
AcDbLine
 10
13.8676777568667
 20
0.3384034027904343
 30
0.0
 11
13.8676777568667
 21
0.7134034027904342
 31
0.0
  0
LINE
  5
3B
330
1F
100
AcDbEntity
  8
0
  6
BYBLOCK
 62
     0
100
AcDbLine
 10
13.9926777568667
 20
1.713403402790434
 30
0.0
 11
13.7426777568667
 21
1.963403402790434
 31
0.0
  0
LINE
  5
3C
330
1F
100
AcDbEntity
  8
0
  6
BYBLOCK
 62
     0
100
AcDbLine
 10
13.9926777568667
 20
0.2134034027904343
 30
0.0
 11
13.7426777568667
 21
0.4634034027904344
 31
0.0
  0
TEXT
  5
3D
330
1F
100
AcDbEntity
  8
0
  6
BYBLOCK
 62
     0
100
AcDbText
 10
13.9301777568667
 20
0.8384034027904341
 30
0.0
 40
0.125
  1
1 1/2
 50
90.0
 72
     1
 11
13.8676777568667
 21
1.088403402790434
 31
0.0
100
AcDbText
 73
     2
  0
POINT
  5
3E
330
1F
100
AcDbEntity
  8
DEFPOINTS
  6
BYBLOCK
 62
     0
100
AcDbPoint
 10
12.7030586701457
 20
1.838403402790434
 30
0.0
  0
POINT
  5
3F
330
1F
100
AcDbEntity
  8
DEFPOINTS
  6
BYBLOCK
 62
     0
100
AcDbPoint
 10
13.6155586701457
 20
0.3384034027904343
 30
0.0
  0
POINT
  5
40
330
1F
100
AcDbEntity
  8
DEFPOINTS
  6
BYBLOCK
 62
     0
100
AcDbPoint
 10
13.8676777568667
 20
0.3384034027904343
 30
0.0
  0
ENDBLK
  5
41
330
1F
100
AcDbEntity
  8
0
100
AcDbBlockEnd
  0
ENDSEC
  0
SECTION
  2
ENTITIES
  0
LWPOLYLINE
  5
42
330
18
100
AcDbEntity
  8
ADP1DETAIL
100
AcDbPolyline
 90
        4
 70
     1
 43
0.0
 10
10.7780586701457
 20
3.314919520072191
 10
10.7780586701457
 20
5.864919520072191
 10
13.3280586701457
 20
5.86491952007219
 10
13.3280586701457
 20
3.31491952007219
  0
LWPOLYLINE
  5
48
330
18
100
AcDbEntity
  8
ADP1DETAIL
100
AcDbPolyline
 90
        8
 70
     1
 43
0.0
 10
10.5905586701457
 20
3.21491952007219
 10
10.5905586701457
 20
5.96491952007219
 42
-0.4142135623730975
 10
10.6780586701457
 20
6.052419520072191
 10
13.4280586701457
 20
6.052419520072191
 42
-0.4142135623730975
 10
13.5155586701457
 20
5.96491952007219
 10
13.5155586701457
 20
3.21491952007219
 42
-0.414213562373096
 10
13.4280586701457
 20
3.12741952007219
 10
10.6780586701457
 20
3.12741952007219
 42
-0.414213562373096
  0
LWPOLYLINE
  5
52
330
18
100
AcDbEntity
  8
ADP1DETAIL
100
AcDbPolyline
 90
        8
 70
     1
 43
0.0
 10
10.4905586701457
 20
3.21491952007219
 10
10.4905586701457
 20
5.96491952007219
 42
-0.4142135623730951
 10
10.6780586701457
 20
6.15241952007219
 10
13.4280586701457
 20
6.15241952007219
 42
-0.4142135623730951
 10
13.6155586701457
 20
5.96491952007219
 10
13.6155586701457
 20
3.21491952007219
 42
-0.4142135623730951
 10
13.4280586701457
 20
3.02741952007219
 10
10.6780586701457
 20
3.02741952007219
 42
-0.4142135623730951
  0
DIMENSION
  5
5C
330
18
100
AcDbEntity
  8
ADPDIM
100
AcDbDimension
  2
*D0
 10
13.6155586701457
 20
0.053255244094658
 30
0.0
 11
12.0530586701457
 21
0.053255244094658
 31
0.0
100
AcDbAlignedDimension
 13
10.4905586701457
 23
0.3384034027904343
 33
0.0
 14
13.6155586701457
 24
0.3384034027904343
 34
0.0
100
AcDbRotatedDimension
  0
LINE
  5
5D
330
18
100
AcDbEntity
  8
ADP2DETAIL
  6
HIDDEN2
100
AcDbLine
 10
12.7030586701457
 20
1.807153402790434
 30
0.0
 11
11.4030586701457
 21
1.807153402790434
 31
0.0
  0
LINE
  5
5E
330
18
100
AcDbEntity
  8
ADP1DETAIL
100
AcDbLine
 10
10.7780586701457
 20
1.400903402790434
 30
0.0
 11
13.3280586701457
 21
1.400903402790434
 31
0.0
  0
LINE
  5
5F
330
18
100
AcDbEntity
  8
ADP1DETAIL
100
AcDbLine
 10
12.7030586701457
 20
1.838403402790434
 30
0.0
 11
11.4030586701457
 21
1.838403402790434
 31
0.0
  0
LINE
  5
60
330
18
100
AcDbEntity
  8
ADP1DETAIL
100
AcDbLine
 10
10.6218086701457
 20
1.213403402790434
 30
0.0
 11
13.4843086701457
 21
1.213403402790434
 31
0.0
  0
LINE
  5
61
330
18
100
AcDbEntity
  8
ADP1DETAIL
100
AcDbLine
 10
13.6155586701457
 20
0.3384034027904343
 30
0.0
 11
10.4905586701457
 21
0.3384034027904343
 31
0.0
  0
LINE
  5
62
330
18
100
AcDbEntity
  8
ADP1DETAIL
100
AcDbLine
 10
10.5530586701457
 20
1.088403402790434
 30
0.0
 11
13.5530586701457
 21
1.088403402790434
 31
0.0
  0
LINE
  5
63
330
18
100
AcDbEntity
  8
ADP2DETAIL
  6
HIDDEN2
100
AcDbLine
 10
10.5218086701457
 20
0.3384034027904343
 30
0.0
 11
10.5218086701457
 21
1.025903402790434
 31
0.0
  0
LINE
  5
64
330
18
100
AcDbEntity
  8
ADP1DETAIL
100
AcDbLine
 10
10.4905586701457
 20
0.3384034027904343
 30
0.0
 11
10.4905586701457
 21
1.025903402790434
 31
0.0
  0
LWPOLYLINE
  5
65
330
18
100
AcDbEntity
  8
ADP2DETAIL
  6
HIDDEN2
100
AcDbPolyline
 90
        3
 70
     0
 43
0.0
 10
10.65281919513939
 20
1.217264728937737
 42
-0.4634113020089976
 10
10.79323977388893
 20
1.369814140370763
 42
-0.1445437094147307
 10
11.4131583555301
 20
1.808830461524198
 42
-0.1445437094147307
  0
LWPOLYLINE
  5
6A
330
18
100
AcDbEntity
  8
ADP1DETAIL
100
AcDbPolyline
 90
        3
 70
     0
 43
0.0
 10
10.6218086701457
 20
1.213403402790434
 42
-0.433809509221341
 10
10.7780586701457
 20
1.400903402790434
 42
-0.1417519403099905
 10
11.4030586701457
 20
1.838403402790434
 42
-0.1660505916704652
  0
ARC
  5
6F
330
18
100
AcDbEntity
  8
ADP1DETAIL
100
AcDbCircle
 10
10.6218086701457
 20
1.182153402790434
 30
0.0
 40
0.03125
100
AcDbArc
 50
90.0
 51
180.0
  0
LINE
  5
70
330
18
100
AcDbEntity
  8
ADP1DETAIL
100
AcDbLine
 10
10.5905586701457
 20
1.088403402790434
 30
0.0
 11
10.5905586701457
 21
1.182153402790434
 31
0.0
  0
ARC
  5
71
330
18
100
AcDbEntity
  8
ADP1DETAIL
100
AcDbCircle
 10
10.5530586701457
 20
1.025903402790434
 30
0.0
 40
0.0625
100
AcDbArc
 50
90.0
 51
180.0
  0
LINE
  5
72
330
18
100
AcDbEntity
  8
ADP2DETAIL
  6
HIDDEN2
100
AcDbLine
 10
10.6218086701457
 20
1.088403402790434
 30
0.0
 11
10.6218086701457
 21
1.182153402790434
 31
0.0
  0
DIMENSION
  5
73
330
18
100
AcDbEntity
  8
ADPDIM
100
AcDbDimension
  2
*D1
 10
13.8676777568667
 20
0.3384034027904343
 30
0.0
 11
13.8676777568667
 21
1.088403402790434
 31
0.0
100
AcDbAlignedDimension
 13
12.7030586701457
 23
1.838403402790434
 33
0.0
 14
13.6155586701457
 24
0.3384034027904343
 34
0.0
 50
90.0
100
AcDbRotatedDimension
  0
LINE
  5
74
330
18
100
AcDbEntity
  8
ADP2DETAIL
  6
HIDDEN2
100
AcDbLine
 10
13.5843086701457
 20
1.025903402790434
 30
0.0
 11
13.5843086701457
 21
0.3384034027904344
 31
0.0
  0
LINE
  5
75
330
18
100
AcDbEntity
  8
ADP1DETAIL
100
AcDbLine
 10
13.6155586701457
 20
1.025903402790434
 30
0.0
 11
13.6155586701457
 21
0.3384034027904343
 31
0.0
  0
LWPOLYLINE
  5
76
330
18
100
AcDbEntity
  8
ADP2DETAIL
  6
HIDDEN2
100
AcDbPolyline
 90
        3
 70
     0
 43
0.0
 10
13.45329814515201
 20
1.217264728937737
 42
0.4634113020089982
 10
13.31287756640248
 20
1.369814140370763
 42
0.1445437094147307
 10
12.69295898476131
 20
1.808830461524198
 42
0.1445437094147307
  0
LWPOLYLINE
  5
7B
330
18
100
AcDbEntity
  8
ADP1DETAIL
100
AcDbPolyline
 90
        3
 70
     0
 43
0.0
 10
13.4843086701457
 20
1.213403402790434
 42
0.433809509221341
 10
13.3280586701457
 20
1.400903402790434
 42
0.1417519403099905
 10
12.7030586701457
 20
1.838403402790434
 42
0.1660505916704652
  0
ARC
  5
80
330
18
100
AcDbEntity
  8
ADP2DETAIL
  6
HIDDEN2
100
AcDbCircle
 10
13.5530586701457
 20
1.025903402790434
 30
0.0
 40
0.03125
100
AcDbArc
 50
0.0
 51
90.0
  0
LINE
  5
81
330
18
100
AcDbEntity
  8
ADP2DETAIL
  6
HIDDEN2
100
AcDbLine
 10
13.4843086701457
 20
1.182153402790434
 30
0.0
 11
13.4843086701457
 21
1.088403402790434
 31
0.0
  0
LINE
  5
82
330
18
100
AcDbEntity
  8
ADP1DETAIL
100
AcDbLine
 10
13.5155586701457
 20
1.182153402790434
 30
0.0
 11
13.5155586701457
 21
1.088403402790434
 31
0.0
  0
ARC
  5
83
330
18
100
AcDbEntity
  8
ADP1DETAIL
100
AcDbCircle
 10
13.4843086701457
 20
1.182153402790434
 30
0.0
 40
0.03125
100
AcDbArc
 50
0.0
 51
90.0
  0
ARC
  5
84
330
18
100
AcDbEntity
  8
ADP1DETAIL
100
AcDbCircle
 10
13.5530586701457
 20
1.025903402790434
 30
0.0
 40
0.0625
100
AcDbArc
 50
0.0
 51
90.0
  0
LWPOLYLINE
  5
85
330
18
100
AcDbEntity
  8
ADP1DETAIL
100
AcDbPolyline
 90
        4
 70
     1
 43
0.0
 10
11.4030586701457
 20
3.93991952007219
 10
11.4030586701457
 20
5.239919520072191
 10
12.7030586701457
 20
5.23991952007219
 10
12.7030586701457
 20
3.93991952007219
  0
TEXT
  5
98
330
18
100
AcDbEntity
  8
ADPDIM
100
AcDbText
 10
3.895897389449935
 20
-0.8397895986671183
 30
0.0
 40
0.15625
  1
J U L I U S  B L U M  &  C O . ,  I N C .      ( 8 0 0 )  5 2 6 - 6 2 9 3        W W W . J U L I U S B L U M . C O M        P A R T  N o .  5 9 3 3
 41
1.25
  7
ARIAL_WIDE
 72
     1
 11
12.0530586701457
 21
-0.6835395986671183
 31
0.0
100
AcDbText
 73
     3
  0
ENDSEC
  0
SECTION
  2
OBJECTS
  0
DICTIONARY
  5
C
330
0
100
AcDbDictionary
  3
ACAD_GROUP
350
D
  3
ACAD_LAYOUT
350
91
  3
ACAD_MLINESTYLE
350
E
  3
ACAD_PLOTSETTINGS
350
92
  3
ACAD_PLOTSTYLENAME
350
8F
  3
ACDBHEADERROUNDTRIPXREC
350
1DC
  3
ACDBVARIABLEDICTIONARY
350
F2
  0
DICTIONARY
  5
EC
330
18
100
AcDbDictionary
280
     1
  3
ACAD_LAYOUTSELFREF
360
1FD
  0
DICTIONARY
  5
EA
330
15
100
AcDbDictionary
280
     1
  3
ACAD_LAYOUTSELFREF
360
1FC
  0
DICTIONARY
  5
D
102
{ACAD_REACTORS
330
C
102
}
330
C
100
AcDbDictionary
  0
DICTIONARY
  5
91
102
{ACAD_REACTORS
330
C
102
}
330
C
100
AcDbDictionary
  0
DICTIONARY
  5
E
102
{ACAD_REACTORS
330
C
102
}
330
C
100
AcDbDictionary
  3
STANDARD
350
1B
  0
DICTIONARY
  5
92
102
{ACAD_REACTORS
330
C
102
}
330
C
100
AcDbDictionary
  0
ACDBDICTIONARYWDFLT
  5
8F
102
{ACAD_REACTORS
330
C
102
}
330
C
100
AcDbDictionary
281
     1
  3
Normal
350
90
100
AcDbDictionaryWithDefault
340
90
  0
DICTIONARY
  5
1DC
102
{ACAD_REACTORS
330
C
102
}
330
C
100
AcDbDictionary
  3
CEPSNTYPE
350
1E6
  3
FINGERPRINTGUID
350
1E7
  3
HYPERLINKBASE
350
1DF
  3
INSUNITS
350
1E5
  3
LAYOUTDICT
350
1E1
  3
LWETCUNION
350
1E4
  3
PLOTSETDICT
350
1E2
  3
PLOTSTYLNAMDICT
350
1E3
  3
PSVPSCALE
350
1E9
  3
PUCSBASE
350
1EC
  3
PUCSORGBACK
350
1F2
  3
PUCSORGBOTTOM
350
1EE
  3
PUCSORGFRONT
350
1F1
  3
PUCSORGLEFT
350
1EF
  3
PUCSORGRIGHT
350
1F0
  3
PUCSORGTOP
350
1ED
  3
PUCSORTHOREF
350
1EA
  3
PUCSORTHOVIEW
350
1EB
  3
STYLESHEET
350
1E0
  3
TSTACKALIGN
350
1DD
  3
TSTACKSIZE
350
1DE
  3
UCSBASE
350
1F5
  3
UCSORGBACK
350
1FB
  3
UCSORGBOTTOM
350
1F7
  3
UCSORGFRONT
350
1FA
  3
UCSORGLEFT
350
1F8
  3
UCSORGRIGHT
350
1F9
  3
UCSORGTOP
350
1F6
  3
UCSORTHOREF
350
1F3
  3
UCSORTHOVIEW
350
1F4
  3
VERSIONGUID
350
1E8
  0
DICTIONARY
  5
F2
102
{ACAD_REACTORS
330
C
102
}
330
C
100
AcDbDictionary
  3
DIMASSOC
350
F3
  0
XRECORD
  5
1FD
102
{ACAD_REACTORS
330
EC
102
}
330
EC
100
AcDbXrecord
340
18
  0
XRECORD
  5
1FC
102
{ACAD_REACTORS
330
EA
102
}
330
EA
100
AcDbXrecord
340
15
  0
MLINESTYLE
  5
1B
102
{ACAD_REACTORS
330
E
102
}
330
E
100
AcDbMlineStyle
  2
STANDARD
 70
     0
  3

 62
     0
 51
90.0
 52
90.0
 71
     2
 49
0.5
 62
   256
  6
BYLAYER
 49
-0.5
 62
   256
  6
BYLAYER
  0
ACDBPLACEHOLDER
  5
90
102
{ACAD_REACTORS
330
8F
102
}
330
8F
100
AcDbPlaceHolder
280
     0
  0
XRECORD
  5
1E6
102
{ACAD_REACTORS
330
1DC
102
}
330
1DC
100
AcDbXrecord
 90
        0
  0
XRECORD
  5
1E7
102
{ACAD_REACTORS
330
1DC
102
}
330
1DC
100
AcDbXrecord
  1
{3E43FB60-F311-486D-A418-75D401BBDA97}
  0
XRECORD
  5
1DF
102
{ACAD_REACTORS
330
1DC
102
}
330
1DC
100
AcDbXrecord
  1

  0
XRECORD
  5
1E5
102
{ACAD_REACTORS
330
1DC
102
}
330
1DC
100
AcDbXrecord
 90
        0
  0
XRECORD
  5
1E1
102
{ACAD_REACTORS
330
1DC
102
}
330
1DC
100
AcDbXrecord
340
91
  0
XRECORD
  5
1E4
102
{ACAD_REACTORS
330
1DC
102
}
330
1DC
100
AcDbXrecord
 90
    14877
  0
XRECORD
  5
1E2
102
{ACAD_REACTORS
330
1DC
102
}
330
1DC
100
AcDbXrecord
340
92
  0
XRECORD
  5
1E3
102
{ACAD_REACTORS
330
1DC
102
}
330
1DC
100
AcDbXrecord
340
8F
  0
XRECORD
  5
1E9
102
{ACAD_REACTORS
330
1DC
102
}
330
1DC
100
AcDbXrecord
 40
0.0
  0
XRECORD
  5
1EC
102
{ACAD_REACTORS
330
1DC
102
}
330
1DC
100
AcDbXrecord
340
0
  0
XRECORD
  5
1F2
102
{ACAD_REACTORS
330
1DC
102
}
330
1DC
100
AcDbXrecord
 10
0.0
 20
0.0
 30
0.0
  0
XRECORD
  5
1EE
102
{ACAD_REACTORS
330
1DC
102
}
330
1DC
100
AcDbXrecord
 10
0.0
 20
0.0
 30
0.0
  0
XRECORD
  5
1F1
102
{ACAD_REACTORS
330
1DC
102
}
330
1DC
100
AcDbXrecord
 10
0.0
 20
0.0
 30
0.0
  0
XRECORD
  5
1EF
102
{ACAD_REACTORS
330
1DC
102
}
330
1DC
100
AcDbXrecord
 10
0.0
 20
0.0
 30
0.0
  0
XRECORD
  5
1F0
102
{ACAD_REACTORS
330
1DC
102
}
330
1DC
100
AcDbXrecord
 10
0.0
 20
0.0
 30
0.0
  0
XRECORD
  5
1ED
102
{ACAD_REACTORS
330
1DC
102
}
330
1DC
100
AcDbXrecord
 10
0.0
 20
0.0
 30
0.0
  0
XRECORD
  5
1EA
102
{ACAD_REACTORS
330
1DC
102
}
330
1DC
100
AcDbXrecord
340
0
  0
XRECORD
  5
1EB
102
{ACAD_REACTORS
330
1DC
102
}
330
1DC
100
AcDbXrecord
 70
     0
  0
XRECORD
  5
1E0
102
{ACAD_REACTORS
330
1DC
102
}
330
1DC
100
AcDbXrecord
  1

  0
XRECORD
  5
1DD
102
{ACAD_REACTORS
330
1DC
102
}
330
1DC
100
AcDbXrecord
 90
        1
  0
XRECORD
  5
1DE
102
{ACAD_REACTORS
330
1DC
102
}
330
1DC
100
AcDbXrecord
 90
       70
  0
XRECORD
  5
1F5
102
{ACAD_REACTORS
330
1DC
102
}
330
1DC
100
AcDbXrecord
340
0
  0
XRECORD
  5
1FB
102
{ACAD_REACTORS
330
1DC
102
}
330
1DC
100
AcDbXrecord
 10
0.0
 20
0.0
 30
0.0
  0
XRECORD
  5
1F7
102
{ACAD_REACTORS
330
1DC
102
}
330
1DC
100
AcDbXrecord
 10
0.0
 20
0.0
 30
0.0
  0
XRECORD
  5
1FA
102
{ACAD_REACTORS
330
1DC
102
}
330
1DC
100
AcDbXrecord
 10
0.0
 20
0.0
 30
0.0
  0
XRECORD
  5
1F8
102
{ACAD_REACTORS
330
1DC
102
}
330
1DC
100
AcDbXrecord
 10
0.0
 20
0.0
 30
0.0
  0
XRECORD
  5
1F9
102
{ACAD_REACTORS
330
1DC
102
}
330
1DC
100
AcDbXrecord
 10
0.0
 20
0.0
 30
0.0
  0
XRECORD
  5
1F6
102
{ACAD_REACTORS
330
1DC
102
}
330
1DC
100
AcDbXrecord
 10
0.0
 20
0.0
 30
0.0
  0
XRECORD
  5
1F3
102
{ACAD_REACTORS
330
1DC
102
}
330
1DC
100
AcDbXrecord
340
0
  0
XRECORD
  5
1F4
102
{ACAD_REACTORS
330
1DC
102
}
330
1DC
100
AcDbXrecord
 70
     0
  0
XRECORD
  5
1E8
102
{ACAD_REACTORS
330
1DC
102
}
330
1DC
100
AcDbXrecord
  1
{C999E4AA-F0BB-4D54-9271-079C13BD8609}
  0
DICTIONARYVAR
  5
F3
102
{ACAD_REACTORS
330
F2
102
}
330
F2
100
DictionaryVariables
280
     0
  1
1
  0
ENDSEC
  0
EOF
