  0
SECTION
  2
HEADER
  9
$ACADVER
  1
AC1014
  9
$ACADMAINTVER
 70
     9
  9
$DWGCODEPAGE
  3
ANSI_1252
  9
$INSBASE
 10
37.86811427540345
 20
2.50970678950995
 30
0.0
  9
$EXTMIN
 10
26.52986146647043
 20
0.9120992739231658
 30
0.0
  9
$EXTMAX
 10
52.26869161653865
 20
13.12487280437447
 30
0.0
  9
$LIMMIN
 10
0.0
 20
0.0
  9
$LIMMAX
 10
36.0
 20
36.0
  9
$ORTHOMODE
 70
     1
  9
$REGENMODE
 70
     1
  9
$FILLMODE
 70
     1
  9
$QTEXTMODE
 70
     0
  9
$MIRRTEXT
 70
     1
  9
$DRAGMODE
 70
     0
  9
$LTSCALE
 40
1.0
  9
$OSMODE
 70
    37
  9
$ATTMODE
 70
     1
  9
$TEXTSIZE
 40
0.2
  9
$TRACEWID
 40
0.05
  9
$TEXTSTYLE
  7
STANDARD
  9
$CLAYER
  8
ADPDIM
  9
$CELTYPE
  6
BYLAYER
  9
$CECOLOR
 62
   256
  9
$CELTSCALE
 40
1.0
  9
$DELOBJ
 70
     1
  9
$DISPSILH
 70
     0
  9
$DIMSCALE
 40
1.0
  9
$DIMASZ
 40
0.125
  9
$DIMEXO
 40
0.0625
  9
$DIMDLI
 40
0.38
  9
$DIMRND
 40
0.0
  9
$DIMDLE
 40
0.0
  9
$DIMEXE
 40
0.18
  9
$DIMTP
 40
0.0
  9
$DIMTM
 40
0.0
  9
$DIMTXT
 40
0.125
  9
$DIMCEN
 40
0.1875
  9
$DIMTSZ
 40
0.125
  9
$DIMTOL
 70
     0
  9
$DIMLIM
 70
     0
  9
$DIMTIH
 70
     0
  9
$DIMTOH
 70
     0
  9
$DIMSE1
 70
     0
  9
$DIMSE2
 70
     0
  9
$DIMTAD
 70
     0
  9
$DIMZIN
 70
     3
  9
$DIMBLK
  1

  9
$DIMASO
 70
     1
  9
$DIMSHO
 70
     1
  9
$DIMPOST
  1

  9
$DIMAPOST
  1

  9
$DIMALT
 70
     0
  9
$DIMALTD
 70
     1
  9
$DIMALTF
 40
25.4
  9
$DIMLFAC
 40
1.0
  9
$DIMTOFL
 70
     0
  9
$DIMTVP
 40
0.0
  9
$DIMTIX
 70
     0
  9
$DIMSOXD
 70
     0
  9
$DIMSAH
 70
     0
  9
$DIMBLK1
  1

  9
$DIMBLK2
  1

  9
$DIMSTYLE
  2
STANDARD
  9
$DIMCLRD
 70
     0
  9
$DIMCLRE
 70
     0
  9
$DIMCLRT
 70
     0
  9
$DIMTFAC
 40
1.0
  9
$DIMGAP
 40
0.125
  9
$DIMJUST
 70
     0
  9
$DIMSD1
 70
     0
  9
$DIMSD2
 70
     0
  9
$DIMTOLJ
 70
     1
  9
$DIMTZIN
 70
     0
  9
$DIMALTZ
 70
     0
  9
$DIMALTTZ
 70
     0
  9
$DIMFIT
 70
     3
  9
$DIMUPT
 70
     0
  9
$DIMUNIT
 70
     2
  9
$DIMDEC
 70
     4
  9
$DIMTDEC
 70
     4
  9
$DIMALTU
 70
     2
  9
$DIMALTTD
 70
     2
  9
$DIMTXSTY
  7
STANDARD
  9
$DIMAUNIT
 70
     0
  9
$LUNITS
 70
     5
  9
$LUPREC
 70
     5
  9
$SKETCHINC
 40
0.1
  9
$FILLETRAD
 40
0.062
  9
$AUNITS
 70
     0
  9
$AUPREC
 70
     0
  9
$MENU
  1
acad
  9
$ELEVATION
 40
0.0
  9
$PELEVATION
 40
0.0
  9
$THICKNESS
 40
0.0
  9
$LIMCHECK
 70
     0
  9
$BLIPMODE
 70
     0
  9
$CHAMFERA
 40
0.0
  9
$CHAMFERB
 40
0.0
  9
$CHAMFERC
 40
0.0
  9
$CHAMFERD
 40
0.0
  9
$SKPOLY
 70
     0
  9
$TDCREATE
 40
2450409.621022951
  9
$TDUPDATE
 40
2452297.073795567
  9
$TDINDWG
 40
0.0038185417
  9
$TDUSRTIMER
 40
0.0038185417
  9
$USRTIMER
 70
     1
  9
$ANGBASE
 50
0.0
  9
$ANGDIR
 70
     0
  9
$PDMODE
 70
     0
  9
$PDSIZE
 40
0.0
  9
$PLINEWID
 40
0.0
  9
$COORDS
 70
     2
  9
$SPLFRAME
 70
     0
  9
$SPLINETYPE
 70
     6
  9
$SPLINESEGS
 70
     8
  9
$ATTDIA
 70
     0
  9
$ATTREQ
 70
     1
  9
$HANDLING
 70
 22529
  9
$HANDSEED
  5
240
  9
$SURFTAB1
 70
     6
  9
$SURFTAB2
 70
     6
  9
$SURFTYPE
 70
     6
  9
$SURFU
 70
     6
  9
$SURFV
 70
     6
  9
$UCSNAME
  2

  9
$UCSORG
 10
0.0
 20
0.0
 30
0.0
  9
$UCSXDIR
 10
1.0
 20
0.0
 30
0.0
  9
$UCSYDIR
 10
0.0
 20
1.0
 30
0.0
  9
$PUCSNAME
  2

  9
$PUCSORG
 10
0.0
 20
0.0
 30
0.0
  9
$PUCSXDIR
 10
1.0
 20
0.0
 30
0.0
  9
$PUCSYDIR
 10
0.0
 20
1.0
 30
0.0
  9
$USERI1
 70
     0
  9
$USERI2
 70
     0
  9
$USERI3
 70
     0
  9
$USERI4
 70
     0
  9
$USERI5
 70
     0
  9
$USERR1
 40
0.0
  9
$USERR2
 40
0.0
  9
$USERR3
 40
0.0
  9
$USERR4
 40
0.0
  9
$USERR5
 40
0.0
  9
$WORLDVIEW
 70
     1
  9
$SHADEDGE
 70
     3
  9
$SHADEDIF
 70
    70
  9
$TILEMODE
 70
     1
  9
$MAXACTVP
 70
    15
  9
$PINSBASE
 10
0.0009765857830644
 20
1.500170956078392
 30
0.0
  9
$PLIMCHECK
 70
     0
  9
$PEXTMIN
 10
1.000000000000000E+20
 20
1.000000000000000E+20
 30
1.000000000000000E+20
  9
$PEXTMAX
 10
-1.000000000000000E+20
 20
-1.000000000000000E+20
 30
-1.000000000000000E+20
  9
$PLIMMIN
 10
0.0
 20
0.0
  9
$PLIMMAX
 10
12.0
 20
9.0
  9
$UNITMODE
 70
     0
  9
$VISRETAIN
 70
     0
  9
$PLINEGEN
 70
     0
  9
$PSLTSCALE
 70
     1
  9
$TREEDEPTH
 70
  3020
  9
$PICKSTYLE
 70
     1
  9
$CMLSTYLE
  2
STANDARD
  9
$CMLJUST
 70
     0
  9
$CMLSCALE
 40
1.0
  9
$PROXYGRAPHICS
 70
     1
  9
$MEASUREMENT
 70
     0
  0
ENDSEC
  0
SECTION
  2
CLASSES
  0
CLASS
  1
ACDBDICTIONARYWDFLT
  2
AcDbDictionaryWithDefault
  3
AutoCAD 2000
 90
        0
280
     0
281
     0
  0
CLASS
  1
ACDBPLACEHOLDER
  2
AcDbPlaceHolder
  3
AutoCAD 2000
 90
        0
280
     0
281
     0
  0
CLASS
  1
LAYOUT
  2
AcDbLayout
  3
AutoCAD 2000
 90
        0
280
     0
281
     0
  0
CLASS
  1
DICTIONARYVAR
  2
AcDbDictionaryVar
  3
AutoCAD 2000
 90
        0
280
     0
281
     0
  0
CLASS
  1
LONG_TRANSACTION
  2
AcDbLongTransaction
  3
AutoCAD 2000
 90
        0
280
     0
281
     0
  0
CLASS
  1
LWPOLYLINE
  2
AcDbPolyline
  3
AutoCAD 2000
 90
        0
280
     0
281
     1
  0
CLASS
  1
HATCH
  2
AcDbHatch
  3
AutoCAD 2000
 90
        0
280
     0
281
     1
  0
CLASS
  1
XRECORD
  2
AcDbXrecord
  3
AutoCAD 2000
 90
        0
280
     0
281
     0
  0
CLASS
  1
LONG_TRANSACTION
  2
AcDbLongTransaction
  3
AutoCAD 2000
 90
        0
280
     0
281
     0
  0
CLASS
  1
LWPOLYLINE
  2
AcDbPolyline
  3
AutoCAD 2000
 90
        0
280
     0
281
     1
  0
CLASS
  1
HATCH
  2
AcDbHatch
  3
AutoCAD 2000
 90
        0
280
     0
281
     1
  0
CLASS
  1
XRECORD
  2
AcDbXrecord
  3
AutoCAD 2000
 90
        0
280
     0
281
     0
  0
CLASS
  1
LONG_TRANSACTION
  2
AcDbLongTransaction
  3
AutoCAD 2000
 90
        0
280
     0
281
     0
  0
CLASS
  1
LWPOLYLINE
  2
AcDbPolyline
  3
AutoCAD 2000
 90
        0
280
     0
281
     1
  0
CLASS
  1
HATCH
  2
AcDbHatch
  3
AutoCAD 2000
 90
        0
280
     0
281
     1
  0
CLASS
  1
XRECORD
  2
AcDbXrecord
  3
AutoCAD 2000
 90
        0
280
     0
281
     0
  0
CLASS
  1
LONG_TRANSACTION
  2
AcDbLongTransaction
  3
AutoCAD 2000
 90
        0
280
     0
281
     0
  0
CLASS
  1
LWPOLYLINE
  2
AcDbPolyline
  3
AutoCAD 2000
 90
        0
280
     0
281
     1
  0
CLASS
  1
HATCH
  2
AcDbHatch
  3
AutoCAD 2000
 90
        0
280
     0
281
     1
  0
CLASS
  1
XRECORD
  2
AcDbXrecord
  3
AutoCAD 2000
 90
        0
280
     0
281
     0
  0
CLASS
  1
LONG_TRANSACTION
  2
AcDbLongTransaction
  3
AutoCAD 2000
 90
        0
280
     0
281
     0
  0
CLASS
  1
LWPOLYLINE
  2
AcDbPolyline
  3
AutoCAD 2000
 90
        0
280
     0
281
     1
  0
CLASS
  1
HATCH
  2
AcDbHatch
  3
AutoCAD 2000
 90
        0
280
     0
281
     1
  0
CLASS
  1
XRECORD
  2
AcDbXrecord
  3
AutoCAD 2000
 90
        0
280
     0
281
     0
  0
ENDSEC
  0
SECTION
  2
TABLES
  0
TABLE
  2
VPORT
  5
13
330
0
100
AcDbSymbolTable
 70
     2
  0
VPORT
  5
21D
330
13
100
AcDbSymbolTableRecord
100
AcDbViewportTableRecord
  2
*ACTIVE
 70
     0
 10
0.0
 20
0.0
 11
1.0
 21
1.0
 12
39.41973895674596
 22
7.018595453330565
 13
0.0
 23
0.0
 14
0.5740882589684922
 24
0.5740882589684922
 15
0.5
 25
0.5
 16
0.0
 26
0.0
 36
1.0
 17
0.0
 27
0.0
 37
0.0
 40
16.4985358527045
 41
1.570528967254408
 42
50.0
 43
0.0
 44
0.0
 50
0.0
 51
0.0
 71
     0
 72
   100
 73
     1
 74
     0
 75
     0
 76
     0
 77
     0
 78
     0
  0
ENDTAB
  0
TABLE
  2
LTYPE
  5
F
330
0
100
AcDbSymbolTable
 70
     1
  0
LTYPE
  5
10
330
F
100
AcDbSymbolTableRecord
100
AcDbLinetypeTableRecord
  2
BYBLOCK
 70
     0
  3

 72
    65
 73
     0
 40
0.0
  0
LTYPE
  5
6
330
F
100
AcDbSymbolTableRecord
100
AcDbLinetypeTableRecord
  2
BYLAYER
 70
     0
  3

 72
    65
 73
     0
 40
0.0
  0
LTYPE
  5
5
330
F
100
AcDbSymbolTableRecord
100
AcDbLinetypeTableRecord
  2
CONTINUOUS
 70
     0
  3
Solid line
 72
    65
 73
     0
 40
0.0
  0
ENDTAB
  0
TABLE
  2
LAYER
  5
B
330
0
100
AcDbSymbolTable
 70
     3
  0
LAYER
  5
C
330
B
100
AcDbSymbolTableRecord
100
AcDbLayerTableRecord
  2
0
 70
     0
 62
     7
  6
CONTINUOUS
  0
LAYER
  5
84
330
B
100
AcDbSymbolTableRecord
100
AcDbLayerTableRecord
  2
DEFPOINTS
 70
     0
 62
     7
  6
CONTINUOUS
  0
LAYER
  5
4
330
B
100
AcDbSymbolTableRecord
100
AcDbLayerTableRecord
  2
ADPDIM
 70
     0
 62
     3
  6
CONTINUOUS
  0
ENDTAB
  0
TABLE
  2
STYLE
  5
D
330
0
100
AcDbSymbolTable
 70
     2
  0
STYLE
  5
E
330
D
100
AcDbSymbolTableRecord
100
AcDbTextStyleTableRecord
  2
STANDARD
 70
     0
 40
0.0
 41
1.0
 50
0.0
 71
     0
 42
0.2
  3
txt
  4

  0
STYLE
  5
D9
330
D
100
AcDbSymbolTableRecord
100
AcDbTextStyleTableRecord
  2
ARIAL_WIDE
 70
     0
 40
0.0
 41
1.25
 50
0.0
 71
     0
 42
0.2
  3
ARIAL.TTF
  4

1001
ACAD
1000
Arial
1071
       34
  0
ENDTAB
  0
TABLE
  2
VIEW
  5
11
330
0
100
AcDbSymbolTable
 70
     0
  0
ENDTAB
  0
TABLE
  2
UCS
  5
12
330
0
100
AcDbSymbolTable
 70
     0
  0
ENDTAB
  0
TABLE
  2
APPID
  5
15
330
0
100
AcDbSymbolTable
 70
     1
  0
APPID
  5
16
330
15
100
AcDbSymbolTableRecord
100
AcDbRegAppTableRecord
  2
ACAD
 70
     0
  0
ENDTAB
  0
TABLE
  2
DIMSTYLE
  5
17
330
0
100
AcDbSymbolTable
 70
     1
  0
DIMSTYLE
105
1D
330
17
100
AcDbSymbolTableRecord
100
AcDbDimStyleTableRecord
  2
STANDARD
 70
     0
  3

  4

  5

  6

  7

 40
1.0
 41
0.18
 42
0.0625
 43
0.38
 44
0.18
 45
0.0
 46
0.0
 47
0.0
 48
0.0
140
0.18
141
0.09
142
0.0
143
25.4
144
1.0
145
0.0
146
1.0
147
0.09
 71
     0
 72
     0
 73
     1
 74
     1
 75
     0
 76
     0
 77
     0
 78
     0
170
     0
171
     2
172
     0
173
     0
174
     0
175
     0
176
     0
177
     0
178
     0
270
     2
271
     4
272
     4
273
     2
274
     2
340
E
275
     0
280
     0
281
     0
282
     0
283
     1
284
     0
285
     0
286
     0
287
     3
288
     0
  0
ENDTAB
  0
TABLE
  2
BLOCK_RECORD
  5
1
330
0
100
AcDbSymbolTable
 70
     3
  0
BLOCK_RECORD
  5
2
102
{ACAD_XDICTIONARY
360
12C
102
}
330
1
100
AcDbSymbolTableRecord
100
AcDbBlockTableRecord
  2
*MODEL_SPACE
  0
BLOCK_RECORD
  5
8
102
{ACAD_XDICTIONARY
360
12E
102
}
330
1
100
AcDbSymbolTableRecord
100
AcDbBlockTableRecord
  2
*PAPER_SPACE
  0
BLOCK_RECORD
  5
B5
330
1
100
AcDbSymbolTableRecord
100
AcDbBlockTableRecord
  2
*D0
  0
BLOCK_RECORD
  5
7B
330
1
100
AcDbSymbolTableRecord
100
AcDbBlockTableRecord
  2
*D1
  0
BLOCK_RECORD
  5
C3
330
1
100
AcDbSymbolTableRecord
100
AcDbBlockTableRecord
  2
*D2
  0
ENDTAB
  0
ENDSEC
  0
SECTION
  2
BLOCKS
  0
BLOCK
  5
3
330
2
100
AcDbEntity
  8
0
100
AcDbBlockBegin
  2
*MODEL_SPACE
 70
     0
 10
0.0
 20
0.0
 30
0.0
  3
*MODEL_SPACE
  1

  0
ENDBLK
  5
7
330
2
100
AcDbEntity
  8
0
100
AcDbBlockEnd
  0
BLOCK
  5
9
330
8
100
AcDbEntity
 67
     1
  8
0
100
AcDbBlockBegin
  2
*PAPER_SPACE
 70
     0
 10
0.0
 20
0.0
 30
0.0
  3
*PAPER_SPACE
  1

  0
ENDBLK
  5
A
330
8
100
AcDbEntity
 67
     1
  8
0
100
AcDbBlockEnd
  0
BLOCK
  5
C0
330
B5
100
AcDbEntity
  8
0
100
AcDbBlockBegin
  2
*D0
 70
     1
 10
0.0
 20
0.0
 30
0.0
  3
*D0
  1

  0
LINE
  5
B6
330
B5
100
AcDbEntity
  8
0
  6
BYBLOCK
 62
     0
100
AcDbLine
 10
9.167620064603072
 20
1.357815864998237
 30
0.0
 11
4.979416441448166
 21
1.357815864998237
 31
0.0
  0
LINE
  5
B7
330
B5
100
AcDbEntity
  8
0
  6
BYBLOCK
 62
     0
100
AcDbLine
 10
9.167620064603072
 20
11.35781586499823
 30
0.0
 11
4.979416441448167
 21
11.35781586499823
 31
0.0
  0
LINE
  5
B8
330
B5
100
AcDbEntity
  8
0
  6
BYBLOCK
 62
     0
100
AcDbLine
 10
5.159416441448166
 20
1.357815864998237
 30
0.0
 11
5.159416441448166
 21
6.15989919833157
 31
0.0
  0
LINE
  5
B9
330
B5
100
AcDbEntity
  8
0
  6
BYBLOCK
 62
     0
100
AcDbLine
 10
5.159416441448167
 20
11.35781586499823
 30
0.0
 11
5.159416441448166
 21
6.555732531664903
 31
0.0
  0
LINE
  5
BA
330
B5
100
AcDbEntity
  8
0
  6
BYBLOCK
 62
     0
100
AcDbLine
 10
5.284416441448166
 20
1.232815864998237
 30
0.0
 11
5.034416441448166
 21
1.482815864998237
 31
0.0
  0
LINE
  5
BB
330
B5
100
AcDbEntity
  8
0
  6
BYBLOCK
 62
     0
100
AcDbLine
 10
5.284416441448167
 20
11.23281586499823
 30
0.0
 11
5.034416441448167
 21
11.48281586499823
 31
0.0
  0
TEXT
  5
BC
330
B5
100
AcDbEntity
  8
0
  6
BYBLOCK
 62
     0
100
AcDbText
 10
5.221916441448166
 20
6.28489919833157
 30
0.0
 40
0.125
  1
10
 50
90.0
 72
     1
 11
5.159416441448166
 21
6.357815864998237
 31
0.0
100
AcDbText
 73
     2
  0
POINT
  5
BD
330
B5
100
AcDbEntity
  8
DEFPOINTS
  6
BYBLOCK
 62
     0
100
AcDbPoint
 10
9.230120064603072
 20
1.357815864998237
 30
0.0
  0
POINT
  5
BE
330
B5
100
AcDbEntity
  8
DEFPOINTS
  6
BYBLOCK
 62
     0
100
AcDbPoint
 10
9.230120064603072
 20
11.35781586499823
 30
0.0
  0
POINT
  5
BF
330
B5
100
AcDbEntity
  8
DEFPOINTS
  6
BYBLOCK
 62
     0
100
AcDbPoint
 10
5.159416441448167
 20
11.35781586499823
 30
0.0
  0
ENDBLK
  5
C1
330
B5
100
AcDbEntity
  8
0
100
AcDbBlockEnd
  0
BLOCK
  5
87
330
7B
100
AcDbEntity
  8
0
100
AcDbBlockBegin
  2
*D1
 70
     1
 10
0.0
 20
0.0
 30
0.0
  3
*D1
  1

  0
LINE
  5
7C
330
7B
100
AcDbEntity
  8
0
  6
BYBLOCK
 62
     0
100
AcDbLine
 10
9.230120064603072
 20
1.295315864998237
 30
0.0
 11
9.230120064603072
 21
0.6423150152787056
 31
0.0
  0
LINE
  5
7D
330
7B
100
AcDbEntity
  8
0
  6
BYBLOCK
 62
     0
100
AcDbLine
 10
9.743881783095881
 20
1.295315864998237
 30
0.0
 11
9.743881783095881
 21
0.6423150152787056
 31
0.0
  0
LINE
  5
7E
330
7B
100
AcDbEntity
  8
0
  6
BYBLOCK
 62
     0
100
AcDbLine
 10
9.230120064603072
 20
0.8223150152787056
 30
0.0
 11
8.980120064603072
 21
0.8223150152787056
 31
0.0
  0
LINE
  5
7F
330
7B
100
AcDbEntity
  8
0
  6
BYBLOCK
 62
     0
100
AcDbLine
 10
9.743881783095881
 20
0.8223150152787056
 30
0.0
 11
9.993881783095881
 21
0.8223150152787056
 31
0.0
  0
LINE
  5
80
330
7B
100
AcDbEntity
  8
0
  6
BYBLOCK
 62
     0
100
AcDbLine
 10
9.105120064603072
 20
0.6973150152787056
 30
0.0
 11
9.355120064603072
 21
0.9473150152787056
 31
0.0
  0
LINE
  5
81
330
7B
100
AcDbEntity
  8
0
  6
BYBLOCK
 62
     0
100
AcDbLine
 10
9.618881783095881
 20
0.6973150152787056
 30
0.0
 11
9.868881783095881
 21
0.9473150152787056
 31
0.0
  0
TEXT
  5
82
330
7B
100
AcDbEntity
  8
0
  6
BYBLOCK
 62
     0
100
AcDbText
 10
10.11888178309588
 20
0.7598150152787056
 30
0.0
 40
0.125
  1
1/2
 72
     1
 11
10.26471511642921
 21
0.8223150152787056
 31
0.0
100
AcDbText
 73
     2
  0
POINT
  5
83
330
7B
100
AcDbEntity
  8
DEFPOINTS
  6
BYBLOCK
 62
     0
100
AcDbPoint
 10
9.230120064603072
 20
1.357815864998237
 30
0.0
  0
POINT
  5
85
330
7B
100
AcDbEntity
  8
DEFPOINTS
  6
BYBLOCK
 62
     0
100
AcDbPoint
 10
9.743881783095881
 20
1.357815864998237
 30
0.0
  0
POINT
  5
86
330
7B
100
AcDbEntity
  8
DEFPOINTS
  6
BYBLOCK
 62
     0
100
AcDbPoint
 10
9.743881783095881
 20
0.8223150152787056
 30
0.0
  0
ENDBLK
  5
88
330
7B
100
AcDbEntity
  8
0
100
AcDbBlockEnd
  0
BLOCK
  5
CE
330
C3
100
AcDbEntity
  8
0
100
AcDbBlockBegin
  2
*D2
 70
     1
 10
0.0
 20
0.0
 30
0.0
  3
*D2
  1

  0
LINE
  5
C4
330
C3
100
AcDbEntity
  8
0
  6
BYBLOCK
 62
     0
100
AcDbLine
 10
34.42088892943568
 20
9.083567752895152
 30
0.0
 11
34.42088892943568
 21
13.12487280437447
 31
0.0
  0
LINE
  5
C5
330
C3
100
AcDbEntity
  8
0
  6
BYBLOCK
 62
     0
100
AcDbLine
 10
44.41759444292772
 20
9.083567752895152
 30
0.0
 11
44.41759444292772
 21
13.12487280437447
 31
0.0
  0
LINE
  5
C6
330
C3
100
AcDbEntity
  8
0
  6
BYBLOCK
 62
     0
100
AcDbLine
 10
34.42088892943568
 20
12.94487280437447
 30
0.0
 11
39.22132501951503
 21
12.94487280437447
 31
0.0
  0
LINE
  5
C7
330
C3
100
AcDbEntity
  8
0
  6
BYBLOCK
 62
     0
100
AcDbLine
 10
44.41759444292772
 20
12.94487280437447
 30
0.0
 11
39.61715835284836
 21
12.94487280437447
 31
0.0
  0
LINE
  5
C8
330
C3
100
AcDbEntity
  8
0
  6
BYBLOCK
 62
     0
100
AcDbLine
 10
34.29588892943567
 20
12.81987280437447
 30
0.0
 11
34.54588892943567
 21
13.06987280437447
 31
0.0
  0
LINE
  5
C9
330
C3
100
AcDbEntity
  8
0
  6
BYBLOCK
 62
     0
100
AcDbLine
 10
44.29259444292772
 20
12.81987280437447
 30
0.0
 11
44.54259444292772
 21
13.06987280437447
 31
0.0
  0
TEXT
  5
CA
330
C3
100
AcDbEntity
  8
0
  6
BYBLOCK
 62
     0
100
AcDbText
 10
39.34632501951503
 20
12.88237280437447
 30
0.0
 40
0.125
  1
10
 72
     1
 11
39.4192416861817
 21
12.94487280437447
 31
0.0
100
AcDbText
 73
     2
  0
POINT
  5
CB
330
C3
100
AcDbEntity
  8
DEFPOINTS
  6
BYBLOCK
 62
     0
100
AcDbPoint
 10
34.42088892943568
 20
9.021067752895152
 30
0.0
  0
POINT
  5
CC
330
C3
100
AcDbEntity
  8
DEFPOINTS
  6
BYBLOCK
 62
     0
100
AcDbPoint
 10
44.41759444292772
 20
9.021067752895152
 30
0.0
  0
POINT
  5
CD
330
C3
100
AcDbEntity
  8
DEFPOINTS
  6
BYBLOCK
 62
     0
100
AcDbPoint
 10
44.41759444292772
 20
12.94487280437447
 30
0.0
  0
ENDBLK
  5
CF
330
C3
100
AcDbEntity
  8
0
100
AcDbBlockEnd
  0
ENDSEC
  0
SECTION
  2
ENTITIES
  0
LINE
  5
1E
330
2
100
AcDbEntity
  8
0
100
AcDbLine
 10
40.3895144680875
 20
4.851834224016291
 30
0.0
 11
42.11472059817752
 21
6.577040354106308
 31
0.0
  0
LINE
  5
1F
330
2
100
AcDbEntity
  8
0
100
AcDbLine
 10
40.25644599393723
 20
4.984822405318584
 30
0.0
 11
41.98166215298697
 21
6.71003856436832
 31
0.0
  0
LINE
  5
20
330
2
100
AcDbEntity
  8
0
100
AcDbLine
 10
38.61294287571446
 20
4.687354210943171
 30
0.0
 11
38.57616621372415
 21
4.650594197573713
 31
0.0
  0
LINE
  5
21
330
2
100
AcDbEntity
  8
0
100
AcDbLine
 10
38.52114830239853
 20
6.453396164813824
 30
0.0
 11
37.67398179970121
 21
5.606613170383665
 31
0.0
  0
LINE
  5
22
330
2
100
AcDbEntity
  8
0
100
AcDbLine
 10
38.52107890343452
 20
6.719142384047613
 30
0.0
 11
40.24694665958489
 21
8.443968760274866
 31
0.0
  0
LINE
  5
23
330
2
100
AcDbEntity
  8
0
100
AcDbLine
 10
36.75336220401545
 20
6.810145653927136
 30
0.0
 11
38.38824115040621
 21
8.444038122584927
 31
0.0
  0
LINE
  5
24
330
2
100
AcDbEntity
  8
0
100
AcDbLine
 10
36.75339917595286
 20
6.544242009712693
 30
0.0
 11
36.69982862956274
 21
6.490695714455439
 31
0.0
  0
LINE
  5
25
330
2
100
AcDbEntity
  8
0
100
AcDbLine
 10
37.68317096263973
 20
5.615798173431601
 30
0.0
 11
39.34078050789326
 21
3.960556115877502
 31
0.0
  0
LINE
  5
26
330
2
100
AcDbEntity
  8
0
100
AcDbLine
 10
37.81622946333514
 20
5.748796439173345
 30
0.0
 11
39.4194696627916
 21
4.147846074172949
 31
0.0
  0
LINE
  5
27
330
2
100
AcDbEntity
  8
0
100
AcDbLine
 10
39.4504664864519
 20
5.524498678705016
 30
0.0
 11
40.3247667591796
 21
4.650594197573771
 31
0.0
  0
LINE
  5
28
330
2
100
AcDbEntity
  8
0
100
AcDbLine
 10
39.4504664864519
 20
5.790315588823091
 30
0.0
 11
37.72466879651552
 21
7.515071941113977
 31
0.0
  0
LINE
  5
29
330
2
100
AcDbEntity
  8
0
100
AcDbLine
 10
41.18555309843852
 20
5.91392950981987
 30
0.0
 11
39.58337443201861
 21
7.515141429691269
 31
0.0
  0
LINE
  5
2A
330
2
100
AcDbEntity
  8
0
100
AcDbLine
 10
41.18561293701678
 20
5.647932692945566
 30
0.0
 11
41.22695117320254
 21
5.606613170383732
 31
0.0
  0
LINE
  5
2B
330
2
100
AcDbEntity
  8
0
100
AcDbLine
 10
40.37978467050529
 20
6.453396164813824
 30
0.0
 11
38.74600137640986
 21
4.820352476684913
 31
0.0
  0
LINE
  5
2C
330
2
100
AcDbEntity
  8
0
100
AcDbLine
 10
40.37985406946929
 20
6.719142384047611
 30
0.0
 11
41.96336320190506
 21
8.301696035037767
 31
0.0
  0
LINE
  5
2D
330
2
100
AcDbEntity
  8
0
100
AcDbLine
 10
42.24772855079425
 20
6.710048306723042
 30
0.0
 11
42.93068535748615
 21
7.393005113414927
 31
0.0
  0
LINE
  5
2E
330
2
100
AcDbEntity
  8
0
100
AcDbLine
 10
42.11466007664399
 20
6.843036488025333
 30
0.0
 11
42.77048225543272
 21
7.498858666814065
 31
0.0
  0
LINE
  5
2F
330
2
100
AcDbEntity
  8
0
100
AcDbLine
 10
42.09646548506256
 20
8.16929984608933
 30
0.0
 11
40.512762677054
 21
6.586313972848199
 31
0.0
  0
LINE
  5
30
330
2
100
AcDbEntity
  8
0
100
AcDbLine
 10
42.09643225345081
 20
8.434684793387125
 30
0.0
 11
42.22263356884668
 21
8.560809959544075
 31
0.0
  0
LINE
  5
31
330
2
100
AcDbEntity
  8
0
100
AcDbLine
 10
41.30910272823249
 20
7.382293524653637
 30
0.0
 11
42.20110434334102
 21
6.490695714455502
 31
0.0
  0
LINE
  5
32
330
2
100
AcDbEntity
  8
0
100
AcDbLine
 10
41.30924152615273
 20
7.647969053014409
 30
0.0
 11
39.58330370379791
 21
9.37286545316852
 31
0.0
  0
LINE
  5
33
330
2
100
AcDbEntity
  8
0
100
AcDbLine
 10
39.4504664864519
 20
7.382293650922628
 30
0.0
 11
41.05255449182624
 21
5.780930903207581
 31
0.0
  0
LINE
  5
34
330
2
100
AcDbEntity
  8
0
100
AcDbLine
 10
39.4504664864519
 20
7.647969179272131
 30
0.0
 11
37.82179466584266
 21
9.275658267496893
 31
0.0
  0
LINE
  5
35
330
2
100
AcDbEntity
  8
0
100
AcDbLine
 10
36.76490765548821
 20
8.208841769893464
 30
0.0
 11
36.06259271025431
 21
7.49992855329739
 31
0.0
  0
LINE
  5
36
330
2
100
AcDbEntity
  8
0
100
AcDbLine
 10
36.63184789677323
 20
8.341841293085289
 30
0.0
 11
35.8678675758417
 21
7.570683352615594
 31
0.0
  0
LINE
  5
37
330
2
100
AcDbEntity
  8
0
100
AcDbLine
 10
37.59183024467132
 20
7.382293524653636
 30
0.0
 11
39.31748781265321
 21
5.657417153687304
 31
0.0
  0
LINE
  5
38
330
2
100
AcDbEntity
  8
0
100
AcDbLine
 10
37.5916914467511
 20
7.647969053014421
 30
0.0
 11
36.67829940405708
 21
8.560809959544144
 31
0.0
  0
LINE
  5
39
330
2
100
AcDbEntity
  8
0
100
AcDbLine
 10
40.37978454417911
 20
8.311191010762437
 30
0.0
 11
38.6540569152152
 21
6.586244610530379
 31
0.0
  0
LINE
  5
3A
330
2
100
AcDbEntity
  8
0
100
AcDbLine
 10
40.37985394313533
 20
8.576795848238933
 30
0.0
 11
41.25691159317387
 21
9.453324286102947
 31
0.0
  0
LINE
  5
3B
330
2
100
AcDbEntity
  8
0
100
AcDbLine
 10
38.5211484287247
 20
8.311191010762438
 30
0.0
 11
36.88645767664825
 21
6.677240275454439
 31
0.0
  0
LINE
  5
3C
330
2
100
AcDbEntity
  8
0
100
AcDbLine
 10
38.52107902976847
 20
8.576795848238941
 30
0.0
 11
40.10020569630424
 21
10.15496967768698
 31
0.0
  0
LINE
  5
3D
330
2
100
AcDbEntity
  8
0
100
AcDbLine
 10
39.4504664864519
 20
9.240088370602249
 30
0.0
 11
41.1762641763883
 21
7.515071941113973
 31
0.0
  0
LINE
  5
3E
330
2
100
AcDbEntity
  8
0
100
AcDbLine
 10
39.4504664864519
 20
9.505622517205733
 30
0.0
 11
38.55463698821849
 21
10.40091147642586
 31
0.0
  0
LINE
  5
3F
330
2
100
AcDbEntity
  8
0
100
AcDbLine
 10
41.16485343733449
 20
9.361321677691755
 30
0.0
 11
39.47936402607141
 21
11.03786973735292
 31
0.0
  0
LINE
  5
40
330
2
100
AcDbEntity
  8
0
100
AcDbLine
 10
41.03178438578875
 20
9.228332919342397
 30
0.0
 11
39.39140256335847
 21
10.8600126813873
 31
0.0
  0
LINE
  5
41
330
2
100
AcDbEntity
  8
0
100
AcDbLine
 10
40.23327474784998
 20
10.28795843603633
 30
0.0
 11
40.34629598468526
 21
10.4009114764258
 31
0.0
  0
LINE
  5
42
330
2
100
AcDbEntity
  8
0
100
AcDbLine
 10
40.23330698347756
 20
10.02257447943914
 30
0.0
 11
38.65398631331893
 21
8.443968760274866
 31
0.0
  0
LINE
  5
43
330
2
100
AcDbEntity
  8
0
100
AcDbLine
 10
37.68967037180857
 20
9.14229266149659
 30
0.0
 11
39.3175585408852
 21
7.515141429691265
 31
0.0
  0
LINE
  5
44
330
2
100
AcDbEntity
  8
0
100
AcDbLine
 10
37.68872492497443
 20
9.408647714752815
 30
0.0
 11
37.64402137972988
 21
9.453324286103011
 31
0.0
  0
LINE
  5
45
330
2
100
AcDbEntity
  8
0
100
AcDbLine
 10
38.614432962422
 20
10.07574342621176
 30
0.0
 11
36.89703295525274
 21
8.342208391073073
 31
0.0
  0
LINE
  5
46
330
2
100
AcDbEntity
  8
0
100
AcDbLine
 10
38.48137320370702
 20
10.20874294940358
 30
0.0
 11
36.76396321438451
 21
8.475197838329002
 31
0.0
  0
LINE
  5
47
330
2
100
AcDbEntity
  8
0
100
AcDbLine
 10
40.93043880760562
 20
12.506412303002
 30
0.0
 11
40.41710119348546
 21
12.506412303002
 31
0.0
  0
LINE
  5
48
330
2
100
AcDbEntity
  8
0
100
AcDbLine
 10
40.93043880760562
 20
11.53425405771204
 30
0.0
 11
40.93043880760562
 21
12.506412303002
 31
0.0
  0
LINE
  5
49
330
2
100
AcDbEntity
  8
0
100
AcDbLine
 10
40.41710119348546
 20
12.506412303002
 30
0.0
 11
40.41710119348546
 21
11.54057112268544
 31
0.0
  0
LINE
  5
4A
330
2
100
AcDbEntity
  8
0
100
AcDbLine
 10
38.38145188952362
 20
12.506412303002
 30
0.0
 11
37.86811427540345
 21
12.506412303002
 31
0.0
  0
ARC
  5
4B
330
2
100
AcDbEntity
  8
0
100
AcDbCircle
 10
36.61459821993947
 20
8.490760996900693
 30
0.0
 40
0.0946820892535037
100
AcDbArc
 50
47.71721731498738
 51
214.628962307221
  0
LINE
  5
4C
330
2
100
AcDbEntity
  8
0
100
AcDbLine
 10
37.86811427540345
 20
11.54057112268544
 30
0.0
 11
37.84631322446722
 21
11.54057112268544
 31
0.0
  0
LINE
  5
4D
330
2
100
AcDbEntity
  8
0
100
AcDbLine
 10
37.86811427540345
 20
12.506412303002
 30
0.0
 11
37.86811427540345
 21
11.56237217362167
 31
0.0
  0
LINE
  5
4E
330
2
100
AcDbEntity
  8
0
100
AcDbLine
 10
38.38145188952362
 20
11.54057112268544
 30
0.0
 11
38.38145188952362
 21
12.506412303002
 31
0.0
  0
LINE
  5
4F
330
2
100
AcDbEntity
  8
0
100
AcDbLine
 10
40.71589601100376
 20
11.03786973735292
 30
0.0
 11
38.0545389560957
 21
11.03786973735292
 31
0.0
  0
LINE
  5
50
330
2
100
AcDbEntity
  8
0
100
AcDbLine
 10
40.41710119348546
 20
11.54057112268544
 30
0.0
 11
38.38145188952362
 21
11.54057112268544
 31
0.0
  0
LINE
  5
51
330
2
100
AcDbEntity
  8
0
100
AcDbLine
 10
44.41759444292772
 20
8.507730138774988
 30
0.0
 11
44.41759444292772
 21
9.021067752895152
 31
0.0
  0
LINE
  5
52
330
2
100
AcDbEntity
  8
0
100
AcDbLine
 10
43.43338674281866
 20
9.021067752895151
 30
0.0
 11
43.43338674281866
 21
9.031306122499016
 31
0.0
  0
LINE
  5
53
330
2
100
AcDbEntity
  8
0
100
AcDbLine
 10
44.41759444292772
 20
9.021067752895152
 30
0.0
 11
43.44362511242251
 21
9.021067752895151
 31
0.0
  0
LINE
  5
54
330
2
100
AcDbEntity
  8
0
100
AcDbLine
 10
43.43338674281866
 20
8.507730138774988
 30
0.0
 11
44.41759444292772
 21
8.507730138774988
 31
0.0
  0
LINE
  5
55
330
2
100
AcDbEntity
  8
0
100
AcDbLine
 10
44.41759444292772
 20
5.959897197991009
 30
0.0
 11
44.41759444292772
 21
6.473234812111173
 31
0.0
  0
LINE
  5
56
330
2
100
AcDbEntity
  8
0
100
AcDbLine
 10
43.43338674281866
 20
5.933934993883671
 30
0.0
 11
43.43338674281866
 21
5.959897197991009
 31
0.0
  0
LINE
  5
57
330
2
100
AcDbEntity
  8
0
100
AcDbLine
 10
43.45934894692599
 20
5.959897197991009
 30
0.0
 11
44.41759444292772
 21
5.959897197991009
 31
0.0
  0
LINE
  5
58
330
2
100
AcDbEntity
  8
0
100
AcDbLine
 10
44.41759444292772
 20
6.473234812111173
 30
0.0
 11
43.43338674281866
 21
6.473234812111174
 31
0.0
  0
LINE
  5
59
330
2
100
AcDbEntity
  8
0
100
AcDbLine
 10
42.93068535748615
 20
6.142160725512152
 30
0.0
 11
42.93068535748615
 21
8.823080390870543
 31
0.0
  0
LINE
  5
5A
330
2
100
AcDbEntity
  8
0
100
AcDbLine
 10
43.43338674281866
 20
6.473234812111173
 30
0.0
 11
43.43338674281866
 21
8.507730138774986
 31
0.0
  0
ARC
  5
5B
330
2
100
AcDbEntity
  8
0
100
AcDbCircle
 10
42.25620972312287
 20
6.569906156938135
 30
0.0
 40
0.0946820892535037
100
AcDbArc
 50
227.7172173149873
 51
34.62896230722094
  0
ARC
  5
5C
330
2
100
AcDbEntity
  8
0
100
AcDbCircle
 10
40.58480189983522
 20
5.46228852933613
 30
0.0
 40
0.8462985982525889
100
AcDbArc
 50
251.4931242557443
 51
16.5712688016511
  0
ARC
  5
5D
330
2
100
AcDbEntity
  8
0
100
AcDbCircle
 10
40.58480189983522
 20
5.46228852933613
 30
0.0
 40
0.6581681330022722
100
AcDbArc
 50
255.0444942567114
 51
12.66688422915446
  0
ARC
  5
5E
330
2
100
AcDbEntity
  8
0
100
AcDbCircle
 10
42.28633475296429
 20
8.490760996900629
 30
0.0
 40
0.0946820892535037
100
AcDbArc
 50
325.371037692779
 51
132.2827826850126
  0
LINE
  5
5F
330
2
100
AcDbEntity
  8
0
100
AcDbLine
 10
40.93043880760562
 20
3.457854730544981
 30
0.0
 11
40.95730647947997
 21
3.457854730544981
 31
0.0
  0
LINE
  5
60
330
2
100
AcDbEntity
  8
0
100
AcDbLine
 10
40.41710119348546
 20
2.50970678950995
 30
0.0
 11
40.93043880760562
 21
2.50970678950995
 31
0.0
  0
LINE
  5
61
330
2
100
AcDbEntity
  8
0
100
AcDbLine
 10
40.41710119348546
 20
3.457854730544981
 30
0.0
 11
40.41710119348546
 21
2.50970678950995
 31
0.0
  0
LINE
  5
62
330
2
100
AcDbEntity
  8
0
100
AcDbLine
 10
40.93043880760562
 20
2.50970678950995
 30
0.0
 11
40.93043880760562
 21
3.43098705867064
 31
0.0
  0
LINE
  5
63
330
2
100
AcDbEntity
  8
0
100
AcDbLine
 10
40.93043880760562
 20
3.43098705867064
 30
0.0
 11
43.45934894692599
 21
5.959897197991009
 31
0.0
  0
LINE
  5
64
330
2
100
AcDbEntity
  8
0
100
AcDbLine
 10
40.74908074785149
 20
3.960556115877502
 30
0.0
 11
42.93068535748615
 21
6.142160725512148
 31
0.0
  0
ARC
  5
65
330
2
100
AcDbEntity
  8
0
100
AcDbCircle
 10
38.31613107306853
 20
5.462288529336072
 30
0.0
 40
0.6581681330022722
100
AcDbArc
 50
167.3331157708455
 51
284.9555057432885
  0
LWPOLYLINE
  5
66
330
2
100
AcDbEntity
  8
0
100
AcDbPolyline
 90
        2
 70
     0
 43
0.0
 10
35.36516619050917
 20
9.059424088727398
 10
35.36516619050917
 20
9.021067752895152
  0
ARC
  5
6A
330
2
100
AcDbEntity
  8
0
100
AcDbCircle
 10
36.64472324978088
 20
6.569906156938071
 30
0.0
 40
0.0946820892535037
100
AcDbArc
 50
145.371037692779
 51
312.2827826850126
  0
LWPOLYLINE
  5
6B
330
2
100
AcDbEntity
  8
0
100
AcDbPolyline
 90
        2
 70
     0
 43
0.0
 10
35.36516619050917
 20
5.95989719799101
 10
35.36516619050917
 20
5.925831860754104
  0
LINE
  5
6F
330
2
100
AcDbEntity
  8
0
100
AcDbLine
 10
35.36516619050917
 20
8.507730138774988
 30
0.0
 11
35.36516619050917
 21
6.473234812111174
 31
0.0
  0
LWPOLYLINE
  5
70
330
2
100
AcDbEntity
  8
0
100
AcDbPolyline
 90
        2
 70
     0
 43
0.0
 10
35.8678675758417
 20
8.85119835709893
 10
35.8678675758417
 20
6.134057592382575
  0
ARC
  5
74
330
2
100
AcDbEntity
  8
0
100
AcDbCircle
 10
38.28600619290835
 20
9.59837872742721
 30
0.0
 40
0.6581681330022722
100
AcDbArc
 50
75.04531939835989
 51
192.7320090033865
  0
ARC
  5
75
330
2
100
AcDbEntity
  8
0
100
AcDbCircle
 10
38.28600619290835
 20
9.59837872742721
 30
0.0
 40
0.8462985982525889
100
AcDbArc
 50
71.49312425574429
 51
196.571268801651
  0
LINE
  5
76
330
2
100
AcDbEntity
  8
0
100
AcDbLine
 10
37.8331433207183
 20
3.457854730544981
 30
0.0
 11
37.86811427540345
 21
3.457854730544981
 31
0.0
  0
LINE
  5
77
330
2
100
AcDbEntity
  8
0
100
AcDbLine
 10
37.86811427540345
 20
2.50970678950995
 30
0.0
 11
38.38145188952362
 21
2.50970678950995
 31
0.0
  0
LINE
  5
78
330
2
100
AcDbEntity
  8
0
100
AcDbLine
 10
37.86811427540345
 20
3.422883775859832
 30
0.0
 11
37.86811427540345
 21
2.50970678950995
 31
0.0
  0
LINE
  5
79
330
2
100
AcDbEntity
  8
0
100
AcDbLine
 10
38.38145188952362
 20
2.50970678950995
 30
0.0
 11
38.38145188952362
 21
3.457854730544981
 31
0.0
  0
DIMENSION
  5
7A
330
2
100
AcDbEntity
  8
ADPDIM
100
AcDbDimension
  2
*D1
 10
38.38187599389625
 20
1.970911453282468
 30
0.0
 11
38.90270932722959
 21
1.970911453282468
 31
0.0
 12
28.63799421080038
 22
1.148596438003762
 32
0.0
100
AcDbAlignedDimension
 13
37.86811427540345
 23
2.506412303001999
 33
0.0
 14
38.38187599389625
 24
2.506412303001999
 34
0.0
100
AcDbRotatedDimension
  0
LINE
  5
89
330
2
100
AcDbEntity
  8
0
100
AcDbLine
 10
35.36516619050917
 20
5.925831860754104
 30
0.0
 11
37.86811427540345
 21
3.422883775859832
 31
0.0
  0
LINE
  5
8A
330
2
100
AcDbEntity
  8
0
100
AcDbLine
 10
35.8678675758417
 20
6.134057592382577
 30
0.0
 11
38.04136905234678
 21
3.960556115877502
 31
0.0
  0
LINE
  5
8B
330
2
100
AcDbEntity
  8
0
100
AcDbLine
 10
36.06259271025431
 20
7.49992855329739
 30
0.0
 11
37.68313335735149
 21
5.881702450092292
 31
0.0
  0
LINE
  5
8C
330
2
100
AcDbEntity
  8
0
100
AcDbLine
 10
35.8678675758417
 20
7.428508845647789
 30
0.0
 11
37.55006482052294
 21
5.748714206149543
 31
0.0
  0
ARC
  5
8D
330
2
100
AcDbEntity
  8
0
100
AcDbCircle
 10
38.31613107306853
 20
5.462288529336072
 30
0.0
 40
0.8462985982525889
100
AcDbArc
 50
163.4287311983488
 51
288.5068757442443
  0
LINE
  5
8E
330
2
100
AcDbEntity
  8
0
100
AcDbLine
 10
38.45584973311527
 20
10.23425486564097
 30
0.0
 11
39.3176292691059
 21
9.37286545316852
 31
0.0
  0
LINE
  5
8F
330
2
100
AcDbEntity
  8
0
100
AcDbLine
 10
42.33411880692442
 20
6.623710178038895
 30
0.0
 11
41.44208006753298
 21
7.515210665741855
 31
0.0
  0
LINE
  5
90
330
2
100
AcDbEntity
  8
0
100
AcDbLine
 10
40.44508323978847
 20
10.2342548656409
 30
0.0
 11
40.36636597934182
 21
10.15557324012558
 31
0.0
  0
LINE
  5
91
330
2
100
AcDbEntity
  8
0
100
AcDbLine
 10
39.49823635994872
 20
3.960556115877502
 30
0.0
 11
40.25650514955846
 21
4.718824905487243
 31
0.0
  0
LINE
  5
92
330
2
100
AcDbEntity
  8
0
100
AcDbLine
 10
39.4194696627916
 20
4.147846074172949
 30
0.0
 11
40.1234467043679
 21
4.851823115749256
 31
0.0
  0
LINE
  5
93
330
2
100
AcDbEntity
  8
0
100
AcDbLine
 10
37.47485800305923
 20
9.357007785703039
 30
0.0
 11
37.55661061309359
 21
9.27529218468841
 31
0.0
  0
LINE
  5
94
330
2
100
AcDbEntity
  8
0
100
AcDbLine
 10
41.39595008968433
 20
5.703659471060299
 30
0.0
 11
41.31862157258879
 21
5.780941328517578
 31
0.0
  0
LINE
  5
95
330
2
100
AcDbEntity
  8
0
100
AcDbLine
 10
41.42607496984451
 20
9.357007785702981
 30
0.0
 11
40.51269182249759
 21
8.44403812258492
 31
0.0
  0
LINE
  5
96
330
2
100
AcDbEntity
  8
0
100
AcDbLine
 10
38.61290463707362
 20
4.953259120051862
 30
0.0
 11
40.24687605768861
 21
6.586244610530375
 31
0.0
  0
LINE
  5
97
330
2
100
AcDbEntity
  8
0
100
AcDbLine
 10
37.50498288321942
 20
5.703659471060237
 30
0.0
 11
38.38817029584982
 21
6.586313972848197
 31
0.0
  0
LINE
  5
98
330
2
100
AcDbEntity
  8
0
100
AcDbLine
 10
42.36424383676584
 20
8.436956975799857
 30
0.0
 11
42.22952448092683
 21
8.30229860677578
 31
0.0
  0
LINE
  5
99
330
2
100
AcDbEntity
  8
0
100
AcDbLine
 10
38.04136905234678
 20
3.960556115877502
 30
0.0
 11
40.74908074785149
 21
3.960556115877502
 31
0.0
  0
LINE
  5
9A
330
2
100
AcDbEntity
  8
0
100
AcDbLine
 10
38.38145188952362
 20
3.457854730544981
 30
0.0
 11
40.41710119348546
 21
3.457854730544981
 31
0.0
  0
LINE
  5
9B
330
2
100
AcDbEntity
  8
0
100
AcDbLine
 10
37.86811427540345
 20
11.56237217362167
 30
0.0
 11
35.32680985467694
 21
9.021067752895152
 31
0.0
  0
LINE
  5
9C
330
2
100
AcDbEntity
  8
0
100
AcDbLine
 10
38.0545389560957
 20
11.03786973735292
 30
0.0
 11
35.8678675758417
 21
8.85119835709893
 31
0.0
  0
LINE
  5
9D
330
2
100
AcDbEntity
  8
0
100
AcDbLine
 10
39.39140256335847
 20
10.8600126813873
 30
0.0
 11
38.74655625072744
 21
10.20910801703457
 31
0.0
  0
LINE
  5
9E
330
2
100
AcDbEntity
  8
0
100
AcDbLine
 10
39.30278282203325
 20
11.03786973735292
 30
0.0
 11
38.6134865098592
 21
10.34209746429049
 31
0.0
  0
LINE
  5
9F
330
2
100
AcDbEntity
  8
0
100
AcDbLine
 10
36.56681416597933
 20
6.623710178038841
 30
0.0
 11
36.6202936671869
 21
6.677157409984384
 31
0.0
  0
LINE
  5
A0
330
2
100
AcDbEntity
  8
0
100
AcDbLine
 10
40.41494920211476
 20
4.826414837179606
 30
0.0
 11
39.58344516025059
 21
5.657417153687307
 31
0.0
  0
LINE
  5
A1
330
2
100
AcDbEntity
  8
0
100
AcDbLine
 10
36.53668913613792
 20
8.436956975799926
 30
0.0
 11
37.45885290537082
 21
7.515210665741857
 31
0.0
  0
LINE
  5
A2
330
2
100
AcDbEntity
  8
0
100
AcDbLine
 10
42.93068535748614
 20
8.823080390870543
 30
0.0
 11
40.71589601100376
 21
11.03786973735292
 31
0.0
  0
LINE
  5
A3
330
2
100
AcDbEntity
  8
0
100
AcDbLine
 10
42.93068535748615
 20
7.60485731806135
 30
0.0
 11
41.29794516681756
 21
9.228935986431569
 31
0.0
  0
LINE
  5
A4
330
2
100
AcDbEntity
  8
0
100
AcDbLine
 10
42.77048225543272
 20
7.498858666814065
 30
0.0
 11
41.16488617095329
 21
9.095937225745117
 31
0.0
  0
ARC
  5
A5
330
2
100
AcDbEntity
  8
0
100
AcDbCircle
 10
40.61492677999541
 20
9.598378727427144
 30
0.0
 40
0.6581681330022722
100
AcDbArc
 50
347.2679909966134
 51
104.95468060164
  0
ARC
  5
A6
330
2
100
AcDbEntity
  8
0
100
AcDbCircle
 10
40.61492677999541
 20
9.598378727427144
 30
0.0
 40
0.8462985982525889
100
AcDbArc
 50
343.4287311983489
 51
108.5068757442443
  0
LINE
  5
A7
330
2
100
AcDbEntity
  8
0
100
AcDbLine
 10
43.44362511242251
 20
9.021067752895151
 30
0.0
 11
40.93043880760562
 21
11.53425405771204
 31
0.0
  0
LINE
  5
A8
330
2
100
AcDbEntity
  8
0
100
AcDbLine
 10
34.42088892943568
 20
9.021067752895152
 30
0.0
 11
34.42088892943568
 21
8.507730138774988
 31
0.0
  0
LWPOLYLINE
  5
A9
330
2
100
AcDbEntity
  8
0
100
AcDbPolyline
 90
        3
 70
     0
 43
0.0
 10
35.36516619050917
 20
6.473234812111174
 10
34.42088892943568
 20
6.473234812111174
 10
34.42088892943568
 20
5.95989719799101
  0
LINE
  5
AE
330
2
100
AcDbEntity
  8
0
100
AcDbLine
 10
34.42088892943568
 20
5.95989719799101
 30
0.0
 11
35.36516619050917
 21
5.95989719799101
 31
0.0
  0
LINE
  5
AF
330
2
100
AcDbEntity
  8
0
100
AcDbLine
 10
35.32680985467694
 20
9.021067752895152
 30
0.0
 11
34.42088892943568
 21
9.021067752895152
 31
0.0
  0
LWPOLYLINE
  5
B0
330
2
100
AcDbEntity
  8
0
100
AcDbPolyline
 90
        2
 70
     0
 43
0.0
 10
34.42088892943568
 20
8.507730138774988
 10
35.36516619050917
 20
8.507730138774988
  0
DIMENSION
  5
B4
330
2
100
AcDbEntity
  8
ADPDIM
100
AcDbDimension
  2
*D0
 10
33.79741065224854
 20
12.506412303002
 30
0.0
 11
33.79741065224854
 21
7.506412303001999
 31
0.0
 12
28.63799421080038
 22
1.148596438003762
 32
0.0
100
AcDbAlignedDimension
 13
37.86811427540345
 23
2.506412303001999
 33
0.0
 14
37.86811427540345
 24
12.506412303002
 34
0.0
 50
90.0
100
AcDbRotatedDimension
  0
DIMENSION
  5
C2
330
2
100
AcDbEntity
  8
ADPDIM
100
AcDbDimension
  2
*D2
 10
44.41759444292772
 20
12.94487280437447
 30
0.0
 11
39.4192416861817
 21
12.94487280437447
 31
0.0
100
AcDbAlignedDimension
 13
34.42088892943568
 23
9.021067752895152
 33
0.0
 14
44.41759444292772
 24
9.021067752895152
 34
0.0
100
AcDbRotatedDimension
  0
TEXT
  5
DA
330
2
100
AcDbEntity
  8
ADPDIM
100
AcDbText
 10
26.52986146647043
 20
0.9861101879750076
 30
0.0
 40
0.25
  1
J U L I U S  B L U M  &  C O . ,  I N C .      ( 8 0 0 )  5 2 6 - 6 2 9 3        W W W . J U L I U S B L U M . C O M        P A R T  N o .  5 9 3
 41
1.25
  7
ARIAL_WIDE
 72
     1
 11
39.39927654150453
 21
1.236110187975007
 31
0.0
100
AcDbText
 73
     3
  0
ENDSEC
  0
SECTION
  2
OBJECTS
  0
DICTIONARY
  5
1B
330
0
100
AcDbDictionary
  3
ACAD_GROUP
350
19
  3
ACAD_LAYOUT
350
D3
  3
ACAD_MLINESTYLE
350
1A
  3
ACAD_PLOTSETTINGS
350
D4
  3
ACAD_PLOTSTYLENAME
350
D1
  3
ACDBHEADERROUNDTRIPXREC
350
21E
  3
ACDBVARIABLEDICTIONARY
350
134
  0
DICTIONARY
  5
12C
330
2
100
AcDbDictionary
280
     1
  3
ACAD_LAYOUTSELFREF
360
23E
  0
DICTIONARY
  5
12E
330
8
100
AcDbDictionary
280
     1
  3
ACAD_LAYOUTSELFREF
360
23F
  0
DICTIONARY
  5
19
102
{ACAD_REACTORS
330
1B
102
}
330
1B
100
AcDbDictionary
  0
DICTIONARY
  5
D3
102
{ACAD_REACTORS
330
1B
102
}
330
1B
100
AcDbDictionary
  0
DICTIONARY
  5
1A
102
{ACAD_REACTORS
330
1B
102
}
330
1B
100
AcDbDictionary
  3
STANDARD
350
1C
  0
DICTIONARY
  5
D4
102
{ACAD_REACTORS
330
1B
102
}
330
1B
100
AcDbDictionary
  0
ACDBDICTIONARYWDFLT
  5
D1
102
{ACAD_REACTORS
330
1B
102
}
330
1B
100
AcDbDictionary
281
     1
  3
Normal
350
D2
100
AcDbDictionaryWithDefault
340
D2
  0
DICTIONARY
  5
21E
102
{ACAD_REACTORS
330
1B
102
}
330
1B
100
AcDbDictionary
  3
CEPSNTYPE
350
228
  3
FINGERPRINTGUID
350
229
  3
HYPERLINKBASE
350
221
  3
INSUNITS
350
227
  3
LAYOUTDICT
350
223
  3
LWETCUNION
350
226
  3
PLOTSETDICT
350
224
  3
PLOTSTYLNAMDICT
350
225
  3
PSVPSCALE
350
22B
  3
PUCSBASE
350
22E
  3
PUCSORGBACK
350
234
  3
PUCSORGBOTTOM
350
230
  3
PUCSORGFRONT
350
233
  3
PUCSORGLEFT
350
231
  3
PUCSORGRIGHT
350
232
  3
PUCSORGTOP
350
22F
  3
PUCSORTHOREF
350
22C
  3
PUCSORTHOVIEW
350
22D
  3
STYLESHEET
350
222
  3
TSTACKALIGN
350
21F
  3
TSTACKSIZE
350
220
  3
UCSBASE
350
237
  3
UCSORGBACK
350
23D
  3
UCSORGBOTTOM
350
239
  3
UCSORGFRONT
350
23C
  3
UCSORGLEFT
350
23A
  3
UCSORGRIGHT
350
23B
  3
UCSORGTOP
350
238
  3
UCSORTHOREF
350
235
  3
UCSORTHOVIEW
350
236
  3
VERSIONGUID
350
22A
  0
DICTIONARY
  5
134
102
{ACAD_REACTORS
330
1B
102
}
330
1B
100
AcDbDictionary
  3
DIMASSOC
350
135
  0
XRECORD
  5
23E
102
{ACAD_REACTORS
330
12C
102
}
330
12C
100
AcDbXrecord
340
2
  0
XRECORD
  5
23F
102
{ACAD_REACTORS
330
12E
102
}
330
12E
100
AcDbXrecord
340
8
  0
MLINESTYLE
  5
1C
102
{ACAD_REACTORS
330
1A
102
}
330
1A
100
AcDbMlineStyle
  2
STANDARD
 70
     0
  3

 62
     0
 51
90.0
 52
90.0
 71
     2
 49
0.5
 62
   256
  6
BYLAYER
 49
-0.5
 62
   256
  6
BYLAYER
  0
ACDBPLACEHOLDER
  5
D2
102
{ACAD_REACTORS
330
D1
102
}
330
D1
100
AcDbPlaceHolder
280
     0
  0
XRECORD
  5
228
102
{ACAD_REACTORS
330
21E
102
}
330
21E
100
AcDbXrecord
 90
        0
  0
XRECORD
  5
229
102
{ACAD_REACTORS
330
21E
102
}
330
21E
100
AcDbXrecord
  1
{673118A2-9E10-4041-92D4-E4B8911AEE58}
  0
XRECORD
  5
221
102
{ACAD_REACTORS
330
21E
102
}
330
21E
100
AcDbXrecord
  1

  0
XRECORD
  5
227
102
{ACAD_REACTORS
330
21E
102
}
330
21E
100
AcDbXrecord
 90
        0
  0
XRECORD
  5
223
102
{ACAD_REACTORS
330
21E
102
}
330
21E
100
AcDbXrecord
340
D3
  0
XRECORD
  5
226
102
{ACAD_REACTORS
330
21E
102
}
330
21E
100
AcDbXrecord
 90
    14877
  0
XRECORD
  5
224
102
{ACAD_REACTORS
330
21E
102
}
330
21E
100
AcDbXrecord
340
D4
  0
XRECORD
  5
225
102
{ACAD_REACTORS
330
21E
102
}
330
21E
100
AcDbXrecord
340
D1
  0
XRECORD
  5
22B
102
{ACAD_REACTORS
330
21E
102
}
330
21E
100
AcDbXrecord
 40
0.0
  0
XRECORD
  5
22E
102
{ACAD_REACTORS
330
21E
102
}
330
21E
100
AcDbXrecord
340
0
  0
XRECORD
  5
234
102
{ACAD_REACTORS
330
21E
102
}
330
21E
100
AcDbXrecord
 10
0.0
 20
0.0
 30
0.0
  0
XRECORD
  5
230
102
{ACAD_REACTORS
330
21E
102
}
330
21E
100
AcDbXrecord
 10
0.0
 20
0.0
 30
0.0
  0
XRECORD
  5
233
102
{ACAD_REACTORS
330
21E
102
}
330
21E
100
AcDbXrecord
 10
0.0
 20
0.0
 30
0.0
  0
XRECORD
  5
231
102
{ACAD_REACTORS
330
21E
102
}
330
21E
100
AcDbXrecord
 10
0.0
 20
0.0
 30
0.0
  0
XRECORD
  5
232
102
{ACAD_REACTORS
330
21E
102
}
330
21E
100
AcDbXrecord
 10
0.0
 20
0.0
 30
0.0
  0
XRECORD
  5
22F
102
{ACAD_REACTORS
330
21E
102
}
330
21E
100
AcDbXrecord
 10
0.0
 20
0.0
 30
0.0
  0
XRECORD
  5
22C
102
{ACAD_REACTORS
330
21E
102
}
330
21E
100
AcDbXrecord
340
0
  0
XRECORD
  5
22D
102
{ACAD_REACTORS
330
21E
102
}
330
21E
100
AcDbXrecord
 70
     0
  0
XRECORD
  5
222
102
{ACAD_REACTORS
330
21E
102
}
330
21E
100
AcDbXrecord
  1

  0
XRECORD
  5
21F
102
{ACAD_REACTORS
330
21E
102
}
330
21E
100
AcDbXrecord
 90
        1
  0
XRECORD
  5
220
102
{ACAD_REACTORS
330
21E
102
}
330
21E
100
AcDbXrecord
 90
       70
  0
XRECORD
  5
237
102
{ACAD_REACTORS
330
21E
102
}
330
21E
100
AcDbXrecord
340
0
  0
XRECORD
  5
23D
102
{ACAD_REACTORS
330
21E
102
}
330
21E
100
AcDbXrecord
 10
0.0
 20
0.0
 30
0.0
  0
XRECORD
  5
239
102
{ACAD_REACTORS
330
21E
102
}
330
21E
100
AcDbXrecord
 10
0.0
 20
0.0
 30
0.0
  0
XRECORD
  5
23C
102
{ACAD_REACTORS
330
21E
102
}
330
21E
100
AcDbXrecord
 10
0.0
 20
0.0
 30
0.0
  0
XRECORD
  5
23A
102
{ACAD_REACTORS
330
21E
102
}
330
21E
100
AcDbXrecord
 10
0.0
 20
0.0
 30
0.0
  0
XRECORD
  5
23B
102
{ACAD_REACTORS
330
21E
102
}
330
21E
100
AcDbXrecord
 10
0.0
 20
0.0
 30
0.0
  0
XRECORD
  5
238
102
{ACAD_REACTORS
330
21E
102
}
330
21E
100
AcDbXrecord
 10
0.0
 20
0.0
 30
0.0
  0
XRECORD
  5
235
102
{ACAD_REACTORS
330
21E
102
}
330
21E
100
AcDbXrecord
340
0
  0
XRECORD
  5
236
102
{ACAD_REACTORS
330
21E
102
}
330
21E
100
AcDbXrecord
 70
     0
  0
XRECORD
  5
22A
102
{ACAD_REACTORS
330
21E
102
}
330
21E
100
AcDbXrecord
  1
{3BE69A2E-2268-477B-8ED1-64A44A211B56}
  0
DICTIONARYVAR
  5
135
102
{ACAD_REACTORS
330
134
102
}
330
134
100
DictionaryVariables
280
     0
  1
1
  0
ENDSEC
  0
EOF
