  0
SECTION
  2
HEADER
  9
$ACADVER
  1
AC1014
  9
$ACADMAINTVER
 70
     9
  9
$DWGCODEPAGE
  3
ANSI_1252
  9
$INSBASE
 10
3.041672867350854
 20
-3.880383411989618
 30
0.0
  9
$EXTMIN
 10
-7.822285181762377
 20
-12.19112349887417
 30
0.0
  9
$EXTMAX
 10
18.28063091646408
 20
-1.527206814481294
 30
0.0
  9
$LIMMIN
 10
0.0
 20
0.0
  9
$LIMMAX
 10
36.0
 20
36.0
  9
$ORTHOMODE
 70
     1
  9
$REGENMODE
 70
     1
  9
$FILLMODE
 70
     1
  9
$QTEXTMODE
 70
     0
  9
$MIRRTEXT
 70
     1
  9
$DRAGMODE
 70
     0
  9
$LTSCALE
 40
1.0
  9
$OSMODE
 70
    37
  9
$ATTMODE
 70
     1
  9
$TEXTSIZE
 40
0.2
  9
$TRACEWID
 40
0.05
  9
$TEXTSTYLE
  7
STANDARD
  9
$CLAYER
  8
ADP1DETAIL
  9
$CELTYPE
  6
BYLAYER
  9
$CECOLOR
 62
   256
  9
$CELTSCALE
 40
1.0
  9
$DELOBJ
 70
     1
  9
$DISPSILH
 70
     0
  9
$DIMSCALE
 40
1.0
  9
$DIMASZ
 40
0.125
  9
$DIMEXO
 40
0.0625
  9
$DIMDLI
 40
0.38
  9
$DIMRND
 40
0.0
  9
$DIMDLE
 40
0.0
  9
$DIMEXE
 40
0.18
  9
$DIMTP
 40
0.0
  9
$DIMTM
 40
0.0
  9
$DIMTXT
 40
0.125
  9
$DIMCEN
 40
0.1875
  9
$DIMTSZ
 40
0.125
  9
$DIMTOL
 70
     0
  9
$DIMLIM
 70
     0
  9
$DIMTIH
 70
     0
  9
$DIMTOH
 70
     0
  9
$DIMSE1
 70
     0
  9
$DIMSE2
 70
     0
  9
$DIMTAD
 70
     0
  9
$DIMZIN
 70
     3
  9
$DIMBLK
  1

  9
$DIMASO
 70
     1
  9
$DIMSHO
 70
     1
  9
$DIMPOST
  1

  9
$DIMAPOST
  1

  9
$DIMALT
 70
     0
  9
$DIMALTD
 70
     1
  9
$DIMALTF
 40
25.4
  9
$DIMLFAC
 40
1.0
  9
$DIMTOFL
 70
     0
  9
$DIMTVP
 40
0.0
  9
$DIMTIX
 70
     0
  9
$DIMSOXD
 70
     0
  9
$DIMSAH
 70
     0
  9
$DIMBLK1
  1

  9
$DIMBLK2
  1

  9
$DIMSTYLE
  2
STANDARD
  9
$DIMCLRD
 70
     0
  9
$DIMCLRE
 70
     0
  9
$DIMCLRT
 70
     0
  9
$DIMTFAC
 40
1.0
  9
$DIMGAP
 40
0.125
  9
$DIMJUST
 70
     0
  9
$DIMSD1
 70
     0
  9
$DIMSD2
 70
     0
  9
$DIMTOLJ
 70
     1
  9
$DIMTZIN
 70
     0
  9
$DIMALTZ
 70
     0
  9
$DIMALTTZ
 70
     0
  9
$DIMFIT
 70
     3
  9
$DIMUPT
 70
     0
  9
$DIMUNIT
 70
     2
  9
$DIMDEC
 70
     4
  9
$DIMTDEC
 70
     4
  9
$DIMALTU
 70
     2
  9
$DIMALTTD
 70
     2
  9
$DIMTXSTY
  7
STANDARD
  9
$DIMAUNIT
 70
     0
  9
$LUNITS
 70
     5
  9
$LUPREC
 70
     4
  9
$SKETCHINC
 40
0.1
  9
$FILLETRAD
 40
0.188
  9
$AUNITS
 70
     0
  9
$AUPREC
 70
     0
  9
$MENU
  1
acad
  9
$ELEVATION
 40
0.0
  9
$PELEVATION
 40
0.0
  9
$THICKNESS
 40
0.0
  9
$LIMCHECK
 70
     0
  9
$BLIPMODE
 70
     0
  9
$CHAMFERA
 40
0.0
  9
$CHAMFERB
 40
0.0
  9
$CHAMFERC
 40
0.0
  9
$CHAMFERD
 40
0.0
  9
$SKPOLY
 70
     0
  9
$TDCREATE
 40
2450254.682644676
  9
$TDUPDATE
 40
2452297.092250428
  9
$TDINDWG
 40
0.0109120602
  9
$TDUSRTIMER
 40
0.0109120602
  9
$USRTIMER
 70
     1
  9
$ANGBASE
 50
0.0
  9
$ANGDIR
 70
     0
  9
$PDMODE
 70
     0
  9
$PDSIZE
 40
0.0
  9
$PLINEWID
 40
0.0
  9
$COORDS
 70
     2
  9
$SPLFRAME
 70
     0
  9
$SPLINETYPE
 70
     6
  9
$SPLINESEGS
 70
     8
  9
$ATTDIA
 70
     0
  9
$ATTREQ
 70
     1
  9
$HANDLING
 70
 22529
  9
$HANDSEED
  5
26D
  9
$SURFTAB1
 70
     6
  9
$SURFTAB2
 70
     6
  9
$SURFTYPE
 70
     6
  9
$SURFU
 70
     6
  9
$SURFV
 70
     6
  9
$UCSNAME
  2

  9
$UCSORG
 10
0.0
 20
0.0
 30
0.0
  9
$UCSXDIR
 10
1.0
 20
0.0
 30
0.0
  9
$UCSYDIR
 10
0.0
 20
1.0
 30
0.0
  9
$PUCSNAME
  2

  9
$PUCSORG
 10
0.0
 20
0.0
 30
0.0
  9
$PUCSXDIR
 10
1.0
 20
0.0
 30
0.0
  9
$PUCSYDIR
 10
0.0
 20
1.0
 30
0.0
  9
$USERI1
 70
     0
  9
$USERI2
 70
     0
  9
$USERI3
 70
     0
  9
$USERI4
 70
     0
  9
$USERI5
 70
     0
  9
$USERR1
 40
0.0
  9
$USERR2
 40
0.0
  9
$USERR3
 40
0.0
  9
$USERR4
 40
0.0
  9
$USERR5
 40
0.0
  9
$WORLDVIEW
 70
     1
  9
$SHADEDGE
 70
     3
  9
$SHADEDIF
 70
    70
  9
$TILEMODE
 70
     1
  9
$MAXACTVP
 70
    15
  9
$PINSBASE
 10
0.1093764901161195
 20
0.0
 30
0.0
  9
$PLIMCHECK
 70
     0
  9
$PEXTMIN
 10
1.000000000000000E+20
 20
1.000000000000000E+20
 30
1.000000000000000E+20
  9
$PEXTMAX
 10
-1.000000000000000E+20
 20
-1.000000000000000E+20
 30
-1.000000000000000E+20
  9
$PLIMMIN
 10
0.0
 20
0.0
  9
$PLIMMAX
 10
12.0
 20
9.0
  9
$UNITMODE
 70
     0
  9
$VISRETAIN
 70
     0
  9
$PLINEGEN
 70
     0
  9
$PSLTSCALE
 70
     1
  9
$TREEDEPTH
 70
  3020
  9
$PICKSTYLE
 70
     1
  9
$CMLSTYLE
  2
STANDARD
  9
$CMLJUST
 70
     0
  9
$CMLSCALE
 40
1.0
  9
$PROXYGRAPHICS
 70
     1
  9
$MEASUREMENT
 70
     0
  0
ENDSEC
  0
SECTION
  2
CLASSES
  0
CLASS
  1
ACDBDICTIONARYWDFLT
  2
AcDbDictionaryWithDefault
  3
AutoCAD 2000
 90
        0
280
     0
281
     0
  0
CLASS
  1
ACDBPLACEHOLDER
  2
AcDbPlaceHolder
  3
AutoCAD 2000
 90
        0
280
     0
281
     0
  0
CLASS
  1
LAYOUT
  2
AcDbLayout
  3
AutoCAD 2000
 90
        0
280
     0
281
     0
  0
CLASS
  1
DICTIONARYVAR
  2
AcDbDictionaryVar
  3
AutoCAD 2000
 90
        0
280
     0
281
     0
  0
CLASS
  1
LONG_TRANSACTION
  2
AcDbLongTransaction
  3
AutoCAD 2000
 90
        0
280
     0
281
     0
  0
CLASS
  1
LWPOLYLINE
  2
AcDbPolyline
  3
AutoCAD 2000
 90
        0
280
     0
281
     1
  0
CLASS
  1
HATCH
  2
AcDbHatch
  3
AutoCAD 2000
 90
        0
280
     0
281
     1
  0
CLASS
  1
XRECORD
  2
AcDbXrecord
  3
AutoCAD 2000
 90
        0
280
     0
281
     0
  0
CLASS
  1
LONG_TRANSACTION
  2
AcDbLongTransaction
  3
AutoCAD 2000
 90
        0
280
     0
281
     0
  0
CLASS
  1
LWPOLYLINE
  2
AcDbPolyline
  3
AutoCAD 2000
 90
        0
280
     0
281
     1
  0
CLASS
  1
HATCH
  2
AcDbHatch
  3
AutoCAD 2000
 90
        0
280
     0
281
     1
  0
CLASS
  1
XRECORD
  2
AcDbXrecord
  3
AutoCAD 2000
 90
        0
280
     0
281
     0
  0
CLASS
  1
LONG_TRANSACTION
  2
AcDbLongTransaction
  3
AutoCAD 2000
 90
        0
280
     0
281
     0
  0
CLASS
  1
LWPOLYLINE
  2
AcDbPolyline
  3
AutoCAD 2000
 90
        0
280
     0
281
     1
  0
CLASS
  1
HATCH
  2
AcDbHatch
  3
AutoCAD 2000
 90
        0
280
     0
281
     1
  0
CLASS
  1
XRECORD
  2
AcDbXrecord
  3
AutoCAD 2000
 90
        0
280
     0
281
     0
  0
CLASS
  1
LONG_TRANSACTION
  2
AcDbLongTransaction
  3
AutoCAD 2000
 90
        0
280
     0
281
     0
  0
CLASS
  1
LWPOLYLINE
  2
AcDbPolyline
  3
AutoCAD 2000
 90
        0
280
     0
281
     1
  0
CLASS
  1
HATCH
  2
AcDbHatch
  3
AutoCAD 2000
 90
        0
280
     0
281
     1
  0
CLASS
  1
XRECORD
  2
AcDbXrecord
  3
AutoCAD 2000
 90
        0
280
     0
281
     0
  0
CLASS
  1
LONG_TRANSACTION
  2
AcDbLongTransaction
  3
AutoCAD 2000
 90
        0
280
     0
281
     0
  0
CLASS
  1
LWPOLYLINE
  2
AcDbPolyline
  3
AutoCAD 2000
 90
        0
280
     0
281
     1
  0
CLASS
  1
HATCH
  2
AcDbHatch
  3
AutoCAD 2000
 90
        0
280
     0
281
     1
  0
CLASS
  1
XRECORD
  2
AcDbXrecord
  3
AutoCAD 2000
 90
        0
280
     0
281
     0
  0
ENDSEC
  0
SECTION
  2
TABLES
  0
TABLE
  2
VPORT
  5
8
330
0
100
AcDbSymbolTable
 70
     2
  0
VPORT
  5
24A
330
8
100
AcDbSymbolTableRecord
100
AcDbViewportTableRecord
  2
*ACTIVE
 70
     0
 10
0.0
 20
0.0
 11
1.0
 21
1.0
 12
5.250132016377625
 22
-6.860221442081654
 13
0.0
 23
0.0
 14
0.5740882589684922
 24
0.5740882589684922
 15
0.5
 25
0.5
 16
0.0
 26
0.0
 36
1.0
 17
0.0
 27
0.0
 37
0.0
 40
16.72900612670067
 41
1.570528967254408
 42
50.0
 43
0.0
 44
0.0
 50
0.0
 51
0.0
 71
     0
 72
   100
 73
     1
 74
     0
 75
     0
 76
     0
 77
     0
 78
     0
  0
ENDTAB
  0
TABLE
  2
LTYPE
  5
5
330
0
100
AcDbSymbolTable
 70
     2
  0
LTYPE
  5
12
330
5
100
AcDbSymbolTableRecord
100
AcDbLinetypeTableRecord
  2
BYBLOCK
 70
     0
  3

 72
    65
 73
     0
 40
0.0
  0
LTYPE
  5
13
330
5
100
AcDbSymbolTableRecord
100
AcDbLinetypeTableRecord
  2
BYLAYER
 70
     0
  3

 72
    65
 73
     0
 40
0.0
  0
LTYPE
  5
14
330
5
100
AcDbSymbolTableRecord
100
AcDbLinetypeTableRecord
  2
CONTINUOUS
 70
     0
  3
Solid line
 72
    65
 73
     0
 40
0.0
  0
LTYPE
  5
87
330
5
100
AcDbSymbolTableRecord
100
AcDbLinetypeTableRecord
  2
HIDDEN2
 70
     0
  3
_ _ _ _ _ _ _ _ _ _ _ _ _ _ _ _ _ _ _ _ _ _ _ _
 72
    65
 73
     2
 40
0.1875
 49
0.125
 74
     0
 49
-0.0625
 74
     0
  0
ENDTAB
  0
TABLE
  2
LAYER
  5
2
330
0
100
AcDbSymbolTable
 70
     5
  0
LAYER
  5
F
330
2
100
AcDbSymbolTableRecord
100
AcDbLayerTableRecord
  2
0
 70
     0
 62
     7
  6
CONTINUOUS
  0
LAYER
  5
88
330
2
100
AcDbSymbolTableRecord
100
AcDbLayerTableRecord
  2
ADP2DETAIL
 70
     0
 62
     5
  6
CONTINUOUS
  0
LAYER
  5
89
330
2
100
AcDbSymbolTableRecord
100
AcDbLayerTableRecord
  2
ADPDIM
 70
     0
 62
     3
  6
CONTINUOUS
  0
LAYER
  5
8B
330
2
100
AcDbSymbolTableRecord
100
AcDbLayerTableRecord
  2
ADP1DETAIL
 70
     0
 62
     7
  6
CONTINUOUS
  0
LAYER
  5
8D
330
2
100
AcDbSymbolTableRecord
100
AcDbLayerTableRecord
  2
DEFPOINTS
 70
     0
 62
     7
  6
CONTINUOUS
  0
ENDTAB
  0
TABLE
  2
STYLE
  5
3
330
0
100
AcDbSymbolTable
 70
     2
  0
STYLE
  5
10
330
3
100
AcDbSymbolTableRecord
100
AcDbTextStyleTableRecord
  2
STANDARD
 70
     0
 40
0.0
 41
1.0
 50
0.0
 71
     0
 42
0.2
  3
txt
  4

  0
STYLE
  5
106
330
3
100
AcDbSymbolTableRecord
100
AcDbTextStyleTableRecord
  2
ARIAL_WIDE
 70
     0
 40
0.0
 41
1.25
 50
0.0
 71
     0
 42
0.2
  3
ARIAL.TTF
  4

1001
ACAD
1000
Arial
1071
       34
  0
ENDTAB
  0
TABLE
  2
VIEW
  5
6
330
0
100
AcDbSymbolTable
 70
     0
  0
ENDTAB
  0
TABLE
  2
UCS
  5
7
330
0
100
AcDbSymbolTable
 70
     0
  0
ENDTAB
  0
TABLE
  2
APPID
  5
9
330
0
100
AcDbSymbolTable
 70
     1
  0
APPID
  5
11
330
9
100
AcDbSymbolTableRecord
100
AcDbRegAppTableRecord
  2
ACAD
 70
     0
  0
ENDTAB
  0
TABLE
  2
DIMSTYLE
  5
A
330
0
100
AcDbSymbolTable
 70
     1
  0
DIMSTYLE
105
FA
330
A
100
AcDbSymbolTableRecord
100
AcDbDimStyleTableRecord
  2
STANDARD
 70
     0
  3

  4

  5

  6

  7

 40
1.0
 41
0.18
 42
0.0625
 43
0.38
 44
0.18
 45
0.0
 46
0.0
 47
0.0
 48
0.0
140
0.18
141
0.09
142
0.0
143
25.4
144
1.0
145
0.0
146
1.0
147
0.09
 71
     0
 72
     0
 73
     1
 74
     1
 75
     0
 76
     0
 77
     0
 78
     0
170
     0
171
     2
172
     0
173
     0
174
     0
175
     0
176
     0
177
     0
178
     0
270
     2
271
     4
272
     4
273
     2
274
     2
340
10
275
     0
280
     0
281
     0
282
     0
283
     1
284
     0
285
     0
286
     0
287
     3
288
     0
  0
ENDTAB
  0
TABLE
  2
BLOCK_RECORD
  5
1
330
0
100
AcDbSymbolTable
 70
     3
  0
BLOCK_RECORD
  5
18
102
{ACAD_XDICTIONARY
360
15B
102
}
330
1
100
AcDbSymbolTableRecord
100
AcDbBlockTableRecord
  2
*MODEL_SPACE
  0
BLOCK_RECORD
  5
15
102
{ACAD_XDICTIONARY
360
159
102
}
330
1
100
AcDbSymbolTableRecord
100
AcDbBlockTableRecord
  2
*PAPER_SPACE
  0
BLOCK_RECORD
  5
6B
330
1
100
AcDbSymbolTableRecord
100
AcDbBlockTableRecord
  2
*D0
  0
BLOCK_RECORD
  5
6C
330
1
100
AcDbSymbolTableRecord
100
AcDbBlockTableRecord
  2
*D1
  0
BLOCK_RECORD
  5
73
330
1
100
AcDbSymbolTableRecord
100
AcDbBlockTableRecord
  2
*D2
  0
ENDTAB
  0
ENDSEC
  0
SECTION
  2
BLOCKS
  0
BLOCK
  5
90
330
18
100
AcDbEntity
  8
0
100
AcDbBlockBegin
  2
*MODEL_SPACE
 70
     0
 10
0.0
 20
0.0
 30
0.0
  3
*MODEL_SPACE
  1

  0
ENDBLK
  5
91
330
18
100
AcDbEntity
  8
0
100
AcDbBlockEnd
  0
BLOCK
  5
8E
330
15
100
AcDbEntity
 67
     1
  8
0
100
AcDbBlockBegin
  2
*PAPER_SPACE
 70
     0
 10
0.0
 20
0.0
 30
0.0
  3
*PAPER_SPACE
  1

  0
ENDBLK
  5
8F
330
15
100
AcDbEntity
 67
     1
  8
0
100
AcDbBlockEnd
  0
BLOCK
  5
93
330
6B
100
AcDbEntity
  8
0
100
AcDbBlockBegin
  2
*D0
 70
     1
 10
0.0
 20
0.0
 30
0.0
  3
*D0
  1

  0
LINE
  5
94
330
6B
100
AcDbEntity
  8
0
  6
BYBLOCK
 62
     0
100
AcDbLine
 10
3.041672867350854
 20
-3.942883411989618
 30
0.0
 11
3.041672867350854
 21
-4.358909589956288
 31
0.0
  0
LINE
  5
95
330
6B
100
AcDbEntity
  8
0
  6
BYBLOCK
 62
     0
100
AcDbLine
 10
7.416672867350855
 20
-3.942883411989618
 30
0.0
 11
7.416672867350855
 21
-4.358909589956288
 31
0.0
  0
LINE
  5
96
330
6B
100
AcDbEntity
  8
0
  6
BYBLOCK
 62
     0
100
AcDbLine
 10
3.041672867350854
 20
-4.178909589956289
 30
0.0
 11
4.812506200684188
 21
-4.178909589956289
 31
0.0
  0
LINE
  5
97
330
6B
100
AcDbEntity
  8
0
  6
BYBLOCK
 62
     0
100
AcDbLine
 10
7.416672867350855
 20
-4.178909589956289
 30
0.0
 11
5.645839534017522
 21
-4.178909589956289
 31
0.0
  0
LINE
  5
98
330
6B
100
AcDbEntity
  8
0
  6
BYBLOCK
 62
     0
100
AcDbLine
 10
2.916672867350854
 20
-4.303909589956289
 30
0.0
 11
3.166672867350854
 21
-4.053909589956289
 31
0.0
  0
LINE
  5
99
330
6B
100
AcDbEntity
  8
0
  6
BYBLOCK
 62
     0
100
AcDbLine
 10
7.291672867350855
 20
-4.303909589956289
 30
0.0
 11
7.541672867350855
 21
-4.053909589956289
 31
0.0
  0
TEXT
  5
9A
330
6B
100
AcDbEntity
  8
0
  6
BYBLOCK
 62
     0
100
AcDbText
 10
4.937506200684188
 20
-4.241409589956289
 30
0.0
 40
0.125
  1
4 3/8
 72
     1
 11
5.229172867350855
 21
-4.178909589956289
 31
0.0
100
AcDbText
 73
     2
  0
POINT
  5
9B
330
6B
100
AcDbEntity
  8
DEFPOINTS
  6
BYBLOCK
 62
     0
100
AcDbPoint
 10
3.041672867350854
 20
-3.880383411989618
 30
0.0
  0
POINT
  5
9C
330
6B
100
AcDbEntity
  8
DEFPOINTS
  6
BYBLOCK
 62
     0
100
AcDbPoint
 10
7.416672867350855
 20
-3.880383411989618
 30
0.0
  0
POINT
  5
9D
330
6B
100
AcDbEntity
  8
DEFPOINTS
  6
BYBLOCK
 62
     0
100
AcDbPoint
 10
7.416672867350855
 20
-4.178909589956289
 30
0.0
  0
ENDBLK
  5
9E
330
6B
100
AcDbEntity
  8
0
100
AcDbBlockEnd
  0
BLOCK
  5
9F
330
6C
100
AcDbEntity
  8
0
100
AcDbBlockBegin
  2
*D1
 70
     1
 10
0.0
 20
0.0
 30
0.0
  3
*D1
  1

  0
LINE
  5
A0
330
6C
100
AcDbEntity
  8
0
  6
BYBLOCK
 62
     0
100
AcDbLine
 10
2.979172867350854
 20
-3.880383411989618
 30
0.0
 11
2.503558148728477
 21
-3.880383411989618
 31
0.0
  0
LINE
  5
A1
330
6C
100
AcDbEntity
  8
0
  6
BYBLOCK
 62
     0
100
AcDbLine
 10
5.166672866777706
 20
-1.652206814481294
 30
0.0
 11
2.503558148728478
 21
-1.652206814481294
 31
0.0
  0
LINE
  5
A2
330
6C
100
AcDbEntity
  8
0
  6
BYBLOCK
 62
     0
100
AcDbLine
 10
2.683558148728478
 20
-3.880383411989618
 30
0.0
 11
2.683558148728478
 21
-3.162128446568789
 31
0.0
  0
LINE
  5
A3
330
6C
100
AcDbEntity
  8
0
  6
BYBLOCK
 62
     0
100
AcDbLine
 10
2.683558148728478
 20
-1.652206814481294
 30
0.0
 11
2.683558148728478
 21
-2.370461779902123
 31
0.0
  0
LINE
  5
A4
330
6C
100
AcDbEntity
  8
0
  6
BYBLOCK
 62
     0
100
AcDbLine
 10
2.808558148728478
 20
-4.005383411989618
 30
0.0
 11
2.558558148728478
 21
-3.755383411989618
 31
0.0
  0
LINE
  5
A5
330
6C
100
AcDbEntity
  8
0
  6
BYBLOCK
 62
     0
100
AcDbLine
 10
2.808558148728478
 20
-1.777206814481294
 30
0.0
 11
2.558558148728478
 21
-1.527206814481294
 31
0.0
  0
TEXT
  5
A6
330
6C
100
AcDbEntity
  8
0
  6
BYBLOCK
 62
     0
100
AcDbText
 10
2.746058148728478
 20
-3.037128446568789
 30
0.0
 40
0.125
  1
2 1/4
 50
90.0
 72
     1
 11
2.683558148728478
 21
-2.766295113235456
 31
0.0
100
AcDbText
 73
     2
  0
POINT
  5
A7
330
6C
100
AcDbEntity
  8
DEFPOINTS
  6
BYBLOCK
 62
     0
100
AcDbPoint
 10
3.041672867350854
 20
-3.880383411989618
 30
0.0
  0
POINT
  5
A8
330
6C
100
AcDbEntity
  8
DEFPOINTS
  6
BYBLOCK
 62
     0
100
AcDbPoint
 10
5.229172866777706
 20
-1.652206814481294
 30
0.0
  0
POINT
  5
A9
330
6C
100
AcDbEntity
  8
DEFPOINTS
  6
BYBLOCK
 62
     0
100
AcDbPoint
 10
2.683558148728478
 20
-1.652206814481294
 30
0.0
  0
ENDBLK
  5
AA
330
6C
100
AcDbEntity
  8
0
100
AcDbBlockEnd
  0
BLOCK
  5
AB
330
73
100
AcDbEntity
  8
0
100
AcDbBlockBegin
  2
*D2
 70
     1
 10
0.0
 20
0.0
 30
0.0
  3
*D2
  1

  0
LINE
  5
AC
330
73
100
AcDbEntity
  8
0
  6
BYBLOCK
 62
     0
100
AcDbLine
 10
3.104172867350854
 20
-11.00538341198961
 30
0.0
 11
2.51351078876065
 21
-11.00538341198961
 31
0.0
  0
LINE
  5
AD
330
73
100
AcDbEntity
  8
0
  6
BYBLOCK
 62
     0
100
AcDbLine
 10
3.104172867350854
 20
-4.630383411989618
 30
0.0
 11
2.513510788760651
 21
-4.630383411989618
 31
0.0
  0
LINE
  5
AE
330
73
100
AcDbEntity
  8
0
  6
BYBLOCK
 62
     0
100
AcDbLine
 10
2.69351078876065
 20
-11.00538341198961
 30
0.0
 11
2.693510788760651
 21
-8.234550078656285
 31
0.0
  0
LINE
  5
AF
330
73
100
AcDbEntity
  8
0
  6
BYBLOCK
 62
     0
100
AcDbLine
 10
2.693510788760651
 20
-4.630383411989618
 30
0.0
 11
2.693510788760651
 21
-7.401216745322952
 31
0.0
  0
LINE
  5
B0
330
73
100
AcDbEntity
  8
0
  6
BYBLOCK
 62
     0
100
AcDbLine
 10
2.81851078876065
 20
-11.13038341198961
 30
0.0
 11
2.568510788760651
 21
-10.88038341198962
 31
0.0
  0
LINE
  5
B1
330
73
100
AcDbEntity
  8
0
  6
BYBLOCK
 62
     0
100
AcDbLine
 10
2.818510788760651
 20
-4.755383411989618
 30
0.0
 11
2.568510788760651
 21
-4.505383411989618
 31
0.0
  0
TEXT
  5
B2
330
73
100
AcDbEntity
  8
0
  6
BYBLOCK
 62
     0
100
AcDbText
 10
2.756010788760651
 20
-8.109550078656285
 30
0.0
 40
0.125
  1
6 3/8
 50
90.0
 72
     1
 11
2.693510788760651
 21
-7.817883411989619
 31
0.0
100
AcDbText
 73
     2
  0
POINT
  5
B3
330
73
100
AcDbEntity
  8
DEFPOINTS
  6
BYBLOCK
 62
     0
100
AcDbPoint
 10
3.166672867350854
 20
-11.00538341198961
 30
0.0
  0
POINT
  5
B4
330
73
100
AcDbEntity
  8
DEFPOINTS
  6
BYBLOCK
 62
     0
100
AcDbPoint
 10
3.166672867350854
 20
-4.630383411989618
 30
0.0
  0
POINT
  5
B5
330
73
100
AcDbEntity
  8
DEFPOINTS
  6
BYBLOCK
 62
     0
100
AcDbPoint
 10
2.693510788760651
 20
-4.630383411989618
 30
0.0
  0
ENDBLK
  5
B6
330
73
100
AcDbEntity
  8
0
100
AcDbBlockEnd
  0
ENDSEC
  0
SECTION
  2
ENTITIES
  0
DIMENSION
  5
B7
330
18
100
AcDbEntity
  8
ADPDIM
100
AcDbDimension
  2
*D2
 10
2.693510788760651
 20
-4.630383411989618
 30
0.0
 11
2.693510788760651
 21
-7.817883411989619
 31
0.0
100
AcDbAlignedDimension
 13
3.166672867350854
 23
-11.00538341198961
 33
0.0
 14
3.166672867350854
 24
-4.630383411989618
 34
0.0
 50
90.0
100
AcDbRotatedDimension
  0
LWPOLYLINE
  5
B8
330
18
100
AcDbEntity
  8
ADP2DETAIL
  6
HIDDEN2
100
AcDbPolyline
 90
        8
 70
     1
 43
0.0
 10
3.354172867350854
 20
-10.44288341198961
 10
3.354172867350854
 20
-5.192883411989618
 42
-0.4142135623730951
 10
3.604172867350854
 20
-4.942883411989618
 10
6.854172867350855
 20
-4.942883411989617
 42
-0.4142135623730951
 10
7.104172867350855
 20
-5.192883411989617
 10
7.104172867350856
 20
-10.44288341198961
 42
-0.4142135623730951
 10
6.854172867350856
 20
-10.69288341198961
 10
3.604172867350854
 20
-10.69288341198961
 42
-0.4142135623730951
  0
LWPOLYLINE
  5
C2
330
18
100
AcDbEntity
  8
ADP1DETAIL
100
AcDbPolyline
 90
        8
 70
     1
 43
0.0
 10
3.041672867350854
 20
-10.88038341198961
 10
3.041672867350854
 20
-4.755383411989618
 42
-0.4142135623730951
 10
3.166672867350854
 20
-4.630383411989618
 10
7.291672867350855
 20
-4.630383411989618
 42
-0.4142135623730951
 10
7.416672867350855
 20
-4.755383411989618
 10
7.416672867350855
 20
-10.88038341198961
 42
-0.4142135623730951
 10
7.291672867350855
 20
-11.00538341198961
 10
3.166672867350854
 20
-11.00538341198961
 42
-0.4142135623730951
  0
LWPOLYLINE
  5
CC
330
18
100
AcDbEntity
  8
ADP1DETAIL
100
AcDbPolyline
 90
        8
 70
     1
 43
0.0
 10
3.135422867350854
 20
-10.78663341198961
 10
3.135422867350854
 20
-4.849133411989618
 42
-0.4142135623730951
 10
3.260422867350854
 20
-4.724133411989618
 10
7.197922867350855
 20
-4.724133411989617
 42
-0.4142135623730951
 10
7.322922867350855
 20
-4.849133411989617
 10
7.322922867350855
 20
-10.78663341198961
 42
-0.4142135623730951
 10
7.197922867350855
 20
-10.91163341198962
 10
3.260422867350854
 20
-10.91163341198962
 42
-0.4142135623730951
  0
LWPOLYLINE
  5
D6
330
18
100
AcDbEntity
  8
ADP2DETAIL
  6
HIDDEN2
100
AcDbPolyline
 90
        8
 70
     1
 43
0.0
 10
3.166672867350854
 20
-10.63038341198961
 10
3.166672867350854
 20
-5.005383411989618
 42
-0.4142135623730951
 10
3.416672867350854
 20
-4.755383411989618
 10
7.041672867350855
 20
-4.755383411989618
 42
-0.4142135623730951
 10
7.291672867350855
 20
-5.005383411989618
 10
7.291672867350855
 20
-10.63038341198961
 42
-0.4142135623730951
 10
7.041672867350855
 20
-10.88038341198961
 10
3.416672867350854
 20
-10.88038341198961
 42
-0.4142135623730951
  0
LINE
  5
E0
330
18
100
AcDbEntity
  8
ADP1DETAIL
100
AcDbLine
 10
5.229172867350854
 20
-6.817883411989617
 30
0.0
 11
3.172034519702536
 21
-4.760745064341298
 31
0.0
  0
LINE
  5
E1
330
18
100
AcDbEntity
  8
ADP1DETAIL
100
AcDbLine
 10
5.229172867350854
 20
-6.817883411989617
 30
0.0
 11
7.286311214999173
 21
-4.760745064341298
 31
0.0
  0
LINE
  5
E2
330
18
100
AcDbEntity
  8
ADP1DETAIL
100
AcDbLine
 10
5.229172867350854
 20
-8.817883411989617
 30
0.0
 11
7.286311214999173
 21
-10.87502175963793
 31
0.0
  0
LINE
  5
E3
330
18
100
AcDbEntity
  8
ADP1DETAIL
100
AcDbLine
 10
5.229172867350854
 20
-8.817883411989617
 30
0.0
 11
3.172034519702536
 21
-10.87502175963793
 31
0.0
  0
LINE
  5
E4
330
18
100
AcDbEntity
  8
ADP1DETAIL
100
AcDbLine
 10
5.229172867350854
 20
-6.817883411989617
 30
0.0
 11
5.229172867350854
 21
-8.817883411989617
 31
0.0
  0
DIMENSION
  5
E5
330
18
100
AcDbEntity
  8
ADPDIM
100
AcDbDimension
  2
*D0
 10
7.416672867350855
 20
-4.178909589956289
 30
0.0
 11
5.229172867350855
 21
-4.178909589956289
 31
0.0
100
AcDbAlignedDimension
 13
3.041672867350854
 23
-3.880383411989618
 33
0.0
 14
7.416672867350855
 24
-3.880383411989618
 34
0.0
100
AcDbRotatedDimension
  0
LINE
  5
E6
330
18
100
AcDbEntity
  8
ADP1DETAIL
100
AcDbLine
 10
3.135422867350854
 20
-2.911633411989617
 30
0.0
 11
7.322922867350854
 21
-2.911633411989617
 31
0.0
  0
LINE
  5
E7
330
18
100
AcDbEntity
  8
ADP1DETAIL
100
AcDbLine
 10
7.416672867350855
 20
-3.880383411989618
 30
0.0
 11
3.041672867350854
 21
-3.880383411989618
 31
0.0
  0
LINE
  5
E8
330
18
100
AcDbEntity
  8
ADP1DETAIL
100
AcDbLine
 10
3.041672867350854
 20
-3.005383411989617
 30
0.0
 11
7.416672867350855
 21
-3.005383411989617
 31
0.0
  0
LINE
  5
E9
330
18
100
AcDbEntity
  8
ADP2DETAIL
  6
HIDDEN2
100
AcDbLine
 10
7.111986714280863
 20
-2.928486053515728
 30
0.0
 11
5.294745010508337
 21
-1.817609852537541
 31
0.0
  0
LINE
  5
EA
330
18
100
AcDbEntity
  8
ADP1DETAIL
100
AcDbLine
 10
7.322922867350855
 20
-2.911633411989617
 30
0.0
 11
5.294745010517333
 21
-1.670786450051409
 31
0.0
  0
LINE
  5
EB
330
18
100
AcDbEntity
  8
ADP1DETAIL
100
AcDbLine
 10
5.163600723038079
 20
-1.670786450051409
 30
0.0
 11
3.135422867350854
 21
-2.911633411989617
 31
0.0
  0
LINE
  5
EC
330
18
100
AcDbEntity
  8
ADP2DETAIL
  6
HIDDEN2
100
AcDbLine
 10
5.163600723029083
 20
-1.817609852548628
 30
0.0
 11
3.346282746483719
 21
-2.928533050554202
 31
0.0
  0
DIMENSION
  5
ED
330
18
100
AcDbEntity
  8
ADPDIM
100
AcDbDimension
  2
*D1
 10
2.683558148728478
 20
-1.652206814481294
 30
0.0
 11
2.683558148728478
 21
-2.766295113235456
 31
0.0
100
AcDbAlignedDimension
 13
3.041672867350854
 23
-3.880383411989618
 33
0.0
 14
5.229172866777706
 24
-1.652206814481294
 34
0.0
 50
90.0
100
AcDbRotatedDimension
  0
LINE
  5
EE
330
18
100
AcDbEntity
  8
ADP1DETAIL
100
AcDbLine
 10
3.041672867350854
 20
-3.880383411989618
 30
0.0
 11
3.041672867350854
 21
-3.005383411989617
 31
0.0
  0
LINE
  5
EF
330
18
100
AcDbEntity
  8
ADP2DETAIL
  6
HIDDEN2
100
AcDbLine
 10
3.166672867350854
 20
-3.880383411989618
 30
0.0
 11
3.166672867350854
 21
-3.130383411989617
 31
0.0
  0
LINE
  5
F0
330
18
100
AcDbEntity
  8
ADP2DETAIL
  6
HIDDEN2
100
AcDbLine
 10
3.166672867350854
 20
-3.130383411989617
 30
0.0
 11
3.346282746483719
 21
-3.130383411989617
 31
0.0
  0
LINE
  5
F1
330
18
100
AcDbEntity
  8
ADP1DETAIL
100
AcDbLine
 10
3.135422867350854
 20
-3.005383411989617
 30
0.0
 11
3.135422867350854
 21
-2.911633411989617
 31
0.0
  0
LINE
  5
F2
330
18
100
AcDbEntity
  8
ADP2DETAIL
  6
HIDDEN2
100
AcDbLine
 10
3.346282746483719
 20
-2.928533050554202
 30
0.0
 11
3.346282746483719
 21
-3.130383411989617
 31
0.0
  0
ARC
  5
F3
330
18
100
AcDbEntity
  8
ADP2DETAIL
  6
HIDDEN2
100
AcDbCircle
 10
5.229172866777705
 20
-1.924030216972971
 30
0.0
 40
0.125
100
AcDbArc
 50
58.36021844960769
 51
121.6397815600787
  0
ARC
  5
F4
330
18
100
AcDbEntity
  8
ADP1DETAIL
100
AcDbCircle
 10
5.229172866777706
 20
-1.777206814481294
 30
0.0
 40
0.125
100
AcDbArc
 50
58.36021844476447
 51
121.6397815552354
  0
LINE
  5
F5
330
18
100
AcDbEntity
  8
ADP2DETAIL
  6
HIDDEN2
100
AcDbLine
 10
7.291672867350856
 20
-3.130383411989617
 30
0.0
 11
7.291672867350855
 21
-3.880383411989618
 31
0.0
  0
LINE
  5
F6
330
18
100
AcDbEntity
  8
ADP1DETAIL
100
AcDbLine
 10
7.416672867350855
 20
-3.005383411989617
 30
0.0
 11
7.416672867350855
 21
-3.880383411989618
 31
0.0
  0
LINE
  5
F7
330
18
100
AcDbEntity
  8
ADP2DETAIL
  6
HIDDEN2
100
AcDbLine
 10
7.111986714280862
 20
-3.130383411989617
 30
0.0
 11
7.291672867350855
 21
-3.130383411989617
 31
0.0
  0
LINE
  5
F8
330
18
100
AcDbEntity
  8
ADP2DETAIL
  6
HIDDEN2
100
AcDbLine
 10
7.111986714280864
 20
-2.928486053515726
 30
0.0
 11
7.111986714280862
 21
-3.130383411989617
 31
0.0
  0
LINE
  5
F9
330
18
100
AcDbEntity
  8
ADP1DETAIL
100
AcDbLine
 10
7.322922867350855
 20
-2.911633411989617
 30
0.0
 11
7.322922867350854
 21
-3.005383411989617
 31
0.0
  0
TEXT
  5
107
330
18
100
AcDbEntity
  8
ADPDIM
100
AcDbText
 10
-7.822285181762377
 20
-12.11711258482233
 30
0.0
 40
0.25
  1
J U L I U S  B L U M  &  C O . ,  I N C .      ( 8 0 0 )  5 2 6 - 6 2 9 3        W W W . J U L I U S B L U M . C O M        P A R T  N o .  5 8 6 4
 41
1.25
  7
ARIAL_WIDE
 72
     1
 11
5.229172867350855
 21
-11.86711258482233
 31
0.0
100
AcDbText
 73
     3
  0
ENDSEC
  0
SECTION
  2
OBJECTS
  0
DICTIONARY
  5
C
330
0
100
AcDbDictionary
  3
ACAD_GROUP
350
D
  3
ACAD_LAYOUT
350
100
  3
ACAD_MLINESTYLE
350
E
  3
ACAD_PLOTSETTINGS
350
101
  3
ACAD_PLOTSTYLENAME
350
FE
  3
ACDBHEADERROUNDTRIPXREC
350
24B
  3
ACDBVARIABLEDICTIONARY
350
161
  0
DICTIONARY
  5
15B
330
18
100
AcDbDictionary
280
     1
  3
ACAD_LAYOUTSELFREF
360
26C
  0
DICTIONARY
  5
159
330
15
100
AcDbDictionary
280
     1
  3
ACAD_LAYOUTSELFREF
360
26B
  0
DICTIONARY
  5
D
102
{ACAD_REACTORS
330
C
102
}
330
C
100
AcDbDictionary
  0
DICTIONARY
  5
100
102
{ACAD_REACTORS
330
C
102
}
330
C
100
AcDbDictionary
  0
DICTIONARY
  5
E
102
{ACAD_REACTORS
330
C
102
}
330
C
100
AcDbDictionary
  3
STANDARD
350
1B
  0
DICTIONARY
  5
101
102
{ACAD_REACTORS
330
C
102
}
330
C
100
AcDbDictionary
  0
ACDBDICTIONARYWDFLT
  5
FE
102
{ACAD_REACTORS
330
C
102
}
330
C
100
AcDbDictionary
281
     1
  3
Normal
350
FF
100
AcDbDictionaryWithDefault
340
FF
  0
DICTIONARY
  5
24B
102
{ACAD_REACTORS
330
C
102
}
330
C
100
AcDbDictionary
  3
CEPSNTYPE
350
255
  3
FINGERPRINTGUID
350
256
  3
HYPERLINKBASE
350
24E
  3
INSUNITS
350
254
  3
LAYOUTDICT
350
250
  3
LWETCUNION
350
253
  3
PLOTSETDICT
350
251
  3
PLOTSTYLNAMDICT
350
252
  3
PSVPSCALE
350
258
  3
PUCSBASE
350
25B
  3
PUCSORGBACK
350
261
  3
PUCSORGBOTTOM
350
25D
  3
PUCSORGFRONT
350
260
  3
PUCSORGLEFT
350
25E
  3
PUCSORGRIGHT
350
25F
  3
PUCSORGTOP
350
25C
  3
PUCSORTHOREF
350
259
  3
PUCSORTHOVIEW
350
25A
  3
STYLESHEET
350
24F
  3
TSTACKALIGN
350
24C
  3
TSTACKSIZE
350
24D
  3
UCSBASE
350
264
  3
UCSORGBACK
350
26A
  3
UCSORGBOTTOM
350
266
  3
UCSORGFRONT
350
269
  3
UCSORGLEFT
350
267
  3
UCSORGRIGHT
350
268
  3
UCSORGTOP
350
265
  3
UCSORTHOREF
350
262
  3
UCSORTHOVIEW
350
263
  3
VERSIONGUID
350
257
  0
DICTIONARY
  5
161
102
{ACAD_REACTORS
330
C
102
}
330
C
100
AcDbDictionary
  3
DIMASSOC
350
162
  0
XRECORD
  5
26C
102
{ACAD_REACTORS
330
15B
102
}
330
15B
100
AcDbXrecord
340
18
  0
XRECORD
  5
26B
102
{ACAD_REACTORS
330
159
102
}
330
159
100
AcDbXrecord
340
15
  0
MLINESTYLE
  5
1B
102
{ACAD_REACTORS
330
E
102
}
330
E
100
AcDbMlineStyle
  2
STANDARD
 70
     0
  3

 62
     0
 51
90.0
 52
90.0
 71
     2
 49
0.5
 62
   256
  6
BYLAYER
 49
-0.5
 62
   256
  6
BYLAYER
  0
ACDBPLACEHOLDER
  5
FF
102
{ACAD_REACTORS
330
FE
102
}
330
FE
100
AcDbPlaceHolder
280
     0
  0
XRECORD
  5
255
102
{ACAD_REACTORS
330
24B
102
}
330
24B
100
AcDbXrecord
 90
        0
  0
XRECORD
  5
256
102
{ACAD_REACTORS
330
24B
102
}
330
24B
100
AcDbXrecord
  1
{02DE33AD-5A55-4996-956A-79C84D1FC930}
  0
XRECORD
  5
24E
102
{ACAD_REACTORS
330
24B
102
}
330
24B
100
AcDbXrecord
  1

  0
XRECORD
  5
254
102
{ACAD_REACTORS
330
24B
102
}
330
24B
100
AcDbXrecord
 90
        0
  0
XRECORD
  5
250
102
{ACAD_REACTORS
330
24B
102
}
330
24B
100
AcDbXrecord
340
100
  0
XRECORD
  5
253
102
{ACAD_REACTORS
330
24B
102
}
330
24B
100
AcDbXrecord
 90
    14877
  0
XRECORD
  5
251
102
{ACAD_REACTORS
330
24B
102
}
330
24B
100
AcDbXrecord
340
101
  0
XRECORD
  5
252
102
{ACAD_REACTORS
330
24B
102
}
330
24B
100
AcDbXrecord
340
FE
  0
XRECORD
  5
258
102
{ACAD_REACTORS
330
24B
102
}
330
24B
100
AcDbXrecord
 40
0.0
  0
XRECORD
  5
25B
102
{ACAD_REACTORS
330
24B
102
}
330
24B
100
AcDbXrecord
340
0
  0
XRECORD
  5
261
102
{ACAD_REACTORS
330
24B
102
}
330
24B
100
AcDbXrecord
 10
0.0
 20
0.0
 30
0.0
  0
XRECORD
  5
25D
102
{ACAD_REACTORS
330
24B
102
}
330
24B
100
AcDbXrecord
 10
0.0
 20
0.0
 30
0.0
  0
XRECORD
  5
260
102
{ACAD_REACTORS
330
24B
102
}
330
24B
100
AcDbXrecord
 10
0.0
 20
0.0
 30
0.0
  0
XRECORD
  5
25E
102
{ACAD_REACTORS
330
24B
102
}
330
24B
100
AcDbXrecord
 10
0.0
 20
0.0
 30
0.0
  0
XRECORD
  5
25F
102
{ACAD_REACTORS
330
24B
102
}
330
24B
100
AcDbXrecord
 10
0.0
 20
0.0
 30
0.0
  0
XRECORD
  5
25C
102
{ACAD_REACTORS
330
24B
102
}
330
24B
100
AcDbXrecord
 10
0.0
 20
0.0
 30
0.0
  0
XRECORD
  5
259
102
{ACAD_REACTORS
330
24B
102
}
330
24B
100
AcDbXrecord
340
0
  0
XRECORD
  5
25A
102
{ACAD_REACTORS
330
24B
102
}
330
24B
100
AcDbXrecord
 70
     0
  0
XRECORD
  5
24F
102
{ACAD_REACTORS
330
24B
102
}
330
24B
100
AcDbXrecord
  1

  0
XRECORD
  5
24C
102
{ACAD_REACTORS
330
24B
102
}
330
24B
100
AcDbXrecord
 90
        1
  0
XRECORD
  5
24D
102
{ACAD_REACTORS
330
24B
102
}
330
24B
100
AcDbXrecord
 90
       70
  0
XRECORD
  5
264
102
{ACAD_REACTORS
330
24B
102
}
330
24B
100
AcDbXrecord
340
0
  0
XRECORD
  5
26A
102
{ACAD_REACTORS
330
24B
102
}
330
24B
100
AcDbXrecord
 10
0.0
 20
0.0
 30
0.0
  0
XRECORD
  5
266
102
{ACAD_REACTORS
330
24B
102
}
330
24B
100
AcDbXrecord
 10
0.0
 20
0.0
 30
0.0
  0
XRECORD
  5
269
102
{ACAD_REACTORS
330
24B
102
}
330
24B
100
AcDbXrecord
 10
0.0
 20
0.0
 30
0.0
  0
XRECORD
  5
267
102
{ACAD_REACTORS
330
24B
102
}
330
24B
100
AcDbXrecord
 10
0.0
 20
0.0
 30
0.0
  0
XRECORD
  5
268
102
{ACAD_REACTORS
330
24B
102
}
330
24B
100
AcDbXrecord
 10
0.0
 20
0.0
 30
0.0
  0
XRECORD
  5
265
102
{ACAD_REACTORS
330
24B
102
}
330
24B
100
AcDbXrecord
 10
0.0
 20
0.0
 30
0.0
  0
XRECORD
  5
262
102
{ACAD_REACTORS
330
24B
102
}
330
24B
100
AcDbXrecord
340
0
  0
XRECORD
  5
263
102
{ACAD_REACTORS
330
24B
102
}
330
24B
100
AcDbXrecord
 70
     0
  0
XRECORD
  5
257
102
{ACAD_REACTORS
330
24B
102
}
330
24B
100
AcDbXrecord
  1
{533670AE-FC5C-4716-8511-9F17839E3D48}
  0
DICTIONARYVAR
  5
162
102
{ACAD_REACTORS
330
161
102
}
330
161
100
DictionaryVariables
280
     0
  1
1
  0
ENDSEC
  0
EOF
