  0
SECTION
  2
HEADER
  9
$ACADVER
  1
AC1014
  9
$ACADMAINTVER
 70
     9
  9
$DWGCODEPAGE
  3
ANSI_1252
  9
$INSBASE
 10
-75.11707841588584
 20
26.18430698669471
 30
0.0
  9
$EXTMIN
 10
-101.5443374988496
 20
24.10789095741348
 30
0.0
  9
$EXTMAX
 10
-50.06667719871319
 20
54.54755344926635
 30
0.0
  9
$LIMMIN
 10
0.0
 20
0.0
  9
$LIMMAX
 10
36.0
 20
36.0
  9
$ORTHOMODE
 70
     1
  9
$REGENMODE
 70
     1
  9
$FILLMODE
 70
     1
  9
$QTEXTMODE
 70
     0
  9
$MIRRTEXT
 70
     1
  9
$DRAGMODE
 70
     0
  9
$LTSCALE
 40
1.0
  9
$OSMODE
 70
    37
  9
$ATTMODE
 70
     1
  9
$TEXTSIZE
 40
0.2
  9
$TRACEWID
 40
0.05
  9
$TEXTSTYLE
  7
STANDARD
  9
$CLAYER
  8
ADPDIM
  9
$CELTYPE
  6
BYLAYER
  9
$CECOLOR
 62
   256
  9
$CELTSCALE
 40
1.0
  9
$DELOBJ
 70
     1
  9
$DISPSILH
 70
     0
  9
$DIMSCALE
 40
1.0
  9
$DIMASZ
 40
0.125
  9
$DIMEXO
 40
0.0625
  9
$DIMDLI
 40
0.38
  9
$DIMRND
 40
0.0
  9
$DIMDLE
 40
0.0
  9
$DIMEXE
 40
0.18
  9
$DIMTP
 40
0.0
  9
$DIMTM
 40
0.0
  9
$DIMTXT
 40
0.125
  9
$DIMCEN
 40
0.1875
  9
$DIMTSZ
 40
0.125
  9
$DIMTOL
 70
     0
  9
$DIMLIM
 70
     0
  9
$DIMTIH
 70
     0
  9
$DIMTOH
 70
     0
  9
$DIMSE1
 70
     0
  9
$DIMSE2
 70
     0
  9
$DIMTAD
 70
     0
  9
$DIMZIN
 70
     3
  9
$DIMBLK
  1

  9
$DIMASO
 70
     1
  9
$DIMSHO
 70
     1
  9
$DIMPOST
  1

  9
$DIMAPOST
  1

  9
$DIMALT
 70
     0
  9
$DIMALTD
 70
     1
  9
$DIMALTF
 40
25.4
  9
$DIMLFAC
 40
1.0
  9
$DIMTOFL
 70
     0
  9
$DIMTVP
 40
0.0
  9
$DIMTIX
 70
     0
  9
$DIMSOXD
 70
     0
  9
$DIMSAH
 70
     0
  9
$DIMBLK1
  1

  9
$DIMBLK2
  1

  9
$DIMSTYLE
  2
STANDARD
  9
$DIMCLRD
 70
     0
  9
$DIMCLRE
 70
     0
  9
$DIMCLRT
 70
     0
  9
$DIMTFAC
 40
1.0
  9
$DIMGAP
 40
0.125
  9
$DIMJUST
 70
     0
  9
$DIMSD1
 70
     0
  9
$DIMSD2
 70
     0
  9
$DIMTOLJ
 70
     1
  9
$DIMTZIN
 70
     0
  9
$DIMALTZ
 70
     0
  9
$DIMALTTZ
 70
     0
  9
$DIMFIT
 70
     3
  9
$DIMUPT
 70
     0
  9
$DIMUNIT
 70
     2
  9
$DIMDEC
 70
     4
  9
$DIMTDEC
 70
     4
  9
$DIMALTU
 70
     2
  9
$DIMALTTD
 70
     2
  9
$DIMTXSTY
  7
STANDARD
  9
$DIMAUNIT
 70
     0
  9
$LUNITS
 70
     5
  9
$LUPREC
 70
     5
  9
$SKETCHINC
 40
0.1
  9
$FILLETRAD
 40
0.062
  9
$AUNITS
 70
     0
  9
$AUPREC
 70
     0
  9
$MENU
  1
acad
  9
$ELEVATION
 40
0.0
  9
$PELEVATION
 40
0.0
  9
$THICKNESS
 40
0.0
  9
$LIMCHECK
 70
     0
  9
$BLIPMODE
 70
     0
  9
$CHAMFERA
 40
0.0
  9
$CHAMFERB
 40
0.0
  9
$CHAMFERC
 40
0.0
  9
$CHAMFERD
 40
0.0
  9
$SKPOLY
 70
     0
  9
$TDCREATE
 40
2450409.489924953
  9
$TDUPDATE
 40
2452297.073600984
  9
$TDINDWG
 40
0.0077582639
  9
$TDUSRTIMER
 40
0.0077582639
  9
$USRTIMER
 70
     1
  9
$ANGBASE
 50
0.0
  9
$ANGDIR
 70
     0
  9
$PDMODE
 70
     0
  9
$PDSIZE
 40
0.0
  9
$PLINEWID
 40
0.0
  9
$COORDS
 70
     2
  9
$SPLFRAME
 70
     0
  9
$SPLINETYPE
 70
     6
  9
$SPLINESEGS
 70
     8
  9
$ATTDIA
 70
     0
  9
$ATTREQ
 70
     1
  9
$HANDLING
 70
 22529
  9
$HANDSEED
  5
929
  9
$SURFTAB1
 70
     6
  9
$SURFTAB2
 70
     6
  9
$SURFTYPE
 70
     6
  9
$SURFU
 70
     6
  9
$SURFV
 70
     6
  9
$UCSNAME
  2

  9
$UCSORG
 10
0.0
 20
0.0
 30
0.0
  9
$UCSXDIR
 10
1.0
 20
0.0
 30
0.0
  9
$UCSYDIR
 10
0.0
 20
1.0
 30
0.0
  9
$PUCSNAME
  2

  9
$PUCSORG
 10
0.0
 20
0.0
 30
0.0
  9
$PUCSXDIR
 10
1.0
 20
0.0
 30
0.0
  9
$PUCSYDIR
 10
0.0
 20
1.0
 30
0.0
  9
$USERI1
 70
     0
  9
$USERI2
 70
     0
  9
$USERI3
 70
     0
  9
$USERI4
 70
     0
  9
$USERI5
 70
     0
  9
$USERR1
 40
0.0
  9
$USERR2
 40
0.0
  9
$USERR3
 40
0.0
  9
$USERR4
 40
0.0
  9
$USERR5
 40
0.0
  9
$WORLDVIEW
 70
     1
  9
$SHADEDGE
 70
     3
  9
$SHADEDIF
 70
    70
  9
$TILEMODE
 70
     1
  9
$MAXACTVP
 70
    15
  9
$PINSBASE
 10
0.0058594681322575
 20
8.002266177471257
 30
0.0
  9
$PLIMCHECK
 70
     0
  9
$PEXTMIN
 10
1.000000000000000E+20
 20
1.000000000000000E+20
 30
1.000000000000000E+20
  9
$PEXTMAX
 10
-1.000000000000000E+20
 20
-1.000000000000000E+20
 30
-1.000000000000000E+20
  9
$PLIMMIN
 10
0.0
 20
0.0
  9
$PLIMMAX
 10
12.0
 20
9.0
  9
$UNITMODE
 70
     0
  9
$VISRETAIN
 70
     0
  9
$PLINEGEN
 70
     0
  9
$PSLTSCALE
 70
     1
  9
$TREEDEPTH
 70
  3020
  9
$PICKSTYLE
 70
     1
  9
$CMLSTYLE
  2
STANDARD
  9
$CMLJUST
 70
     0
  9
$CMLSCALE
 40
1.0
  9
$PROXYGRAPHICS
 70
     1
  9
$MEASUREMENT
 70
     0
  0
ENDSEC
  0
SECTION
  2
CLASSES
  0
CLASS
  1
ACDBDICTIONARYWDFLT
  2
AcDbDictionaryWithDefault
  3
AutoCAD 2000
 90
        0
280
     0
281
     0
  0
CLASS
  1
ACDBPLACEHOLDER
  2
AcDbPlaceHolder
  3
AutoCAD 2000
 90
        0
280
     0
281
     0
  0
CLASS
  1
LAYOUT
  2
AcDbLayout
  3
AutoCAD 2000
 90
        0
280
     0
281
     0
  0
CLASS
  1
DICTIONARYVAR
  2
AcDbDictionaryVar
  3
AutoCAD 2000
 90
        0
280
     0
281
     0
  0
CLASS
  1
LONG_TRANSACTION
  2
AcDbLongTransaction
  3
AutoCAD 2000
 90
        0
280
     0
281
     0
  0
CLASS
  1
LWPOLYLINE
  2
AcDbPolyline
  3
AutoCAD 2000
 90
        0
280
     0
281
     1
  0
CLASS
  1
HATCH
  2
AcDbHatch
  3
AutoCAD 2000
 90
        0
280
     0
281
     1
  0
CLASS
  1
XRECORD
  2
AcDbXrecord
  3
AutoCAD 2000
 90
        0
280
     0
281
     0
  0
CLASS
  1
LONG_TRANSACTION
  2
AcDbLongTransaction
  3
AutoCAD 2000
 90
        0
280
     0
281
     0
  0
CLASS
  1
LWPOLYLINE
  2
AcDbPolyline
  3
AutoCAD 2000
 90
        0
280
     0
281
     1
  0
CLASS
  1
HATCH
  2
AcDbHatch
  3
AutoCAD 2000
 90
        0
280
     0
281
     1
  0
CLASS
  1
XRECORD
  2
AcDbXrecord
  3
AutoCAD 2000
 90
        0
280
     0
281
     0
  0
CLASS
  1
LONG_TRANSACTION
  2
AcDbLongTransaction
  3
AutoCAD 2000
 90
        0
280
     0
281
     0
  0
CLASS
  1
LWPOLYLINE
  2
AcDbPolyline
  3
AutoCAD 2000
 90
        0
280
     0
281
     1
  0
CLASS
  1
HATCH
  2
AcDbHatch
  3
AutoCAD 2000
 90
        0
280
     0
281
     1
  0
CLASS
  1
XRECORD
  2
AcDbXrecord
  3
AutoCAD 2000
 90
        0
280
     0
281
     0
  0
CLASS
  1
LONG_TRANSACTION
  2
AcDbLongTransaction
  3
AutoCAD 2000
 90
        0
280
     0
281
     0
  0
CLASS
  1
LWPOLYLINE
  2
AcDbPolyline
  3
AutoCAD 2000
 90
        0
280
     0
281
     1
  0
CLASS
  1
HATCH
  2
AcDbHatch
  3
AutoCAD 2000
 90
        0
280
     0
281
     1
  0
CLASS
  1
XRECORD
  2
AcDbXrecord
  3
AutoCAD 2000
 90
        0
280
     0
281
     0
  0
CLASS
  1
LONG_TRANSACTION
  2
AcDbLongTransaction
  3
AutoCAD 2000
 90
        0
280
     0
281
     0
  0
CLASS
  1
LWPOLYLINE
  2
AcDbPolyline
  3
AutoCAD 2000
 90
        0
280
     0
281
     1
  0
CLASS
  1
HATCH
  2
AcDbHatch
  3
AutoCAD 2000
 90
        0
280
     0
281
     1
  0
CLASS
  1
XRECORD
  2
AcDbXrecord
  3
AutoCAD 2000
 90
        0
280
     0
281
     0
  0
ENDSEC
  0
SECTION
  2
TABLES
  0
TABLE
  2
VPORT
  5
8
330
0
100
AcDbSymbolTable
 70
     2
  0
VPORT
  5
906
330
8
100
AcDbSymbolTableRecord
100
AcDbViewportTableRecord
  2
*ACTIVE
 70
     0
 10
0.0
 20
0.0
 11
1.0
 21
1.0
 12
-75.76190520278292
 22
39.32922052832645
 13
0.0
 23
0.0
 14
0.5740882589684922
 24
0.5740882589684922
 15
0.5
 25
0.5
 16
0.0
 26
0.0
 36
1.0
 17
0.0
 27
0.0
 37
0.0
 40
32.99826005892907
 41
1.570528967254408
 42
50.0
 43
0.0
 44
0.0
 50
0.0
 51
0.0
 71
     0
 72
   100
 73
     1
 74
     0
 75
     0
 76
     0
 77
     0
 78
     0
  0
ENDTAB
  0
TABLE
  2
LTYPE
  5
5
330
0
100
AcDbSymbolTable
 70
     1
  0
LTYPE
  5
12
330
5
100
AcDbSymbolTableRecord
100
AcDbLinetypeTableRecord
  2
BYBLOCK
 70
     0
  3

 72
    65
 73
     0
 40
0.0
  0
LTYPE
  5
13
330
5
100
AcDbSymbolTableRecord
100
AcDbLinetypeTableRecord
  2
BYLAYER
 70
     0
  3

 72
    65
 73
     0
 40
0.0
  0
LTYPE
  5
14
330
5
100
AcDbSymbolTableRecord
100
AcDbLinetypeTableRecord
  2
CONTINUOUS
 70
     0
  3
Solid line
 72
    65
 73
     0
 40
0.0
  0
ENDTAB
  0
TABLE
  2
LAYER
  5
2
330
0
100
AcDbSymbolTable
 70
     4
  0
LAYER
  5
F
330
2
100
AcDbSymbolTableRecord
100
AcDbLayerTableRecord
  2
0
 70
     0
 62
     7
  6
CONTINUOUS
  0
LAYER
  5
BA
330
2
100
AcDbSymbolTableRecord
100
AcDbLayerTableRecord
  2
DEFPOINTS
 70
     0
 62
     7
  6
CONTINUOUS
  0
LAYER
  5
BD
330
2
100
AcDbSymbolTableRecord
100
AcDbLayerTableRecord
  2
ADP1DETAIL
 70
     0
 62
     7
  6
CONTINUOUS
  0
LAYER
  5
C0
330
2
100
AcDbSymbolTableRecord
100
AcDbLayerTableRecord
  2
ADPDIM
 70
     0
 62
     3
  6
CONTINUOUS
  0
ENDTAB
  0
TABLE
  2
STYLE
  5
3
330
0
100
AcDbSymbolTable
 70
     2
  0
STYLE
  5
10
330
3
100
AcDbSymbolTableRecord
100
AcDbTextStyleTableRecord
  2
STANDARD
 70
     0
 40
0.0
 41
1.0
 50
0.0
 71
     0
 42
0.2
  3
txt
  4

  0
STYLE
  5
7C2
330
3
100
AcDbSymbolTableRecord
100
AcDbTextStyleTableRecord
  2
ARIAL_WIDE
 70
     0
 40
0.0
 41
1.25
 50
0.0
 71
     0
 42
0.2
  3
ARIAL.TTF
  4

1001
ACAD
1000
Arial
1071
       34
  0
ENDTAB
  0
TABLE
  2
VIEW
  5
6
330
0
100
AcDbSymbolTable
 70
     0
  0
ENDTAB
  0
TABLE
  2
UCS
  5
7
330
0
100
AcDbSymbolTable
 70
     0
  0
ENDTAB
  0
TABLE
  2
APPID
  5
9
330
0
100
AcDbSymbolTable
 70
     1
  0
APPID
  5
11
330
9
100
AcDbSymbolTableRecord
100
AcDbRegAppTableRecord
  2
ACAD
 70
     0
  0
ENDTAB
  0
TABLE
  2
DIMSTYLE
  5
A
330
0
100
AcDbSymbolTable
 70
     1
  0
DIMSTYLE
105
7B6
330
A
100
AcDbSymbolTableRecord
100
AcDbDimStyleTableRecord
  2
STANDARD
 70
     0
  3

  4

  5

  6

  7

 40
1.0
 41
0.18
 42
0.0625
 43
0.38
 44
0.18
 45
0.0
 46
0.0
 47
0.0
 48
0.0
140
0.18
141
0.09
142
0.0
143
25.4
144
1.0
145
0.0
146
1.0
147
0.09
 71
     0
 72
     0
 73
     1
 74
     1
 75
     0
 76
     0
 77
     0
 78
     0
170
     0
171
     2
172
     0
173
     0
174
     0
175
     0
176
     0
177
     0
178
     0
270
     2
271
     4
272
     4
273
     2
274
     2
340
10
275
     0
280
     0
281
     0
282
     0
283
     1
284
     0
285
     0
286
     0
287
     3
288
     0
  0
ENDTAB
  0
TABLE
  2
BLOCK_RECORD
  5
1
330
0
100
AcDbSymbolTable
 70
     2
  0
BLOCK_RECORD
  5
18
102
{ACAD_XDICTIONARY
360
817
102
}
330
1
100
AcDbSymbolTableRecord
100
AcDbBlockTableRecord
  2
*MODEL_SPACE
  0
BLOCK_RECORD
  5
15
102
{ACAD_XDICTIONARY
360
815
102
}
330
1
100
AcDbSymbolTableRecord
100
AcDbBlockTableRecord
  2
*PAPER_SPACE
  0
BLOCK_RECORD
  5
B1
330
1
100
AcDbSymbolTableRecord
100
AcDbBlockTableRecord
  2
*D0
  0
BLOCK_RECORD
  5
B4
330
1
100
AcDbSymbolTableRecord
100
AcDbBlockTableRecord
  2
*D1
  0
ENDTAB
  0
ENDSEC
  0
SECTION
  2
BLOCKS
  0
BLOCK
  5
C3
330
18
100
AcDbEntity
  8
0
100
AcDbBlockBegin
  2
*MODEL_SPACE
 70
     0
 10
0.0
 20
0.0
 30
0.0
  3
*MODEL_SPACE
  1

  0
ENDBLK
  5
C4
330
18
100
AcDbEntity
  8
0
100
AcDbBlockEnd
  0
BLOCK
  5
C1
330
15
100
AcDbEntity
 67
     1
  8
0
100
AcDbBlockBegin
  2
*PAPER_SPACE
 70
     0
 10
0.0
 20
0.0
 30
0.0
  3
*PAPER_SPACE
  1

  0
ENDBLK
  5
C2
330
15
100
AcDbEntity
 67
     1
  8
0
100
AcDbBlockEnd
  0
BLOCK
  5
C6
330
B1
100
AcDbEntity
  8
0
100
AcDbBlockBegin
  2
*D0
 70
     1
 10
0.0
 20
0.0
 30
0.0
  3
*D0
  1

  0
LINE
  5
C7
330
B1
100
AcDbEntity
  8
0
  6
BYBLOCK
 62
     0
100
AcDbLine
 10
-71.97750914427951
 20
26.10040553856284
 30
0.0
 11
-70.13815328790972
 21
26.10040553856284
 31
0.0
  0
LINE
  5
C8
330
B1
100
AcDbEntity
  8
0
  6
BYBLOCK
 62
     0
100
AcDbLine
 10
-75.82636262103136
 20
54.10040553856283
 30
0.0
 11
-70.13815328790972
 21
54.10040553856283
 31
0.0
  0
LINE
  5
C9
330
B1
100
AcDbEntity
  8
0
  6
BYBLOCK
 62
     0
100
AcDbLine
 10
-70.31815328790973
 20
26.10040553856284
 30
0.0
 11
-70.31815328790973
 21
39.87123887189617
 31
0.0
  0
LINE
  5
CA
330
B1
100
AcDbEntity
  8
0
  6
BYBLOCK
 62
     0
100
AcDbLine
 10
-70.31815328790973
 20
54.10040553856283
 30
0.0
 11
-70.31815328790973
 21
40.3295722052295
 31
0.0
  0
LINE
  5
CB
330
B1
100
AcDbEntity
  8
0
  6
BYBLOCK
 62
     0
100
AcDbLine
 10
-70.19315328790972
 20
25.97540553856283
 30
0.0
 11
-70.44315328790972
 21
26.22540553856284
 31
0.0
  0
LINE
  5
CC
330
B1
100
AcDbEntity
  8
0
  6
BYBLOCK
 62
     0
100
AcDbLine
 10
-70.19315328790972
 20
53.97540553856284
 30
0.0
 11
-70.44315328790972
 21
54.22540553856284
 31
0.0
  0
TEXT
  5
CD
330
B1
100
AcDbEntity
  8
0
  6
BYBLOCK
 62
     0
100
AcDbText
 10
-70.25565328790972
 20
39.99623887189617
 30
0.0
 40
0.125
  1
28
 50
90.0
 72
     1
 11
-70.31815328790973
 21
40.10040553856284
 31
0.0
100
AcDbText
 73
     2
  0
POINT
  5
CE
330
B1
100
AcDbEntity
  8
DEFPOINTS
  6
BYBLOCK
 62
     0
100
AcDbPoint
 10
-72.0400091442795
 20
26.10040553856284
 30
0.0
  0
POINT
  5
CF
330
B1
100
AcDbEntity
  8
DEFPOINTS
  6
BYBLOCK
 62
     0
100
AcDbPoint
 10
-75.88886262103136
 20
54.10040553856283
 30
0.0
  0
POINT
  5
D0
330
B1
100
AcDbEntity
  8
DEFPOINTS
  6
BYBLOCK
 62
     0
100
AcDbPoint
 10
-70.31815328790973
 20
54.10040553856283
 30
0.0
  0
ENDBLK
  5
D1
330
B1
100
AcDbEntity
  8
0
100
AcDbBlockEnd
  0
BLOCK
  5
D2
330
B4
100
AcDbEntity
  8
0
100
AcDbBlockBegin
  2
*D1
 70
     1
 10
0.0
 20
0.0
 30
0.0
  3
*D1
  1

  0
LINE
  5
D3
330
B4
100
AcDbEntity
  8
0
  6
BYBLOCK
 62
     0
100
AcDbLine
 10
-80.2441446465256
 20
50.56664963409986
 30
0.0
 11
-80.2441446465256
 21
54.53204275724709
 31
0.0
  0
LINE
  5
D4
330
B4
100
AcDbEntity
  8
0
  6
BYBLOCK
 62
     0
100
AcDbLine
 10
-71.4941446465256
 20
45.04796033507332
 30
0.0
 11
-71.4941446465256
 21
54.53204275724709
 31
0.0
  0
LINE
  5
D5
330
B4
100
AcDbEntity
  8
0
  6
BYBLOCK
 62
     0
100
AcDbLine
 10
-80.2441446465256
 20
54.35204275724709
 30
0.0
 11
-76.28581131319227
 21
54.35204275724709
 31
0.0
  0
LINE
  5
D6
330
B4
100
AcDbEntity
  8
0
  6
BYBLOCK
 62
     0
100
AcDbLine
 10
-71.4941446465256
 20
54.35204275724709
 30
0.0
 11
-75.45247797985893
 21
54.35204275724709
 31
0.0
  0
LINE
  5
D7
330
B4
100
AcDbEntity
  8
0
  6
BYBLOCK
 62
     0
100
AcDbLine
 10
-80.36914464652559
 20
54.22704275724709
 30
0.0
 11
-80.1191446465256
 21
54.47704275724709
 31
0.0
  0
LINE
  5
D8
330
B4
100
AcDbEntity
  8
0
  6
BYBLOCK
 62
     0
100
AcDbLine
 10
-71.6191446465256
 20
54.22704275724709
 30
0.0
 11
-71.36914464652559
 21
54.47704275724709
 31
0.0
  0
TEXT
  5
D9
330
B4
100
AcDbEntity
  8
0
  6
BYBLOCK
 62
     0
100
AcDbText
 10
-76.16081131319226
 20
54.28954275724709
 30
0.0
 40
0.125
  1
8 3/4
 72
     1
 11
-75.8691446465256
 21
54.35204275724709
 31
0.0
100
AcDbText
 73
     2
  0
POINT
  5
DA
330
B4
100
AcDbEntity
  8
DEFPOINTS
  6
BYBLOCK
 62
     0
100
AcDbPoint
 10
-80.2441446465256
 20
50.50414963409987
 30
0.0
  0
POINT
  5
DB
330
B4
100
AcDbEntity
  8
DEFPOINTS
  6
BYBLOCK
 62
     0
100
AcDbPoint
 10
-71.4941446465256
 20
44.98546033507333
 30
0.0
  0
POINT
  5
DC
330
B4
100
AcDbEntity
  8
DEFPOINTS
  6
BYBLOCK
 62
     0
100
AcDbPoint
 10
-71.4941446465256
 20
54.35204275724709
 30
0.0
  0
ENDBLK
  5
DD
330
B4
100
AcDbEntity
  8
0
100
AcDbBlockEnd
  0
ENDSEC
  0
SECTION
  2
ENTITIES
  0
DIMENSION
  5
DE
330
18
100
AcDbEntity
  8
ADPDIM
100
AcDbDimension
  2
*D0
 10
-70.31815328790973
 20
54.10040553856283
 30
0.0
 11
-70.31815328790973
 21
40.10040553856284
 31
0.0
100
AcDbAlignedDimension
 13
-72.0400091442795
 23
26.10040553856284
 33
0.0
 14
-75.88886262103136
 24
54.10040553856283
 34
0.0
 50
90.0
100
AcDbRotatedDimension
  0
LWPOLYLINE
  5
DF
330
18
100
AcDbEntity
  8
ADP1DETAIL
100
AcDbPolyline
 90
        3
 70
     0
 43
0.0
 10
-73.42399014923983
 20
40.08230738687712
 42
0.2734692375230715
 10
-73.12293552318101
 20
40.56950846365988
 42
0.03203445154833
 10
-73.15160733160792
 20
41.21433353284316
 42
-1.114822960269319
  0
LWPOLYLINE
  5
E4
330
18
100
AcDbEntity
  8
ADP1DETAIL
100
AcDbPolyline
 90
       14
 70
     0
 43
0.0
 10
-74.37016195258204
 20
39.59510621266919
 42
-0.1311010716236021
 10
-74.3128181940446
 20
39.98200125417915
 42
0.0196936268940272
 10
-73.96875564282
 20
39.75273010764453
 42
0.4260149804776518
 10
-73.43832612429508
 20
40.08230738687712
 42
-0.1918640471192281
 10
-73.6677010167612
 20
40.46920233096191
 42
-0.2360064461154178
 10
-73.39531834081292
 20
40.59816734479857
 42
0.3808507107130554
 10
-73.25195901531116
 20
40.92774462403116
 42
0.0141983915285614
 10
-73.38098236575766
 20
41.44360467937779
 42
-0.4425370484505166
 10
-73.49566988283253
 20
40.78445012091258
 42
-0.4749915995914845
 10
-73.96875564282
 20
40.94207401588792
 42
-0.3792555698073288
 10
-73.81106048394659
 20
41.35762793853657
 42
0.3095038440786335
 10
-73.81106048394659
 20
41.7301934907646
 42
0.1479742376468133
 10
-74.85758368762478
 20
42.34635967880918
 42
0.0639372759301211
 10
-75.11563053020143
 20
42.37501855994786
 42
117.0025073592788
  0
LWPOLYLINE
  5
F4
330
18
100
AcDbEntity
  8
ADP1DETAIL
100
AcDbPolyline
 90
        5
 70
     0
 43
0.0
 10
-75.27332583075846
 20
42.14574741341324
 10
-75.24465388064793
 20
42.27471242724989
 42
0.414346620378306
 10
-75.33066958929589
 20
42.43233632222522
 42
0.1787930181497742
 10
-76.64957561060599
 20
42.54697194420512
 42
0.1841549774093162
 10
-79.20137208626184
 20
40.72713235863522
 42
1.866409720483599
  0
LWPOLYLINE
  5
FB
330
18
100
AcDbEntity
  8
ADP1DETAIL
100
AcDbPolyline
 90
       15
 70
     0
 43
0.0
 10
-79.40207517030104
 20
39.99633064603591
 42
-0.2087697249070143
 10
-76.99363802014696
 20
42.26038303539314
 42
-0.1903428829594097
 10
-75.70340380726377
 20
42.21739466497253
 42
-0.3300419659419048
 10
-75.45969293974239
 20
41.81617023160582
 42
-0.5086821708806451
 10
-75.8324272993939
 20
41.35762793853657
 42
-0.0609325567327947
 10
-76.07613816691527
 20
41.40061630895718
 42
0.4570655153649726
 10
-76.06180219186001
 20
41.70153460962591
 42
0.1962529751115521
 10
-76.80727091116303
 20
41.97379412658115
 42
0.2129141677152094
 10
-77.95414565686082
 20
41.22866292469991
 42
0.3162766285639204
 10
-78.02582539045352
 20
40.65548510707593
 42
0.450180189690734
 10
-77.32336459631629
 20
40.65548510707593
 42
-0.5089017906191616
 10
-77.61008324731983
 20
40.13962514915449
 42
-0.2766634154954493
 10
-78.45590336695882
 20
40.19694291143185
 42
-0.2160241098173157
 10
-78.59926283414423
 20
40.56950846365988
 42
0.179726874611758
 10
-78.98633302716738
 20
40.1109662680158
 42
1.422622669251136
  0
LWPOLYLINE
  5
10C
330
18
100
AcDbEntity
  8
ADP1DETAIL
100
AcDbPolyline
 90
        8
 70
     0
 43
0.0
 10
-72.8505527055491
 20
41.51525183351189
 42
-0.2500194147443608
 10
-72.50649029600814
 20
39.3085173038572
 42
-0.1400376084394032
 10
-72.7215293551026
 20
39.15089340888187
 42
0.0475222612605222
 10
-72.8505527055491
 20
39.38016455541649
 42
-0.2620427652077953
 10
-72.87922465565964
 20
39.68108285608524
 42
-0.0934217980313592
 10
-72.80754492206694
 20
40.15395454101124
 42
0.2612911587211034
 10
-73.49566988283253
 20
41.95946463729922
 42
0.1941484941188946
 10
-76.23383346747231
 20
42.77624299331458
 42
21.34402991340954
  0
LWPOLYLINE
  5
116
330
18
100
AcDbEntity
  8
ADP1DETAIL
100
AcDbPolyline
 90
        8
 70
     0
 43
0.0
 10
-75.41668515626023
 20
38.64936284281718
 42
0.3103324214325029
 10
-75.4310211313155
 20
37.30239503959845
 42
0.2526185308308134
 10
-73.5386776663147
 20
36.68622885155386
 42
0.2372110189056104
 10
-72.3487949954511
 20
37.78959611638121
 42
0.1237522393388089
 10
-72.17676386152243
 20
40.2829195548479
 42
0.255536597617184
 10
-74.52785725313908
 20
42.64727797947792
 42
0.1030505134948909
 10
-76.67824741903288
 20
42.73325472031914
 42
0.1926778805174496
 10
-79.58844227928498
 20
40.64115571521917
 42
1.821862031362714
  0
LWPOLYLINE
  5
120
330
18
100
AcDbEntity
  8
ADP1DETAIL
100
AcDbPolyline
 90
        7
 70
     0
 43
0.0
 10
-73.51000571620416
 20
35.82646212511789
 42
0.2346951209781628
 10
-71.76102171838874
 20
37.71794886482192
 42
0.1926605869410969
 10
-72.2484434534315
 20
41.31463966554113
 42
0.2520989194716319
 10
-75.70340380726377
 20
43.00551413984921
 42
0.3068890193681988
 10
-79.73180160478675
 20
40.55517907180313
 42
0.1514900675386155
 10
-80.17621569803095
 20
36.67189945969711
 42
0.0899262853570996
 10
-78.32688001651232
 20
33.57673932246776
 42
0.4543025602542615
  0
LWPOLYLINE
  5
129
330
18
100
AcDbEntity
  8
ADP1DETAIL
100
AcDbPolyline
 90
        4
 70
     0
 43
0.0
 10
-78.44156753358719
 20
41.38628681967524
 42
-0.0083363553734266
 10
-78.55625505066206
 20
40.84176798061512
 42
0.3599369225049477
 10
-78.15484874090002
 20
40.22560179257054
 42
0.1720802939140306
 10
-77.40938016328063
 20
40.25426067370921
 42
-0.1919298745333657
  0
LWPOLYLINE
  5
12F
330
18
100
AcDbEntity
  8
ADP1DETAIL
100
AcDbPolyline
 90
        8
 70
     0
 43
0.0
 10
-75.28241180051461
 20
27.61667342050873
 42
0.1392613486779682
 10
-74.97470843442886
 20
27.04768008474033
 10
-74.75931625224783
 20
26.77087254474513
 42
-0.3008403957363165
 10
-74.74393095821982
 20
26.57095601763773
 42
-0.4139616410725183
 10
-75.17471551600301
 20
26.44793037041702
 10
-75.11317492015429
 20
26.32490485619743
 42
-0.5354258570992502
 10
-75.23625630527281
 20
26.10961007331203
 10
-75.83627754999522
 20
26.10961007331203
  0
LWPOLYLINE
  5
139
330
18
100
AcDbEntity
  8
ADP1DETAIL
100
AcDbPolyline
 90
       10
 70
     0
 43
0.0
 10
-79.59025737834636
 20
26.87851993618783
 42
0.9128728203729703
 10
-79.2517838110468
 20
27.24759674484884
 42
0.57734027381313
 10
-80.22104921112477
 20
27.03230196196344
 42
0.4668437633253337
 10
-79.68256836882999
 20
26.10961007331203
 42
0.2921961952417151
 10
-78.25174820975504
 20
26.58633414041462
 42
0.12826567899989
 10
-78.02097073354599
 20
27.89348109350506
 42
-0.1705769895106652
 10
-78.43637019072225
 20
26.64784703052554
 42
-0.1395633668606492
 10
-79.43640579201404
 20
26.23263558753162
 42
-0.4626805281302596
 10
-80.06719743137136
 20
26.75549442196825
 42
-0.1782418198239966
 10
-79.86719034979721
 20
27.24759674484884
 42
-0.4417696006140038
  0
LWPOLYLINE
  5
145
330
18
100
AcDbEntity
  8
ADP1DETAIL
100
AcDbPolyline
 90
        8
 70
     0
 43
0.0
 10
-76.359373098262
 20
27.61667342050873
 42
-0.1392613486779682
 10
-76.66707646434776
 20
27.04768008474033
 10
-76.88246864652879
 20
26.77087254474513
 42
0.3008403957363165
 10
-76.8978539405568
 20
26.57095601763773
 42
0.4139616410725183
 10
-76.46706938277361
 20
26.44793037041702
 10
-76.52860997862233
 20
26.32490485619743
 42
0.5354258570992502
 10
-76.40552859350382
 20
26.10961007331203
 10
-75.80550734878141
 20
26.10961007331203
  0
LWPOLYLINE
  5
14F
330
18
100
AcDbEntity
  8
ADP1DETAIL
100
AcDbPolyline
 90
       10
 70
     0
 43
0.0
 10
-72.05152752043026
 20
26.87851993618783
 42
-0.9128728203729703
 10
-72.39000108772981
 20
27.24759674484884
 42
-0.57734027381313
 10
-71.42073568765184
 20
27.03230196196344
 42
-0.4668437633253337
 10
-71.95921652994663
 20
26.10961007331203
 42
-0.2921961952417151
 10
-73.39003668902158
 20
26.58633414041462
 42
-0.12826567899989
 10
-73.62081416523063
 20
27.89348109350506
 42
0.1705769895106652
 10
-73.20541470805435
 20
26.64784703052554
 42
0.1395633668606492
 10
-72.20537910676258
 20
26.23263558753162
 42
0.4626805281302596
 10
-71.57458746740527
 20
26.75549442196825
 42
0.1782418198239966
 10
-71.77459454897941
 20
27.24759674484884
 42
0.4417696006140038
  0
LINE
  5
15B
330
18
100
AcDbEntity
  8
ADP1DETAIL
100
AcDbLine
 10
-76.00445857500621
 20
38.14783227675249
 30
0.0
 11
-76.34852098454718
 21
38.26246780130722
 31
0.0
  0
LINE
  5
15C
330
18
100
AcDbEntity
  8
ADP1DETAIL
100
AcDbLine
 10
-75.97578662489567
 20
37.77526672452445
 30
0.0
 11
-76.37719279297408
 21
37.80392560566314
 31
0.0
  0
LWPOLYLINE
  5
15D
330
18
100
AcDbEntity
  8
ADP1DETAIL
100
AcDbPolyline
 90
        5
 70
     0
 43
0.0
 10
-75.94711481646877
 20
37.66063110254456
 10
-76.13348192545271
 20
37.63197222140588
 10
-76.31984903443664
 20
37.67496059182649
 42
-0.2361738314404866
 10
-76.33418500949192
 20
38.00453777363391
 42
0.3661421721741762
 10
-76.01879440837784
 20
38.00453777363391
 42
-0.3661421721741785
  0
LINE
  5
164
330
18
100
AcDbEntity
  8
ADP1DETAIL
100
AcDbLine
 10
-76.34852098454718
 20
38.26246780130722
 30
0.0
 11
-76.27684125095448
 21
38.64936284281718
 31
0.0
  0
LINE
  5
165
330
18
100
AcDbEntity
  8
ADP1DETAIL
100
AcDbLine
 10
-76.31984903443664
 20
38.44875057742124
 30
0.0
 11
-76.09047414197054
 21
38.24813840945047
 31
0.0
  0
LWPOLYLINE
  5
166
330
18
100
AcDbEntity
  8
ADP1DETAIL
100
AcDbPolyline
 90
        9
 70
     0
 43
0.0
 10
-74.32715402741624
 20
39.45181180697578
 42
-0.2244298595971265
 10
-74.72856033717828
 20
39.23687005229791
 42
-0.8484473727280592
 10
-75.0296149632371
 20
39.75273010764453
 42
0.0994582034422182
 10
-75.76074756580121
 20
39.73840071578777
 42
0.2941764433027092
 10
-76.36285695960245
 20
39.07924615732257
 42
0.478107903643113
 10
-75.81809132433864
 20
38.46308006670316
 42
0.536628509593975
 10
-75.73207575737431
 20
38.60637447239657
 42
-0.4116293129004474
 10
-75.94711481646877
 20
39.13656401702511
 42
-0.3798581514803339
 10
-75.14430233862832
 20
39.5234589611099
 42
0.1393736918863036
  0
LWPOLYLINE
  5
171
330
18
100
AcDbEntity
  8
ADP1DETAIL
100
AcDbPolyline
 90
        9
 70
     0
 43
0.0
 10
-75.61738824029943
 20
38.82131622707444
 42
0.0517403697326722
 10
-75.20164609716577
 20
38.52039782898053
 42
0.0156142187877276
 10
-74.25547443550716
 20
38.63503335353525
 42
-0.1578154405052203
 10
-73.76805255878079
 20
38.59204508053982
 42
0.3125105073694329
 10
-73.88274007585566
 20
39.07924615732257
 42
0.0569516260990418
 10
-74.28414624393408
 20
39.36583506613456
 42
0.222332825130211
 10
-74.80023992908735
 20
39.98200125417915
 42
0.1201444577834981
 10
-75.84676327444917
 20
40.05364850573844
 42
0.0901624961913808
 10
-76.43453655151152
 20
39.58077682081244
 42
2.188165903861658
  0
LWPOLYLINE
  5
17C
330
18
100
AcDbEntity
  8
ADP1DETAIL
100
AcDbPolyline
 90
        3
 70
     0
 43
0.0
 10
-76.31321779644129
 20
29.20062791359438
 42
0.4904925663990334
 10
-76.12859581547406
 20
29.03146763204075
 10
-75.82089244938831
 20
29.04684588781877
  0
LINE
  5
181
330
18
100
AcDbEntity
  8
ADP1DETAIL
100
AcDbLine
 10
-76.31321779644129
 20
29.21600603637126
 30
0.0
 11
-75.80550734878141
 21
29.21600603637126
 31
0.0
  0
LWPOLYLINE
  5
182
330
18
100
AcDbEntity
  8
ADP1DETAIL
100
AcDbPolyline
 90
        3
 70
     0
 43
0.0
 10
-76.52860997862233
 20
29.67735198069697
 42
0.319964942297885
 10
-76.40552859350382
 20
29.40054444070177
 42
0.0277439507732877
 10
-75.82089244938831
 20
29.38516618492375
 42
-0.0145889139714565
  0
LWPOLYLINE
  5
187
330
18
100
AcDbEntity
  8
ADP1DETAIL
100
AcDbPolyline
 90
        4
 70
     0
 43
0.0
 10
-75.82089244938831
 20
29.93878139791528
 42
0.0377341640492634
 10
-76.45168408874562
 20
29.98491589924706
 42
0.7688683247204436
 10
-76.52860997862233
 20
29.69273023647498
 42
0.0360588654585606
 10
-75.82089244938831
 20
29.61583922358718
 42
0.0180697095256214
  0
LWPOLYLINE
  5
18D
330
18
100
AcDbEntity
  8
ADP1DETAIL
100
AcDbPolyline
 90
        3
 70
     0
 43
0.0
 10
-76.60553586849904
 20
26.41717399186212
 42
0.0133191181272132
 10
-76.09782542083916
 20
27.60129529773185
 42
-0.0260143711117478
 10
-76.46706938277361
 20
26.41717399186212
 42
1.436118844023553
  0
LWPOLYLINE
  5
192
330
18
100
AcDbEntity
  8
ADP1DETAIL
100
AcDbPolyline
 90
        3
 70
     0
 43
0.0
 10
-76.80554295007318
 20
27.66280805484164
 42
0.4819279139543993
 10
-76.14398091608096
 20
27.86272458194904
 42
0.1211232885431065
 10
-76.12859581547406
 20
29.03146763204075
 42
-1.258484537559021
  0
LWPOLYLINE
  5
197
330
18
100
AcDbEntity
  8
ADP1DETAIL
100
AcDbPolyline
 90
        8
 70
     0
 43
0.0
 10
-76.39014349289691
 20
32.7529915652013
 42
-0.484192750840499
 10
-75.1593304153961
 20
34.02938200673573
 42
-0.5609671248887325
 10
-74.88239744394525
 20
33.66030519807471
 42
-0.2932734955202901
 10
-74.97470843442886
 20
33.44501054819043
 42
0.1160140758687084
 10
-75.49780398269565
 20
33.53727968385512
 42
0.3870649539624631
 10
-75.91320343987192
 20
32.8145043223111
 42
0.1440272196912943
 10
-75.60550026720726
 20
32.4300493908732
 42
-0.5751832515155382
 10
-76.00551443035555
 20
32.10710721654509
 42
-5.422259793544248
  0
LWPOLYLINE
  5
1A1
330
18
100
AcDbEntity
  8
ADP1DETAIL
100
AcDbPolyline
 90
        9
 70
     0
 43
0.0
 10
-76.62092096910595
 20
34.67526635539194
 42
-0.15616862693413
 10
-76.49783958398742
 20
33.99862562818083
 42
-0.071045732417235
 10
-76.31321779644129
 20
33.92173461529301
 42
0.1059600096236195
 10
-76.42091388753181
 20
33.75257446674052
 42
0.3717110942750677
 10
-76.59015057447104
 20
33.39887591385752
 42
0.1197070387059085
 10
-76.39014349289691
 20
32.73761344242442
 42
-0.0078137624229052
 10
-76.03628482499044
 20
32.13786372810111
 42
-0.1535476187765271
 10
-75.52857437733056
 20
30.70769126079108
 42
-0.0220986652223323
 10
-75.46703378148184
 20
29.96953777647018
 42
0.961752262825502
  0
LWPOLYLINE
  5
1AC
330
18
100
AcDbEntity
  8
ADP1DETAIL
100
AcDbPolyline
 90
        9
 70
     0
 43
0.0
 10
-76.36285695960245
 20
39.23687005229791
 42
0.3593987900219156
 10
-76.62090366049546
 20
38.87863398935181
 42
-0.0516079684147906
 10
-76.70691936914342
 20
38.44875057742124
 42
-0.0604040816061952
 10
-76.87895050307209
 20
38.04752614405452
 42
0.0701010779242685
 10
-76.99363802014696
 20
37.71794886482192
 42
-0.2217581287612178
 10
-77.50973170530023
 20
37.61764282954912
 42
0.2256295057915931
 10
-77.32336459631629
 20
37.08745328492058
 42
0.128951295343478
 10
-76.63523963555071
 20
37.15910053647987
 42
0.3143584698495028
 10
-74.61387282010341
 20
35.81213273326114
 42
-0.0106806894005087
  0
LWPOLYLINE
  5
1B7
330
18
100
AcDbEntity
  8
ADP1DETAIL
100
AcDbPolyline
 90
        6
 70
     0
 43
0.0
 10
-77.50973170530023
 20
37.46001893457378
 42
0.3195420853809972
 10
-76.9219584282379
 20
37.3167244314552
 42
0.1773278423912701
 10
-76.62090366049546
 20
37.8612433679405
 42
0.1180012756294483
 10
-76.04746635848838
 20
36.7005583408358
 42
0.207363102964333
 10
-74.15512289348757
 20
36.02707439051384
 42
0.3331891665191979
 10
-71.86137326040835
 20
37.83258448680182
 42
-0.7681987714887847
  0
LWPOLYLINE
  5
1BF
330
18
100
AcDbEntity
  8
ADP1DETAIL
100
AcDbPolyline
 90
       18
 70
     0
 43
0.0
 10
-76.86461466970046
 20
39.78138898878321
 42
1.191407625548994
 10
-76.62090366049546
 20
39.26552893343659
 42
0.5947234646988801
 10
-76.82160688621829
 20
40.22560179257054
 42
0.3736587047099849
 10
-78.31254404145706
 20
39.33717618499588
 42
0.2105430173770272
 10
-77.85379411484121
 20
35.9410977470978
 42
0.2014684273284932
 10
-75.11563053020143
 20
34.04961100739377
 42
0.2359723244704361
 10
-73.466997932722
 20
34.25022317536454
 42
0.2973719965732615
 10
-73.25195901531116
 20
35.52554382444915
 42
0.2854119930295584
 10
-74.06910732652324
 20
36.01274490123191
 42
0.1768806340051367
 10
-74.69988838706774
 20
35.76914436284053
 42
0.5098791334612926
 10
-74.37016195258204
 20
35.15297827222112
 42
0.699955588022551
 10
-74.09777913495013
 20
35.66883823014256
 42
-0.4896513947275071
 10
-73.63902920833429
 20
35.28194328605777
 42
-0.3964701628966802
 10
-73.88274007585566
 20
34.62278872759258
 42
-0.1424543756858394
 10
-74.51352127808381
 20
34.40784707033988
 42
-0.4147876418040228
 10
-78.08316914899094
 20
38.59204508053982
 42
-0.1222246018400025
 10
-77.59574727226457
 20
39.60943570195112
 42
-0.3506683360626912
 10
-76.97930204509169
 20
39.73840071578777
 42
0.2385288958439278
  0
LWPOLYLINE
  5
1D3
330
18
100
AcDbEntity
  8
ADP1DETAIL
100
AcDbPolyline
 90
        6
 70
     0
 43
0.0
 10
-76.16819588302019
 20
30.07531304399218
 42
0.2005005126042667
 10
-76.53636945262409
 20
30.59736934960403
 42
0.0073518262392846
 10
-76.964478416423
 20
30.91402655548423
 42
-0.2173480158006201
 10
-77.35833850064429
 20
31.65004045060988
 42
0.3420023769303561
 10
-77.64945252639598
 20
31.43608299409722
 42
-0.0000003896878674
 10
-77.88919352291284
 20
31.67571538795177
 42
-2.414984606044636
  0
LWPOLYLINE
  5
1DB
330
18
100
AcDbEntity
  8
ADP1DETAIL
100
AcDbPolyline
 90
        2
 70
     0
 43
0.0
 10
-76.15936601668787
 20
29.95415952069217
 42
0.2001339884225429
 10
-77.45171969003739
 20
32.6453441737586
 42
-2.624633181439748
  0
LWPOLYLINE
  5
1DF
330
18
100
AcDbEntity
  8
ADP1DETAIL
100
AcDbPolyline
 90
        5
 70
     0
 43
0.0
 10
-75.71319635829779
 20
29.93878139791528
 42
0.1260595116825643
 10
-76.02089953096244
 20
31.4150883665571
 42
0.0443800862298999
 10
-76.66707646434776
 20
32.44542764665121
 42
-0.0507801129453377
 10
-77.00555003164732
 20
33.1374464966392
 42
-0.2201951314604992
 10
-76.85169844531498
 20
34.47534969528342
 42
-0.561219120268298
  0
LWPOLYLINE
  5
1E6
330
18
100
AcDbEntity
  8
ADP1DETAIL
100
AcDbPolyline
 90
        6
 70
     0
 43
0.0
 10
-75.94397383450682
 20
29.95415952069217
 42
0.1458225886187967
 10
-76.62092096910595
 20
32.0455944594353
 42
-0.0054157095740909
 10
-77.14401651737273
 20
32.76836982097932
 42
-0.2727267680700186
 10
-77.31325339773306
 20
32.93752996953181
 42
-0.0769545648972376
 10
-77.51326047930721
 20
33.93711287107104
 42
-1.04486773898317
 10
-77.29786810370507
 20
33.93711287107104
 42
1.044867738983169
  0
LWPOLYLINE
  5
1EE
330
18
100
AcDbEntity
  8
ADP1DETAIL
100
AcDbPolyline
 90
        6
 70
     0
 43
0.0
 10
-77.17478691200764
 20
33.33736315674773
 42
-0.1814115057531465
 10
-77.26709790249126
 20
33.93711287107104
 42
-0.3364220063947952
 10
-76.79015784946627
 20
34.78291374683464
 42
-0.1912949086485829
 10
-76.63630606971285
 20
33.89097823673813
 42
0.231098894011953
 10
-76.71323195958956
 20
33.24509388808191
 42
0.0854021849094953
 10
-76.12859581547406
 20
32.24551098654269
 42
0.4654028307269437
  0
LWPOLYLINE
  5
1F6
330
18
100
AcDbEntity
  8
ADP1DETAIL
100
AcDbPolyline
 90
        9
 70
     0
 43
0.0
 10
-77.83410251176269
 20
33.33091614550294
 42
0.3593423491170713
 10
-78.90176498751422
 20
33.54045830031084
 42
0.4170542204642582
 10
-78.94586319735529
 20
33.38960816899431
 10
-78.65283515933706
 20
32.92139324696385
 42
0.1047839324951864
 10
-78.61815572725658
 20
32.88548629868467
 42
0.1386401405529391
 10
-78.28647597075885
 20
32.85690320114452
 42
0.0402717326476188
 10
-78.17108530749198
 20
32.9275982533566
 10
-77.87059110096727
 20
33.26093314199702
 42
0.5802913888782868
 10
-77.82576536342228
 20
33.33284879958901
 42
4.182353062036018
  0
LWPOLYLINE
  5
201
330
18
100
AcDbEntity
  8
ADP1DETAIL
100
AcDbPolyline
 90
        2
 70
     0
 43
0.0
 10
-79.93555406813479
 20
33.76394100940258
 42
0.2144515035352904
 10
-79.49888293279673
 20
33.05360191861768
 42
0.307752662750664
  0
LWPOLYLINE
  5
205
330
18
100
AcDbEntity
  8
ADP1DETAIL
100
AcDbPolyline
 90
        2
 70
     0
 43
0.0
 10
-79.94411623967393
 20
33.90943214367174
 42
0.1593702204025734
 10
-79.42182338894451
 20
33.17341824854609
 42
0.330035099635073
  0
LWPOLYLINE
  5
209
330
18
100
AcDbEntity
  8
ADP1DETAIL
100
AcDbPolyline
 90
        6
 70
     0
 43
0.0
 10
-79.10502284857544
 20
33.40449228561963
 10
-79.53313181237437
 20
33.90943214367174
 42
-0.0704295914801179
 10
-79.74718610085273
 20
34.35446377025908
 42
0.254725305249814
 10
-79.93555406813479
 20
33.77249923318245
 42
0.5222514197419535
 10
-80.07254900618205
 20
33.32746760659512
 42
0.0885920275195952
 10
-79.61019135622658
 20
32.77973636364137
 42
0.3610648884176311
  0
LWPOLYLINE
  5
211
330
18
100
AcDbEntity
  8
ADP1DETAIL
100
AcDbPolyline
 90
        7
 70
     0
 43
0.0
 10
-77.68249716624644
 20
28.17028863350026
 42
0.1669125271985658
 10
-77.85173404660676
 20
28.60087819927107
 42
0.7334205778989716
 10
-78.25174820975504
 20
28.43171791771744
 42
-0.2224486313325292
 10
-78.0671262287878
 20
29.50819183214447
 42
-0.3776366895524135
 10
-77.12863141676582
 20
29.73886473780676
 42
0.2758092098797817
 10
-78.03635602757399
 20
29.44667907503468
 42
0.1220643187708029
 10
-78.1132817240296
 20
28.64701270060285
 42
0.8628129898368188
  0
LWPOLYLINE
  5
21A
330
18
100
AcDbEntity
  8
ADP1DETAIL
100
AcDbPolyline
 90
        2
 70
     0
 43
0.0
 10
-79.7899971519695
 20
29.09966662201084
 10
-79.70437524315705
 20
29.81000557979461
  0
LWPOLYLINE
  5
21E
330
18
100
AcDbEntity
  8
ADP1DETAIL
100
AcDbPolyline
 90
        4
 70
     0
 43
0.0
 10
-79.82424583812605
 20
29.70730596342822
 42
0.2508076107871408
 10
-79.68725090007879
 20
29.81856393657562
 42
0.0169649572247557
 10
-79.52456944741413
 20
30.24647898260209
 42
-0.4531721960079364
 10
-79.37901253124884
 20
30.30638708106572
 42
0.2344227796519434
  0
LWPOLYLINE
  5
224
330
18
100
AcDbEntity
  8
ADP1DETAIL
100
AcDbPolyline
 90
        7
 70
     0
 43
0.0
 10
-79.50744510433587
 20
30.5460196079214
 42
0.0588431168531913
 10
-79.96980275429134
 20
30.19512924091945
 42
0.3276899667405023
 10
-79.96980275429134
 20
29.75865583811199
 42
0.2805420703212114
 10
-79.82424583812605
 20
29.69874773964835
 42
0.0318447646642692
 10
-79.7899971519695
 20
29.09966662201084
 42
0.2800772710441091
 10
-79.46463424664019
 20
29.35641559642627
 42
-0.1507246186744373
 10
-79.18208239242765
 20
30.0496381066503
 42
-0.4735721141410118
  0
LWPOLYLINE
  5
22D
330
18
100
AcDbEntity
  8
ADP1DETAIL
100
AcDbPolyline
 90
        3
 70
     0
 43
0.0
 10
-79.88418103889998
 20
29.70730596342822
 42
-0.3086887296644471
 10
-79.84137018120431
 20
30.22936240204121
 42
-0.0423152335923307
 10
-79.63587787084398
 20
30.44331999155501
 42
-0.3769722426386421
  0
LWPOLYLINE
  5
232
330
18
100
AcDbEntity
  8
ADP1DETAIL
100
AcDbPolyline
 90
       11
 70
     0
 43
0.0
 10
-77.00555003164732
 20
28.26255776916495
 42
-0.1168078613117276
 10
-76.86708354592188
 20
28.40096153916255
 42
0.276919580948681
 10
-76.65169136374085
 20
28.52398718638326
 42
1.006317507309069
 10
-77.22094240724945
 20
28.67776907915775
 42
0.6893191030874485
 10
-77.00555003164732
 20
28.24717964638807
 42
-0.297152612230228
 10
-77.02093513225422
 20
27.98575022916975
 42
-0.3798591005152115
 10
-77.68249716624644
 20
28.18566675627714
 42
-0.3865479982664194
 10
-78.23636310914813
 20
27.89348109350506
 42
-0.3510719221095612
 10
-78.97485083959596
 20
28.86230748348825
 42
-0.3157960811377408
 10
-77.99020053233218
 20
30.10794154646778
 42
-0.2210388463811083
 10
-76.62092096910595
 20
29.89264676358237
 42
0.304432850140675
  0
LWPOLYLINE
  5
23F
330
18
100
AcDbEntity
  8
ADP1DETAIL
100
AcDbPolyline
 90
        4
 70
     0
 43
0.0
 10
-76.97477963701242
 20
27.98575022916975
 42
-0.4141869598113191
 10
-76.77477255543827
 20
27.81659008061726
 42
-0.3955156146197167
 10
-77.06709062749602
 20
27.44751327195624
 42
-0.3429308631709754
 10
-77.91327464245547
 20
27.92423747205996
 42
-1.503613405898778
  0
LWPOLYLINE
  5
245
330
18
100
AcDbEntity
  8
ADP1DETAIL
100
AcDbPolyline
 90
        3
 70
     0
 43
0.0
 10
-78.1132817240296
 20
26.89389819196584
 42
0.1985708539050103
 10
-78.03635602757399
 20
26.34028297897431
 42
0.4076364025590201
 10
-77.57480107515592
 20
26.43255224764013
 42
-0.5279111713620903
  0
LWPOLYLINE
  5
24A
330
18
100
AcDbEntity
  8
ADP1DETAIL
100
AcDbPolyline
 90
        5
 70
     0
 43
0.0
 10
-78.25174820975504
 20
26.57095601763773
 42
0.6690480570701249
 10
-77.39017909418868
 20
26.46330862619503
 42
0.4143460434155494
 10
-77.4978751852792
 20
26.67860340908044
 42
-0.4260838473313499
 10
-77.59018617576282
 20
26.90927631474273
 42
0.0795301811958678
 10
-77.65172696503262
 20
27.60129529773185
 42
-1.284007522223635
  0
LWPOLYLINE
  5
251
330
18
100
AcDbEntity
  8
ADP1DETAIL
100
AcDbPolyline
 90
        3
 70
     0
 43
0.0
 10
-78.32867409963174
 20
27.90885921628195
 42
-0.1917546367134136
 10
-78.6825327675382
 20
27.03230196196344
 42
-0.2453725411565737
 10
-79.2517838110468
 20
26.89389819196584
 42
-8.19904314128188
  0
LWPOLYLINE
  5
256
330
18
100
AcDbEntity
  8
ADP1DETAIL
100
AcDbPolyline
 90
        2
 70
     0
 43
0.0
 10
-77.60557146979081
 20
27.23221848907083
 42
0.6971150605429656
 10
-77.34402359894687
 20
27.46289152773425
 42
-1.45971593817137
  0
LWPOLYLINE
  5
25A
330
18
100
AcDbEntity
  8
ADP1DETAIL
100
AcDbPolyline
 90
        5
 70
     0
 43
0.0
 10
-77.75942305612314
 20
28.44709617349546
 42
-0.3770699831300023
 10
-77.48249008467229
 20
29.16987140203835
 42
-0.4418608055717966
 10
-76.45168408874562
 20
28.98533313070897
 42
-0.350905319178791
 10
-76.69784685898266
 20
28.04726298627954
 42
-0.3020359334991935
 10
-76.99016493104041
 20
28.03188486350266
 42
-3.655259764405279
  0
LWPOLYLINE
  5
261
330
18
100
AcDbEntity
  8
ADP1DETAIL
100
AcDbPolyline
 90
        2
 70
     0
 43
0.0
 10
-76.40552859350382
 20
29.41592256347865
 42
0.4600700606049374
 10
-76.29783250241328
 20
29.21600603637126
 42
0.1075482446894756
  0
LWPOLYLINE
  5
265
330
18
100
AcDbEntity
  8
ADP1DETAIL
100
AcDbPolyline
 90
        9
 70
     0
 43
0.0
 10
-79.13927153473197
 20
33.39593406183976
 42
0.3593423491170713
 10
-79.58450484160917
 20
32.40317105929754
 42
0.4170542204642582
 10
-79.44750990356192
 20
32.32614638027303
 10
-78.92521705283252
 20
32.50587067566394
 42
0.1047839324951864
 10
-78.88240619513684
 20
32.53154561300582
 42
0.1386401405529391
 10
-78.77966013666723
 20
32.84820268588489
 42
0.0402717326476188
 10
-78.8224709943629
 20
32.97657723959316
 10
-79.07933633395804
 20
33.34458418715599
 42
0.5802913888782868
 10
-79.13927153473197
 20
33.40449228561963
 42
4.182353062036018
  0
LWPOLYLINE
  5
270
330
18
100
AcDbEntity
  8
ADP1DETAIL
100
AcDbPolyline
 90
        3
 70
     0
 43
0.0
 10
-79.31051515893577
 20
32.46307915776118
 10
-79.42182338894451
 20
32.56577877412758
 42
0.1834083440810655
 10
-79.26770430124008
 20
33.19053482910696
 42
-1.128876102125944
  0
LWPOLYLINE
  5
275
330
18
100
AcDbEntity
  8
ADP1DETAIL
100
AcDbPolyline
 90
        3
 70
     0
 43
0.0
 10
-79.15639587781026
 20
33.2504429275706
 42
0.3923959917721333
 10
-79.36188818817058
 20
32.96801888281216
 42
-0.0967142941356448
 10
-79.37901253124884
 20
32.73694484573862
 42
1.309995952484641
  0
LWPOLYLINE
  5
27A
330
18
100
AcDbEntity
  8
ADP1DETAIL
100
AcDbPolyline
 90
        3
 70
     0
 43
0.0
 10
-79.13927153473197
 20
31.48743273577985
 42
0.3996238304187458
 10
-79.56738049853091
 20
31.64148222683001
 42
0.8268910611198094
 10
-79.44750990356192
 20
31.02528452863163
 42
-0.001592574251228
  0
LWPOLYLINE
  5
27F
330
18
100
AcDbEntity
  8
ADP1DETAIL
100
AcDbPolyline
 90
        9
 70
     0
 43
0.0
 10
-79.13741618202988
 20
31.48516293533609
 42
0.3593423491170713
 10
-79.5250551310024
 20
30.62082147448842
 42
0.4170542204642582
 10
-79.40578154347218
 20
30.55376053102166
 10
-78.95105129623921
 20
30.71023610437623
 42
0.1047839324951864
 10
-78.9137783527612
 20
30.73258979079729
 42
0.1386401405529391
 10
-78.82432328841396
 20
31.00828483207014
 42
0.0402717326476188
 10
-78.86159623189198
 20
31.12005314837901
 10
-79.08523406116066
 20
31.44045556249398
 42
0.5802913888782868
 10
-79.13741618202988
 20
31.4926140869455
 42
4.182353062036018
  0
LWPOLYLINE
  5
28A
330
18
100
AcDbEntity
  8
ADP1DETAIL
100
AcDbPolyline
 90
        3
 70
     0
 43
0.0
 10
-79.28650812434252
 20
30.67297999893994
 10
-79.38341777738536
 20
30.76239462882775
 42
0.1834083440810655
 10
-79.2492351808645
 20
31.30633367556046
 42
-1.128876102125944
  0
LWPOLYLINE
  5
28F
330
18
100
AcDbEntity
  8
ADP1DETAIL
100
AcDbPolyline
 90
        3
 70
     0
 43
0.0
 10
-79.15232535942108
 20
31.35849220001198
 42
0.3923959917721333
 10
-79.33123565651614
 20
31.11260188097319
 42
-0.0967142941356448
 10
-79.34614483390735
 20
30.91141905057291
 42
1.309995952484641
  0
LWPOLYLINE
  5
294
330
18
100
AcDbEntity
  8
ADP1DETAIL
100
AcDbPolyline
 90
        4
 70
     0
 43
0.0
 10
-78.95946573898905
 20
32.4459625772003
 10
-79.38757470278798
 20
32.24912156824739
 42
0.4594747345640723
 10
-79.43894773202278
 20
32.06939727285647
 42
0.1710902825625606
 10
-78.87208779395987
 20
31.63944558646454
 42
0.6233746071128698
  0
LWPOLYLINE
  5
29A
330
18
100
AcDbEntity
  8
ADP1DETAIL
100
AcDbPolyline
 90
        4
 70
     0
 43
0.0
 10
-79.20776890704505
 20
32.27479650558927
 42
0.7741418870789503
 10
-79.14783370627112
 20
31.98381423705095
 42
-0.1048844608046083
 10
-78.85671968051943
 20
31.75274006697628
 42
0.6562853408334514
 10
-78.74541145051068
 20
31.87255639690468
 42
-1.529931614391604
  0
LWPOLYLINE
  5
2A0
330
18
100
AcDbEntity
  8
ADP1DETAIL
100
AcDbPolyline
 90
        9
 70
     0
 43
0.0
 10
-78.98086965102162
 20
30.6580775799247
 10
-79.35359942260295
 20
30.48669947175849
 42
0.4594747345640723
 10
-79.39832695477656
 20
30.33022389840392
 42
0.2027160067918971
 10
-78.79450493363155
 20
29.92785800601055
 42
0.6233746071128698
 10
-78.72741346697054
 20
30.01727263589836
 10
-78.65286758001452
 20
30.41218726088591
 42
0.1733253892364621
 10
-78.67523134610131
 20
30.55376053102166
 42
0.2772243301049327
 10
-78.89141458667438
 20
30.68043126634576
 42
0.0846651200718946
 10
-78.97341506232603
 20
30.66552873153412
 42
5.677313688947208
  0
LWPOLYLINE
  5
2AB
330
18
100
AcDbEntity
  8
ADP1DETAIL
100
AcDbPolyline
 90
        4
 70
     0
 43
0.0
 10
-79.1970528915947
 20
30.50905315817955
 42
0.7741418870789503
 10
-79.14487077072547
 20
30.25571168753134
 42
-0.1048844608046083
 10
-78.89141458667438
 20
30.05452874133466
 42
0.6562853408334514
 10
-78.79450493363155
 20
30.15884590603411
 42
-1.529931614391604
  0
LWPOLYLINE
  5
2B1
330
18
100
AcDbEntity
  8
ADP1DETAIL
100
AcDbPolyline
 90
        3
 70
     0
 43
0.0
 10
-79.48175858971847
 20
32.23200498768651
 42
0.6477231802596171
 10
-79.73006175777446
 20
31.69283196851264
 42
0.2380784500169523
 10
-79.55881832699176
 20
31.63292387004901
 42
-0.0655540461861356
  0
LWPOLYLINE
  5
2B6
330
18
100
AcDbEntity
  8
ADP1DETAIL
100
AcDbPolyline
 90
        3
 70
     0
 43
0.0
 10
-79.80712149504777
 20
31.8383231027818
 42
0.393421327477196
 10
-80.03830012660442
 20
31.60724893270712
 42
0.6796983890294088
 10
-79.73006175777446
 20
31.19645046724154
 42
-0.1342289895751922
  0
LINE
  5
2BB
330
18
100
AcDbEntity
  8
ADP1DETAIL
100
AcDbLine
 10
-79.41323613216777
 20
30.43454094730697
 30
0.0
 11
-79.45050907564578
 21
30.54630926361584
 31
0.0
  0
LINE
  5
2BC
330
18
100
AcDbEntity
  8
ADP1DETAIL
100
AcDbLine
 10
-79.45607207510106
 20
32.18921346978375
 30
0.0
 11
-79.49888293279673
 21
32.31758802349203
 31
0.0
  0
LWPOLYLINE
  5
2BD
330
18
100
AcDbEntity
  8
ADP1DETAIL
100
AcDbPolyline
 90
        9
 70
     0
 43
0.0
 10
-78.00108082598055
 20
31.42855558731453
 42
0.3593423491170713
 10
-78.93063293622258
 20
31.61099185028166
 42
0.4170542204642582
 10
-78.96902670292942
 20
31.47965534545896
 10
-78.71390409884222
 20
31.07200763028206
 42
0.1047839324951864
 10
-78.68371071843919
 20
31.04074552235626
 42
0.1386401405529391
 10
-78.39493629339442
 20
31.01585986866032
 42
0.0402717326476188
 10
-78.29447230128263
 20
31.07740997130035
 10
-78.03284933509762
 20
31.36762542439557
 42
0.5802913888782868
 10
-77.99382215199955
 20
31.43023823770721
 42
4.182353062036018
  0
LWPOLYLINE
  5
2C8
330
18
100
AcDbEntity
  8
ADP1DETAIL
100
AcDbPolyline
 90
        5
 70
     0
 43
0.0
 10
-78.1878290580024
 20
31.59121491428725
 42
0.2160193938413078
 10
-77.69226338409165
 20
32.00093081761183
 42
0.49437631048581
 10
-77.73507443520841
 20
32.08651385341735
 10
-78.13749669096885
 20
32.34326296083391
 42
0.120420711620902
 10
-78.24024294285955
 20
32.40317105929754
  0
LWPOLYLINE
  5
2CF
330
18
100
AcDbEntity
  8
ADP1DETAIL
100
AcDbPolyline
 90
        2
 70
     0
 43
0.0
 10
-77.77322527193042
 20
31.35849220001198
 42
0.2952302193180958
 10
-77.54958744266175
 20
30.86671179352721
 42
10.08656019961635
  0
LWPOLYLINE
  5
2D3
330
18
100
AcDbEntity
  8
ADP1DETAIL
100
AcDbPolyline
 90
        9
 70
     0
 43
0.0
 10
-77.80453571451667
 20
30.3567267271928
 42
0.3593423491170713
 10
-77.82893066799227
 20
31.3036982167033
 42
0.4170542204642582
 10
-77.96547634925474
 20
31.31256589675788
 10
-78.30777388371231
 20
30.97478401342271
 42
0.1047839324951864
 10
-78.33170956500566
 20
30.93850670959305
 42
0.1386401405529391
 10
-78.29310421701883
 20
30.65124447499438
 42
0.0402717326476188
 10
-78.21115110254076
 20
30.56659746752584
 10
-77.87092224218321
 20
30.37446233739471
 42
0.5802913888782868
 10
-77.80131255439492
 20
30.35000877369966
 42
4.182353062036018
  0
LWPOLYLINE
  5
2DE
330
18
100
AcDbEntity
  8
ADP1DETAIL
100
AcDbPolyline
 90
        6
 70
     0
 43
0.0
 10
-76.44218556569359
 20
29.98117165140566
 42
0.3187837802332328
 10
-76.99016493104041
 20
30.51178631379852
 42
0.1075256087641603
 10
-77.42683587295736
 20
30.5374612511404
 42
-1.314670108695012
 10
-77.43539804449651
 20
30.6487192242878
 42
0.2655501193037533
 10
-77.33265198602689
 20
30.73430226009332
 42
-0.2639567141427804
 10
-77.74363660674755
 20
31.05095933297238
 42
-1.505508772907574
  0
LWPOLYLINE
  5
2E6
330
18
100
AcDbEntity
  8
ADP1DETAIL
100
AcDbPolyline
 90
        3
 70
     1
 43
0.0
 10
-78.19068274408595
 20
30.71768725598564
 10
-78.05649997916451
 20
30.79219946685822
 10
-78.19068274408595
 20
30.90396778316709
  0
LWPOLYLINE
  5
2EB
330
18
100
AcDbEntity
  8
ADP1DETAIL
100
AcDbPolyline
 90
        7
 70
     0
 43
0.0
 10
-77.87013509337384
 20
30.50905315817955
 10
-77.81049838380901
 20
30.56866295003689
 10
-77.81049838380901
 20
31.06044335652166
 42
0.3105618510339543
 10
-77.91486279394804
 20
31.13495556739424
 10
-78.14595521191233
 20
31.01573609947596
 10
-77.92231738264366
 20
31.09769946195795
 10
-77.81049838380901
 20
31.04554093750643
  0
LINE
  5
2F4
330
18
100
AcDbEntity
  8
ADP1DETAIL
100
AcDbLine
 10
-77.87758968206945
 20
30.29296779296763
 30
0.0
 11
-77.84031673859144
 21
30.33767516580974
 31
0.0
  0
LINE
  5
2F5
330
18
100
AcDbEntity
  8
ADP1DETAIL
100
AcDbLine
 10
-77.98195409220848
 20
31.40319945705769
 30
0.0
 11
-77.92231738264366
 21
31.34358978099675
 31
0.0
  0
LWPOLYLINE
  5
2F6
330
18
100
AcDbEntity
  8
ADP1DETAIL
100
AcDbPolyline
 90
        4
 70
     0
 43
0.0
 10
-78.90632376406561
 20
31.00083368046073
 10
-79.13741618202988
 20
31.00083368046073
 42
-0.1999993456678748
 10
-78.97341506232603
 20
30.82945557229451
 42
-0.3570884580045607
 10
-78.90632376406561
 20
31.00828483207014
 42
-0.2691965252226629
  0
CIRCLE
  5
2FC
330
18
100
AcDbEntity
  8
ADP1DETAIL
100
AcDbCircle
 10
-78.60627800028687
 20
30.77866605114647
 30
0.0
 40
0.1678758449381891
  0
LWPOLYLINE
  5
2FD
330
18
100
AcDbEntity
  8
ADP1DETAIL
100
AcDbPolyline
 90
        3
 70
     1
 43
0.0
 10
-78.9286875301524
 20
30.36748000384021
 10
-78.72741346697054
 20
30.46434590113384
 10
-78.89141458667438
 20
30.61337020708259
  0
LWPOLYLINE
  5
302
330
18
100
AcDbEntity
  8
ADP1DETAIL
100
AcDbPolyline
 90
        3
 70
     1
 43
0.0
 10
-78.6379584026233
 20
31.14985798640948
 42
0.1310586878555471
 10
-78.50377563770186
 20
31.34358978099675
 10
-78.44413892813704
 20
31.14240683480007
  0
LINE
  5
307
330
18
100
AcDbEntity
  8
ADP1DETAIL
100
AcDbLine
 10
-79.08523406116066
 20
31.48516293533609
 30
0.0
 11
-78.97341506232603
 21
31.55222387880284
 31
0.0
  0
LINE
  5
308
330
18
100
AcDbEntity
  8
ADP1DETAIL
100
AcDbLine
 10
-78.66032200030952
 20
31.5298703081782
 30
0.0
 11
-78.51123022639747
 21
31.50751662175714
 31
0.0
  0
LWPOLYLINE
  5
309
330
18
100
AcDbEntity
  8
ADP1DETAIL
100
AcDbPolyline
 90
        8
 70
     0
 43
0.0
 10
-78.19068274408595
 20
31.3659433516214
 42
0.3846159071750414
 10
-78.28759239712879
 20
31.46280924891503
 42
0.2169667968752666
 10
-78.77959558783977
 20
31.43300441088456
 10
-78.75723182175295
 20
31.3212360945757
 10
-78.86159623189198
 20
31.45535798150921
 42
-0.7210845864212746
 10
-78.83177787710957
 20
31.50006535435132
 42
-0.0870806901060226
 10
-78.22795568756396
 20
31.4926140869455
 42
-0.2361637272292843
 10
-78.19813733278156
 20
31.3659433516214
 42
1.264611261077188
  0
LWPOLYLINE
  5
313
330
18
100
AcDbEntity
  8
ADP1DETAIL
100
AcDbPolyline
 90
        5
 70
     1
 43
0.0
 10
-78.33231992930241
 20
30.49415073916431
 10
-78.38450221857221
 20
30.44199221471279
 10
-78.50377563770186
 20
30.4494433663222
 10
-78.369593041181
 20
30.36748000384021
 10
-78.33231992930241
 20
30.30041906037345
  0
LINE
  5
31A
330
18
100
AcDbEntity
  8
ADP1DETAIL
100
AcDbLine
 10
-78.72741346697054
 20
29.95766295983743
 30
0.0
 11
-78.57832169305848
 21
29.93530927341637
 31
0.0
  0
LWPOLYLINE
  5
31B
330
18
100
AcDbEntity
  8
ADP1DETAIL
100
AcDbPolyline
 90
        5
 70
     0
 43
0.0
 10
-78.48141187161505
 20
30.09178484677095
 42
0.9038222081332738
 10
-78.3099561632156
 20
30.07688242775571
 42
-0.3380395461526349
 10
-78.17577356669474
 20
30.15884590603411
 42
0.4140807691134363
 10
-78.02668162438209
 20
30.21845558209505
 42
0.382792213844436
 10
-78.05649997916451
 20
30.33767516580974
 42
-3.799226512676344
  0
LWPOLYLINE
  5
322
330
18
100
AcDbEntity
  8
ADP1DETAIL
100
AcDbPolyline
 90
        9
 70
     0
 43
0.0
 10
-78.34722927509419
 20
30.61337020708259
 42
0.112242513023801
 10
-78.59323087044969
 20
30.46434590113384
 42
0.3760634684278842
 10
-78.60068545914528
 20
30.37493115544962
 10
-78.58577628175408
 20
29.96511411144684
 42
0.3931999876994474
 10
-78.51123022639747
 20
29.89060190057426
 42
0.2963065118513518
 10
-77.87758968206945
 20
30.27061410654657
 42
0.49437631048581
 10
-77.91486279394804
 20
30.34512631741915
 10
-78.26522863104198
 20
30.56866295003689
 42
0.120420711620902
 10
-78.3546838637898
 20
30.62082147448842
  0
LWPOLYLINE
  5
32D
330
18
100
AcDbEntity
  8
ADP1DETAIL
100
AcDbPolyline
 90
        2
 70
     0
 43
0.0
 10
-77.36690067218344
 20
31.63292387004901
 42
0.246350450743745
 10
-77.31552764294862
 20
31.06807591353326
 42
0.5443654668751603
  0
LWPOLYLINE
  5
331
330
18
100
AcDbEntity
  8
ADP1DETAIL
100
AcDbPolyline
 90
        2
 70
     0
 43
0.0
 10
-77.33265198602689
 20
30.74286048387319
 42
0.0989782500912394
 10
-77.16140836182311
 20
30.78565200177595
 42
-0.2247673242720806
  0
ARC
  5
335
330
18
100
AcDbEntity
  8
ADP1DETAIL
100
AcDbCircle
 10
-76.7292572040177
 20
31.48375216601127
 30
0.0
 40
0.9219115826965239
100
AcDbArc
 50
183.4966484659636
 51
221.6362343865237
  0
LWPOLYLINE
  5
336
330
18
100
AcDbEntity
  8
ADP1DETAIL
100
AcDbPolyline
 90
        9
 70
     0
 43
0.0
 10
-77.60835525349683
 20
32.0998378210381
 42
0.3593423491170713
 10
-77.63637474389077
 20
33.18750780082402
 42
0.4170542204642582
 10
-77.79320801714526
 20
33.1976930170555
 10
-78.18636320345048
 20
32.80972440523475
 42
0.1047839324951864
 10
-78.21385518423014
 20
32.76805711666254
 42
0.1386401405529391
 10
-78.1695139569286
 20
32.43811422782151
 42
0.0402717326476188
 10
-78.07538446796813
 20
32.34089059445759
 10
-77.68460531382594
 20
32.12020854075193
 42
0.5802913888782868
 10
-77.60465320486781
 20
32.09212173198894
 42
4.182353062036018
  0
LWPOLYLINE
  5
341
330
18
100
AcDbEntity
  8
ADP1DETAIL
100
AcDbPolyline
 90
        7
 70
     0
 43
0.0
 10
-77.68370121255251
 20
32.27479650558927
 10
-77.61520384023943
 20
32.34326296083391
 10
-77.61520384023943
 20
32.90811078434852
 42
0.3105618510339543
 10
-77.73507443520841
 20
32.99369382015405
 10
-78.00050194634268
 20
32.85676104266589
 10
-77.74363660674755
 20
32.95090230225128
 10
-77.61520384023943
 20
32.89099420378764
  0
LINE
  5
34A
330
18
100
AcDbEntity
  8
ADP1DETAIL
100
AcDbLine
 10
-77.81213397906063
 20
33.30179266925323
 30
0.0
 11
-77.74363660674755
 21
33.23332634700973
 31
0.0
  0
LWPOLYLINE
  5
34B
330
18
100
AcDbEntity
  8
ADP1DETAIL
100
AcDbPolyline
 90
        5
 70
     1
 43
0.0
 10
-78.21455623482105
 20
32.25767992502839
 10
-78.27449162901608
 20
32.19777182656475
 10
-78.41148637364224
 20
32.20633005034463
 10
-78.25736728593781
 20
32.11218879075923
 10
-78.21455623482105
 20
32.03516411173472
  0
LWPOLYLINE
  5
352
330
18
100
AcDbEntity
  8
ADP1DETAIL
100
AcDbPolyline
 90
        3
 70
     1
 43
0.0
 10
-78.05187497557749
 20
32.51442889944382
 10
-77.89775569445197
 20
32.60001193524934
 10
-78.05187497557749
 20
32.72838648895762
  0
LWPOLYLINE
  5
357
330
18
100
AcDbEntity
  8
ADP1DETAIL
100
AcDbPolyline
 90
        4
 70
     0
 43
0.0
 10
-78.87384402359771
 20
32.83964446210501
 10
-79.13927153473197
 20
32.83964446210501
 42
-0.1999993456678748
 10
-78.95090356744993
 20
32.6428034531521
 42
-0.3570884580045607
 10
-78.87384402359771
 20
32.84820268588489
 42
-0.2691965252226629
  0
LWPOLYLINE
  5
35D
330
18
100
AcDbEntity
  8
ADP1DETAIL
100
AcDbPolyline
 90
        3
 70
     1
 43
0.0
 10
-78.89953053821511
 20
32.11218879075923
 10
-78.66835171323739
 20
32.22344676390664
 10
-78.85671968051943
 20
32.39461270251654
  0
LINE
  5
362
330
18
100
AcDbEntity
  8
ADP1DETAIL
100
AcDbLine
 10
-79.07933633395804
 20
33.39593406183976
 30
0.0
 11
-78.95090356744993
 21
33.47295874086427
 31
0.0
  0
LWPOLYLINE
  5
363
330
18
100
AcDbEntity
  8
ADP1DETAIL
100
AcDbPolyline
 90
        3
 70
     1
 43
0.0
 10
-78.56560565476776
 20
33.01081040071492
 42
0.1310586878555471
 10
-78.41148637364224
 20
33.23332634700973
 10
-78.34298900132917
 20
33.00225217693505
  0
CIRCLE
  5
368
330
18
100
AcDbEntity
  8
ADP1DETAIL
100
AcDbCircle
 10
-78.49914947063784
 20
32.57321161951417
 30
0.0
 40
0.2171784350961905
  0
LWPOLYLINE
  5
369
330
18
100
AcDbEntity
  8
ADP1DETAIL
100
AcDbPolyline
 90
        8
 70
     0
 43
0.0
 10
-78.05187497557749
 20
33.25900115135047
 42
0.3846159071750414
 10
-78.16318320558625
 20
33.37025912449787
 42
0.2169667968752666
 10
-78.72828691401132
 20
33.33602596337612
 10
-78.70260039939392
 20
33.20765140966784
 10
-78.8224709943629
 20
33.36170076771687
 42
-0.7210845864212746
 10
-78.78822230820635
 20
33.41305064240063
 42
-0.0870806901060226
 10
-78.09468583327316
 20
33.40449228561963
 42
-0.2361637272292843
 10
-78.06043714711663
 20
33.25900115135047
 42
1.264611261077188
  0
LWPOLYLINE
  5
373
330
18
100
AcDbEntity
  8
ADP1DETAIL
100
AcDbPolyline
 90
        4
 70
     0
 43
0.0
 10
-78.23168077132041
 20
32.39461270251654
 42
0.112242513023801
 10
-78.51423262553296
 20
32.22344676390664
 42
0.3760634684278842
 10
-78.5227947970721
 20
32.12074701453911
 10
-78.507397499095
 20
31.69751272219499
 42
0.3931999876994474
  0
LWPOLYLINE
  5
379
330
18
100
AcDbEntity
  8
ADP1DETAIL
100
AcDbPolyline
 90
        5
 70
     0
 43
0.0
 10
-78.38579985902484
 20
31.79553158487904
 42
0.9038222081332738
 10
-78.18886972020365
 20
31.77841500431816
 42
-0.3380395461526349
 10
-78.03475063249923
 20
31.87255639690468
 42
0.4140807691134363
 10
-77.86350700829543
 20
31.9410227191482
 42
0.382792213844436
 10
-77.89775569445197
 20
32.07795562963748
 42
-3.799226512676344
  0
LWPOLYLINE
  5
380
330
18
100
AcDbEntity
  8
ADP1DETAIL
100
AcDbPolyline
 90
        6
 70
     0
 43
0.0
 10
-78.66291086936964
 20
31.69567121720159
 42
0.053574770938404
 10
-78.66835171323739
 20
31.70994854907352
 10
-78.58272999784603
 20
32.16353853244187
 42
0.1733253892364621
 10
-78.60841651246343
 20
32.32614638027303
 42
0.2772243301049327
 10
-78.85671968051943
 20
32.47163751454218
 42
0.0846651200718946
 10
-78.95090356744993
 20
32.45452080098018
 42
5.677313688947208
  0
LINE
  5
388
330
18
100
AcDbEntity
  8
ADP1DETAIL
100
AcDbLine
 10
-77.69226338409165
 20
32.02660575495372
 30
0.0
 11
-77.64945252639598
 21
32.07795562963748
 31
0.0
  0
ARC
  5
389
330
18
100
AcDbEntity
  8
ADP1DETAIL
100
AcDbCircle
 10
-76.14107049184298
 20
36.7220525260461
 30
0.0
 40
3.151411583189953
100
AcDbArc
 50
166.1891638677713
 51
193.8108361322287
  0
ARC
  5
38A
330
18
100
AcDbEntity
  8
ADP1DETAIL
100
AcDbCircle
 10
-77.09812113430671
 20
36.52144026065015
 30
0.0
 40
2.016873742299724
100
AcDbArc
 50
157.2189577266676
 51
189.611250255471
  0
LWPOLYLINE
  5
38B
330
18
100
AcDbEntity
  8
ADP1DETAIL
100
AcDbPolyline
 90
        5
 70
     0
 43
0.0
 10
-79.33039543670834
 20
35.99841550937516
 42
-0.0282599604483185
 10
-79.66012201287767
 20
37.74660784338577
 42
-0.2484755743873896
 10
-79.53109852074755
 20
38.27679729058914
 42
-0.5351597850696886
 10
-79.3447314117636
 20
38.04752614405452
 42
-0.4408805804519186
 10
-78.51324712549626
 20
37.96154950063847
 42
-0.2779847946757154
  0
LWPOLYLINE
  5
392
330
18
100
AcDbEntity
  8
ADP1DETAIL
100
AcDbPolyline
 90
       10
 70
     0
 43
0.0
 10
-79.02934081064954
 20
39.65242397494655
 42
0.2520635443670864
 10
-79.25871584479927
 20
39.5234589611099
 42
0.302662053298948
 10
-79.0436767857048
 20
39.58077682081244
 42
-0.2825566544323701
 10
-78.7712939680729
 20
39.5234589611099
 42
-0.5528899541640963
 10
-78.79996591818343
 20
39.38016455541649
 42
-0.0000001162241614
 10
-79.05801276076006
 20
39.32284679313913
 42
-0.1673572674638393
 10
-79.33039543670834
 20
39.19388177930247
 42
-0.0264342774712717
 10
-79.64578603782242
 20
38.93595175162916
 42
0.1270065502338483
 10
-80.0328563725292
 20
37.40270107487125
 42
0.0957005843389548
 10
-79.1153565192975
 20
35.05267213952315
 42
0.5513480213906196
  0
LWPOLYLINE
  5
39E
330
18
100
AcDbEntity
  8
ADP1DETAIL
100
AcDbPolyline
 90
       10
 70
     0
 43
0.0
 10
-78.47023934201409
 20
37.63197231883105
 42
0.0990108125602476
 10
-78.59926283414423
 20
37.73227835410385
 42
0.3999564524202323
 10
-78.92898926862994
 20
37.7179489622471
 42
0.1230975496260836
 10
-79.20137208626184
 20
37.47434842385571
 42
-0.4140809240190355
 10
-78.82863772661034
 20
37.30239503959845
 42
0.0453791259808376
 10
-79.0150049772779
 20
36.55726393514239
 42
0.1047153189532681
 10
-78.88598148514777
 20
35.75481497098378
 42
-0.2226617755039693
 10
-78.48457531706936
 20
35.48255555145372
 42
-0.2868651740923291
 10
-78.19785666606581
 20
36.05573327165252
 42
-0.2998643375812595
 10
-77.91113787337865
 20
36.05573327165252
 42
0.2998643375812595
  0
ARC
  5
3AA
330
18
100
AcDbEntity
  8
ADP1DETAIL
100
AcDbCircle
 10
-89.644077079947
 20
38.51703469657381
 30
0.0
 40
10.3294103269518
100
AcDbArc
 50
351.4022158313416
 51
356.8377137543566
  0
ARC
  5
3AB
330
18
100
AcDbEntity
  8
ADP1DETAIL
100
AcDbCircle
 10
-77.06533169519648
 20
37.61967796429799
 30
0.0
 40
0.5086397354617465
100
AcDbArc
 50
261.9002633882363
 51
343.3979803186931
  0
LWPOLYLINE
  5
3AC
330
18
100
AcDbEntity
  8
ADP1DETAIL
100
AcDbPolyline
 90
        6
 70
     0
 43
0.0
 10
-77.82512230641431
 20
35.8694504955385
 42
-0.1174582044493012
 10
-77.89680189832338
 20
35.31060216719645
 42
-0.1514160812674948
 10
-77.653091030802
 20
35.15297827222112
 42
-0.1409521282176024
 10
-77.76777854787687
 20
34.78041271999309
 42
0.2698167935877586
 10
-77.78211452293215
 20
34.40784716776505
 42
0.072960213244818
 10
-77.53840351372713
 20
33.96363436397773
 42
0.4975296948333954
  0
LWPOLYLINE
  5
3B4
330
18
100
AcDbEntity
  8
ADP1DETAIL
100
AcDbPolyline
 90
        4
 70
     0
 43
0.0
 10
-78.19785666606581
 20
33.99229324511641
 42
-0.0635439850807264
 10
-78.82863772661034
 20
35.10998990180052
 42
-0.1590492942765709
 10
-78.8716455100925
 20
35.69749720870642
 42
-0.3089389512421771
 10
-78.42723155853192
 20
35.15297827222112
 42
0.9181952355775305
  0
LWPOLYLINE
  5
3BA
330
18
100
AcDbEntity
  8
ADP1DETAIL
100
AcDbPolyline
 90
       12
 70
     0
 43
0.0
 10
-78.19785666606581
 20
34.20723490236911
 42
-0.2111613314404324
 10
-78.36988779999448
 20
34.76608323071116
 42
-0.159227014485305
 10
-78.38422377504976
 20
35.58286158672652
 42
-0.2730495114845356
 10
-78.02582539045352
 20
35.88377998482043
 42
-0.4464840980738203
 10
-77.95414565686082
 20
35.82646222254307
 42
-0.2361635580571399
 10
-78.15484874090002
 20
35.10998990180052
 10
-78.09750498236258
 20
34.98102498538903
 10
-77.92547384843391
 20
35.13864888036437
 42
-0.619137067963994
 10
-77.73910673944998
 20
35.06700162880508
 10
-77.89680189832338
 20
34.60845933573583
 42
0.155392946565554
 10
-77.85379411484121
 20
34.09259937781438
 42
0.1066325128404356
 10
-77.56707546383767
 20
33.67704545516573
 42
0.3961541870778471
  0
ARC
  5
3C8
330
18
100
AcDbEntity
  8
ADP1DETAIL
100
AcDbCircle
 10
-76.42091379082126
 20
34.3296743818979
 30
0.0
 40
0.4887209240294057
100
AcDbArc
 50
243.8497539537643
 51
277.2340004307721
  0
ARC
  5
3C9
330
18
100
AcDbEntity
  8
ADP1DETAIL
100
AcDbCircle
 10
-78.59363156681943
 20
36.10963455533553
 30
0.0
 40
0.4987342245406971
100
AcDbArc
 50
171.3436051299838
 51
227.7460634439498
  0
LWPOLYLINE
  5
3CA
330
18
100
AcDbEntity
  8
ADP1DETAIL
100
AcDbPolyline
 90
        2
 70
     0
 43
0.0
 10
-79.23004389468873
 20
39.19388177930247
 42
0.085099205520044
 10
-79.54543449580281
 20
38.27679729058914
 42
1.17603892306586
  0
ARC
  5
3CE
330
18
100
AcDbEntity
  8
ADP1DETAIL
100
AcDbCircle
 10
-78.89900569945301
 20
37.50756164752327
 30
0.0
 40
0.61595183899828
100
AcDbArc
 50
49.49196399980847
 51
134.456116483553
  0
LWPOLYLINE
  5
3CF
330
18
100
AcDbEntity
  8
ADP1DETAIL
100
AcDbPolyline
 90
        5
 70
     0
 43
0.0
 10
-80.04719220590082
 20
38.52039782898053
 42
-0.3312859478107855
 10
-79.00066900222263
 20
40.09663677873388
 42
-0.2151200378116183
 10
-78.24086444954798
 20
39.93901288375855
 42
-0.5899780494021816
 10
-78.41289558347665
 20
39.65242397494655
 42
0.0942442994147085
 10
-79.02934081064954
 20
39.65242397494655
 42
0.0633582523979742
  0
ARC
  5
3D6
330
18
100
AcDbEntity
  8
ADP1DETAIL
100
AcDbCircle
 10
-79.50769700660415
 20
38.02788505628753
 30
0.0
 40
0.1394788617370799
100
AcDbArc
 50
344.3283174066324
 51
171.9048361939614
  0
LWPOLYLINE
  5
3D7
330
18
100
AcDbEntity
  8
ADP1DETAIL
100
AcDbPolyline
 90
        4
 70
     0
 43
0.0
 10
-76.62090366049546
 20
39.25119954157984
 42
0.0429304104672895
 10
-76.83594271958992
 20
38.56338619940114
 42
-0.2260180127910799
 10
-77.29469264620577
 20
38.50606843712377
 42
0.5405481203995912
 10
-76.87895050307209
 20
38.04752614405452
 42
-0.0785617680668813
  0
ARC
  5
3DD
330
18
100
AcDbEntity
  8
ADP1DETAIL
100
AcDbCircle
 10
-78.89826849984432
 20
37.21224112950002
 30
0.0
 40
0.1057603054631611
100
AcDbArc
 50
58.47763803644443
 51
134.1970967929132
  0
ARC
  5
3DE
330
18
100
AcDbEntity
  8
ADP1DETAIL
100
AcDbCircle
 10
-79.15836423193785
 20
37.14100386905084
 30
0.0
 40
0.2575438010072063
100
AcDbArc
 50
38.80378052029193
 51
106.1599793085286
  0
ARC
  5
3DF
330
18
100
AcDbEntity
  8
ADP1DETAIL
100
AcDbCircle
 10
-78.53617718199018
 20
39.89329585478002
 30
0.0
 40
0.217740413869975
100
AcDbArc
 50
257.0624457593107
 51
16.0079732675271
  0
LWPOLYLINE
  5
3E0
330
18
100
AcDbEntity
  8
ADP1DETAIL
100
AcDbPolyline
 90
        9
 70
     0
 43
0.0
 10
-73.12898140562535
 20
32.53722078468927
 42
0.3593423491170713
 10
-73.1553715161057
 20
33.56164094826662
 42
0.4170542204642582
 10
-73.30308467398229
 20
33.57123387725412
 10
-73.6733772330776
 20
33.20582628472084
 42
0.1047839324951864
 10
-73.69927050950408
 20
33.1665820181986
 42
0.1386401405529391
 10
-73.65750779823166
 20
32.85582585645894
 42
0.0402717326476188
 10
-73.56885209542618
 20
32.76425593888721
 10
-73.20079739827645
 20
32.55640691321102
 42
0.5802913888782868
 10
-73.12549463727411
 20
32.52995339903661
 42
4.182353062036018
  0
LWPOLYLINE
  5
3EB
330
18
100
AcDbEntity
  8
ADP1DETAIL
100
AcDbPolyline
 90
        3
 70
     0
 43
0.0
 10
-74.73215788486199
 20
32.87933903424981
 10
-74.83699335638572
 20
32.9760664973155
 42
0.1834083440810655
 10
-74.69183654966055
 20
33.56449194982628
 42
-1.128876102125944
  0
LWPOLYLINE
  5
3F0
330
18
100
AcDbEntity
  8
ADP1DETAIL
100
AcDbPolyline
 90
        3
 70
     0
 43
0.0
 10
-74.58700089596347
 20
33.62091629284236
 42
0.3923959917721333
 10
-74.78054348710371
 20
33.35491567546155
 42
-0.0967142941356448
 10
-74.79667202118429
 20
33.13727897751394
 42
1.309995952484641
  0
LWPOLYLINE
  5
3F5
330
18
100
AcDbEntity
  8
ADP1DETAIL
100
AcDbPolyline
 90
        3
 70
     1
 43
0.0
 10
-74.03056610583696
 20
33.39521879551117
 42
0.1310586878555471
 10
-73.88540911693844
 20
33.60479506987589
 10
-73.82089498061614
 20
33.38715824666138
  0
LWPOLYLINE
  5
3FA
330
18
100
AcDbEntity
  8
ADP1DETAIL
100
AcDbPolyline
 90
        9
 70
     0
 43
0.0
 10
-74.5708723618829
 20
33.75794687595766
 42
0.3593423491170713
 10
-74.99021461232452
 20
32.82291469123374
 42
0.4170542204642582
 10
-74.86118615750658
 20
32.7503691252512
 10
-74.36926550370237
 20
32.91964215429942
 42
0.1047839324951864
 10
-74.32894416850094
 20
32.94382405138257
 42
0.1386401405529391
 10
-74.23217296401748
 20
33.24206698942941
 42
0.0402717326476188
 10
-74.27249429921892
 20
33.36297634957824
 10
-74.51442249260089
 20
33.70958308179136
 42
0.5802913888782868
 10
-74.5708723618829
 20
33.76600742480744
 42
4.182353062036018
  0
LWPOLYLINE
  5
405
330
18
100
AcDbEntity
  8
ADP1DETAIL
100
AcDbPolyline
 90
        4
 70
     0
 43
0.0
 10
-75.65165576244908
 20
32.41467126809631
 42
-0.3586399124260417
 10
-76.14398091608096
 20
32.62996605098172
 42
-0.2593020338412582
 10
-76.00551443035555
 20
33.47576692674532
 42
-0.6326317477812851
 10
-74.97470843442886
 20
33.44501054819043
 42
-0.2093979273143482
  0
LWPOLYLINE
  5
40B
330
18
100
AcDbEntity
  8
ADP1DETAIL
100
AcDbPolyline
 90
       20
 70
     0
 43
0.0
 10
-73.04642566406167
 20
31.92390613858732
 42
0.2946590080087674
 10
-72.61831689368384
 20
32.69415332783586
 42
-0.0282563430071306
 10
-72.57550584256707
 20
33.69547455415794
 42
-0.2760045581152737
 10
-72.13883490065011
 20
34.12338973318554
 42
0.0875198554449112
 10
-71.82203416685993
 20
34.09771479584366
 42
0.334743291646326
 10
-72.03608864875938
 20
33.67835797359706
 42
0.0263599583258402
 10
-71.89053173259409
 20
32.91666914112953
 42
-0.2528469687966451
 10
-71.95046693336805
 20
32.68559497105485
 42
-0.0178475148915434
 10
-71.77066113762513
 20
32.77973636364137
 42
-0.6821861960529158
 10
-71.6422285645381
 20
32.65992003371298
 42
-0.2298367747007461
 10
-71.74497462300772
 20
32.56577877412758
 42
0.0556039139744276
 10
-72.51557064179313
 20
31.87255639690468
 42
-0.1040834716670124
 10
-72.12171055757183
 20
31.75274006697628
 42
-0.5913441610663794
 10
-72.12171055757183
 20
31.58157412836637
 42
-0.3455972062523908
 10
-71.74497462300772
 20
31.32482502094982
 42
-0.2577807877803117
 10
-71.80490982378166
 20
31.02528452863163
 42
-0.4073429785998042
 10
-71.75353679454684
 20
30.59736934960403
 42
-0.4482120951506532
 10
-71.98471561952458
 20
30.58025276904316
 42
-0.500484511483602
 10
-72.27582964527626
 20
30.41764505421312
 42
-0.3470973193669588
 10
-72.63544123676211
 20
30.70862732275144
 42
-1.251293709631315
  0
LWPOLYLINE
  5
421
330
18
100
AcDbEntity
  8
ADP1DETAIL
100
AcDbPolyline
 90
        6
 70
     0
 43
0.0
 10
-72.99505263482686
 20
31.9495810759292
 42
0.2972463118761546
 10
-72.63544123676211
 20
32.23200498768651
 42
0.1918521104664149
 10
-72.50700847025399
 20
32.61712851581021
 42
0.0475329170985709
 10
-72.48988412717572
 20
32.96801888281216
 42
-0.0231193568076296
 10
-72.48988412717572
 20
33.66979961681606
 42
-0.3422870730828523
 10
-72.14739707218924
 20
34.10627301962353
 42
-0.1235730624675528
  0
LWPOLYLINE
  5
429
330
18
100
AcDbEntity
  8
ADP1DETAIL
100
AcDbPolyline
 90
        9
 70
     0
 43
0.0
 10
-73.34160108580203
 20
33.69670985946637
 42
0.3593423491170713
 10
-74.34717721494192
 20
33.89406678987178
 42
0.4170542204642582
 10
-74.3887110406229
 20
33.75198884429002
 10
-74.11272306980617
 20
33.31100139779433
 42
0.1047839324951864
 10
-74.08006030431211
 20
33.27718249820774
 42
0.1386401405529391
 10
-73.76766827665537
 20
33.25026155527302
 42
0.0402717326476188
 10
-73.65898777214937
 20
33.31684557275731
 10
-73.37596780292796
 20
33.63079648387308
 42
0.5802913888782868
 10
-73.33374875648764
 20
33.69853012650673
 42
4.182353062036018
  0
LWPOLYLINE
  5
434
330
18
100
AcDbEntity
  8
ADP1DETAIL
100
AcDbPolyline
 90
        4
 70
     0
 43
0.0
 10
-75.82089244938831
 20
29.93878139791528
 42
-0.0377341640492634
 10
-75.19010081003099
 20
29.98491589924706
 42
-0.7688683247204436
 10
-75.11317492015429
 20
29.69273023647498
 42
-0.0360588654585606
 10
-75.82089244938831
 20
29.61583922358718
 42
-0.0180697095256214
  0
LWPOLYLINE
  5
43A
330
18
100
AcDbEntity
  8
ADP1DETAIL
100
AcDbPolyline
 90
        7
 70
     0
 43
0.0
 10
-73.95928773253018
 20
28.17028863350026
 42
-0.1669125271985658
 10
-73.79005085216985
 20
28.60087819927107
 42
-0.7334205778989716
 10
-73.39003668902158
 20
28.43171791771744
 42
0.2224486313325292
 10
-73.57465866998882
 20
29.50819183214447
 42
0.3776366895524135
 10
-74.51315348201077
 20
29.73886473780676
 42
-0.2758092098797817
 10
-73.60542887120262
 20
29.44667907503468
 42
-0.1220643187708029
 10
-73.52850317474701
 20
28.64701270060285
 42
-0.8628129898368188
  0
LWPOLYLINE
  5
443
330
18
100
AcDbEntity
  8
ADP1DETAIL
100
AcDbPolyline
 90
       11
 70
     0
 43
0.0
 10
-74.6362348671293
 20
28.26255776916495
 42
0.1168078613117276
 10
-74.77470135285471
 20
28.40096153916255
 42
-0.276919580948681
 10
-74.99009353503577
 20
28.52398718638326
 42
-1.006317507309069
 10
-74.42084249152717
 20
28.67776907915775
 42
-0.6893191030874485
 10
-74.6362348671293
 20
28.24717964638807
 42
0.297152612230228
 10
-74.62084976652239
 20
27.98575022916975
 42
0.3798591005152115
 10
-73.95928773253018
 20
28.18566675627714
 42
0.3865479982664194
 10
-73.40542178962849
 20
27.89348109350506
 42
0.3510719221095612
 10
-72.66693405918066
 20
28.86230748348825
 42
0.3157960811377408
 10
-73.65158436644444
 20
30.10794154646778
 42
0.019082710987451
 10
-73.77342517380658
 20
30.13788277898013
 42
-0.304432850140675
  0
LWPOLYLINE
  5
450
330
18
100
AcDbEntity
  8
ADP1DETAIL
100
AcDbPolyline
 90
        5
 70
     0
 43
0.0
 10
-72.78956032446654
 20
29.35641559642627
 42
0.3119850085143224
 10
-71.94190476182891
 20
29.01408358620533
 42
-0.244605370430059
 10
-72.258705302198
 20
29.42488205167091
 42
-0.1471552764922054
 10
-72.258705302198
 20
29.80144735601474
 42
0.0475329346071292
 10
-72.29295398835453
 20
30.42620341099413
 42
-1.162208181134862
  0
LWPOLYLINE
  5
457
330
18
100
AcDbEntity
  8
ADP1DETAIL
100
AcDbPolyline
 90
        3
 70
     0
 43
0.0
 10
-72.8323711821622
 20
30.44331999155501
 42
0.0587416503650209
 10
-72.66112775137951
 20
29.40776547111004
 42
0.1689237150558748
 10
-72.14739707218924
 20
29.0312001667662
 42
0.150033341114302
  0
LWPOLYLINE
  5
45C
330
18
100
AcDbEntity
  8
ADP1DETAIL
100
AcDbPolyline
 90
        2
 70
     0
 43
0.0
 10
-72.8837444048181
 20
30.32350379462773
 42
0.0830784089795114
 10
-72.92655526251379
 20
29.60460634706183
 42
0.8989782975650211
  0
LWPOLYLINE
  5
460
330
18
100
AcDbEntity
  8
ADP1DETAIL
100
AcDbPolyline
 90
        3
 70
     0
 43
0.0
 10
-73.31311079914488
 20
27.90885921628195
 42
0.1917546367134136
 10
-72.95925213123841
 20
27.03230196196344
 42
0.2453725411565737
 10
-72.39000108772981
 20
26.89389819196584
 42
8.19904314128188
  0
LWPOLYLINE
  5
465
330
18
100
AcDbEntity
  8
ADP1DETAIL
100
AcDbPolyline
 90
        3
 70
     0
 43
0.0
 10
-74.83624194870344
 20
27.66280805484164
 42
-0.4819279139543993
 10
-75.49780398269565
 20
27.86272458194904
 42
-0.1211232885431065
 10
-75.51318908330256
 20
29.03146763204075
 42
1.258484537559021
  0
LWPOLYLINE
  5
46A
330
18
100
AcDbEntity
  8
ADP1DETAIL
100
AcDbPolyline
 90
        6
 70
     0
 43
0.0
 10
-75.80550734878141
 20
28.50860893060525
 42
-0.2361151313150919
 10
-75.7285814589047
 20
28.37020516060766
 10
-75.7285814589047
 20
27.63205167628675
 42
0.0638390671968686
 10
-75.40549299221203
 20
26.50944326052794
 42
-0.5801898921619148
 10
-75.49780398269565
 20
26.38641761330723
 10
-75.82089244938831
 20
26.38641761330723
  0
LWPOLYLINE
  5
472
330
18
100
AcDbEntity
  8
ADP1DETAIL
100
AcDbPolyline
 90
        6
 70
     0
 43
0.0
 10
-75.83627754999522
 20
28.50860893060525
 42
0.2361151313150919
 10
-75.91320343987192
 20
28.37020516060766
 10
-75.91320343987192
 20
27.63205167628675
 42
-0.0638390671968686
 10
-76.23629190656457
 20
26.50944326052794
 42
0.5801898921619148
 10
-76.14398091608096
 20
26.38641761330723
 10
-75.82089244938831
 20
26.38641761330723
  0
LWPOLYLINE
  5
47A
330
18
100
AcDbEntity
  8
ADP1DETAIL
100
AcDbPolyline
 90
        4
 70
     0
 43
0.0
 10
-74.6670052617642
 20
27.98575022916975
 42
0.4141869598113191
 10
-74.86701234333835
 20
27.81659008061726
 42
0.3955156146197167
 10
-74.57469427128059
 20
27.44751327195624
 42
0.3429308631709754
 10
-73.72851025632114
 20
27.92423747205996
 42
1.503613405898778
  0
LWPOLYLINE
  5
480
330
18
100
AcDbEntity
  8
ADP1DETAIL
100
AcDbPolyline
 90
        3
 70
     0
 43
0.0
 10
-75.03624903027757
 20
26.41717399186212
 42
-0.0133191181272132
 10
-75.54395947793747
 20
27.60129529773185
 42
0.0260143711117478
 10
-75.17471551600301
 20
26.41717399186212
 42
-1.436118844023553
  0
LWPOLYLINE
  5
485
330
18
100
AcDbEntity
  8
ADP1DETAIL
100
AcDbPolyline
 90
        2
 70
     0
 43
0.0
 10
-74.0362134289858
 20
27.23221848907083
 42
-0.6971150605429656
 10
-74.29776129982974
 20
27.46289152773425
 42
1.45971593817137
  0
LWPOLYLINE
  5
489
330
18
100
AcDbEntity
  8
ADP1DETAIL
100
AcDbPolyline
 90
        3
 70
     0
 43
0.0
 10
-73.52850317474701
 20
26.89389819196584
 42
-0.1985708539050103
 10
-73.60542887120262
 20
26.34028297897431
 42
-0.4076364025590201
 10
-74.0669838236207
 20
26.43255224764013
 42
0.5279111713620903
  0
LWPOLYLINE
  5
48E
330
18
100
AcDbEntity
  8
ADP1DETAIL
100
AcDbPolyline
 90
        5
 70
     0
 43
0.0
 10
-73.39003668902158
 20
26.57095601763773
 42
-0.6690480570701249
 10
-74.25160580458793
 20
26.46330862619503
 42
-0.4143460434155494
 10
-74.14390971349742
 20
26.67860340908044
 42
0.4260838473313499
 10
-74.05159872301379
 20
26.90927631474273
 42
-0.0795301811958678
 10
-73.99005793374399
 20
27.60129529773185
 42
1.284007522223635
  0
LWPOLYLINE
  5
495
330
18
100
AcDbEntity
  8
ADP1DETAIL
100
AcDbPolyline
 90
        5
 70
     0
 43
0.0
 10
-73.88236184265347
 20
28.44709617349546
 42
0.3770699831300023
 10
-74.15929481410431
 20
29.16987140203835
 42
0.4418608055717966
 10
-75.19010081003099
 20
28.98533313070897
 42
0.350905319178791
 10
-74.94393803979396
 20
28.04726298627954
 42
0.3020359334991935
 10
-74.65161996773621
 20
28.03188486350266
 42
3.655259764405279
  0
LWPOLYLINE
  5
49C
330
18
100
AcDbEntity
  8
ADP1DETAIL
100
AcDbPolyline
 90
        2
 70
     0
 43
0.0
 10
-75.23625630527281
 20
29.41592256347865
 42
-0.4600700606049374
 10
-75.34395239636332
 20
29.21600603637126
 42
-0.1075482446894756
  0
LINE
  5
4A0
330
18
100
AcDbEntity
  8
ADP1DETAIL
100
AcDbLine
 10
-75.32856710233533
 20
29.21600603637126
 30
0.0
 11
-75.83627754999522
 21
29.21600603637126
 31
0.0
  0
LWPOLYLINE
  5
4A1
330
18
100
AcDbEntity
  8
ADP1DETAIL
100
AcDbPolyline
 90
        3
 70
     0
 43
0.0
 10
-75.32856710233533
 20
29.20062791359438
 42
-0.4904925663990334
 10
-75.51318908330256
 20
29.03146763204075
 10
-75.82089244938831
 20
29.04684588781877
  0
LWPOLYLINE
  5
4A6
330
18
100
AcDbEntity
  8
ADP1DETAIL
100
AcDbPolyline
 90
        3
 70
     0
 43
0.0
 10
-75.11317492015429
 20
29.67735198069697
 42
-0.319964942297885
 10
-75.23625630527281
 20
29.40054444070177
 42
-0.0277439507732877
 10
-75.82089244938831
 20
29.38516618492375
 42
0.0145889139714565
  0
LWPOLYLINE
  5
4AB
330
18
100
AcDbEntity
  8
ADP1DETAIL
100
AcDbPolyline
 90
        5
 70
     0
 43
0.0
 10
-73.52640295807858
 20
32.11643405228617
 42
0.1596621500661202
 10
-73.20801013903428
 20
32.44406538782079
 42
0.49437631048581
 10
-73.24833165640907
 20
32.52467162792001
 10
-73.62735238947592
 20
32.76649034821767
 42
0.120420711620902
 10
-73.7241237761327
 20
32.82291469123374
  0
LWPOLYLINE
  5
4B2
330
18
100
AcDbEntity
  8
ADP1DETAIL
100
AcDbPolyline
 90
        7
 70
     0
 43
0.0
 10
-73.199945871994
 20
32.70200533108491
 10
-73.1354317356717
 20
32.76649034821767
 10
-73.1354317356717
 20
33.29849133244549
 42
0.3105618510339543
 10
-73.24833165640907
 20
33.3790975725447
 10
-73.49832411683131
 20
33.25012766354609
 10
-73.25639592344934
 20
33.33879445249509
 10
-73.1354317356717
 20
33.28237010947901
  0
LWPOLYLINE
  5
4BB
330
18
100
AcDbEntity
  8
ADP1DETAIL
100
AcDbPolyline
 90
        9
 70
     0
 43
0.0
 10
-72.71935162965012
 20
30.5764600231019
 42
0.3593423491170713
 10
-72.74737112004406
 20
31.66413000288781
 42
0.4170542204642582
 10
-72.90420439329856
 20
31.6743152191193
 10
-73.29735957960377
 20
31.28634660729855
 42
0.1047839324951864
 10
-73.32485156038342
 20
31.24467931872634
 42
0.1386401405529391
 10
-73.28051033308188
 20
30.9147364298853
 42
0.0402717326476188
 10
-73.18638084412142
 20
30.81751279652139
 10
-72.79560168997922
 20
30.59683074281572
 42
0.5802913888782868
 10
-72.7156495810211
 20
30.56874393405273
 42
4.182353062036018
  0
LWPOLYLINE
  5
4C6
330
18
100
AcDbEntity
  8
ADP1DETAIL
100
AcDbPolyline
 90
        5
 70
     0
 43
0.0
 10
-73.49679623517812
 20
30.27215378694283
 42
0.9038222081332738
 10
-73.29986609635693
 20
30.25503720638196
 42
-0.3380395461526349
 10
-73.1457470086525
 20
30.34917859896848
 42
0.4140807691134363
 10
-72.97450338444872
 20
30.41764492121199
 42
0.382792213844436
 10
-73.00875207060525
 20
30.55457783170128
 42
-3.799226512676344
  0
LWPOLYLINE
  5
4CD
330
18
100
AcDbEntity
  8
ADP1DETAIL
100
AcDbPolyline
 90
        9
 70
     0
 43
0.0
 10
-72.94509888791598
 20
31.80753834756674
 42
0.3593423491170713
 10
-74.0127613636675
 20
32.01708050237463
 42
0.4170542204642582
 10
-74.05685957350858
 20
31.86623037105811
 10
-73.76383153549034
 20
31.39801544902764
 42
0.1047839324951864
 10
-73.72915210340986
 20
31.36210850074847
 42
0.1386401405529391
 10
-73.39747234691214
 20
31.33352540320831
 42
0.0402717326476188
 10
-73.28208168364525
 20
31.40422045542039
 10
-72.98158747712055
 20
31.73755534406081
 42
0.5802913888782868
 10
-72.93676173957556
 20
31.80947100165281
 42
4.182353062036018
  0
LWPOLYLINE
  5
4D8
330
18
100
AcDbEntity
  8
ADP1DETAIL
100
AcDbPolyline
 90
        8
 70
     0
 43
0.0
 10
-73.16287135173077
 20
31.73562335341427
 42
0.3846159071750414
 10
-73.27417958173953
 20
31.84688132656167
 42
0.2169667968752666
 10
-73.8392832901646
 20
31.81264816543992
 10
-73.81359677554721
 20
31.68427361173164
 10
-73.93346737051619
 20
31.83832296978067
 42
-0.7210845864212746
 10
-73.89921868435964
 20
31.88967284446443
 42
-0.0870806901060226
 10
-73.20568220942646
 20
31.88111448768343
 42
-0.2361637272292843
 10
-73.17143352326991
 20
31.73562335341427
 42
1.264611261077188
  0
LWPOLYLINE
  5
4E2
330
18
100
AcDbEntity
  8
ADP1DETAIL
100
AcDbPolyline
 90
        9
 70
     0
 43
0.0
 10
-73.34267714747369
 20
30.87123490458034
 42
0.112242513023801
 10
-73.62522900168624
 20
30.70006896597043
 42
0.3760634684278842
 10
-73.63379117322537
 20
30.5973692166029
 10
-73.61666683014711
 20
30.12666265267368
 42
0.3931999876994474
 10
-73.53104492133467
 20
30.04107961686816
 42
0.2963065118513518
 10
-72.80325976024492
 20
30.47755301967563
 42
0.49437631048581
 10
-72.8460708113617
 20
30.56313605548115
 10
-73.24849306712213
 20
30.8198851628977
 42
0.120420711620902
 10
-73.35123931901283
 20
30.87979326136134
  0
LWPOLYLINE
  5
4ED
330
18
100
AcDbEntity
  8
ADP1DETAIL
100
AcDbPolyline
 90
        3
 70
     1
 43
0.0
 10
-73.67660203092104
 20
31.48743260277872
 42
0.1310586878555471
 10
-73.52248274979553
 20
31.70994854907352
 10
-73.45398537748245
 20
31.47887437899884
  0
LWPOLYLINE
  5
4F2
330
18
100
AcDbEntity
  8
ADP1DETAIL
100
AcDbPolyline
 90
        3
 70
     0
 43
0.0
 10
-74.26739225396353
 20
31.7270651296344
 42
0.3923959917721333
 10
-74.47288456432386
 20
31.44464108487596
 42
-0.0967142941356448
 10
-74.49000890740212
 20
31.21356704780241
 42
1.309995952484641
  0
LWPOLYLINE
  5
4F7
330
18
100
AcDbEntity
  8
ADP1DETAIL
100
AcDbPolyline
 90
        3
 70
     0
 43
0.0
 10
-74.42151153508905
 20
30.93970135982498
 10
-74.5328197650978
 20
31.04240097619138
 42
0.1834083440810655
 10
-74.37870067739338
 20
31.66715703117076
 42
-1.128876102125944
  0
LWPOLYLINE
  5
4FC
330
18
100
AcDbEntity
  8
ADP1DETAIL
100
AcDbPolyline
 90
        6
 70
     0
 43
0.0
 10
-75.50034592270439
 20
30.40052847365225
 42
0.0245747797397764
 10
-75.02942610120981
 20
31.18789224346167
 42
0.2169815716802278
 10
-74.97805307197499
 20
31.79553158487904
 42
0.0914898233431773
 10
-75.20066972541359
 20
32.30047144293115
 42
-0.105550061451382
 10
-74.81537161931034
 20
32.23200498768651
 42
-0.1231273932862086
 10
-74.729749903919
 20
32.36037954139479
 42
2.58757408330865
  0
LWPOLYLINE
  5
504
330
18
100
AcDbEntity
  8
ADP1DETAIL
100
AcDbPolyline
 90
        5
 70
     0
 43
0.0
 10
-74.57563062279348
 20
32.20633005034463
 42
0.205343758108674
 10
-74.62700384544938
 20
31.86399804012368
 42
-0.1700182214493469
 10
-74.68693904622331
 20
31.40184969997433
 42
0.0452103009391452
 10
-74.79824727623207
 20
31.11942578821702
 10
-74.71262556084072
 20
31.26491692248618
  0
LWPOLYLINE
  5
50B
330
18
100
AcDbEntity
  8
ADP1DETAIL
100
AcDbPolyline
 90
        9
 70
     0
 43
0.0
 10
-74.25026791088527
 20
31.87255626390355
 42
0.3593423491170713
 10
-74.69550121776245
 20
30.87979326136134
 42
0.4170542204642582
 10
-74.5585062797152
 20
30.80276858233683
 10
-74.0362134289858
 20
30.98249287772774
 42
0.1047839324951864
 10
-73.99340257129013
 20
31.00816781506962
 42
0.1386401405529391
 10
-73.89065651282051
 20
31.32482488794869
 42
0.0402717326476188
 10
-73.93346737051619
 20
31.45319944165696
 10
-74.19033271011132
 20
31.82120638921979
 42
0.5802913888782868
 10
-74.25026791088527
 20
31.88111448768343
 42
4.182353062036018
  0
LWPOLYLINE
  5
516
330
18
100
AcDbEntity
  8
ADP1DETAIL
100
AcDbPolyline
 90
        3
 70
     0
 43
0.0
 10
-74.72118773237986
 20
31.02528452863163
 10
-74.92668004274019
 20
30.80276858233683
 10
-74.68693904622331
 20
30.88835161814235
  0
LINE
  5
51B
330
18
100
AcDbEntity
  8
ADP1DETAIL
100
AcDbLine
 10
-74.89243135658364
 20
30.51178631379852
 30
0.0
 11
-74.57563062279348
 21
30.67439416162968
 31
0.0
  0
LWPOLYLINE
  5
51C
330
18
100
AcDbEntity
  8
ADP1DETAIL
100
AcDbPolyline
 90
        2
 70
     0
 43
0.0
 10
-74.12188678318694
 20
30.17149145788842
 42
0.1461614122916468
 10
-75.02086392967067
 20
29.89264676358237
 42
-0.304432850140675
  0
ARC
  5
520
330
18
100
AcDbEntity
  8
ADP1DETAIL
100
AcDbCircle
 10
-74.59542485639531
 20
29.97341577321716
 30
0.0
 40
0.6223697292800529
100
AcDbArc
 50
118.5039107672453
 51
180.0738644999397
  0
CIRCLE
  5
521
330
18
100
AcDbEntity
  8
ADP1DETAIL
100
AcDbCircle
 10
-73.61033840847885
 20
31.05196739642118
 30
0.0
 40
0.2262003624694928
  0
LINE
  5
522
330
18
100
AcDbEntity
  8
ADP1DETAIL
100
AcDbLine
 10
-73.77934808939066
 20
30.1181044288938
 30
0.0
 11
-73.60810465860797
 21
30.09242949155193
 31
0.0
  0
LWPOLYLINE
  5
523
330
18
100
AcDbEntity
  8
ADP1DETAIL
100
AcDbPolyline
 90
        5
 70
     1
 43
0.0
 10
-73.32555261097434
 20
30.73430212709219
 10
-73.38548800516938
 20
30.67439402862855
 10
-73.52248274979553
 20
30.68295225240842
 10
-73.3683636620911
 20
30.58881099282303
 10
-73.32555261097434
 20
30.51178631379851
  0
LINE
  5
52A
330
18
100
AcDbEntity
  8
ADP1DETAIL
100
AcDbLine
 10
-74.56706845125435
 20
30.66583567184754
 30
0.0
 11
-74.60987930895001
 21
30.79421022555582
 31
0.0
  0
LWPOLYLINE
  5
52B
330
18
100
AcDbEntity
  8
ADP1DETAIL
100
AcDbPolyline
 90
        4
 70
     0
 43
0.0
 10
-73.98484039975099
 20
31.31626666416881
 10
-74.25026791088527
 20
31.31626666416881
 42
-0.1999993456678748
 10
-74.06189994360321
 20
31.11942565521589
 42
-0.3570884580045607
 10
-73.98484039975099
 20
31.32482488794869
 42
-0.2691965252226629
  0
LWPOLYLINE
  5
531
330
18
100
AcDbEntity
  8
ADP1DETAIL
100
AcDbPolyline
 90
        4
 70
     0
 43
0.0
 10
-74.31876528319834
 20
30.75141870765306
 42
0.7741418870789503
 10
-74.2588300824244
 20
30.46043643911475
 42
-0.1048844608046083
 10
-73.96771605667272
 20
30.22936226904008
 42
0.6562853408334514
 10
-73.85640782666397
 20
30.34917859896848
 42
-1.529931614391604
  0
LWPOLYLINE
  5
537
330
18
100
AcDbEntity
  8
ADP1DETAIL
100
AcDbPolyline
 90
        3
 70
     1
 43
0.0
 10
-74.0105269143684
 20
30.58881099282303
 10
-73.77934808939066
 20
30.70006896597043
 10
-73.96771605667272
 20
30.87123490458034
  0
LWPOLYLINE
  5
53C
330
18
100
AcDbEntity
  8
ADP1DETAIL
100
AcDbPolyline
 90
        9
 70
     0
 43
0.0
 10
-74.07046211514233
 20
30.9225847792641
 10
-74.49857107894127
 20
30.72574377031118
 42
0.4594747345640723
 10
-74.54994410817608
 20
30.54601947492027
 42
0.2027160067918971
 10
-73.85640782666397
 20
30.08387113477092
 42
0.6233746071128698
 10
-73.77934808939066
 20
30.18657075113732
 10
-73.69372637399931
 20
30.64016073450567
 42
0.1733253892364621
 10
-73.71941288861671
 20
30.80276858233683
 42
0.2772243301049327
 10
-73.96771605667272
 20
30.94825971660599
 42
0.0846651200718946
 10
-74.06189994360321
 20
30.93114300304398
 42
5.677313688947208
  0
LWPOLYLINE
  5
547
330
18
100
AcDbEntity
  8
ADP1DETAIL
100
AcDbPolyline
 90
        9
 70
     0
 43
0.0
 10
-74.40152257186352
 20
32.86321781128335
 10
-74.80473628822458
 20
32.67782343400177
 42
0.4594747345640723
 10
-74.8531218904663
 20
32.50855040495354
 42
0.2027160067918971
 10
-74.19991589585634
 20
32.07327675852452
 42
0.6233746071128698
 10
-74.12733731032041
 20
32.1700042215902
 10
-74.04669463991753
 20
32.59721719390255
 42
0.1733253892364621
 10
-74.07088744103839
 20
32.7503691252512
 42
0.2772243301049327
 10
-74.30475136738007
 20
32.8873997083665
 42
0.0846651200718946
 10
-74.39345830482324
 20
32.87127836013314
 42
5.677313688947208
  0
LINE
  5
552
330
18
100
AcDbEntity
  8
ADP1DETAIL
100
AcDbLine
 10
-74.86925042454688
 20
32.6213990909857
 30
0.0
 11
-74.90957175974831
 21
32.74230845113452
 31
0.0
  0
LWPOLYLINE
  5
553
330
18
100
AcDbEntity
  8
ADP1DETAIL
100
AcDbPolyline
 90
        5
 70
     0
 43
0.0
 10
-73.86121631581758
 20
32.25061046168942
 42
0.9038222081332738
 10
-73.67573799171764
 20
32.23448923872295
 42
-0.3380395461526349
 10
-73.53058118499247
 20
32.32315615293885
 42
0.4140807691134363
 10
-73.36929566201337
 20
32.38764104480472
 42
0.382792213844436
 10
-73.40155273017453
 20
32.51661107907023
 42
-3.799226512676344
  0
LWPOLYLINE
  5
55A
330
18
100
AcDbEntity
  8
ADP1DETAIL
100
AcDbPolyline
 90
        5
 70
     1
 43
0.0
 10
-73.6999307928385
 20
32.68588410811845
 10
-73.75638084429386
 20
32.62945976510237
 10
-73.88540911693844
 20
32.63752031395215
 10
-73.74025231021327
 20
32.54885352500315
 10
-73.6999307928385
 20
32.47630795902061
  0
LWPOLYLINE
  5
561
330
18
100
AcDbEntity
  8
ADP1DETAIL
100
AcDbPolyline
 90
        3
 70
     1
 43
0.0
 10
-73.54670971907303
 20
32.92770270314921
 10
-73.40155273017453
 20
33.00830894324843
 10
-73.54670971907303
 20
33.12921830339726
  0
LWPOLYLINE
  5
566
330
18
100
AcDbEntity
  8
ADP1DETAIL
100
AcDbPolyline
 90
        3
 70
     1
 43
0.0
 10
-74.34507270258151
 20
32.54885352500315
 10
-74.12733731032041
 20
32.65364166218552
 10
-74.30475136738007
 20
32.81485401711706
  0
LWPOLYLINE
  5
56B
330
18
100
AcDbEntity
  8
ADP1DETAIL
100
AcDbPolyline
 90
        4
 70
     0
 43
0.0
 10
-74.63538649820519
 20
32.70200533108491
 42
0.7741418870789503
 10
-74.57893662892319
 20
32.42794416485433
 42
-0.1048844608046083
 10
-74.30475136738007
 20
32.21030734163981
 42
0.6562853408334514
 10
-74.19991589585634
 20
32.32315615293885
 42
-1.529931614391604
  0
LINE
  5
571
330
18
100
AcDbEntity
  8
ADP1DETAIL
100
AcDbLine
 10
-74.12733731032041
 20
32.10551932972434
 30
0.0
 11
-73.96605196951466
 21
32.0813374326412
 31
0.0
  0
LINE
  5
572
330
18
100
AcDbEntity
  8
ADP1DETAIL
100
AcDbLine
 10
-74.17572291256213
 20
31.93624617540923
 30
0.0
 11
-74.05475872478449
 21
32.00879174139176
 31
0.0
  0
LWPOLYLINE
  5
573
330
18
100
AcDbEntity
  8
ADP1DETAIL
100
AcDbPolyline
 90
        4
 70
     0
 43
0.0
 10
-74.32087990146064
 20
33.23400644057962
 10
-74.5708723618829
 20
33.23400644057962
 42
-0.1999993456678748
 10
-74.39345830482324
 20
33.04861206329803
 42
-0.3570884580045607
 10
-74.32087990146064
 20
33.24206698942941
 42
-0.2691965252226629
  0
LWPOLYLINE
  5
579
330
18
100
AcDbEntity
  8
ADP1DETAIL
100
AcDbPolyline
 90
        5
 70
     0
 43
0.0
 10
-73.71605950909241
 20
32.81485401711706
 42
0.112242513023801
 10
-73.98218050359523
 20
32.65364166218552
 42
0.3760634684278842
 10
-73.99024477063552
 20
32.55691407385294
 10
-73.97411623655495
 20
32.11357987857413
 42
0.21930763948303
 10
-73.94250409886897
 20
32.05105992477093
 42
0.2963065118513518
  0
CIRCLE
  5
580
330
18
100
AcDbEntity
  8
ADP1DETAIL
100
AcDbCircle
 10
-73.93909659343083
 20
32.96779430430378
 30
0.0
 40
0.1888087479325665
  0
LINE
  5
581
330
18
100
AcDbEntity
  8
ADP1DETAIL
100
AcDbLine
 10
-72.53269498487139
 20
31.17933388668066
 30
0.0
 11
-71.77922330916425
 21
31.02528452863163
 31
0.0
  0
LWPOLYLINE
  5
582
330
18
100
AcDbEntity
  8
ADP1DETAIL
100
AcDbPolyline
 90
        2
 70
     0
 43
0.0
 10
-72.40426241178437
 20
31.01672617185062
 42
-0.2396456568294849
 10
-72.04465082029853
 20
30.60592770638504
 42
0.7778381357272197
  0
LWPOLYLINE
  5
586
330
18
100
AcDbEntity
  8
ADP1DETAIL
100
AcDbPolyline
 90
        7
 70
     0
 43
0.0
 10
-72.7946975887058
 20
30.75141870765306
 10
-72.72620021639271
 20
30.8198851628977
 10
-72.72620021639271
 20
31.38473298641232
 42
0.3105618510339543
 10
-72.8460708113617
 20
31.47031602221784
 10
-73.11149832249596
 20
31.33338324472969
 10
-72.85463298290084
 20
31.42752450431508
 10
-72.72620021639271
 20
31.36761640585144
  0
LINE
  5
58F
330
18
100
AcDbEntity
  8
ADP1DETAIL
100
AcDbLine
 10
-72.80325976024492
 20
30.50322795701751
 30
0.0
 11
-72.76044890254926
 21
30.55457783170128
 31
0.0
  0
LWPOLYLINE
  5
590
330
18
100
AcDbEntity
  8
ADP1DETAIL
100
AcDbPolyline
 90
        3
 70
     1
 43
0.0
 10
-73.16287135173077
 20
30.99105110150761
 10
-73.00875207060525
 20
31.07663413731313
 10
-73.16287135173077
 20
31.20500869102141
  0
LINE
  5
595
330
18
100
AcDbEntity
  8
ADP1DETAIL
100
AcDbLine
 10
-72.59263018564533
 20
31.43608299409722
 30
0.0
 11
-72.11314838603271
 21
31.58157412836637
 31
0.0
  0
LINE
  5
596
330
18
100
AcDbEntity
  8
ADP1DETAIL
100
AcDbLine
 10
-73.20801013903428
 20
32.46824728490393
 30
0.0
 11
-73.16768880383285
 21
32.51661107907023
 31
0.0
  0
LINE
  5
597
330
18
100
AcDbEntity
  8
ADP1DETAIL
100
AcDbLine
 10
-72.92655526251379
 20
31.78697336109916
 30
0.0
 11
-72.52413281333225
 21
31.86399804012368
 31
0.0
  0
LINE
  5
598
330
18
100
AcDbEntity
  8
ADP1DETAIL
100
AcDbLine
 10
-72.92313035521392
 20
31.77841487131703
 30
0.0
 11
-72.85463298290084
 21
31.70994854907352
 31
0.0
  0
LWPOLYLINE
  5
599
330
18
100
AcDbEntity
  8
ADP1DETAIL
100
AcDbPolyline
 90
        3
 70
     0
 43
0.0
 10
-74.47051349460164
 20
37.48867781571247
 42
0.3034942457881526
 10
-73.29496679879333
 20
37.13044165534119
 42
0.1766872175598873
 10
-73.12293552318101
 20
37.25940666917785
 42
-0.5417977604294922
  0
LWPOLYLINE
  5
59E
330
18
100
AcDbEntity
  8
ADP1DETAIL
100
AcDbPolyline
 90
        6
 70
     0
 43
0.0
 10
-74.58520086999287
 20
36.75787610311316
 42
-0.4056258656117803
 10
-74.87191966268006
 20
37.99020838177716
 42
-0.5968911376822595
 10
-74.26981041056244
 20
37.96154950063847
 42
-0.8317314170664069
 10
-74.80023992908735
 20
37.57465445912851
 42
0.3491323994656722
 10
-74.22680248539663
 20
36.81519386539052
 42
0.2213424251301048
 10
-72.83621687217747
 20
37.07312389306383
 42
-0.3198091125715424
  0
LWPOLYLINE
  5
5A6
330
18
100
AcDbEntity
  8
ADP1DETAIL
100
AcDbPolyline
 90
       10
 70
     0
 43
0.0
 10
-76.00445857500621
 20
38.44875057742124
 42
0.1420948084117644
 10
-75.76074756580121
 20
37.08745328492058
 42
0.5245517428145413
 10
-72.10508412792973
 20
37.66063110254456
 42
-0.274335841142491
 10
-74.06910732652324
 20
36.21335716662786
 42
-0.229114042365537
 10
-75.9327788414135
 20
37.01580613078646
 10
-75.9327788414135
 20
37.20208890690048
 10
-76.0331303834331
 20
37.15910053647987
 10
-76.24816944252758
 20
37.47434832643054
 10
-76.10481011702581
 20
37.47434832643054
 10
-76.00445857500621
 20
37.54599557798983
  0
LWPOLYLINE
  5
5B2
330
18
100
AcDbEntity
  8
ADP1DETAIL
100
AcDbPolyline
 90
        7
 70
     0
 43
0.0
 10
-72.30578721196893
 20
38.06185563333645
 42
-0.1397486437856774
 10
-72.92223243914181
 20
37.33105392073713
 42
-0.125399829984029
 10
-73.12293552318101
 20
37.25940666917785
 42
-0.5231961506238678
 10
-73.58168544979687
 20
37.80392560566314
 42
0.2139668980779833
 10
-72.49215432095287
 20
38.11917339561381
 42
0.1632105759083478
 10
-72.17676386152243
 20
39.73840071578777
 42
0.0122333894148663
 10
-72.29145123691367
 20
40.46920233096191
 42
-1.198549025364938
  0
LINE
  5
5BB
330
18
100
AcDbEntity
  8
ADP1DETAIL
100
AcDbLine
 10
-73.32091005977165
 20
33.66927996174175
 30
0.0
 11
-73.25639592344934
 21
33.60479506987589
 31
0.0
  0
ARC
  5
5BC
330
18
100
AcDbEntity
  8
ADP1DETAIL
100
AcDbCircle
 10
-74.01929498807916
 20
34.86351899273555
 30
0.0
 40
0.5760883745407136
100
AcDbArc
 50
48.69384488221584
 51
90.67675940993137
  0
LWPOLYLINE
  5
5BD
330
18
100
AcDbEntity
  8
ADP1DETAIL
100
AcDbPolyline
 90
        8
 70
     0
 43
0.0
 10
-73.54670971907303
 20
33.62897684169214
 42
0.3846159071750414
 10
-73.65154519059678
 20
33.73376497887451
 42
0.2169667968752666
 10
-74.18378717960243
 20
33.70152253294158
 10
-74.15959437848155
 20
33.58061317279275
 10
-74.27249429921892
 20
33.72570430475782
 42
-0.7210845864212746
 10
-74.24023723105777
 20
33.77406809892411
 42
-0.0870806901060226
 10
-73.58703105427448
 20
33.76600742480744
 42
-0.2361637272292843
 10
-73.55477398611333
 20
33.62897684169214
 42
1.264611261077188
  0
LINE
  5
5C7
330
18
100
AcDbEntity
  8
ADP1DETAIL
100
AcDbLine
 10
-74.51442249260089
 20
33.75794687595766
 30
0.0
 11
-74.39345830482324
 21
33.83049244194019
 31
0.0
  0
LWPOLYLINE
  5
5C8
330
18
100
AcDbEntity
  8
ADP1DETAIL
100
AcDbPolyline
 90
        3
 70
     0
 43
0.0
 10
-73.09426371475412
 20
37.8182549975199
 42
-0.4560977674961367
 10
-73.28063082373805
 20
38.14783227675249
 42
0.3013663316970482
 10
-72.52082627106339
 20
39.33717618499588
 42
-1.017072306906678
  0
LWPOLYLINE
  5
5CD
330
18
100
AcDbEntity
  8
ADP1DETAIL
100
AcDbPolyline
 90
        2
 70
     0
 43
0.0
 10
-72.87922465565964
 20
39.66675346422848
 42
-0.4242504355810817
 10
-74.14078691843229
 20
39.25119954157984
 42
-4.048914777131636
  0
LWPOLYLINE
  5
5D1
330
18
100
AcDbEntity
  8
ADP1DETAIL
100
AcDbPolyline
 90
        3
 70
     0
 43
0.0
 10
-73.58168544979687
 20
37.78959611638121
 42
0.4069488657698626
 10
-73.13727149823629
 20
37.4313600534351
 42
0.1712743791695815
 10
-72.54949807949031
 20
37.70361947296517
 42
-0.4069912550972187
  0
LWPOLYLINE
  5
5D6
330
18
100
AcDbEntity
  8
ADP1DETAIL
100
AcDbPolyline
 90
        8
 70
     0
 43
0.0
 10
-75.71773978231902
 20
38.6207039616785
 10
-75.61738824029943
 20
38.77832785665383
 42
-0.3216831805737506
 10
-75.5313726733351
 20
39.19388177930247
 42
-0.81219536491809
 10
-75.4310211313155
 20
39.12223452774318
 42
0.5544603633406716
 10
-75.48836488985293
 20
38.83564561893119
 42
0.2145292120827876
 10
-75.11563053020143
 20
38.70668060509455
 42
-0.0189870609431696
 10
-74.08344315989487
 20
38.76399836737191
 42
-0.1319457106076806
 10
-73.79672450889133
 20
38.69235121323779
 42
0.2592056627356889
  0
LWPOLYLINE
  5
5E0
330
18
100
AcDbEntity
  8
ADP1DETAIL
100
AcDbPolyline
 90
        2
 70
     0
 43
0.0
 10
-76.09047414197054
 20
37.24507717989591
 10
-75.86109910782081
 20
37.3167244314552
  0
LWPOLYLINE
  5
5E4
330
18
100
AcDbEntity
  8
ADP1DETAIL
100
AcDbPolyline
 90
        2
 70
     0
 43
0.0
 10
-75.37367737277806
 20
39.5234589611099
 42
0.4849223415755974
 10
-75.07262274671926
 20
39.33717618499588
 42
-0.1762522639481362
  0
LWPOLYLINE
  5
5E8
330
18
100
AcDbEntity
  8
ADP1DETAIL
100
AcDbPolyline
 90
        3
 70
     0
 43
0.0
 10
-73.42399014923983
 20
40.85609737247188
 10
-73.40965417418455
 20
40.64115571521917
 10
-73.48133390777725
 20
40.59816734479857
  0
LWPOLYLINE
  5
5ED
330
18
100
AcDbEntity
  8
ADP1DETAIL
100
AcDbPolyline
 90
        2
 70
     0
 43
0.0
 10
-73.26629484868279
 20
38.14783227675249
 42
0.1533765119289546
 10
-72.97957619767925
 20
37.8612433679405
 42
0.2451358397637359
  0
LWPOLYLINE
  5
5F1
330
18
100
AcDbEntity
  8
ADP1DETAIL
100
AcDbPolyline
 90
        2
 70
     0
 43
0.0
 10
-72.8505527055491
 20
39.96767176489722
 42
-0.077345905552379
 10
-72.7215293551026
 20
39.15089340888187
 42
0.9977154756563285
  0
DIMENSION
  5
5F5
330
18
100
AcDbEntity
  8
ADPDIM
100
AcDbDimension
  2
*D1
 10
-71.4941446465256
 20
54.35204275724709
 30
0.0
 11
-75.8691446465256
 21
54.35204275724709
 31
0.0
100
AcDbAlignedDimension
 13
-80.2441446465256
 23
50.50414963409987
 33
0.0
 14
-71.4941446465256
 24
44.98546033507333
 34
0.0
100
AcDbRotatedDimension
  0
LWPOLYLINE
  5
5F6
330
18
100
AcDbEntity
  8
ADP1DETAIL
100
AcDbPolyline
 90
        6
 70
     0
 43
0.0
 10
-76.41605052459023
 20
53.29660392058282
 42
-0.0750263670564427
 10
-75.43000174178887
 20
53.77115323024113
 42
-0.2001914392895271
 10
-73.69528608384777
 20
53.26010010888666
 42
-0.0999297639981521
 10
-72.54489581766254
 20
52.21974200072825
 42
0.0722943355035497
 10
-73.96918855615426
 20
53.33310773227899
 42
0.3593993801227671
 10
-76.23344887638589
 20
52.98632164236132
 42
-0.4477863432870467
  0
LWPOLYLINE
  5
5FE
330
18
100
AcDbEntity
  8
ADP1DETAIL
100
AcDbPolyline
 90
        7
 70
     0
 43
0.0
 10
-76.36308155861318
 20
43.12439210068935
 42
-0.0396386505512575
 10
-75.43499910226334
 20
43.39223826857844
 42
-0.003587349682198
 10
-73.79451547355952
 20
43.54249335316291
 42
0.4102157352990702
 10
-73.50040477061302
 20
43.81687238594579
 42
0.1414871710130733
 10
-73.5919059356418
 20
44.20230947554494
 42
0.1786958839893957
 10
-73.91215966073649
 20
44.26763780129377
 42
0.0995196397882688
 10
-75.91864771455142
 20
43.86260219781052
 42
-0.2014466007559429
  0
LWPOLYLINE
  5
607
330
18
100
AcDbEntity
  8
ADP1DETAIL
100
AcDbPolyline
 90
        6
 70
     0
 43
0.0
 10
-76.79444377409881
 20
43.14399061457346
 42
-0.0784412118937368
 10
-75.11474537716864
 20
43.70581424833225
 42
-0.0660772226181683
 10
-73.970981754325
 20
43.74501119530317
 42
0.4405142309421294
 10
-73.74222907675707
 20
43.92139765866555
 42
0.29235848435414
 10
-73.95791024325088
 20
44.06512003995079
 42
0.162446720779024
 10
-76.79444377409881
 20
43.15052339866997
 42
-0.3280576265165945
  0
LWPOLYLINE
  5
60F
330
18
100
AcDbEntity
  8
ADP1DETAIL
100
AcDbPolyline
 90
        4
 70
     0
 43
0.0
 10
-73.79451547355952
 20
43.99325884930816
 42
-0.4141427489023124
 10
-73.88601652108627
 20
43.94099617254965
 42
0.0745840959025719
 10
-75.97746980813991
 20
43.54902621805671
 42
0.0382421970636635
 10
-76.80097958838686
 20
43.14399061457346
 42
-0.2732870558119768
  0
LWPOLYLINE
  5
615
330
18
100
AcDbEntity
  8
ADP1DETAIL
100
AcDbPolyline
 90
        4
 70
     0
 43
0.0
 10
-77.03664580362913
 20
42.07410025927912
 42
-0.2273523356310582
 10
-75.9614506498404
 20
42.05977076999719
 42
-0.2787275604002199
 10
-75.80375534928338
 20
41.67287572848723
 42
-0.3252975177850348
 10
-76.07613816691527
 20
41.40061630895718
 42
12.78054632724712
  0
LWPOLYLINE
  5
61B
330
18
100
AcDbEntity
  8
ADP1DETAIL
100
AcDbPolyline
 90
        7
 70
     0
 43
0.0
 10
-76.96385546920321
 20
50.79609399095602
 42
-0.7134766156357247
 10
-76.5073513486924
 20
50.02951434932294
 42
-0.5195566807443673
 10
-77.65774173237964
 20
50.32154468129771
 42
-0.6187564671631587
 10
-76.26996920602675
 20
51.36190278945611
 42
-0.3440405599818113
 10
-75.08305861020065
 20
49.64622444770911
 42
-0.4688842168303063
 10
-77.00037579884408
 20
47.51075247344942
 42
-0.1730720620465732
 10
-78.85716952333837
 20
47.90289651363218
 42
-0.277616624418155
  0
LWPOLYLINE
  5
624
330
18
100
AcDbEntity
  8
ADP1DETAIL
100
AcDbPolyline
 90
       27
 70
     0
 43
0.0
 10
-78.73509133928315
 20
53.00457358860805
 42
0.227442792046958
 10
-79.59331908584349
 20
51.23413956971546
 42
0.2609153220151345
 10
-78.77161166892403
 20
51.65393320222817
 42
0.3975851589134896
 10
-77.9133840398657
 20
50.92385729149397
 42
0.3486860002416602
 10
-77.52992057863662
 20
51.19763575801929
 42
-0.1487565983255768
 10
-77.76730272130224
 20
51.28889524686107
 42
-0.3643452595155256
 10
-77.89512387504527
 20
51.54442176713966
 42
0.8851904312048391
 10
-77.84034338058397
 20
51.89120785705732
 42
0.4591687291158824
 10
-77.40209942489359
 20
52.23799386617769
 42
0.4934288106932542
 10
-77.73078239166138
 20
52.51177233270301
 42
-0.1357515009560381
 10
-76.41605052459023
 20
53.31485586682955
 42
0.2123022436283269
 10
-76.48909118387196
 20
53.02282545405749
 42
0.1230516070010872
 10
-76.23344887638589
 20
52.98632164236132
 42
0.2598150340557776
 10
-76.19692854674503
 20
52.4022609784118
 42
0.2217583400590825
 10
-75.59434322517276
 20
52.53002427894974
 42
0.4303166274735225
 10
-75.30218058804584
 20
52.42051284386124
 42
0.8198762692895325
 10
-75.21087976394368
 20
52.58477995609535
 42
-0.5232444164377494
 10
-75.13783910466194
 20
52.94981791146245
 42
-0.2605428266147924
 10
-74.20657069881989
 20
52.84030647637394
 42
0.4143461651614543
 10
-74.07874954507686
 20
52.60303182154479
 42
0.1892859341315459
 10
-73.85962756723166
 20
52.62128376779152
 42
-0.0987030000007224
 10
-72.80053812514859
 20
51.43491041284844
 42
0.6368916302045396
 10
-73.49442427082301
 20
50.6318269595192
 42
0.2534997081763192
 10
-73.18400158637768
 20
50.39455222389275
 42
-0.737304423699603
 10
-72.4718551583808
 20
50.37630035844331
 42
0.7005355398381319
 10
-72.67271697140556
 20
50.08427002646855
 42
-0.1339427322238132
 10
-72.28925351017648
 20
49.4819574162723
 42
0.0384221568956804
  0
LWPOLYLINE
  5
641
330
18
100
AcDbEntity
  8
ADP1DETAIL
100
AcDbPolyline
 90
        7
 70
     0
 43
0.0
 10
-74.90045696199633
 20
45.17450965605673
 42
0.2940176758117371
 10
-74.73611547861243
 20
45.94108929768981
 42
0.2327133269589781
 10
-75.21087976394368
 20
45.90458548599364
 42
0.5704202331710403
 10
-75.21087976394368
 20
45.70381464286065
 42
-0.2974030897331174
 10
-75.32044075286627
 20
44.88247924328468
 42
-0.0784557546677186
 10
-76.32474970048807
 20
43.98813630111366
 42
0.0065946149650856
 10
-77.67600189720008
 20
42.78351108072114
 42
-0.3886004686502026
  0
LWPOLYLINE
  5
64A
330
18
100
AcDbEntity
  8
ADP1DETAIL
100
AcDbPolyline
 90
        6
 70
     0
 43
0.0
 10
-79.65916953901967
 20
48.64316140844365
 42
-0.1768567761865047
 10
-80.19590452491776
 20
50.50406365898126
 42
-0.277616624418155
 10
-78.00468486396787
 20
53.58863425255758
 42
-0.3512660245940006
 10
-72.54489581766254
 20
52.43876479010797
 42
-0.4427395440255837
 10
-74.06048938025643
 20
44.93723500122757
 42
0.0465210321481449
 10
-77.2377579415097
 20
42.94777819295526
 42
-0.3382863031237644
  0
LWPOLYLINE
  5
652
330
18
100
AcDbEntity
  8
ADP1DETAIL
100
AcDbPolyline
 90
       20
 70
     0
 43
0.0
 10
-75.08305861020065
 20
51.17938381177256
 42
-0.8550669686229023
 10
-75.06479844538022
 20
50.59532314782303
 42
-0.4936707641458048
 10
-75.52130256589103
 20
51.16113194632312
 42
-0.4491935268068823
 10
-74.62655448968984
 20
51.76344455651937
 42
-0.2299634069640607
 10
-73.80484707277037
 20
51.25239143516489
 42
-0.1682141003775936
 10
-73.366603234582
 20
49.37244598118379
 42
-0.1946786331967935
 10
-74.90045696199633
 20
46.48864623074046
 42
-0.2116415134656111
 10
-77.1829774470484
 20
45.8315779433986
 42
-0.2702874216131421
 10
-78.26032717145392
 20
46.39738674189868
 42
-0.2227753049112675
 10
-78.11424585289046
 20
47.32823349576587
 42
-0.4001566316764804
 10
-77.36557909525273
 20
47.32823349576587
 42
-0.543705724026911
 10
-77.52992057863662
 20
46.83543232065812
 42
-0.4469970002069751
 10
-77.80382305094311
 20
47.01795129834167
 42
0.3237178082575984
 10
-77.82208321576354
 20
46.48864623074046
 42
0.1992814161123493
 10
-76.83603431546018
 20
46.16011208706953
 42
0.2048099226759293
 10
-75.04653828055978
 20
46.89018799780373
 42
0.1760126153016998
 10
-73.7683267431295
 20
49.39069792743052
 42
0.1781972104886181
 10
-74.13353003953815
 20
50.96036110319013
 42
0.1761476473784321
 10
-74.69959514897157
 20
51.38015473570284
 42
0.4181080120519788
 10
-75.06479844538022
 20
51.17938381177256
 42
-0.7560229695650689
  0
LWPOLYLINE
  5
668
330
18
100
AcDbEntity
  8
ADP1DETAIL
100
AcDbPolyline
 90
        8
 70
     0
 43
0.0
 10
-75.32044075286627
 20
44.86422737783524
 42
0.0598668446644299
 10
-78.22380684181306
 20
42.71050345732881
 42
0.2457919222523137
 10
-78.29684750109478
 20
44.3714261219302
 42
0.2465301428308793
 10
-79.13681496533268
 20
44.66345653470225
 42
0.4328193273572857
 10
-79.53853859138219
 20
43.93338062396805
 42
1.121810057409094
 10
-78.89943282266705
 20
44.22541095594282
 42
-0.4319088093056366
 10
-78.29684750109478
 20
43.3858236909174
 42
-0.1196459873555179
 10
-78.80813199856489
 20
42.345465582759
 42
-0.3316166583388596
  0
LWPOLYLINE
  5
672
330
18
100
AcDbEntity
  8
ADP1DETAIL
100
AcDbPolyline
 90
        9
 70
     0
 43
0.0
 10
-77.14645711740754
 20
44.20715909049337
 42
0.7962811375175801
 10
-77.1829774470484
 20
45.32052482204411
 42
-0.7358371195313626
 10
-76.81777415063975
 20
45.79507413170243
 42
-0.3561159352233199
 10
-76.21518871156546
 20
44.77296788899347
 42
-0.2704003676825728
 10
-76.90907497474191
 20
43.95163248941749
 42
-0.3890161594011101
 10
-77.1281969525871
 20
44.20715909049337
 42
0.2910690923223839
 10
-76.68995299689672
 20
44.22541095594282
 42
0.3592043219224698
 10
-76.68995299689672
 20
45.39353236463916
 42
0.5612822723087647
 10
-77.20123761186883
 20
45.32052482204411
 42
-0.4130315708203119
  0
LWPOLYLINE
  5
67D
330
18
100
AcDbEntity
  8
ADP1DETAIL
100
AcDbPolyline
 90
        5
 70
     0
 43
0.0
 10
-76.96385546920321
 20
50.79609399095602
 42
-0.1835949714295876
 10
-75.84998553265882
 20
50.6318269595192
 42
-0.2763732247769824
 10
-75.5030424010706
 20
49.24468276144314
 42
-0.3414549198994052
 10
-77.10993678776667
 20
47.78453093997474
 42
-0.0710359911271924
 10
-78.16902634735176
 20
47.85753856336707
 42
0.1057208449966263
  0
LWPOLYLINE
  5
684
330
18
100
AcDbEntity
  8
ADP1DETAIL
100
AcDbPolyline
 90
        3
 70
     0
 43
0.0
 10
-76.41605052459023
 20
50.1572775690636
 42
-0.5008332323506567
 10
-76.16040821710416
 20
48.86139285982931
 42
-0.2392697661935204
 10
-77.00037579884408
 20
48.40509541562044
 42
-0.013962686493639
  0
LWPOLYLINE
  5
689
330
18
100
AcDbEntity
  8
ADP1DETAIL
100
AcDbPolyline
 90
        4
 70
     0
 43
0.0
 10
-77.76730272130224
 20
52.49352046725357
 42
0.2804490703045635
 10
-77.87686371022484
 20
52.34750530126619
 42
-0.200187101068143
 10
-77.54818074345705
 20
53.27835205513338
 42
-0.2016880952693036
 10
-75.44826190660931
 20
53.78940517648786
 42
-12.5276352254793
  0
LWPOLYLINE
  5
68F
330
18
100
AcDbEntity
  8
ADP1DETAIL
100
AcDbPolyline
 90
        4
 70
     0
 43
0.0
 10
-77.84034338058397
 20
51.89120785705732
 42
-0.5144340807308039
 10
-78.15076618253133
 20
52.38400903216508
 42
-0.2355132880685252
 10
-77.62122140273878
 20
53.24184824343721
 42
-0.1258439230241488
 10
-76.21518871156546
 20
53.82590898818403
 42
13.92928505065691
  0
LWPOLYLINE
  5
695
330
18
100
AcDbEntity
  8
ADP1DETAIL
100
AcDbPolyline
 90
        9
 70
     0
 43
0.0
 10
-79.50201826174133
 20
48.27733219587979
 42
-0.7889739701419462
 10
-79.86722155814998
 20
48.47810303901277
 42
-0.3636945928173291
 10
-79.62983941548436
 20
48.64237015124689
 42
-1.106450221090461
 10
-79.95852238225214
 20
46.96319554039876
 42
-0.490022394415147
 10
-79.94026221743171
 20
47.60201196229119
 42
-1.055903671874957
 10
-79.70288007476608
 20
47.23697400692409
 42
0.7209450094086462
 10
-79.2646361190757
 20
48.27733219587979
 42
0.4177724648593983
 10
-79.52027842656176
 20
48.25908024963306
 42
-0.4636277985975335
 10
-79.59331908584349
 20
47.47424866175324
 42
-0.3146806567707097
  0
LWPOLYLINE
  5
6A0
330
18
100
AcDbEntity
  8
ADP1DETAIL
100
AcDbPolyline
 90
        5
 70
     0
 43
0.0
 10
-77.03689612848494
 20
49.18992700350024
 42
-0.2913322576709147
 10
-77.0734164581258
 20
48.82488912893044
 42
-0.3706037663529773
 10
-77.98642469914743
 20
48.58761439330399
 42
-0.3388478715959558
 10
-79.30115644871657
 20
50.13902570361416
 42
-0.0929815838381065
 10
-79.19159545979397
 20
51.3071471123105
 42
1.326625515392093
  0
LWPOLYLINE
  5
6A7
330
18
100
AcDbEntity
  8
ADP1DETAIL
100
AcDbPolyline
 90
        7
 70
     0
 43
0.0
 10
-76.87255464510105
 20
49.39069792743052
 42
-0.7157483053350166
 10
-77.34731893043229
 20
49.29943843858875
 42
-0.5096215611418918
 10
-77.09167662294624
 20
49.86524723708884
 42
-0.4514995418305471
 10
-76.48909118387196
 20
49.28118649234201
 42
-0.3014333424833468
 10
-77.00037579884408
 20
48.386843550171
 42
-0.1770196264506817
 10
-78.57074997340127
 20
48.35033973847483
 42
-0.3590781282360412
 10
-79.55679875620262
 20
51.21588762346873
 42
1.441913686840894
  0
LWPOLYLINE
  5
6B0
330
18
100
AcDbEntity
  8
ADP1DETAIL
100
AcDbPolyline
 90
        3
 70
     0
 43
0.0
 10
-78.91769298748748
 20
41.92567195024629
 42
-0.0277682262457292
 10
-78.80813199856489
 20
42.58274023758816
 42
0.2392589098787791
 10
-78.88117265784662
 20
43.78736545798068
 42
0.5729261670679014
  0
ARC
  5
6B5
330
18
100
AcDbEntity
  8
ADP1DETAIL
100
AcDbCircle
 10
-77.90718935297623
 20
43.16140818150239
 30
0.0
 40
0.1775367198812092
100
AcDbArc
 50
196.1434781010634
 51
273.8968514009305
  0
LWPOLYLINE
  5
6B6
330
18
100
AcDbEntity
  8
ADP1DETAIL
100
AcDbPolyline
 90
        5
 70
     0
 43
0.0
 10
-78.62553046786257
 20
53.02282545405749
 42
0.1369387856199347
 10
-79.42897760245959
 20
51.6721850676776
 42
0.4185098603084131
 10
-79.30115644871657
 20
51.45316227829788
 42
0.2092001347405044
 10
-78.77161166892403
 20
52.00071921134853
 42
0.0135192591369426
 10
-78.51596947893998
 20
52.74904698753217
 42
1.359145917299853
  0
LWPOLYLINE
  5
6BD
330
18
100
AcDbEntity
  8
ADP1DETAIL
100
AcDbPolyline
 90
        4
 70
     0
 43
0.0
 10
-77.25601810633013
 20
53.64339001050048
 42
0.2305558328730897
 10
-78.62553046786257
 20
52.27449767787386
 42
0.2473567510464908
 10
-78.36988816037652
 20
51.08812432293079
 42
0.3140524100635967
 10
-77.51166041381619
 20
51.17938381177256
 42
2.678912995137256
  0
LWPOLYLINE
  5
6C3
330
18
100
AcDbEntity
  8
ADP1DETAIL
100
AcDbPolyline
 90
        4
 70
     0
 43
0.0
 10
-76.87255464510105
 20
49.39069792743052
 42
-0.4600703369216273
 10
-76.74473349135801
 20
49.08041564920903
 42
-0.3139151751041467
 10
-76.89081480992148
 20
48.77013337098754
 10
-77.0734164581258
 20
48.51460685070894
  0
LWPOLYLINE
  5
6C9
330
18
100
AcDbEntity
  8
ADP1DETAIL
100
AcDbPolyline
 90
        2
 70
     0
 43
0.0
 10
-77.89512387504527
 20
51.54442176713966
 42
-0.4142605026813357
 10
-78.26032717145392
 20
52.09197870019031
 42
1.219643580896803
  0
LWPOLYLINE
  5
6CD
330
18
100
AcDbEntity
  8
ADP1DETAIL
100
AcDbPolyline
 90
        7
 70
     0
 43
0.0
 10
-72.28925351017648
 20
49.4819574162723
 42
-0.1711427191304343
 10
-72.05187136751085
 20
48.49635490446221
 42
-0.1051948086144435
 10
-72.38055433427864
 20
46.78067656271521
 42
0.1339787234536198
 10
-72.25273318053561
 20
48.7518815055381
 42
0.8610406798737315
 10
-72.59967631212383
 20
48.73362964008865
 42
0.0534417599947774
 10
-72.49011532320124
 20
47.96704991765829
 42
-0.2418202333700333
 10
-73.16574142155724
 20
45.97759310938598
 42
-0.4045718014131431
  0
LWPOLYLINE
  5
6D6
330
18
100
AcDbEntity
  8
ADP1DETAIL
100
AcDbPolyline
 90
        6
 70
     0
 43
0.0
 10
-72.59967631212383
 20
48.73362964008865
 42
0.2738621929691951
 10
-73.29356257530027
 20
49.08041564920903
 42
0.5463738121355246
 10
-73.40312344672085
 20
48.87964480607604
 42
0.3366790964970034
 10
-73.2022617511981
 20
48.25908024963306
 42
-0.3856622362105608
 10
-73.45790394118215
 20
45.97759310938598
 42
0.0446056910420342
 10
-73.78658690794994
 20
45.6308071002656
 42
-0.4838845952584939
  0
LINE
  5
6DE
330
18
100
AcDbEntity
  8
ADP1DETAIL
100
AcDbLine
 10
-72.28474754310678
 20
44.57468099695107
 30
0.0
 11
-72.36317707955944
 21
44.72493616233282
 31
0.0
  0
LINE
  5
6DF
330
18
100
AcDbEntity
  8
ADP1DETAIL
100
AcDbLine
 10
-72.56578661747714
 20
44.43749148055963
 30
0.0
 11
-72.56578661747714
 21
44.66614062068051
 31
0.0
  0
LINE
  5
6E0
330
18
100
AcDbEntity
  8
ADP1DETAIL
100
AcDbLine
 10
-72.3958560334977
 20
44.50281980630845
 30
0.0
 11
-72.44814231279815
 21
44.70533764844872
 31
0.0
  0
LWPOLYLINE
  5
6E1
330
18
100
AcDbEntity
  8
ADP1DETAIL
100
AcDbPolyline
 90
       14
 70
     0
 43
0.0
 10
-73.01022046153889
 20
43.94752903744345
 42
-0.1467050321830755
 10
-73.50694058490107
 20
43.98672598441437
 42
-0.1656996058660286
 10
-73.56576267848957
 20
44.30683482906198
 42
-0.4257045382666674
 10
-73.31740267555947
 20
44.62041080881578
 42
-0.0689366824059645
 10
-72.82721824898334
 20
44.68573913456461
 42
0.3253439409413843
 10
-72.29781917168288
 20
44.92092113957929
 42
0.2354507937919226
 10
-72.25860440345655
 20
45.56113874807723
 42
0.0144221551275955
 10
-72.53310766353887
 20
45.94004305357986
 42
-0.6698260911055259
 10
-72.40892754457181
 20
46.20135635657516
 42
-0.1148642268952106
 10
-71.99063695766229
 20
46.01843702831899
 42
-0.2309448084768841
 10
-71.57888206753881
 20
45.34555525694665
 42
-0.0476422667994491
 10
-71.57888206753881
 20
44.74453459541964
 42
-0.3549455941855617
 10
-72.36317707955944
 20
43.94752903744345
 10
-73.01022046153889
 20
43.94099617254965
  0
LWPOLYLINE
  5
6F1
330
18
100
AcDbEntity
  8
ADP1DETAIL
100
AcDbPolyline
 90
        9
 70
     0
 43
0.0
 10
-72.37624859063354
 20
46.01843702831899
 42
-0.0065139399516056
 10
-71.98410114337423
 20
45.67872975058456
 42
-0.2130425777018035
 10
-71.82724218797092
 20
45.01238076330873
 42
-0.1913259583253517
 10
-72.24553277488045
 20
44.37869601970461
 42
-0.2423390323928017
 10
-73.21936581374465
 20
44.15657966368022
 42
-0.7363492542276169
 10
-73.23897313910681
 20
44.38522880380111
 42
0.0981598759666827
 10
-72.82721824898334
 20
44.38522880380111
 42
0.4261991981158975
 10
-71.9318148640738
 20
45.26062841731373
 42
0.2210159074622217
 10
-72.37624859063354
 20
46.01190416342519
 42
0.3101903762028968
  0
LINE
  5
6FC
330
18
100
AcDbEntity
  8
ADP1DETAIL
100
AcDbLine
 10
-73.24550895339488
 20
44.12391550080581
 30
0.0
 11
-73.36315314057187
 21
43.99325884930816
 31
0.0
  0
LWPOLYLINE
  5
6FD
330
18
100
AcDbEntity
  8
ADP1DETAIL
100
AcDbPolyline
 90
        2
 70
     0
 43
0.0
 10
-73.01022046153889
 20
43.94752903744345
 42
0.1467050321830755
 10
-73.50694058490107
 20
43.90833209047253
 42
0.1656996058660286
  0
LINE
  5
701
330
18
100
AcDbEntity
  8
ADP1DETAIL
100
AcDbLine
 10
-73.28472372162121
 20
43.70581424833225
 30
0.0
 11
-73.52001221347719
 21
43.78420822307139
 31
0.0
  0
LINE
  5
702
330
18
100
AcDbEntity
  8
ADP1DETAIL
100
AcDbLine
 10
-73.24550895339488
 20
43.77114257408108
 30
0.0
 11
-73.36315314057187
 21
43.90179922557873
 31
0.0
  0
LINE
  5
703
330
18
100
AcDbEntity
  8
ADP1DETAIL
100
AcDbLine
 10
-73.28472372162121
 20
44.18924382655464
 30
0.0
 11
-73.52001221347719
 21
44.11084985181551
 31
0.0
  0
LWPOLYLINE
  5
704
330
18
100
AcDbEntity
  8
ADP1DETAIL
100
AcDbPolyline
 90
        9
 70
     0
 43
0.0
 10
-72.37624859063354
 20
41.8766210465679
 42
0.0065139399516056
 10
-71.98410114337423
 20
42.21632832430233
 42
0.2130425777018035
 10
-71.82724218797092
 20
42.88267731157816
 42
0.1913259583253517
 10
-72.24553277488045
 20
43.5163620551823
 42
0.2423390323928017
 10
-73.21936581374465
 20
43.73847841120666
 42
0.7363492542276169
 10
-73.23897313910681
 20
43.50982927108579
 42
-0.0981598759666827
 10
-72.82721824898334
 20
43.50982927108579
 42
-0.4261991981158975
 10
-71.9318148640738
 20
42.63442965757318
 42
-0.2210159074622217
 10
-72.37624859063354
 20
41.8831539114617
 42
-0.3101903762028968
  0
LWPOLYLINE
  5
70F
330
18
100
AcDbEntity
  8
ADP1DETAIL
100
AcDbPolyline
 90
       13
 70
     0
 43
0.0
 10
-73.57072457652586
 20
43.64051197243498
 42
0.0260434411845329
 10
-73.56576267848957
 20
43.58822324582492
 42
0.4257045382666674
 10
-73.31740267555947
 20
43.2746472660711
 42
0.0689366824059645
 10
-72.82721824898334
 20
43.20931894032228
 42
-0.3253439409413843
 10
-72.29781917168288
 20
42.9741369353076
 42
-0.2354507937919226
 10
-72.25860440345655
 20
42.33391932680967
 42
-0.0144221551275955
 10
-72.53310766353887
 20
41.95501502130704
 42
0.6698260911055259
 10
-72.40892754457181
 20
41.69370171831174
 42
0.1148642268952106
 10
-71.99063695766229
 20
41.8766210465679
 42
0.2309448084768841
 10
-71.57888206753881
 20
42.54950281794025
 42
0.0476422667994491
 10
-71.57888206753881
 20
43.15052347946726
 42
0.3549455941855617
 10
-72.36317707955944
 20
43.94752903744345
 10
-73.01022046153889
 20
43.95406190233725
  0
LWPOLYLINE
  5
71E
330
18
100
AcDbEntity
  8
ADP1DETAIL
100
AcDbPolyline
 90
        4
 70
     0
 43
0.0
 10
-73.82539631731823
 20
41.3432985466798
 42
0.1605353556521489
 10
-74.08344315989487
 20
41.6298874554918
 42
0.0552165532276693
 10
-75.27332583075846
 20
42.14574741341324
 42
0.3009673808172822
 10
-75.51703669827984
 20
42.07410025927912
 42
2.150252395713755
  0
LINE
  5
724
330
18
100
AcDbEntity
  8
ADP1DETAIL
100
AcDbLine
 10
-73.31086686127142
 20
43.55555908295051
 30
0.0
 11
-73.44158267702453
 21
43.37263975469435
 31
0.0
  0
LINE
  5
725
330
18
100
AcDbEntity
  8
ADP1DETAIL
100
AcDbLine
 10
-73.31740267555947
 20
43.59475611071871
 30
0.0
 11
-73.5330837245513
 21
43.63395305768963
 31
0.0
  0
LINE
  5
726
330
18
100
AcDbEntity
  8
ADP1DETAIL
100
AcDbLine
 10
-73.31740267555947
 20
44.30030196416818
 30
0.0
 11
-73.5330837245513
 21
44.26110501719725
 31
0.0
  0
LINE
  5
727
330
18
100
AcDbEntity
  8
ADP1DETAIL
100
AcDbLine
 10
-73.31086686127142
 20
44.33949899193639
 30
0.0
 11
-73.44158267702453
 21
44.52241832019256
 31
0.0
  0
LINE
  5
728
330
18
100
AcDbEntity
  8
ADP1DETAIL
100
AcDbLine
 10
-71.97102951479812
 20
42.83694749971345
 30
0.0
 11
-72.14749591306561
 21
42.6932251184282
 31
0.0
  0
LINE
  5
729
330
18
100
AcDbEntity
  8
ADP1DETAIL
100
AcDbLine
 10
-71.59848939290099
 20
42.67362668534139
 30
0.0
 11
-71.80109893081869
 21
42.73895501109021
 31
0.0
  0
LINE
  5
72A
330
18
100
AcDbEntity
  8
ADP1DETAIL
100
AcDbLine
 10
-71.64423997541537
 20
42.39271486846198
 30
0.0
 11
-71.82070637368287
 21
42.49724014118173
 31
0.0
  0
LINE
  5
72B
330
18
100
AcDbEntity
  8
ADP1DETAIL
100
AcDbLine
 10
-71.61809683576516
 20
42.51683865506584
 30
0.0
 11
-71.80763474510675
 21
42.58869984570845
 31
0.0
  0
LINE
  5
72C
330
18
100
AcDbEntity
  8
ADP1DETAIL
100
AcDbLine
 10
-71.72266951186803
 20
42.22939405408992
 30
0.0
 11
-71.88606428155941
 21
42.34698497579997
 31
0.0
  0
LINE
  5
72D
330
18
100
AcDbEntity
  8
ADP1DETAIL
100
AcDbLine
 10
-71.96449381801207
 20
42.51683865506584
 30
0.0
 11
-72.2063180066541
 21
42.43191181543291
 31
0.0
  0
LINE
  5
72E
330
18
100
AcDbEntity
  8
ADP1DETAIL
100
AcDbLine
 10
-72.01024428302445
 20
42.35351784069377
 30
0.0
 11
-72.23246126380633
 21
42.32085367781937
 31
0.0
  0
LINE
  5
72F
330
18
100
AcDbEntity
  8
ADP1DETAIL
100
AcDbLine
 10
-72.05599486553885
 20
42.08567167280468
 30
0.0
 11
-72.02331591160057
 21
41.88968669555821
 31
0.0
  0
LINE
  5
730
330
18
100
AcDbEntity
  8
ADP1DETAIL
100
AcDbLine
 10
-71.9448863751479
 20
42.65402817145728
 30
0.0
 11
-72.13442440199151
 21
42.59523262980496
 31
0.0
  0
LINE
  5
731
330
18
100
AcDbEntity
  8
ADP1DETAIL
100
AcDbLine
 10
-72.16056754164172
 20
42.09873740259229
 30
0.0
 11
-72.35664126527137
 21
42.10527018668879
 31
0.0
  0
LINE
  5
732
330
18
100
AcDbEntity
  8
ADP1DETAIL
100
AcDbLine
 10
-72.36971289384749
 20
41.8766210465679
 30
0.0
 11
-72.33049812562116
 21
41.72636588118615
 31
0.0
  0
LINE
  5
733
330
18
100
AcDbEntity
  8
ADP1DETAIL
100
AcDbLine
 10
-72.16710335592978
 20
41.99421204907525
 30
0.0
 11
-72.16710335592978
 21
41.80475985592528
 31
0.0
  0
LINE
  5
734
330
18
100
AcDbEntity
  8
ADP1DETAIL
100
AcDbLine
 10
-72.2520685891685
 20
41.90928520944232
 30
0.0
 11
-72.2520685891685
 21
41.75249725996406
 31
0.0
  0
LINE
  5
735
330
18
100
AcDbEntity
  8
ADP1DETAIL
100
AcDbLine
 10
-72.09520963376518
 20
42.19019702632172
 30
0.0
 11
-72.31089068275699
 21
42.19019702632172
 31
0.0
  0
LINE
  5
736
330
18
100
AcDbEntity
  8
ADP1DETAIL
100
AcDbLine
 10
-71.96449381801207
 20
42.1640657283411
 30
0.0
 11
-71.89913579263351
 21
41.96154788620083
 31
0.0
  0
LINE
  5
737
330
18
100
AcDbEntity
  8
ADP1DETAIL
100
AcDbLine
 10
-71.91874323549768
 20
42.22939405408992
 30
0.0
 11
-71.81417055939481
 21
42.03340907684346
 31
0.0
  0
LINE
  5
738
330
18
100
AcDbEntity
  8
ADP1DETAIL
100
AcDbLine
 10
-72.29781917168288
 20
41.96154788620083
 30
0.0
 11
-72.4416064985101
 21
41.98114640008493
 31
0.0
  0
LINE
  5
739
330
18
100
AcDbEntity
  8
ADP1DETAIL
100
AcDbLine
 10
-72.37624859063354
 20
41.8831539114617
 30
0.0
 11
-72.48735708102448
 21
41.90928520944232
 31
0.0
  0
LINE
  5
73A
330
18
100
AcDbEntity
  8
ADP1DETAIL
100
AcDbLine
 10
-71.72266951186803
 20
43.5163620551823
 30
0.0
 11
-72.03638742267468
 21
43.35304124081024
 31
0.0
  0
LINE
  5
73B
330
18
100
AcDbEntity
  8
ADP1DETAIL
100
AcDbLine
 10
-71.59848939290099
 20
43.22238458931258
 30
0.0
 11
-71.89913579263351
 21
43.20931894032228
 31
0.0
  0
LINE
  5
73C
330
18
100
AcDbEntity
  8
ADP1DETAIL
100
AcDbLine
 10
-71.65077578970343
 20
43.37263975469435
 30
0.0
 11
-71.95795800372401
 21
43.255048752187
 31
0.0
  0
LINE
  5
73D
330
18
100
AcDbEntity
  8
ADP1DETAIL
100
AcDbLine
 10
-71.72266951186803
 20
44.37869601970461
 30
0.0
 11
-72.03638742267468
 21
44.54201683407666
 31
0.0
  0
LINE
  5
73E
330
18
100
AcDbEntity
  8
ADP1DETAIL
100
AcDbLine
 10
-71.65077578970343
 20
44.52241832019256
 30
0.0
 11
-71.95795800372401
 21
44.64000932269989
 31
0.0
  0
LINE
  5
73F
330
18
100
AcDbEntity
  8
ADP1DETAIL
100
AcDbLine
 10
-71.58541788182687
 20
43.10479358680525
 30
0.0
 11
-71.84684951333308
 21
43.11132645169904
 31
0.0
  0
LINE
  5
740
330
18
100
AcDbEntity
  8
ADP1DETAIL
100
AcDbLine
 10
-71.57234625325076
 20
42.9872026650952
 30
0.0
 11
-71.80763474510675
 21
42.9872026650952
 31
0.0
  0
LINE
  5
741
330
18
100
AcDbEntity
  8
ADP1DETAIL
100
AcDbLine
 10
-71.57234625325076
 20
42.83041463481964
 30
0.0
 11
-71.82070637368287
 21
42.88267731157816
 31
0.0
  0
LINE
  5
742
330
18
100
AcDbEntity
  8
ADP1DETAIL
100
AcDbLine
 10
-71.96449381801207
 20
43.70581424833225
 30
0.0
 11
-72.19324649558
 21
43.5294277849699
 31
0.0
  0
LINE
  5
743
330
18
100
AcDbEntity
  8
ADP1DETAIL
100
AcDbLine
 10
-71.84031369904502
 20
43.62742027359312
 30
0.0
 11
-72.10174544805323
 21
43.44450094533697
 31
0.0
  0
LINE
  5
744
330
18
100
AcDbEntity
  8
ADP1DETAIL
100
AcDbLine
 10
-72.08213800518906
 20
43.77767543897488
 30
0.0
 11
-72.28474754310678
 21
43.58169038093111
 31
0.0
  0
LINE
  5
745
330
18
100
AcDbEntity
  8
ADP1DETAIL
100
AcDbLine
 10
-71.96449381801207
 20
44.18924382655464
 30
0.0
 11
-72.19324649558
 21
44.36563028991701
 31
0.0
  0
LINE
  5
746
330
18
100
AcDbEntity
  8
ADP1DETAIL
100
AcDbLine
 10
-71.84031369904502
 20
44.26763780129377
 30
0.0
 11
-72.10174544805323
 21
44.45055712954993
 31
0.0
  0
LINE
  5
747
330
18
100
AcDbEntity
  8
ADP1DETAIL
100
AcDbLine
 10
-72.08213800518906
 20
44.11738263591201
 30
0.0
 11
-72.28474754310678
 21
44.31336769395577
 31
0.0
  0
LINE
  5
748
330
18
100
AcDbEntity
  8
ADP1DETAIL
100
AcDbLine
 10
-72.63114452535369
 20
43.97366033542406
 30
0.0
 11
-72.67035929358002
 21
44.12391550080581
 31
0.0
  0
LINE
  5
749
330
18
100
AcDbEntity
  8
ADP1DETAIL
100
AcDbLine
 10
-72.74225301574464
 20
43.97366033542406
 30
0.0
 11
-72.77493196968291
 21
44.0912513379314
 31
0.0
  0
LINE
  5
74A
330
18
100
AcDbEntity
  8
ADP1DETAIL
100
AcDbLine
 10
-72.91218359972408
 20
43.96712755132756
 30
0.0
 11
-72.93832673937429
 21
44.0912513379314
 31
0.0
  0
LINE
  5
74B
330
18
100
AcDbEntity
  8
ADP1DETAIL
100
AcDbLine
 10
-73.03636360118911
 20
43.97366033542406
 30
0.0
 11
-73.06250674083933
 21
44.1043169869217
 31
0.0
  0
LINE
  5
74C
330
18
100
AcDbEntity
  8
ADP1DETAIL
100
AcDbLine
 10
-73.19975837088048
 20
44.0977842028252
 30
0.0
 11
-73.19975837088048
 21
43.96059468643375
 31
0.0
  0
LINE
  5
74D
330
18
100
AcDbEntity
  8
ADP1DETAIL
100
AcDbLine
 10
-73.24550895339488
 20
43.49676362209549
 30
0.0
 11
-73.28472372162121
 21
43.32037707793583
 31
0.0
  0
LINE
  5
74E
330
18
100
AcDbEntity
  8
ADP1DETAIL
100
AcDbLine
 10
-73.19975837088048
 20
43.7972738720617
 30
0.0
 11
-73.19975837088048
 21
43.93446338845314
 31
0.0
  0
LINE
  5
74F
330
18
100
AcDbEntity
  8
ADP1DETAIL
100
AcDbLine
 10
-72.68996661894219
 20
43.48369789230789
 30
0.0
 11
-72.67035929358002
 21
43.2746472660711
 31
0.0
  0
LINE
  5
750
330
18
100
AcDbEntity
  8
ADP1DETAIL
100
AcDbLine
 10
-72.81414673790924
 20
43.49676362209549
 30
0.0
 11
-72.78146766646895
 21
43.2746472660711
 31
0.0
  0
LINE
  5
751
330
18
100
AcDbEntity
  8
ADP1DETAIL
100
AcDbLine
 10
-72.92525511079817
 20
43.49676362209549
 30
0.0
 11
-72.8925761568599
 21
43.255048752187
 31
0.0
  0
LINE
  5
752
330
18
100
AcDbEntity
  8
ADP1DETAIL
100
AcDbLine
 10
-73.04943522976522
 20
43.49023075720168
 30
0.0
 11
-72.98407732188867
 21
43.2681144011773
 31
0.0
  0
LINE
  5
753
330
18
100
AcDbEntity
  8
ADP1DETAIL
100
AcDbLine
 10
-73.15400790586811
 20
43.49023075720168
 30
0.0
 11
-73.14093627729199
 21
43.2746472660711
 31
0.0
  0
LINE
  5
754
330
18
100
AcDbEntity
  8
ADP1DETAIL
100
AcDbLine
 10
-72.91218359972408
 20
43.92793052355934
 30
0.0
 11
-72.93832673937429
 21
43.80380673695549
 31
0.0
  0
LINE
  5
755
330
18
100
AcDbEntity
  8
ADP1DETAIL
100
AcDbLine
 10
-73.03636360118911
 20
43.92139773946284
 30
0.0
 11
-73.06250674083933
 21
43.79074108796518
 31
0.0
  0
LINE
  5
756
330
18
100
AcDbEntity
  8
ADP1DETAIL
100
AcDbLine
 10
-72.63114452535369
 20
43.92139773946284
 30
0.0
 11
-72.67035929358002
 21
43.77114257408108
 31
0.0
  0
LINE
  5
757
330
18
100
AcDbEntity
  8
ADP1DETAIL
100
AcDbLine
 10
-72.74225301574464
 20
43.92139773946284
 30
0.0
 11
-72.77493196968291
 21
43.80380673695549
 31
0.0
  0
LINE
  5
758
330
18
100
AcDbEntity
  8
ADP1DETAIL
100
AcDbLine
 10
-73.24550895339488
 20
44.39829445279142
 30
0.0
 11
-73.28472372162121
 21
44.57468099695107
 31
0.0
  0
LINE
  5
759
330
18
100
AcDbEntity
  8
ADP1DETAIL
100
AcDbLine
 10
-72.92525511079817
 20
44.39829445279142
 30
0.0
 11
-72.8925761568599
 21
44.64000932269989
 31
0.0
  0
LINE
  5
75A
330
18
100
AcDbEntity
  8
ADP1DETAIL
100
AcDbLine
 10
-73.04943522976522
 20
44.40482731768521
 30
0.0
 11
-72.98407732188867
 21
44.62694367370959
 31
0.0
  0
LINE
  5
75B
330
18
100
AcDbEntity
  8
ADP1DETAIL
100
AcDbLine
 10
-73.15400790586811
 20
44.40482731768521
 30
0.0
 11
-73.14093627729199
 21
44.62041080881578
 31
0.0
  0
LINE
  5
75C
330
18
100
AcDbEntity
  8
ADP1DETAIL
100
AcDbLine
 10
-72.68996661894219
 20
44.41136018257902
 30
0.0
 11
-72.67035929358002
 21
44.62041080881578
 31
0.0
  0
LINE
  5
75D
330
18
100
AcDbEntity
  8
ADP1DETAIL
100
AcDbLine
 10
-72.81414673790924
 20
44.39829445279142
 30
0.0
 11
-72.78146766646895
 21
44.62041080881578
 31
0.0
  0
LINE
  5
75E
330
18
100
AcDbEntity
  8
ADP1DETAIL
100
AcDbLine
 10
-72.5135002206747
 20
43.99979171420197
 30
0.0
 11
-72.55271498890103
 21
44.17617817756433
 31
0.0
  0
LINE
  5
75F
330
18
100
AcDbEntity
  8
ADP1DETAIL
100
AcDbLine
 10
-72.56578661747714
 20
43.45756659432727
 30
0.0
 11
-72.56578661747714
 21
43.22891745420639
 31
0.0
  0
LINE
  5
760
330
18
100
AcDbEntity
  8
ADP1DETAIL
100
AcDbLine
 10
-72.5135002206747
 20
43.89526636068493
 30
0.0
 11
-72.55271498890103
 21
43.71887989732257
 31
0.0
  0
LINE
  5
761
330
18
100
AcDbEntity
  8
ADP1DETAIL
100
AcDbLine
 10
-72.3958560334977
 20
43.39223826857845
 30
0.0
 11
-72.44814231279815
 21
43.18972042643817
 31
0.0
  0
LINE
  5
762
330
18
100
AcDbEntity
  8
ADP1DETAIL
100
AcDbLine
 10
-72.31089068275699
 20
43.8430037647237
 30
0.0
 11
-72.42199917314792
 21
43.65355157157374
 31
0.0
  0
LINE
  5
763
330
18
100
AcDbEntity
  8
ADP1DETAIL
100
AcDbLine
 10
-72.31089068275699
 20
44.05205431016319
 30
0.0
 11
-72.42199917314792
 21
44.24150650331315
 31
0.0
  0
LINE
  5
764
330
18
100
AcDbEntity
  8
ADP1DETAIL
100
AcDbLine
 10
-71.99717277195034
 20
42.92840712344289
 30
0.0
 11
-72.14096009877756
 21
42.81734898582934
 31
0.0
  0
LINE
  5
765
330
18
100
AcDbEntity
  8
ADP1DETAIL
100
AcDbLine
 10
-72.04945905125079
 20
43.03293247695992
 30
0.0
 11
-72.18017486700389
 21
42.90227582546227
 31
0.0
  0
LINE
  5
766
330
18
100
AcDbEntity
  8
ADP1DETAIL
100
AcDbLine
 10
-72.15403172735367
 20
43.17665477744787
 30
0.0
 11
-72.26514021774462
 21
43.01986682796961
 31
0.0
  0
LINE
  5
767
330
18
100
AcDbEntity
  8
ADP1DETAIL
100
AcDbLine
 10
-72.28474754310678
 20
43.32037707793583
 30
0.0
 11
-72.36317707955944
 21
43.17012191255407
 31
0.0
  0
LWPOLYLINE
  5
768
330
18
100
AcDbEntity
  8
ADP1DETAIL
100
AcDbPolyline
 90
        3
 70
     0
 43
0.0
 10
-73.22052191601854
 20
48.24082838418362
 42
0.4472898654225374
 10
-73.3118227401207
 20
47.87579042881652
 42
-0.3943474591406006
 10
-73.73180641348864
 20
46.06885259822774
 42
-0.3045079351524696
  0
LWPOLYLINE
  5
76D
330
18
100
AcDbEntity
  8
ADP1DETAIL
100
AcDbPolyline
 90
        4
 70
     0
 43
0.0
 10
-74.07874954507686
 20
46.05060073277831
 42
0.449159618772597
 10
-74.42569267666508
 20
46.68941707387345
 42
0.3607396564733519
 10
-74.90045696199633
 20
46.45214241904429
 42
-0.3867364711649129
 10
-74.717855313792
 20
45.94108929768981
 42
-0.6666074375980471
  0
LWPOLYLINE
  5
773
330
18
100
AcDbEntity
  8
ADP1DETAIL
100
AcDbPolyline
 90
        4
 70
     0
 43
0.0
 10
-74.90045696199633
 20
46.45214241904429
 42
-0.1764172945150082
 10
-74.48047317112638
 20
46.41563868814541
 42
-0.248487091570107
 10
-74.46221300630594
 20
46.03234878653158
 42
-0.2519921822836848
 10
-74.77263580825329
 20
45.28402101034795
 42
-0.3559169029524395
  0
LWPOLYLINE
  5
779
330
18
100
AcDbEntity
  8
ADP1DETAIL
100
AcDbPolyline
 90
        7
 70
     0
 43
0.0
 10
-74.62655448968984
 20
44.7912197544429
 42
0.2655792368498397
 10
-74.40743251184464
 20
45.08325016721495
 42
-0.0592586464018592
 10
-73.89614789687254
 20
45.77682226625299
 42
-0.2333801857241679
 10
-73.60398525974561
 20
45.8863336205442
 42
0.193973251001099
 10
-73.96918855615426
 20
46.08710446367719
 42
0.4393154503787594
 10
-74.22483086364032
 20
45.86808175509476
 42
-0.0471992727758558
 10
-74.48047317112638
 20
45.50304379972766
 42
-0.4619712840308888
  0
LINE
  5
782
330
18
100
AcDbEntity
  8
ADP1DETAIL
100
AcDbLine
 10
-71.59848939290099
 20
45.22143138954551
 30
0.0
 11
-71.80109893081869
 21
45.15610306379668
 31
0.0
  0
LINE
  5
783
330
18
100
AcDbEntity
  8
ADP1DETAIL
100
AcDbLine
 10
-71.61809683576516
 20
45.37821941982106
 30
0.0
 11
-71.80763474510675
 21
45.30635822917844
 31
0.0
  0
LINE
  5
784
330
18
100
AcDbEntity
  8
ADP1DETAIL
100
AcDbLine
 10
-71.64423997541537
 20
45.5023432064249
 30
0.0
 11
-71.82070637368287
 21
45.39781793370517
 31
0.0
  0
LINE
  5
785
330
18
100
AcDbEntity
  8
ADP1DETAIL
100
AcDbLine
 10
-71.72266951186803
 20
45.66566402079697
 30
0.0
 11
-71.88606428155941
 21
45.54807309908691
 31
0.0
  0
LINE
  5
786
330
18
100
AcDbEntity
  8
ADP1DETAIL
100
AcDbLine
 10
-71.58541788182687
 20
44.79026448808165
 30
0.0
 11
-71.84684951333308
 21
44.78373162318785
 31
0.0
  0
LINE
  5
787
330
18
100
AcDbEntity
  8
ADP1DETAIL
100
AcDbLine
 10
-71.57234625325076
 20
44.9078554097917
 30
0.0
 11
-71.80763474510675
 21
44.9078554097917
 31
0.0
  0
LINE
  5
788
330
18
100
AcDbEntity
  8
ADP1DETAIL
100
AcDbLine
 10
-71.59848939290099
 20
44.6726734855743
 30
0.0
 11
-71.89913579263351
 21
44.68573913456461
 31
0.0
  0
LINE
  5
789
330
18
100
AcDbEntity
  8
ADP1DETAIL
100
AcDbLine
 10
-71.57234625325076
 20
45.06464344006725
 30
0.0
 11
-71.82070637368287
 21
45.01238076330873
 31
0.0
  0
LINE
  5
78A
330
18
100
AcDbEntity
  8
ADP1DETAIL
100
AcDbLine
 10
-71.9448863751479
 20
45.24102990342962
 30
0.0
 11
-72.13442440199151
 21
45.29982544508193
 31
0.0
  0
LINE
  5
78B
330
18
100
AcDbEntity
  8
ADP1DETAIL
100
AcDbLine
 10
-72.05599486553885
 20
45.80938640208222
 30
0.0
 11
-72.02331591160057
 21
46.00537137932868
 31
0.0
  0
LINE
  5
78C
330
18
100
AcDbEntity
  8
ADP1DETAIL
100
AcDbLine
 10
-72.01024428302445
 20
45.54154023419312
 30
0.0
 11
-72.23246126380633
 21
45.57420439706753
 31
0.0
  0
LINE
  5
78D
330
18
100
AcDbEntity
  8
ADP1DETAIL
100
AcDbLine
 10
-71.96449381801207
 20
45.37821941982106
 30
0.0
 11
-72.2063180066541
 21
45.46314625945399
 31
0.0
  0
LINE
  5
78E
330
18
100
AcDbEntity
  8
ADP1DETAIL
100
AcDbLine
 10
-72.16710335592978
 20
45.90084602581165
 30
0.0
 11
-72.16710335592978
 21
46.09029821896161
 31
0.0
  0
LINE
  5
78F
330
18
100
AcDbEntity
  8
ADP1DETAIL
100
AcDbLine
 10
-72.16056754164172
 20
45.79632067229462
 30
0.0
 11
-72.35664126527137
 21
45.78978788819811
 31
0.0
  0
LINE
  5
790
330
18
100
AcDbEntity
  8
ADP1DETAIL
100
AcDbLine
 10
-72.09520963376518
 20
45.70486104856518
 30
0.0
 11
-72.31089068275699
 21
45.70486104856518
 31
0.0
  0
LINE
  5
791
330
18
100
AcDbEntity
  8
ADP1DETAIL
100
AcDbLine
 10
-72.36971289384749
 20
46.01843702831899
 30
0.0
 11
-72.33049812562116
 21
46.16869219370074
 31
0.0
  0
LINE
  5
792
330
18
100
AcDbEntity
  8
ADP1DETAIL
100
AcDbLine
 10
-72.2520685891685
 20
45.98577286544458
 30
0.0
 11
-72.2520685891685
 21
46.14256081492285
 31
0.0
  0
LINE
  5
793
330
18
100
AcDbEntity
  8
ADP1DETAIL
100
AcDbLine
 10
-71.96449381801207
 20
45.7309923465458
 30
0.0
 11
-71.89913579263351
 21
45.93351018868606
 31
0.0
  0
LINE
  5
794
330
18
100
AcDbEntity
  8
ADP1DETAIL
100
AcDbLine
 10
-71.91874323549768
 20
45.66566402079697
 30
0.0
 11
-71.81417055939481
 21
45.86164899804344
 31
0.0
  0
LINE
  5
795
330
18
100
AcDbEntity
  8
ADP1DETAIL
100
AcDbLine
 10
-72.29781917168288
 20
45.93351018868606
 30
0.0
 11
-72.4416064985101
 21
45.91391167480195
 31
0.0
  0
LINE
  5
796
330
18
100
AcDbEntity
  8
ADP1DETAIL
100
AcDbLine
 10
-72.37624859063354
 20
46.01190416342519
 30
0.0
 11
-72.48735708102448
 21
45.98577286544458
 31
0.0
  0
LINE
  5
797
330
18
100
AcDbEntity
  8
ADP1DETAIL
100
AcDbLine
 10
-72.15403172735367
 20
44.71840329743902
 30
0.0
 11
-72.26514021774462
 21
44.87519124691728
 31
0.0
  0
LINE
  5
798
330
18
100
AcDbEntity
  8
ADP1DETAIL
100
AcDbLine
 10
-72.04945905125079
 20
44.86212559792698
 30
0.0
 11
-72.18017486700389
 21
44.99278224942463
 31
0.0
  0
LINE
  5
799
330
18
100
AcDbEntity
  8
ADP1DETAIL
100
AcDbLine
 10
-71.97102951479812
 20
45.05811057517345
 30
0.0
 11
-72.14749591306561
 21
45.20183295645869
 31
0.0
  0
LINE
  5
79A
330
18
100
AcDbEntity
  8
ADP1DETAIL
100
AcDbLine
 10
-71.99717277195034
 20
44.96665095144401
 30
0.0
 11
-72.14096009877756
 21
45.07770908905755
 31
0.0
  0
LWPOLYLINE
  5
79B
330
18
100
AcDbEntity
  8
ADP1DETAIL
100
AcDbPolyline
 90
        4
 70
     0
 43
0.0
 10
-74.82741630271459
 20
53.42436722112076
 42
-0.1961908815020175
 10
-72.98313977335292
 20
52.42051284386124
 42
-0.063868008694506
 10
-71.97883070822912
 20
50.79609399095602
 42
0.0514048974393951
 10
-72.80053812514859
 20
51.43491041284844
 42
0.2865284051319578
  0
LWPOLYLINE
  5
7A1
330
18
100
AcDbEntity
  8
ADP1DETAIL
100
AcDbPolyline
 90
        4
 70
     0
 43
0.0
 10
-71.77796889520436
 20
49.18992700350024
 42
0.131200517537093
 10
-72.19795268607431
 20
50.70483450211424
 42
0.2373279267523119
 10
-72.74575763068729
 20
51.10637626917752
 42
0.8550440771500934
 10
-73.18400158637768
 20
50.35804849299388
 42
-0.2952020463135026
  0
LWPOLYLINE
  5
7A7
330
18
100
AcDbEntity
  8
ADP1DETAIL
100
AcDbPolyline
 90
        2
 70
     0
 43
0.0
 10
-72.4718551583808
 20
50.37630035844331
 42
-0.3179459433164347
 10
-72.16143235643345
 20
49.99301053762678
 42
-1.067278061293553
  0
LWPOLYLINE
  5
7AB
330
18
100
AcDbEntity
  8
ADP1DETAIL
100
AcDbPolyline
 90
        2
 70
     0
 43
0.0
 10
-72.28925351017648
 20
49.4819574162723
 10
-72.28925351017648
 20
48.80663718268371
  0
LWPOLYLINE
  5
7AF
330
18
100
AcDbEntity
  8
ADP1DETAIL
100
AcDbPolyline
 90
        5
 70
     0
 43
0.0
 10
-75.59434322517276
 20
52.53002427894974
 42
-0.1623473768930485
 10
-75.44826190660931
 20
53.22359637798777
 42
-0.2478760715923672
 10
-74.82741630271459
 20
53.44261908657021
 42
-0.1975966424104265
 10
-73.9874487209747
 20
53.02282545405749
 42
-0.2139766754785154
 10
-73.85962756723166
 20
52.60303182154479
 42
-0.8812943211688603
  0
TEXT
  5
7C3
330
18
100
AcDbEntity
  8
ADPDIM
100
AcDbText
 10
-101.5443374988496
 20
24.25591278551716
 30
0.0
 40
0.5
  1
J U L I U S  B L U M  &  C O . ,  I N C .      ( 8 0 0 )  5 2 6 - 6 2 9 3        W W W . J U L I U S B L U M . C O M        P A R T  N o .  5 8 6
 41
1.25
  7
ARIAL_WIDE
 72
     1
 11
-75.80550734878141
 21
24.75591278551716
 31
0.0
100
AcDbText
 73
     3
  0
ENDSEC
  0
SECTION
  2
OBJECTS
  0
DICTIONARY
  5
C
330
0
100
AcDbDictionary
  3
ACAD_GROUP
350
D
  3
ACAD_LAYOUT
350
7BC
  3
ACAD_MLINESTYLE
350
E
  3
ACAD_PLOTSETTINGS
350
7BD
  3
ACAD_PLOTSTYLENAME
350
7BA
  3
ACDBHEADERROUNDTRIPXREC
350
907
  3
ACDBVARIABLEDICTIONARY
350
81D
  0
DICTIONARY
  5
817
330
18
100
AcDbDictionary
280
     1
  3
ACAD_LAYOUTSELFREF
360
928
  0
DICTIONARY
  5
815
330
15
100
AcDbDictionary
280
     1
  3
ACAD_LAYOUTSELFREF
360
927
  0
DICTIONARY
  5
D
102
{ACAD_REACTORS
330
C
102
}
330
C
100
AcDbDictionary
  0
DICTIONARY
  5
7BC
102
{ACAD_REACTORS
330
C
102
}
330
C
100
AcDbDictionary
  0
DICTIONARY
  5
E
102
{ACAD_REACTORS
330
C
102
}
330
C
100
AcDbDictionary
  3
STANDARD
350
1B
  0
DICTIONARY
  5
7BD
102
{ACAD_REACTORS
330
C
102
}
330
C
100
AcDbDictionary
  0
ACDBDICTIONARYWDFLT
  5
7BA
102
{ACAD_REACTORS
330
C
102
}
330
C
100
AcDbDictionary
281
     1
  3
Normal
350
7BB
100
AcDbDictionaryWithDefault
340
7BB
  0
DICTIONARY
  5
907
102
{ACAD_REACTORS
330
C
102
}
330
C
100
AcDbDictionary
  3
CEPSNTYPE
350
911
  3
FINGERPRINTGUID
350
912
  3
HYPERLINKBASE
350
90A
  3
INSUNITS
350
910
  3
LAYOUTDICT
350
90C
  3
LWETCUNION
350
90F
  3
PLOTSETDICT
350
90D
  3
PLOTSTYLNAMDICT
350
90E
  3
PSVPSCALE
350
914
  3
PUCSBASE
350
917
  3
PUCSORGBACK
350
91D
  3
PUCSORGBOTTOM
350
919
  3
PUCSORGFRONT
350
91C
  3
PUCSORGLEFT
350
91A
  3
PUCSORGRIGHT
350
91B
  3
PUCSORGTOP
350
918
  3
PUCSORTHOREF
350
915
  3
PUCSORTHOVIEW
350
916
  3
STYLESHEET
350
90B
  3
TSTACKALIGN
350
908
  3
TSTACKSIZE
350
909
  3
UCSBASE
350
920
  3
UCSORGBACK
350
926
  3
UCSORGBOTTOM
350
922
  3
UCSORGFRONT
350
925
  3
UCSORGLEFT
350
923
  3
UCSORGRIGHT
350
924
  3
UCSORGTOP
350
921
  3
UCSORTHOREF
350
91E
  3
UCSORTHOVIEW
350
91F
  3
VERSIONGUID
350
913
  0
DICTIONARY
  5
81D
102
{ACAD_REACTORS
330
C
102
}
330
C
100
AcDbDictionary
  3
DIMASSOC
350
81E
  0
XRECORD
  5
928
102
{ACAD_REACTORS
330
817
102
}
330
817
100
AcDbXrecord
340
18
  0
XRECORD
  5
927
102
{ACAD_REACTORS
330
815
102
}
330
815
100
AcDbXrecord
340
15
  0
MLINESTYLE
  5
1B
102
{ACAD_REACTORS
330
E
102
}
330
E
100
AcDbMlineStyle
  2
STANDARD
 70
     0
  3

 62
     0
 51
90.0
 52
90.0
 71
     2
 49
0.5
 62
   256
  6
BYLAYER
 49
-0.5
 62
   256
  6
BYLAYER
  0
ACDBPLACEHOLDER
  5
7BB
102
{ACAD_REACTORS
330
7BA
102
}
330
7BA
100
AcDbPlaceHolder
280
     0
  0
XRECORD
  5
911
102
{ACAD_REACTORS
330
907
102
}
330
907
100
AcDbXrecord
 90
        0
  0
XRECORD
  5
912
102
{ACAD_REACTORS
330
907
102
}
330
907
100
AcDbXrecord
  1
{7C8F9032-A8E3-48C6-8704-56C1A63EA113}
  0
XRECORD
  5
90A
102
{ACAD_REACTORS
330
907
102
}
330
907
100
AcDbXrecord
  1

  0
XRECORD
  5
910
102
{ACAD_REACTORS
330
907
102
}
330
907
100
AcDbXrecord
 90
        0
  0
XRECORD
  5
90C
102
{ACAD_REACTORS
330
907
102
}
330
907
100
AcDbXrecord
340
7BC
  0
XRECORD
  5
90F
102
{ACAD_REACTORS
330
907
102
}
330
907
100
AcDbXrecord
 90
    14877
  0
XRECORD
  5
90D
102
{ACAD_REACTORS
330
907
102
}
330
907
100
AcDbXrecord
340
7BD
  0
XRECORD
  5
90E
102
{ACAD_REACTORS
330
907
102
}
330
907
100
AcDbXrecord
340
7BA
  0
XRECORD
  5
914
102
{ACAD_REACTORS
330
907
102
}
330
907
100
AcDbXrecord
 40
0.0
  0
XRECORD
  5
917
102
{ACAD_REACTORS
330
907
102
}
330
907
100
AcDbXrecord
340
0
  0
XRECORD
  5
91D
102
{ACAD_REACTORS
330
907
102
}
330
907
100
AcDbXrecord
 10
0.0
 20
0.0
 30
0.0
  0
XRECORD
  5
919
102
{ACAD_REACTORS
330
907
102
}
330
907
100
AcDbXrecord
 10
0.0
 20
0.0
 30
0.0
  0
XRECORD
  5
91C
102
{ACAD_REACTORS
330
907
102
}
330
907
100
AcDbXrecord
 10
0.0
 20
0.0
 30
0.0
  0
XRECORD
  5
91A
102
{ACAD_REACTORS
330
907
102
}
330
907
100
AcDbXrecord
 10
0.0
 20
0.0
 30
0.0
  0
XRECORD
  5
91B
102
{ACAD_REACTORS
330
907
102
}
330
907
100
AcDbXrecord
 10
0.0
 20
0.0
 30
0.0
  0
XRECORD
  5
918
102
{ACAD_REACTORS
330
907
102
}
330
907
100
AcDbXrecord
 10
0.0
 20
0.0
 30
0.0
  0
XRECORD
  5
915
102
{ACAD_REACTORS
330
907
102
}
330
907
100
AcDbXrecord
340
0
  0
XRECORD
  5
916
102
{ACAD_REACTORS
330
907
102
}
330
907
100
AcDbXrecord
 70
     0
  0
XRECORD
  5
90B
102
{ACAD_REACTORS
330
907
102
}
330
907
100
AcDbXrecord
  1

  0
XRECORD
  5
908
102
{ACAD_REACTORS
330
907
102
}
330
907
100
AcDbXrecord
 90
        1
  0
XRECORD
  5
909
102
{ACAD_REACTORS
330
907
102
}
330
907
100
AcDbXrecord
 90
       70
  0
XRECORD
  5
920
102
{ACAD_REACTORS
330
907
102
}
330
907
100
AcDbXrecord
340
0
  0
XRECORD
  5
926
102
{ACAD_REACTORS
330
907
102
}
330
907
100
AcDbXrecord
 10
0.0
 20
0.0
 30
0.0
  0
XRECORD
  5
922
102
{ACAD_REACTORS
330
907
102
}
330
907
100
AcDbXrecord
 10
0.0
 20
0.0
 30
0.0
  0
XRECORD
  5
925
102
{ACAD_REACTORS
330
907
102
}
330
907
100
AcDbXrecord
 10
0.0
 20
0.0
 30
0.0
  0
XRECORD
  5
923
102
{ACAD_REACTORS
330
907
102
}
330
907
100
AcDbXrecord
 10
0.0
 20
0.0
 30
0.0
  0
XRECORD
  5
924
102
{ACAD_REACTORS
330
907
102
}
330
907
100
AcDbXrecord
 10
0.0
 20
0.0
 30
0.0
  0
XRECORD
  5
921
102
{ACAD_REACTORS
330
907
102
}
330
907
100
AcDbXrecord
 10
0.0
 20
0.0
 30
0.0
  0
XRECORD
  5
91E
102
{ACAD_REACTORS
330
907
102
}
330
907
100
AcDbXrecord
340
0
  0
XRECORD
  5
91F
102
{ACAD_REACTORS
330
907
102
}
330
907
100
AcDbXrecord
 70
     0
  0
XRECORD
  5
913
102
{ACAD_REACTORS
330
907
102
}
330
907
100
AcDbXrecord
  1
{6F828ED9-018F-4408-8943-36927228F156}
  0
DICTIONARYVAR
  5
81E
102
{ACAD_REACTORS
330
81D
102
}
330
81D
100
DictionaryVariables
280
     0
  1
1
  0
ENDSEC
  0
EOF
