  0
SECTION
  2
HEADER
  9
$ACADVER
  1
AC1014
  9
$ACADMAINTVER
 70
     9
  9
$DWGCODEPAGE
  3
ANSI_1252
  9
$INSBASE
 10
3.041672867350854
 20
-3.880383411989618
 30
0.0
  9
$EXTMIN
 10
-7.822285181762377
 20
-10.38459703406359
 30
0.0
  9
$EXTMAX
 10
18.28063091646408
 20
-1.527206814481294
 30
0.0
  9
$LIMMIN
 10
0.0
 20
0.0
  9
$LIMMAX
 10
36.0
 20
36.0
  9
$ORTHOMODE
 70
     1
  9
$REGENMODE
 70
     1
  9
$FILLMODE
 70
     1
  9
$QTEXTMODE
 70
     0
  9
$MIRRTEXT
 70
     1
  9
$DRAGMODE
 70
     0
  9
$LTSCALE
 40
1.0
  9
$OSMODE
 70
    37
  9
$ATTMODE
 70
     1
  9
$TEXTSIZE
 40
0.2
  9
$TRACEWID
 40
0.05
  9
$TEXTSTYLE
  7
STANDARD
  9
$CLAYER
  8
ADP1DETAIL
  9
$CELTYPE
  6
BYLAYER
  9
$CECOLOR
 62
   256
  9
$CELTSCALE
 40
1.0
  9
$DELOBJ
 70
     1
  9
$DISPSILH
 70
     0
  9
$DIMSCALE
 40
1.0
  9
$DIMASZ
 40
0.125
  9
$DIMEXO
 40
0.0625
  9
$DIMDLI
 40
0.38
  9
$DIMRND
 40
0.0
  9
$DIMDLE
 40
0.0
  9
$DIMEXE
 40
0.18
  9
$DIMTP
 40
0.0
  9
$DIMTM
 40
0.0
  9
$DIMTXT
 40
0.125
  9
$DIMCEN
 40
0.1875
  9
$DIMTSZ
 40
0.125
  9
$DIMTOL
 70
     0
  9
$DIMLIM
 70
     0
  9
$DIMTIH
 70
     0
  9
$DIMTOH
 70
     0
  9
$DIMSE1
 70
     0
  9
$DIMSE2
 70
     0
  9
$DIMTAD
 70
     0
  9
$DIMZIN
 70
     3
  9
$DIMBLK
  1

  9
$DIMASO
 70
     1
  9
$DIMSHO
 70
     1
  9
$DIMPOST
  1

  9
$DIMAPOST
  1

  9
$DIMALT
 70
     0
  9
$DIMALTD
 70
     1
  9
$DIMALTF
 40
25.4
  9
$DIMLFAC
 40
1.0
  9
$DIMTOFL
 70
     0
  9
$DIMTVP
 40
0.0
  9
$DIMTIX
 70
     0
  9
$DIMSOXD
 70
     0
  9
$DIMSAH
 70
     0
  9
$DIMBLK1
  1

  9
$DIMBLK2
  1

  9
$DIMSTYLE
  2
STANDARD
  9
$DIMCLRD
 70
     0
  9
$DIMCLRE
 70
     0
  9
$DIMCLRT
 70
     0
  9
$DIMTFAC
 40
1.0
  9
$DIMGAP
 40
0.125
  9
$DIMJUST
 70
     0
  9
$DIMSD1
 70
     0
  9
$DIMSD2
 70
     0
  9
$DIMTOLJ
 70
     1
  9
$DIMTZIN
 70
     0
  9
$DIMALTZ
 70
     0
  9
$DIMALTTZ
 70
     0
  9
$DIMFIT
 70
     3
  9
$DIMUPT
 70
     0
  9
$DIMUNIT
 70
     2
  9
$DIMDEC
 70
     4
  9
$DIMTDEC
 70
     4
  9
$DIMALTU
 70
     2
  9
$DIMALTTD
 70
     2
  9
$DIMTXSTY
  7
STANDARD
  9
$DIMAUNIT
 70
     0
  9
$LUNITS
 70
     5
  9
$LUPREC
 70
     4
  9
$SKETCHINC
 40
0.1
  9
$FILLETRAD
 40
0.188
  9
$AUNITS
 70
     0
  9
$AUPREC
 70
     0
  9
$MENU
  1
acad
  9
$ELEVATION
 40
0.0
  9
$PELEVATION
 40
0.0
  9
$THICKNESS
 40
0.0
  9
$LIMCHECK
 70
     0
  9
$BLIPMODE
 70
     0
  9
$CHAMFERA
 40
0.0
  9
$CHAMFERB
 40
0.0
  9
$CHAMFERC
 40
0.0
  9
$CHAMFERD
 40
0.0
  9
$SKPOLY
 70
     0
  9
$TDCREATE
 40
2450254.679476076
  9
$TDUPDATE
 40
2452297.092170856
  9
$TDINDWG
 40
0.0120973958
  9
$TDUSRTIMER
 40
0.0120973958
  9
$USRTIMER
 70
     1
  9
$ANGBASE
 50
0.0
  9
$ANGDIR
 70
     0
  9
$PDMODE
 70
     0
  9
$PDSIZE
 40
0.0
  9
$PLINEWID
 40
0.0
  9
$COORDS
 70
     2
  9
$SPLFRAME
 70
     0
  9
$SPLINETYPE
 70
     6
  9
$SPLINESEGS
 70
     8
  9
$ATTDIA
 70
     0
  9
$ATTREQ
 70
     1
  9
$HANDLING
 70
 22529
  9
$HANDSEED
  5
254
  9
$SURFTAB1
 70
     6
  9
$SURFTAB2
 70
     6
  9
$SURFTYPE
 70
     6
  9
$SURFU
 70
     6
  9
$SURFV
 70
     6
  9
$UCSNAME
  2

  9
$UCSORG
 10
0.0
 20
0.0
 30
0.0
  9
$UCSXDIR
 10
1.0
 20
0.0
 30
0.0
  9
$UCSYDIR
 10
0.0
 20
1.0
 30
0.0
  9
$PUCSNAME
  2

  9
$PUCSORG
 10
0.0
 20
0.0
 30
0.0
  9
$PUCSXDIR
 10
1.0
 20
0.0
 30
0.0
  9
$PUCSYDIR
 10
0.0
 20
1.0
 30
0.0
  9
$USERI1
 70
     0
  9
$USERI2
 70
     0
  9
$USERI3
 70
     0
  9
$USERI4
 70
     0
  9
$USERI5
 70
     0
  9
$USERR1
 40
0.0
  9
$USERR2
 40
0.0
  9
$USERR3
 40
0.0
  9
$USERR4
 40
0.0
  9
$USERR5
 40
0.0
  9
$WORLDVIEW
 70
     1
  9
$SHADEDGE
 70
     3
  9
$SHADEDIF
 70
    70
  9
$TILEMODE
 70
     1
  9
$MAXACTVP
 70
    15
  9
$PINSBASE
 10
0.1093764901161195
 20
0.0
 30
0.0
  9
$PLIMCHECK
 70
     0
  9
$PEXTMIN
 10
1.000000000000000E+20
 20
1.000000000000000E+20
 30
1.000000000000000E+20
  9
$PEXTMAX
 10
-1.000000000000000E+20
 20
-1.000000000000000E+20
 30
-1.000000000000000E+20
  9
$PLIMMIN
 10
0.0
 20
0.0
  9
$PLIMMAX
 10
12.0
 20
9.0
  9
$UNITMODE
 70
     0
  9
$VISRETAIN
 70
     0
  9
$PLINEGEN
 70
     0
  9
$PSLTSCALE
 70
     1
  9
$TREEDEPTH
 70
  3020
  9
$PICKSTYLE
 70
     1
  9
$CMLSTYLE
  2
STANDARD
  9
$CMLJUST
 70
     0
  9
$CMLSCALE
 40
1.0
  9
$PROXYGRAPHICS
 70
     1
  9
$MEASUREMENT
 70
     0
  0
ENDSEC
  0
SECTION
  2
CLASSES
  0
CLASS
  1
ACDBDICTIONARYWDFLT
  2
AcDbDictionaryWithDefault
  3
AutoCAD 2000
 90
        0
280
     0
281
     0
  0
CLASS
  1
ACDBPLACEHOLDER
  2
AcDbPlaceHolder
  3
AutoCAD 2000
 90
        0
280
     0
281
     0
  0
CLASS
  1
LAYOUT
  2
AcDbLayout
  3
AutoCAD 2000
 90
        0
280
     0
281
     0
  0
CLASS
  1
DICTIONARYVAR
  2
AcDbDictionaryVar
  3
AutoCAD 2000
 90
        0
280
     0
281
     0
  0
CLASS
  1
LONG_TRANSACTION
  2
AcDbLongTransaction
  3
AutoCAD 2000
 90
        0
280
     0
281
     0
  0
CLASS
  1
LWPOLYLINE
  2
AcDbPolyline
  3
AutoCAD 2000
 90
        0
280
     0
281
     1
  0
CLASS
  1
HATCH
  2
AcDbHatch
  3
AutoCAD 2000
 90
        0
280
     0
281
     1
  0
CLASS
  1
XRECORD
  2
AcDbXrecord
  3
AutoCAD 2000
 90
        0
280
     0
281
     0
  0
CLASS
  1
LONG_TRANSACTION
  2
AcDbLongTransaction
  3
AutoCAD 2000
 90
        0
280
     0
281
     0
  0
CLASS
  1
LWPOLYLINE
  2
AcDbPolyline
  3
AutoCAD 2000
 90
        0
280
     0
281
     1
  0
CLASS
  1
HATCH
  2
AcDbHatch
  3
AutoCAD 2000
 90
        0
280
     0
281
     1
  0
CLASS
  1
XRECORD
  2
AcDbXrecord
  3
AutoCAD 2000
 90
        0
280
     0
281
     0
  0
CLASS
  1
LONG_TRANSACTION
  2
AcDbLongTransaction
  3
AutoCAD 2000
 90
        0
280
     0
281
     0
  0
CLASS
  1
LWPOLYLINE
  2
AcDbPolyline
  3
AutoCAD 2000
 90
        0
280
     0
281
     1
  0
CLASS
  1
HATCH
  2
AcDbHatch
  3
AutoCAD 2000
 90
        0
280
     0
281
     1
  0
CLASS
  1
XRECORD
  2
AcDbXrecord
  3
AutoCAD 2000
 90
        0
280
     0
281
     0
  0
CLASS
  1
LONG_TRANSACTION
  2
AcDbLongTransaction
  3
AutoCAD 2000
 90
        0
280
     0
281
     0
  0
CLASS
  1
LWPOLYLINE
  2
AcDbPolyline
  3
AutoCAD 2000
 90
        0
280
     0
281
     1
  0
CLASS
  1
HATCH
  2
AcDbHatch
  3
AutoCAD 2000
 90
        0
280
     0
281
     1
  0
CLASS
  1
XRECORD
  2
AcDbXrecord
  3
AutoCAD 2000
 90
        0
280
     0
281
     0
  0
CLASS
  1
LONG_TRANSACTION
  2
AcDbLongTransaction
  3
AutoCAD 2000
 90
        0
280
     0
281
     0
  0
CLASS
  1
LWPOLYLINE
  2
AcDbPolyline
  3
AutoCAD 2000
 90
        0
280
     0
281
     1
  0
CLASS
  1
HATCH
  2
AcDbHatch
  3
AutoCAD 2000
 90
        0
280
     0
281
     1
  0
CLASS
  1
XRECORD
  2
AcDbXrecord
  3
AutoCAD 2000
 90
        0
280
     0
281
     0
  0
ENDSEC
  0
SECTION
  2
TABLES
  0
TABLE
  2
VPORT
  5
8
330
0
100
AcDbSymbolTable
 70
     2
  0
VPORT
  5
231
330
8
100
AcDbSymbolTableRecord
100
AcDbViewportTableRecord
  2
*ACTIVE
 70
     0
 10
0.0
 20
0.0
 11
1.0
 21
1.0
 12
5.250132016377625
 22
-5.956170167343154
 13
0.0
 23
0.0
 14
0.5740882589684922
 24
0.5740882589684922
 15
0.5
 25
0.5
 16
0.0
 26
0.0
 36
1.0
 17
0.0
 27
0.0
 37
0.0
 40
16.72900612670067
 41
1.570528967254408
 42
50.0
 43
0.0
 44
0.0
 50
0.0
 51
0.0
 71
     0
 72
   100
 73
     1
 74
     0
 75
     0
 76
     0
 77
     0
 78
     0
  0
ENDTAB
  0
TABLE
  2
LTYPE
  5
5
330
0
100
AcDbSymbolTable
 70
     2
  0
LTYPE
  5
12
330
5
100
AcDbSymbolTableRecord
100
AcDbLinetypeTableRecord
  2
BYBLOCK
 70
     0
  3

 72
    65
 73
     0
 40
0.0
  0
LTYPE
  5
13
330
5
100
AcDbSymbolTableRecord
100
AcDbLinetypeTableRecord
  2
BYLAYER
 70
     0
  3

 72
    65
 73
     0
 40
0.0
  0
LTYPE
  5
14
330
5
100
AcDbSymbolTableRecord
100
AcDbLinetypeTableRecord
  2
CONTINUOUS
 70
     0
  3
Solid line
 72
    65
 73
     0
 40
0.0
  0
LTYPE
  5
7E
330
5
100
AcDbSymbolTableRecord
100
AcDbLinetypeTableRecord
  2
HIDDEN2
 70
     0
  3
_ _ _ _ _ _ _ _ _ _ _ _ _ _ _ _ _ _ _ _ _ _ _ _
 72
    65
 73
     2
 40
0.1875
 49
0.125
 74
     0
 49
-0.0625
 74
     0
  0
ENDTAB
  0
TABLE
  2
LAYER
  5
2
330
0
100
AcDbSymbolTable
 70
     5
  0
LAYER
  5
F
330
2
100
AcDbSymbolTableRecord
100
AcDbLayerTableRecord
  2
0
 70
     0
 62
     7
  6
CONTINUOUS
  0
LAYER
  5
7F
330
2
100
AcDbSymbolTableRecord
100
AcDbLayerTableRecord
  2
ADP2DETAIL
 70
     0
 62
     5
  6
CONTINUOUS
  0
LAYER
  5
80
330
2
100
AcDbSymbolTableRecord
100
AcDbLayerTableRecord
  2
ADPDIM
 70
     0
 62
     3
  6
CONTINUOUS
  0
LAYER
  5
82
330
2
100
AcDbSymbolTableRecord
100
AcDbLayerTableRecord
  2
ADP1DETAIL
 70
     0
 62
     7
  6
CONTINUOUS
  0
LAYER
  5
84
330
2
100
AcDbSymbolTableRecord
100
AcDbLayerTableRecord
  2
DEFPOINTS
 70
     0
 62
     7
  6
CONTINUOUS
  0
ENDTAB
  0
TABLE
  2
STYLE
  5
3
330
0
100
AcDbSymbolTable
 70
     2
  0
STYLE
  5
10
330
3
100
AcDbSymbolTableRecord
100
AcDbTextStyleTableRecord
  2
STANDARD
 70
     0
 40
0.0
 41
1.0
 50
0.0
 71
     0
 42
0.2
  3
txt
  4

  0
STYLE
  5
ED
330
3
100
AcDbSymbolTableRecord
100
AcDbTextStyleTableRecord
  2
ARIAL_WIDE
 70
     0
 40
0.0
 41
1.25
 50
0.0
 71
     0
 42
0.2
  3
ARIAL.TTF
  4

1001
ACAD
1000
Arial
1071
       34
  0
ENDTAB
  0
TABLE
  2
VIEW
  5
6
330
0
100
AcDbSymbolTable
 70
     0
  0
ENDTAB
  0
TABLE
  2
UCS
  5
7
330
0
100
AcDbSymbolTable
 70
     0
  0
ENDTAB
  0
TABLE
  2
APPID
  5
9
330
0
100
AcDbSymbolTable
 70
     1
  0
APPID
  5
11
330
9
100
AcDbSymbolTableRecord
100
AcDbRegAppTableRecord
  2
ACAD
 70
     0
  0
ENDTAB
  0
TABLE
  2
DIMSTYLE
  5
A
330
0
100
AcDbSymbolTable
 70
     1
  0
DIMSTYLE
105
E1
330
A
100
AcDbSymbolTableRecord
100
AcDbDimStyleTableRecord
  2
STANDARD
 70
     0
  3

  4

  5

  6

  7

 40
1.0
 41
0.18
 42
0.0625
 43
0.38
 44
0.18
 45
0.0
 46
0.0
 47
0.0
 48
0.0
140
0.18
141
0.09
142
0.0
143
25.4
144
1.0
145
0.0
146
1.0
147
0.09
 71
     0
 72
     0
 73
     1
 74
     1
 75
     0
 76
     0
 77
     0
 78
     0
170
     0
171
     2
172
     0
173
     0
174
     0
175
     0
176
     0
177
     0
178
     0
270
     2
271
     4
272
     4
273
     2
274
     2
340
10
275
     0
280
     0
281
     0
282
     0
283
     1
284
     0
285
     0
286
     0
287
     3
288
     0
  0
ENDTAB
  0
TABLE
  2
BLOCK_RECORD
  5
1
330
0
100
AcDbSymbolTable
 70
     2
  0
BLOCK_RECORD
  5
18
102
{ACAD_XDICTIONARY
360
142
102
}
330
1
100
AcDbSymbolTableRecord
100
AcDbBlockTableRecord
  2
*MODEL_SPACE
  0
BLOCK_RECORD
  5
15
102
{ACAD_XDICTIONARY
360
140
102
}
330
1
100
AcDbSymbolTableRecord
100
AcDbBlockTableRecord
  2
*PAPER_SPACE
  0
BLOCK_RECORD
  5
68
330
1
100
AcDbSymbolTableRecord
100
AcDbBlockTableRecord
  2
*D0
  0
BLOCK_RECORD
  5
6A
330
1
100
AcDbSymbolTableRecord
100
AcDbBlockTableRecord
  2
*D1
  0
ENDTAB
  0
ENDSEC
  0
SECTION
  2
BLOCKS
  0
BLOCK
  5
87
330
18
100
AcDbEntity
  8
0
100
AcDbBlockBegin
  2
*MODEL_SPACE
 70
     0
 10
0.0
 20
0.0
 30
0.0
  3
*MODEL_SPACE
  1

  0
ENDBLK
  5
88
330
18
100
AcDbEntity
  8
0
100
AcDbBlockEnd
  0
BLOCK
  5
85
330
15
100
AcDbEntity
 67
     1
  8
0
100
AcDbBlockBegin
  2
*PAPER_SPACE
 70
     0
 10
0.0
 20
0.0
 30
0.0
  3
*PAPER_SPACE
  1

  0
ENDBLK
  5
86
330
15
100
AcDbEntity
 67
     1
  8
0
100
AcDbBlockEnd
  0
BLOCK
  5
8A
330
68
100
AcDbEntity
  8
0
100
AcDbBlockBegin
  2
*D0
 70
     1
 10
0.0
 20
0.0
 30
0.0
  3
*D0
  1

  0
LINE
  5
8B
330
68
100
AcDbEntity
  8
0
  6
BYBLOCK
 62
     0
100
AcDbLine
 10
3.041672867350854
 20
-3.942883411989618
 30
0.0
 11
3.041672867350854
 21
-4.358909589956288
 31
0.0
  0
LINE
  5
8C
330
68
100
AcDbEntity
  8
0
  6
BYBLOCK
 62
     0
100
AcDbLine
 10
7.416672867350855
 20
-3.942883411989618
 30
0.0
 11
7.416672867350855
 21
-4.358909589956288
 31
0.0
  0
LINE
  5
8D
330
68
100
AcDbEntity
  8
0
  6
BYBLOCK
 62
     0
100
AcDbLine
 10
3.041672867350854
 20
-4.178909589956289
 30
0.0
 11
4.812506200684188
 21
-4.178909589956289
 31
0.0
  0
LINE
  5
8E
330
68
100
AcDbEntity
  8
0
  6
BYBLOCK
 62
     0
100
AcDbLine
 10
7.416672867350855
 20
-4.178909589956289
 30
0.0
 11
5.645839534017522
 21
-4.178909589956289
 31
0.0
  0
LINE
  5
8F
330
68
100
AcDbEntity
  8
0
  6
BYBLOCK
 62
     0
100
AcDbLine
 10
2.916672867350854
 20
-4.303909589956289
 30
0.0
 11
3.166672867350854
 21
-4.053909589956289
 31
0.0
  0
LINE
  5
90
330
68
100
AcDbEntity
  8
0
  6
BYBLOCK
 62
     0
100
AcDbLine
 10
7.291672867350855
 20
-4.303909589956289
 30
0.0
 11
7.541672867350855
 21
-4.053909589956289
 31
0.0
  0
TEXT
  5
91
330
68
100
AcDbEntity
  8
0
  6
BYBLOCK
 62
     0
100
AcDbText
 10
4.937506200684188
 20
-4.241409589956289
 30
0.0
 40
0.125
  1
4 3/8
 72
     1
 11
5.229172867350855
 21
-4.178909589956289
 31
0.0
100
AcDbText
 73
     2
  0
POINT
  5
92
330
68
100
AcDbEntity
  8
DEFPOINTS
  6
BYBLOCK
 62
     0
100
AcDbPoint
 10
3.041672867350854
 20
-3.880383411989618
 30
0.0
  0
POINT
  5
93
330
68
100
AcDbEntity
  8
DEFPOINTS
  6
BYBLOCK
 62
     0
100
AcDbPoint
 10
7.416672867350855
 20
-3.880383411989618
 30
0.0
  0
POINT
  5
94
330
68
100
AcDbEntity
  8
DEFPOINTS
  6
BYBLOCK
 62
     0
100
AcDbPoint
 10
7.416672867350855
 20
-4.178909589956289
 30
0.0
  0
ENDBLK
  5
95
330
68
100
AcDbEntity
  8
0
100
AcDbBlockEnd
  0
BLOCK
  5
96
330
6A
100
AcDbEntity
  8
0
100
AcDbBlockBegin
  2
*D1
 70
     1
 10
0.0
 20
0.0
 30
0.0
  3
*D1
  1

  0
LINE
  5
97
330
6A
100
AcDbEntity
  8
0
  6
BYBLOCK
 62
     0
100
AcDbLine
 10
2.979172867350854
 20
-3.880383411989618
 30
0.0
 11
2.503558148728477
 21
-3.880383411989618
 31
0.0
  0
LINE
  5
98
330
6A
100
AcDbEntity
  8
0
  6
BYBLOCK
 62
     0
100
AcDbLine
 10
5.166672866777706
 20
-1.652206814481294
 30
0.0
 11
2.503558148728478
 21
-1.652206814481294
 31
0.0
  0
LINE
  5
99
330
6A
100
AcDbEntity
  8
0
  6
BYBLOCK
 62
     0
100
AcDbLine
 10
2.683558148728478
 20
-3.880383411989618
 30
0.0
 11
2.683558148728478
 21
-3.162128446568789
 31
0.0
  0
LINE
  5
9A
330
6A
100
AcDbEntity
  8
0
  6
BYBLOCK
 62
     0
100
AcDbLine
 10
2.683558148728478
 20
-1.652206814481294
 30
0.0
 11
2.683558148728478
 21
-2.370461779902123
 31
0.0
  0
LINE
  5
9B
330
6A
100
AcDbEntity
  8
0
  6
BYBLOCK
 62
     0
100
AcDbLine
 10
2.808558148728478
 20
-4.005383411989618
 30
0.0
 11
2.558558148728478
 21
-3.755383411989618
 31
0.0
  0
LINE
  5
9C
330
6A
100
AcDbEntity
  8
0
  6
BYBLOCK
 62
     0
100
AcDbLine
 10
2.808558148728478
 20
-1.777206814481294
 30
0.0
 11
2.558558148728478
 21
-1.527206814481294
 31
0.0
  0
TEXT
  5
9D
330
6A
100
AcDbEntity
  8
0
  6
BYBLOCK
 62
     0
100
AcDbText
 10
2.746058148728478
 20
-3.037128446568789
 30
0.0
 40
0.125
  1
2 1/4
 50
90.0
 72
     1
 11
2.683558148728478
 21
-2.766295113235456
 31
0.0
100
AcDbText
 73
     2
  0
POINT
  5
9E
330
6A
100
AcDbEntity
  8
DEFPOINTS
  6
BYBLOCK
 62
     0
100
AcDbPoint
 10
3.041672867350854
 20
-3.880383411989618
 30
0.0
  0
POINT
  5
9F
330
6A
100
AcDbEntity
  8
DEFPOINTS
  6
BYBLOCK
 62
     0
100
AcDbPoint
 10
5.229172866777706
 20
-1.652206814481294
 30
0.0
  0
POINT
  5
A0
330
6A
100
AcDbEntity
  8
DEFPOINTS
  6
BYBLOCK
 62
     0
100
AcDbPoint
 10
2.683558148728478
 20
-1.652206814481294
 30
0.0
  0
ENDBLK
  5
A1
330
6A
100
AcDbEntity
  8
0
100
AcDbBlockEnd
  0
ENDSEC
  0
SECTION
  2
ENTITIES
  0
LWPOLYLINE
  5
A2
330
18
100
AcDbEntity
  8
ADP2DETAIL
  6
HIDDEN2
100
AcDbPolyline
 90
        8
 70
     1
 43
0.0
 10
3.354172867350854
 20
-8.442883411989617
 10
3.354172867350854
 20
-5.192883411989618
 42
-0.4142135623730951
 10
3.604172867350854
 20
-4.942883411989618
 10
6.854172867350855
 20
-4.942883411989617
 42
-0.4142135623730951
 10
7.104172867350855
 20
-5.192883411989617
 10
7.104172867350856
 20
-8.442883411989617
 42
-0.4142135623730951
 10
6.854172867350856
 20
-8.692883411989617
 10
3.604172867350854
 20
-8.692883411989617
 42
-0.4142135623730951
  0
LWPOLYLINE
  5
AC
330
18
100
AcDbEntity
  8
ADP1DETAIL
100
AcDbPolyline
 90
        8
 70
     1
 43
0.0
 10
3.041672867350854
 20
-8.880383411989617
 10
3.041672867350854
 20
-4.755383411989618
 42
-0.4142135623730951
 10
3.166672867350854
 20
-4.630383411989618
 10
7.291672867350855
 20
-4.630383411989618
 42
-0.4142135623730951
 10
7.416672867350855
 20
-4.755383411989618
 10
7.416672867350855
 20
-8.880383411989617
 42
-0.4142135623730951
 10
7.291672867350855
 20
-9.005383411989619
 10
3.166672867350854
 20
-9.005383411989619
 42
-0.4142135623730951
  0
LWPOLYLINE
  5
B6
330
18
100
AcDbEntity
  8
ADP1DETAIL
100
AcDbPolyline
 90
        8
 70
     1
 43
0.0
 10
3.135422867350854
 20
-8.786633411989617
 10
3.135422867350854
 20
-4.849133411989618
 42
-0.4142135623730951
 10
3.260422867350854
 20
-4.724133411989618
 10
7.197922867350855
 20
-4.724133411989617
 42
-0.4142135623730951
 10
7.322922867350855
 20
-4.849133411989617
 10
7.322922867350855
 20
-8.786633411989617
 42
-0.4142135623730951
 10
7.197922867350855
 20
-8.911633411989619
 10
3.260422867350854
 20
-8.911633411989619
 42
-0.4142135623730951
  0
LWPOLYLINE
  5
C0
330
18
100
AcDbEntity
  8
ADP2DETAIL
  6
HIDDEN2
100
AcDbPolyline
 90
        8
 70
     1
 43
0.0
 10
3.166672867350854
 20
-8.630383411989617
 10
3.166672867350854
 20
-5.005383411989618
 42
-0.4142135623730951
 10
3.416672867350854
 20
-4.755383411989618
 10
7.041672867350855
 20
-4.755383411989618
 42
-0.4142135623730951
 10
7.291672867350855
 20
-5.005383411989618
 10
7.291672867350855
 20
-8.630383411989617
 42
-0.4142135623730951
 10
7.041672867350855
 20
-8.880383411989617
 10
3.416672867350854
 20
-8.880383411989617
 42
-0.4142135623730951
  0
LINE
  5
CA
330
18
100
AcDbEntity
  8
ADP1DETAIL
100
AcDbLine
 10
3.172034519702536
 20
-4.7607450643413
 30
0.0
 11
7.286311214999173
 21
-8.875021759637936
 31
0.0
  0
LINE
  5
CB
330
18
100
AcDbEntity
  8
ADP1DETAIL
100
AcDbLine
 10
7.286311214999173
 20
-4.760745064341299
 30
0.0
 11
3.172034519702536
 21
-8.875021759637936
 31
0.0
  0
LINE
  5
CC
330
18
100
AcDbEntity
  8
ADP1DETAIL
100
AcDbLine
 10
7.322922867350855
 20
-2.911633411989617
 30
0.0
 11
5.294745010517333
 21
-1.670786450051409
 31
0.0
  0
LINE
  5
CD
330
18
100
AcDbEntity
  8
ADP2DETAIL
  6
HIDDEN2
100
AcDbLine
 10
7.111986714280863
 20
-2.928486053515728
 30
0.0
 11
5.294745010508337
 21
-1.817609852537541
 31
0.0
  0
LINE
  5
CE
330
18
100
AcDbEntity
  8
ADP1DETAIL
100
AcDbLine
 10
3.041672867350854
 20
-3.005383411989617
 30
0.0
 11
7.416672867350855
 21
-3.005383411989617
 31
0.0
  0
LINE
  5
CF
330
18
100
AcDbEntity
  8
ADP1DETAIL
100
AcDbLine
 10
7.416672867350855
 20
-3.880383411989618
 30
0.0
 11
3.041672867350854
 21
-3.880383411989618
 31
0.0
  0
LINE
  5
D0
330
18
100
AcDbEntity
  8
ADP1DETAIL
100
AcDbLine
 10
3.135422867350854
 20
-2.911633411989617
 30
0.0
 11
7.322922867350854
 21
-2.911633411989617
 31
0.0
  0
DIMENSION
  5
D1
330
18
100
AcDbEntity
  8
ADPDIM
100
AcDbDimension
  2
*D0
 10
7.416672867350855
 20
-4.178909589956289
 30
0.0
 11
5.229172867350855
 21
-4.178909589956289
 31
0.0
100
AcDbAlignedDimension
 13
3.041672867350854
 23
-3.880383411989618
 33
0.0
 14
7.416672867350855
 24
-3.880383411989618
 34
0.0
100
AcDbRotatedDimension
  0
DIMENSION
  5
D2
330
18
100
AcDbEntity
  8
ADPDIM
100
AcDbDimension
  2
*D1
 10
2.683558148728478
 20
-1.652206814481294
 30
0.0
 11
2.683558148728478
 21
-2.766295113235456
 31
0.0
100
AcDbAlignedDimension
 13
3.041672867350854
 23
-3.880383411989618
 33
0.0
 14
5.229172866777706
 24
-1.652206814481294
 34
0.0
 50
90.0
100
AcDbRotatedDimension
  0
LINE
  5
D3
330
18
100
AcDbEntity
  8
ADP2DETAIL
  6
HIDDEN2
100
AcDbLine
 10
5.163600723029083
 20
-1.817609852548628
 30
0.0
 11
3.346282746483719
 21
-2.928533050554202
 31
0.0
  0
LINE
  5
D4
330
18
100
AcDbEntity
  8
ADP1DETAIL
100
AcDbLine
 10
5.163600723038079
 20
-1.670786450051409
 30
0.0
 11
3.135422867350854
 21
-2.911633411989617
 31
0.0
  0
LINE
  5
D5
330
18
100
AcDbEntity
  8
ADP2DETAIL
  6
HIDDEN2
100
AcDbLine
 10
3.166672867350854
 20
-3.880383411989618
 30
0.0
 11
3.166672867350854
 21
-3.130383411989617
 31
0.0
  0
LINE
  5
D6
330
18
100
AcDbEntity
  8
ADP1DETAIL
100
AcDbLine
 10
3.041672867350854
 20
-3.880383411989618
 30
0.0
 11
3.041672867350854
 21
-3.005383411989617
 31
0.0
  0
LINE
  5
D7
330
18
100
AcDbEntity
  8
ADP2DETAIL
  6
HIDDEN2
100
AcDbLine
 10
3.166672867350854
 20
-3.130383411989617
 30
0.0
 11
3.346282746483719
 21
-3.130383411989617
 31
0.0
  0
LINE
  5
D8
330
18
100
AcDbEntity
  8
ADP1DETAIL
100
AcDbLine
 10
3.135422867350854
 20
-3.005383411989617
 30
0.0
 11
3.135422867350854
 21
-2.911633411989617
 31
0.0
  0
LINE
  5
D9
330
18
100
AcDbEntity
  8
ADP2DETAIL
  6
HIDDEN2
100
AcDbLine
 10
3.346282746483719
 20
-2.928533050554202
 30
0.0
 11
3.346282746483719
 21
-3.130383411989617
 31
0.0
  0
ARC
  5
DA
330
18
100
AcDbEntity
  8
ADP2DETAIL
  6
HIDDEN2
100
AcDbCircle
 10
5.229172866777705
 20
-1.924030216972971
 30
0.0
 40
0.125
100
AcDbArc
 50
58.36021844960769
 51
121.6397815600787
  0
ARC
  5
DB
330
18
100
AcDbEntity
  8
ADP1DETAIL
100
AcDbCircle
 10
5.229172866777706
 20
-1.777206814481294
 30
0.0
 40
0.125
100
AcDbArc
 50
58.36021844476447
 51
121.6397815552354
  0
LINE
  5
DC
330
18
100
AcDbEntity
  8
ADP1DETAIL
100
AcDbLine
 10
7.416672867350855
 20
-3.005383411989617
 30
0.0
 11
7.416672867350855
 21
-3.880383411989618
 31
0.0
  0
LINE
  5
DD
330
18
100
AcDbEntity
  8
ADP2DETAIL
  6
HIDDEN2
100
AcDbLine
 10
7.291672867350856
 20
-3.130383411989617
 30
0.0
 11
7.291672867350855
 21
-3.880383411989618
 31
0.0
  0
LINE
  5
DE
330
18
100
AcDbEntity
  8
ADP1DETAIL
100
AcDbLine
 10
7.322922867350855
 20
-2.911633411989617
 30
0.0
 11
7.322922867350854
 21
-3.005383411989617
 31
0.0
  0
LINE
  5
DF
330
18
100
AcDbEntity
  8
ADP2DETAIL
  6
HIDDEN2
100
AcDbLine
 10
7.111986714280864
 20
-2.928486053515726
 30
0.0
 11
7.111986714280862
 21
-3.130383411989617
 31
0.0
  0
LINE
  5
E0
330
18
100
AcDbEntity
  8
ADP2DETAIL
  6
HIDDEN2
100
AcDbLine
 10
7.111986714280862
 20
-3.130383411989617
 30
0.0
 11
7.291672867350855
 21
-3.130383411989617
 31
0.0
  0
TEXT
  5
EE
330
18
100
AcDbEntity
  8
ADPDIM
100
AcDbText
 10
-7.822285181762377
 20
-10.31058612001175
 30
0.0
 40
0.25
  1
J U L I U S  B L U M  &  C O . ,  I N C .      ( 8 0 0 )  5 2 6 - 6 2 9 3        W W W . J U L I U S B L U M . C O M        P A R T  N o .  5 8 4 0
 41
1.25
  7
ARIAL_WIDE
 72
     1
 11
5.229172867350855
 21
-10.06058612001175
 31
0.0
100
AcDbText
 73
     3
  0
ENDSEC
  0
SECTION
  2
OBJECTS
  0
DICTIONARY
  5
C
330
0
100
AcDbDictionary
  3
ACAD_GROUP
350
D
  3
ACAD_LAYOUT
350
E7
  3
ACAD_MLINESTYLE
350
E
  3
ACAD_PLOTSETTINGS
350
E8
  3
ACAD_PLOTSTYLENAME
350
E5
  3
ACDBHEADERROUNDTRIPXREC
350
232
  3
ACDBVARIABLEDICTIONARY
350
148
  0
DICTIONARY
  5
142
330
18
100
AcDbDictionary
280
     1
  3
ACAD_LAYOUTSELFREF
360
253
  0
DICTIONARY
  5
140
330
15
100
AcDbDictionary
280
     1
  3
ACAD_LAYOUTSELFREF
360
252
  0
DICTIONARY
  5
D
102
{ACAD_REACTORS
330
C
102
}
330
C
100
AcDbDictionary
  0
DICTIONARY
  5
E7
102
{ACAD_REACTORS
330
C
102
}
330
C
100
AcDbDictionary
  0
DICTIONARY
  5
E
102
{ACAD_REACTORS
330
C
102
}
330
C
100
AcDbDictionary
  3
STANDARD
350
1B
  0
DICTIONARY
  5
E8
102
{ACAD_REACTORS
330
C
102
}
330
C
100
AcDbDictionary
  0
ACDBDICTIONARYWDFLT
  5
E5
102
{ACAD_REACTORS
330
C
102
}
330
C
100
AcDbDictionary
281
     1
  3
Normal
350
E6
100
AcDbDictionaryWithDefault
340
E6
  0
DICTIONARY
  5
232
102
{ACAD_REACTORS
330
C
102
}
330
C
100
AcDbDictionary
  3
CEPSNTYPE
350
23C
  3
FINGERPRINTGUID
350
23D
  3
HYPERLINKBASE
350
235
  3
INSUNITS
350
23B
  3
LAYOUTDICT
350
237
  3
LWETCUNION
350
23A
  3
PLOTSETDICT
350
238
  3
PLOTSTYLNAMDICT
350
239
  3
PSVPSCALE
350
23F
  3
PUCSBASE
350
242
  3
PUCSORGBACK
350
248
  3
PUCSORGBOTTOM
350
244
  3
PUCSORGFRONT
350
247
  3
PUCSORGLEFT
350
245
  3
PUCSORGRIGHT
350
246
  3
PUCSORGTOP
350
243
  3
PUCSORTHOREF
350
240
  3
PUCSORTHOVIEW
350
241
  3
STYLESHEET
350
236
  3
TSTACKALIGN
350
233
  3
TSTACKSIZE
350
234
  3
UCSBASE
350
24B
  3
UCSORGBACK
350
251
  3
UCSORGBOTTOM
350
24D
  3
UCSORGFRONT
350
250
  3
UCSORGLEFT
350
24E
  3
UCSORGRIGHT
350
24F
  3
UCSORGTOP
350
24C
  3
UCSORTHOREF
350
249
  3
UCSORTHOVIEW
350
24A
  3
VERSIONGUID
350
23E
  0
DICTIONARY
  5
148
102
{ACAD_REACTORS
330
C
102
}
330
C
100
AcDbDictionary
  3
DIMASSOC
350
149
  0
XRECORD
  5
253
102
{ACAD_REACTORS
330
142
102
}
330
142
100
AcDbXrecord
340
18
  0
XRECORD
  5
252
102
{ACAD_REACTORS
330
140
102
}
330
140
100
AcDbXrecord
340
15
  0
MLINESTYLE
  5
1B
102
{ACAD_REACTORS
330
E
102
}
330
E
100
AcDbMlineStyle
  2
STANDARD
 70
     0
  3

 62
     0
 51
90.0
 52
90.0
 71
     2
 49
0.5
 62
   256
  6
BYLAYER
 49
-0.5
 62
   256
  6
BYLAYER
  0
ACDBPLACEHOLDER
  5
E6
102
{ACAD_REACTORS
330
E5
102
}
330
E5
100
AcDbPlaceHolder
280
     0
  0
XRECORD
  5
23C
102
{ACAD_REACTORS
330
232
102
}
330
232
100
AcDbXrecord
 90
        0
  0
XRECORD
  5
23D
102
{ACAD_REACTORS
330
232
102
}
330
232
100
AcDbXrecord
  1
{C145F2A5-334D-49A8-80BE-9D1F9F01DDC5}
  0
XRECORD
  5
235
102
{ACAD_REACTORS
330
232
102
}
330
232
100
AcDbXrecord
  1

  0
XRECORD
  5
23B
102
{ACAD_REACTORS
330
232
102
}
330
232
100
AcDbXrecord
 90
        0
  0
XRECORD
  5
237
102
{ACAD_REACTORS
330
232
102
}
330
232
100
AcDbXrecord
340
E7
  0
XRECORD
  5
23A
102
{ACAD_REACTORS
330
232
102
}
330
232
100
AcDbXrecord
 90
    14877
  0
XRECORD
  5
238
102
{ACAD_REACTORS
330
232
102
}
330
232
100
AcDbXrecord
340
E8
  0
XRECORD
  5
239
102
{ACAD_REACTORS
330
232
102
}
330
232
100
AcDbXrecord
340
E5
  0
XRECORD
  5
23F
102
{ACAD_REACTORS
330
232
102
}
330
232
100
AcDbXrecord
 40
0.0
  0
XRECORD
  5
242
102
{ACAD_REACTORS
330
232
102
}
330
232
100
AcDbXrecord
340
0
  0
XRECORD
  5
248
102
{ACAD_REACTORS
330
232
102
}
330
232
100
AcDbXrecord
 10
0.0
 20
0.0
 30
0.0
  0
XRECORD
  5
244
102
{ACAD_REACTORS
330
232
102
}
330
232
100
AcDbXrecord
 10
0.0
 20
0.0
 30
0.0
  0
XRECORD
  5
247
102
{ACAD_REACTORS
330
232
102
}
330
232
100
AcDbXrecord
 10
0.0
 20
0.0
 30
0.0
  0
XRECORD
  5
245
102
{ACAD_REACTORS
330
232
102
}
330
232
100
AcDbXrecord
 10
0.0
 20
0.0
 30
0.0
  0
XRECORD
  5
246
102
{ACAD_REACTORS
330
232
102
}
330
232
100
AcDbXrecord
 10
0.0
 20
0.0
 30
0.0
  0
XRECORD
  5
243
102
{ACAD_REACTORS
330
232
102
}
330
232
100
AcDbXrecord
 10
0.0
 20
0.0
 30
0.0
  0
XRECORD
  5
240
102
{ACAD_REACTORS
330
232
102
}
330
232
100
AcDbXrecord
340
0
  0
XRECORD
  5
241
102
{ACAD_REACTORS
330
232
102
}
330
232
100
AcDbXrecord
 70
     0
  0
XRECORD
  5
236
102
{ACAD_REACTORS
330
232
102
}
330
232
100
AcDbXrecord
  1

  0
XRECORD
  5
233
102
{ACAD_REACTORS
330
232
102
}
330
232
100
AcDbXrecord
 90
        1
  0
XRECORD
  5
234
102
{ACAD_REACTORS
330
232
102
}
330
232
100
AcDbXrecord
 90
       70
  0
XRECORD
  5
24B
102
{ACAD_REACTORS
330
232
102
}
330
232
100
AcDbXrecord
340
0
  0
XRECORD
  5
251
102
{ACAD_REACTORS
330
232
102
}
330
232
100
AcDbXrecord
 10
0.0
 20
0.0
 30
0.0
  0
XRECORD
  5
24D
102
{ACAD_REACTORS
330
232
102
}
330
232
100
AcDbXrecord
 10
0.0
 20
0.0
 30
0.0
  0
XRECORD
  5
250
102
{ACAD_REACTORS
330
232
102
}
330
232
100
AcDbXrecord
 10
0.0
 20
0.0
 30
0.0
  0
XRECORD
  5
24E
102
{ACAD_REACTORS
330
232
102
}
330
232
100
AcDbXrecord
 10
0.0
 20
0.0
 30
0.0
  0
XRECORD
  5
24F
102
{ACAD_REACTORS
330
232
102
}
330
232
100
AcDbXrecord
 10
0.0
 20
0.0
 30
0.0
  0
XRECORD
  5
24C
102
{ACAD_REACTORS
330
232
102
}
330
232
100
AcDbXrecord
 10
0.0
 20
0.0
 30
0.0
  0
XRECORD
  5
249
102
{ACAD_REACTORS
330
232
102
}
330
232
100
AcDbXrecord
340
0
  0
XRECORD
  5
24A
102
{ACAD_REACTORS
330
232
102
}
330
232
100
AcDbXrecord
 70
     0
  0
XRECORD
  5
23E
102
{ACAD_REACTORS
330
232
102
}
330
232
100
AcDbXrecord
  1
{99E90D13-D5A3-4358-A621-1EC1E1FFD422}
  0
DICTIONARYVAR
  5
149
102
{ACAD_REACTORS
330
148
102
}
330
148
100
DictionaryVariables
280
     0
  1
1
  0
ENDSEC
  0
EOF
