  0
SECTION
  2
HEADER
  9
$ACADVER
  1
AC1014
  9
$ACADMAINTVER
 70
     9
  9
$DWGCODEPAGE
  3
ANSI_1252
  9
$INSBASE
 10
-50.3013941276899
 20
60.669535006929
 30
0.0
  9
$EXTMIN
 10
-82.18233668251313
 20
58.95291672436951
 30
0.0
  9
$EXTMAX
 10
-30.70467638237671
 20
88.38981034338075
 30
0.0
  9
$LIMMIN
 10
0.0
 20
0.0
  9
$LIMMAX
 10
36.0
 20
36.0
  9
$ORTHOMODE
 70
     1
  9
$REGENMODE
 70
     1
  9
$FILLMODE
 70
     1
  9
$QTEXTMODE
 70
     0
  9
$MIRRTEXT
 70
     1
  9
$DRAGMODE
 70
     0
  9
$LTSCALE
 40
1.0
  9
$OSMODE
 70
    37
  9
$ATTMODE
 70
     1
  9
$TEXTSIZE
 40
0.2
  9
$TRACEWID
 40
0.05
  9
$TEXTSTYLE
  7
STANDARD
  9
$CLAYER
  8
ADPDIM
  9
$CELTYPE
  6
BYLAYER
  9
$CECOLOR
 62
   256
  9
$CELTSCALE
 40
1.0
  9
$DELOBJ
 70
     1
  9
$DISPSILH
 70
     0
  9
$DIMSCALE
 40
1.0
  9
$DIMASZ
 40
0.125
  9
$DIMEXO
 40
0.0625
  9
$DIMDLI
 40
0.38
  9
$DIMRND
 40
0.0
  9
$DIMDLE
 40
0.0
  9
$DIMEXE
 40
0.18
  9
$DIMTP
 40
0.0
  9
$DIMTM
 40
0.0
  9
$DIMTXT
 40
0.125
  9
$DIMCEN
 40
0.1875
  9
$DIMTSZ
 40
0.125
  9
$DIMTOL
 70
     0
  9
$DIMLIM
 70
     0
  9
$DIMTIH
 70
     0
  9
$DIMTOH
 70
     0
  9
$DIMSE1
 70
     0
  9
$DIMSE2
 70
     0
  9
$DIMTAD
 70
     0
  9
$DIMZIN
 70
     3
  9
$DIMBLK
  1

  9
$DIMASO
 70
     1
  9
$DIMSHO
 70
     1
  9
$DIMPOST
  1

  9
$DIMAPOST
  1

  9
$DIMALT
 70
     0
  9
$DIMALTD
 70
     1
  9
$DIMALTF
 40
25.4
  9
$DIMLFAC
 40
1.0
  9
$DIMTOFL
 70
     0
  9
$DIMTVP
 40
0.0
  9
$DIMTIX
 70
     0
  9
$DIMSOXD
 70
     0
  9
$DIMSAH
 70
     0
  9
$DIMBLK1
  1

  9
$DIMBLK2
  1

  9
$DIMSTYLE
  2
STANDARD
  9
$DIMCLRD
 70
     0
  9
$DIMCLRE
 70
     0
  9
$DIMCLRT
 70
     0
  9
$DIMTFAC
 40
1.0
  9
$DIMGAP
 40
0.125
  9
$DIMJUST
 70
     0
  9
$DIMSD1
 70
     0
  9
$DIMSD2
 70
     0
  9
$DIMTOLJ
 70
     1
  9
$DIMTZIN
 70
     0
  9
$DIMALTZ
 70
     0
  9
$DIMALTTZ
 70
     0
  9
$DIMFIT
 70
     3
  9
$DIMUPT
 70
     0
  9
$DIMUNIT
 70
     2
  9
$DIMDEC
 70
     4
  9
$DIMTDEC
 70
     4
  9
$DIMALTU
 70
     2
  9
$DIMALTTD
 70
     2
  9
$DIMTXSTY
  7
STANDARD
  9
$DIMAUNIT
 70
     0
  9
$LUNITS
 70
     5
  9
$LUPREC
 70
     5
  9
$SKETCHINC
 40
0.1
  9
$FILLETRAD
 40
0.062
  9
$AUNITS
 70
     0
  9
$AUPREC
 70
     0
  9
$MENU
  1
acad
  9
$ELEVATION
 40
0.0
  9
$PELEVATION
 40
0.0
  9
$THICKNESS
 40
0.0
  9
$LIMCHECK
 70
     0
  9
$BLIPMODE
 70
     0
  9
$CHAMFERA
 40
0.0
  9
$CHAMFERB
 40
0.0
  9
$CHAMFERC
 40
0.0
  9
$CHAMFERD
 40
0.0
  9
$SKPOLY
 70
     0
  9
$TDCREATE
 40
2450409.482300532
  9
$TDUPDATE
 40
2452297.073517974
  9
$TDINDWG
 40
0.0091349653
  9
$TDUSRTIMER
 40
0.0091349653
  9
$USRTIMER
 70
     1
  9
$ANGBASE
 50
0.0
  9
$ANGDIR
 70
     0
  9
$PDMODE
 70
     0
  9
$PDSIZE
 40
0.0
  9
$PLINEWID
 40
0.0
  9
$COORDS
 70
     2
  9
$SPLFRAME
 70
     0
  9
$SPLINETYPE
 70
     6
  9
$SPLINESEGS
 70
     8
  9
$ATTDIA
 70
     0
  9
$ATTREQ
 70
     1
  9
$HANDLING
 70
 22529
  9
$HANDSEED
  5
4C7
  9
$SURFTAB1
 70
     6
  9
$SURFTAB2
 70
     6
  9
$SURFTYPE
 70
     6
  9
$SURFU
 70
     6
  9
$SURFV
 70
     6
  9
$UCSNAME
  2

  9
$UCSORG
 10
0.0
 20
0.0
 30
0.0
  9
$UCSXDIR
 10
1.0
 20
0.0
 30
0.0
  9
$UCSYDIR
 10
0.0
 20
1.0
 30
0.0
  9
$PUCSNAME
  2

  9
$PUCSORG
 10
0.0
 20
0.0
 30
0.0
  9
$PUCSXDIR
 10
1.0
 20
0.0
 30
0.0
  9
$PUCSYDIR
 10
0.0
 20
1.0
 30
0.0
  9
$USERI1
 70
     0
  9
$USERI2
 70
     0
  9
$USERI3
 70
     0
  9
$USERI4
 70
     0
  9
$USERI5
 70
     0
  9
$USERR1
 40
0.0
  9
$USERR2
 40
0.0
  9
$USERR3
 40
0.0
  9
$USERR4
 40
0.0
  9
$USERR5
 40
0.0
  9
$WORLDVIEW
 70
     1
  9
$SHADEDGE
 70
     3
  9
$SHADEDIF
 70
    70
  9
$TILEMODE
 70
     1
  9
$MAXACTVP
 70
    15
  9
$PINSBASE
 10
0.0058594681322575
 20
8.002266177471257
 30
0.0
  9
$PLIMCHECK
 70
     0
  9
$PEXTMIN
 10
1.000000000000000E+20
 20
1.000000000000000E+20
 30
1.000000000000000E+20
  9
$PEXTMAX
 10
-1.000000000000000E+20
 20
-1.000000000000000E+20
 30
-1.000000000000000E+20
  9
$PLIMMIN
 10
0.0
 20
0.0
  9
$PLIMMAX
 10
12.0
 20
9.0
  9
$UNITMODE
 70
     0
  9
$VISRETAIN
 70
     0
  9
$PLINEGEN
 70
     0
  9
$PSLTSCALE
 70
     1
  9
$TREEDEPTH
 70
  3020
  9
$PICKSTYLE
 70
     1
  9
$CMLSTYLE
  2
STANDARD
  9
$CMLJUST
 70
     0
  9
$CMLSCALE
 40
1.0
  9
$PROXYGRAPHICS
 70
     1
  9
$MEASUREMENT
 70
     0
  0
ENDSEC
  0
SECTION
  2
CLASSES
  0
CLASS
  1
ACDBDICTIONARYWDFLT
  2
AcDbDictionaryWithDefault
  3
AutoCAD 2000
 90
        0
280
     0
281
     0
  0
CLASS
  1
ACDBPLACEHOLDER
  2
AcDbPlaceHolder
  3
AutoCAD 2000
 90
        0
280
     0
281
     0
  0
CLASS
  1
LAYOUT
  2
AcDbLayout
  3
AutoCAD 2000
 90
        0
280
     0
281
     0
  0
CLASS
  1
DICTIONARYVAR
  2
AcDbDictionaryVar
  3
AutoCAD 2000
 90
        0
280
     0
281
     0
  0
CLASS
  1
LONG_TRANSACTION
  2
AcDbLongTransaction
  3
AutoCAD 2000
 90
        0
280
     0
281
     0
  0
CLASS
  1
LWPOLYLINE
  2
AcDbPolyline
  3
AutoCAD 2000
 90
        0
280
     0
281
     1
  0
CLASS
  1
HATCH
  2
AcDbHatch
  3
AutoCAD 2000
 90
        0
280
     0
281
     1
  0
CLASS
  1
XRECORD
  2
AcDbXrecord
  3
AutoCAD 2000
 90
        0
280
     0
281
     0
  0
CLASS
  1
LONG_TRANSACTION
  2
AcDbLongTransaction
  3
AutoCAD 2000
 90
        0
280
     0
281
     0
  0
CLASS
  1
LWPOLYLINE
  2
AcDbPolyline
  3
AutoCAD 2000
 90
        0
280
     0
281
     1
  0
CLASS
  1
HATCH
  2
AcDbHatch
  3
AutoCAD 2000
 90
        0
280
     0
281
     1
  0
CLASS
  1
XRECORD
  2
AcDbXrecord
  3
AutoCAD 2000
 90
        0
280
     0
281
     0
  0
CLASS
  1
LONG_TRANSACTION
  2
AcDbLongTransaction
  3
AutoCAD 2000
 90
        0
280
     0
281
     0
  0
CLASS
  1
LWPOLYLINE
  2
AcDbPolyline
  3
AutoCAD 2000
 90
        0
280
     0
281
     1
  0
CLASS
  1
HATCH
  2
AcDbHatch
  3
AutoCAD 2000
 90
        0
280
     0
281
     1
  0
CLASS
  1
XRECORD
  2
AcDbXrecord
  3
AutoCAD 2000
 90
        0
280
     0
281
     0
  0
CLASS
  1
LONG_TRANSACTION
  2
AcDbLongTransaction
  3
AutoCAD 2000
 90
        0
280
     0
281
     0
  0
CLASS
  1
LWPOLYLINE
  2
AcDbPolyline
  3
AutoCAD 2000
 90
        0
280
     0
281
     1
  0
CLASS
  1
HATCH
  2
AcDbHatch
  3
AutoCAD 2000
 90
        0
280
     0
281
     1
  0
CLASS
  1
XRECORD
  2
AcDbXrecord
  3
AutoCAD 2000
 90
        0
280
     0
281
     0
  0
CLASS
  1
LONG_TRANSACTION
  2
AcDbLongTransaction
  3
AutoCAD 2000
 90
        0
280
     0
281
     0
  0
CLASS
  1
LWPOLYLINE
  2
AcDbPolyline
  3
AutoCAD 2000
 90
        0
280
     0
281
     1
  0
CLASS
  1
HATCH
  2
AcDbHatch
  3
AutoCAD 2000
 90
        0
280
     0
281
     1
  0
CLASS
  1
XRECORD
  2
AcDbXrecord
  3
AutoCAD 2000
 90
        0
280
     0
281
     0
  0
ENDSEC
  0
SECTION
  2
TABLES
  0
TABLE
  2
VPORT
  5
8
330
0
100
AcDbSymbolTable
 70
     2
  0
VPORT
  5
4A4
330
8
100
AcDbSymbolTableRecord
100
AcDbViewportTableRecord
  2
*ACTIVE
 70
     0
 10
0.0
 20
0.0
 11
1.0
 21
1.0
 12
-56.40174921575525
 22
73.6734960217303
 13
0.0
 23
0.0
 14
0.5740882589684922
 24
0.5740882589684922
 15
0.5
 25
0.5
 16
0.0
 26
0.0
 36
1.0
 17
0.0
 27
0.0
 37
0.0
 40
32.98823814044364
 41
1.570528967254408
 42
50.0
 43
0.0
 44
0.0
 50
0.0
 51
0.0
 71
     0
 72
   100
 73
     1
 74
     0
 75
     0
 76
     0
 77
     0
 78
     0
  0
ENDTAB
  0
TABLE
  2
LTYPE
  5
5
330
0
100
AcDbSymbolTable
 70
     1
  0
LTYPE
  5
12
330
5
100
AcDbSymbolTableRecord
100
AcDbLinetypeTableRecord
  2
BYBLOCK
 70
     0
  3

 72
    65
 73
     0
 40
0.0
  0
LTYPE
  5
13
330
5
100
AcDbSymbolTableRecord
100
AcDbLinetypeTableRecord
  2
BYLAYER
 70
     0
  3

 72
    65
 73
     0
 40
0.0
  0
LTYPE
  5
14
330
5
100
AcDbSymbolTableRecord
100
AcDbLinetypeTableRecord
  2
CONTINUOUS
 70
     0
  3
Solid line
 72
    65
 73
     0
 40
0.0
  0
ENDTAB
  0
TABLE
  2
LAYER
  5
2
330
0
100
AcDbSymbolTable
 70
     4
  0
LAYER
  5
F
330
2
100
AcDbSymbolTableRecord
100
AcDbLayerTableRecord
  2
0
 70
     0
 62
     7
  6
CONTINUOUS
  0
LAYER
  5
A7
330
2
100
AcDbSymbolTableRecord
100
AcDbLayerTableRecord
  2
DEFPOINTS
 70
     0
 62
     7
  6
CONTINUOUS
  0
LAYER
  5
AA
330
2
100
AcDbSymbolTableRecord
100
AcDbLayerTableRecord
  2
ADP1DETAIL
 70
     0
 62
     7
  6
CONTINUOUS
  0
LAYER
  5
AD
330
2
100
AcDbSymbolTableRecord
100
AcDbLayerTableRecord
  2
ADPDIM
 70
     0
 62
     3
  6
CONTINUOUS
  0
ENDTAB
  0
TABLE
  2
STYLE
  5
3
330
0
100
AcDbSymbolTable
 70
     2
  0
STYLE
  5
10
330
3
100
AcDbSymbolTableRecord
100
AcDbTextStyleTableRecord
  2
STANDARD
 70
     0
 40
0.0
 41
1.0
 50
0.0
 71
     0
 42
0.2
  3
txt
  4

  0
STYLE
  5
360
330
3
100
AcDbSymbolTableRecord
100
AcDbTextStyleTableRecord
  2
ARIAL_WIDE
 70
     0
 40
0.0
 41
1.25
 50
0.0
 71
     0
 42
0.2
  3
ARIAL.TTF
  4

1001
ACAD
1000
Arial
1071
       34
  0
ENDTAB
  0
TABLE
  2
VIEW
  5
6
330
0
100
AcDbSymbolTable
 70
     0
  0
ENDTAB
  0
TABLE
  2
UCS
  5
7
330
0
100
AcDbSymbolTable
 70
     0
  0
ENDTAB
  0
TABLE
  2
APPID
  5
9
330
0
100
AcDbSymbolTable
 70
     1
  0
APPID
  5
11
330
9
100
AcDbSymbolTableRecord
100
AcDbRegAppTableRecord
  2
ACAD
 70
     0
  0
ENDTAB
  0
TABLE
  2
DIMSTYLE
  5
A
330
0
100
AcDbSymbolTable
 70
     1
  0
DIMSTYLE
105
354
330
A
100
AcDbSymbolTableRecord
100
AcDbDimStyleTableRecord
  2
STANDARD
 70
     0
  3

  4

  5

  6

  7

 40
1.0
 41
0.18
 42
0.0625
 43
0.38
 44
0.18
 45
0.0
 46
0.0
 47
0.0
 48
0.0
140
0.18
141
0.09
142
0.0
143
25.4
144
1.0
145
0.0
146
1.0
147
0.09
 71
     0
 72
     0
 73
     1
 74
     1
 75
     0
 76
     0
 77
     0
 78
     0
170
     0
171
     2
172
     0
173
     0
174
     0
175
     0
176
     0
177
     0
178
     0
270
     2
271
     4
272
     4
273
     2
274
     2
340
10
275
     0
280
     0
281
     0
282
     0
283
     1
284
     0
285
     0
286
     0
287
     3
288
     0
  0
ENDTAB
  0
TABLE
  2
BLOCK_RECORD
  5
1
330
0
100
AcDbSymbolTable
 70
     3
  0
BLOCK_RECORD
  5
18
102
{ACAD_XDICTIONARY
360
3B5
102
}
330
1
100
AcDbSymbolTableRecord
100
AcDbBlockTableRecord
  2
*MODEL_SPACE
  0
BLOCK_RECORD
  5
15
102
{ACAD_XDICTIONARY
360
3B3
102
}
330
1
100
AcDbSymbolTableRecord
100
AcDbBlockTableRecord
  2
*PAPER_SPACE
  0
BLOCK_RECORD
  5
6B
330
1
100
AcDbSymbolTableRecord
100
AcDbBlockTableRecord
  2
583
  0
BLOCK_RECORD
  5
A0
330
1
100
AcDbSymbolTableRecord
100
AcDbBlockTableRecord
  2
*D1
  0
BLOCK_RECORD
  5
A1
330
1
100
AcDbSymbolTableRecord
100
AcDbBlockTableRecord
  2
*D2
  0
ENDTAB
  0
ENDSEC
  0
SECTION
  2
BLOCKS
  0
BLOCK
  5
B0
330
18
100
AcDbEntity
  8
0
100
AcDbBlockBegin
  2
*MODEL_SPACE
 70
     0
 10
0.0
 20
0.0
 30
0.0
  3
*MODEL_SPACE
  1

  0
ENDBLK
  5
B1
330
18
100
AcDbEntity
  8
0
100
AcDbBlockEnd
  0
BLOCK
  5
AE
330
15
100
AcDbEntity
 67
     1
  8
0
100
AcDbBlockBegin
  2
*PAPER_SPACE
 70
     0
 10
0.0
 20
0.0
 30
0.0
  3
*PAPER_SPACE
  1

  0
ENDBLK
  5
AF
330
15
100
AcDbEntity
 67
     1
  8
0
100
AcDbBlockEnd
  0
BLOCK
  5
B3
330
6B
100
AcDbEntity
  8
0
100
AcDbBlockBegin
  2
583
 70
     0
 10
0.0
 20
0.0
 30
0.0
  3
583
  1

  0
LINE
  5
B4
330
6B
100
AcDbEntity
  8
0
100
AcDbLine
 10
6.857057548695368
 20
7.056379966091878
 30
0.0
 11
8.35771146123805
 21
6.183360444677628
 31
0.0
  0
LINE
  5
B5
330
6B
100
AcDbEntity
  8
0
100
AcDbLine
 10
6.810369540982645
 20
7.057745426353051
 30
0.0
 11
8.357835234745621
 21
6.089610526383696
 31
0.0
  0
LINE
  5
B6
330
6B
100
AcDbEntity
  8
0
100
AcDbLine
 10
6.918935441965577
 20
6.869888596841846
 30
0.0
 11
8.358373287285925
 21
5.773747728441628
 31
0.0
  0
LINE
  5
B7
330
6B
100
AcDbEntity
  8
0
100
AcDbLine
 10
6.918935441965577
 20
6.869888596841846
 30
0.0
 11
8.35800026608905
 21
5.96461063532512
 31
0.0
  0
LINE
  5
B8
330
6B
100
AcDbEntity
  8
0
100
AcDbLine
 10
6.919557876650938
 20
6.865818458388552
 30
0.0
 11
7.881975680705067
 21
5.564345762576522
 31
0.0
  0
LINE
  5
B9
330
6B
100
AcDbEntity
  8
0
100
AcDbLine
 10
7.733119018644422
 20
5.495535226577176
 30
0.0
 11
6.669305259558419
 21
6.868631922363496
 31
0.0
  0
LINE
  5
BA
330
6B
100
AcDbEntity
  8
0
100
AcDbLine
 10
7.795078036836303
 20
5.526617055106044
 30
0.0
 11
6.669264331785249
 21
6.899631895346024
 31
0.0
  0
LINE
  5
BB
330
6B
100
AcDbEntity
  8
0
100
AcDbLine
 10
6.865969241240549
 20
0.3063858489288158
 30
0.0
 11
8.35936177467234
 21
4.933361534091876
 31
0.0
  0
LINE
  5
BC
330
6B
100
AcDbEntity
  8
0
100
AcDbLine
 10
6.803969295275499
 20
0.3063039933824747
 30
0.0
 11
8.358866680642051
 21
5.308361207267601
 31
0.0
  0
LINE
  5
BD
330
6B
100
AcDbEntity
  8
0
100
AcDbLine
 10
6.865309115866833
 20
0.8063854131631167
 30
0.0
 11
8.358701649298623
 21
5.433361098326177
 31
0.0
  0
LINE
  5
BE
330
6B
100
AcDbEntity
  8
0
100
AcDbLine
 10
6.865309115866833
 20
0.8063854131631167
 30
0.0
 11
8.358373287285925
 21
5.773747728441628
 31
0.0
  0
LINE
  5
BF
330
6B
100
AcDbEntity
  8
0
100
AcDbLine
 10
6.677721197947939
 20
0.4941374779403916
 30
0.0
 11
7.733119018644422
 21
5.495535226577176
 31
0.0
  0
LINE
  5
C0
330
6B
100
AcDbEntity
  8
0
100
AcDbLine
 10
7.795078036836303
 20
5.526617055106044
 30
0.0
 11
6.67776212572111
 21
0.4631375049578672
 31
0.0
  0
LINE
  5
C1
330
6B
100
AcDbEntity
  8
0
100
AcDbLine
 10
7.881975680705067
 20
5.564345762576522
 30
0.0
 11
6.864908031703738
 21
0.8029793861137477
 31
0.0
  0
LINE
  5
C2
330
6B
100
AcDbEntity
  8
0
100
AcDbLine
 10
6.857057548695368
 20
13.80983076541404
 30
0.0
 11
8.35771146123805
 21
12.93681124399979
 31
0.0
  0
LINE
  5
C3
330
6B
100
AcDbEntity
  8
0
100
AcDbLine
 10
6.810369540982645
 20
13.81119622567521
 30
0.0
 11
8.357835234745621
 21
12.84306132570586
 31
0.0
  0
LINE
  5
C4
330
6B
100
AcDbEntity
  8
0
100
AcDbLine
 10
6.918935441965577
 20
13.62333939616401
 30
0.0
 11
8.358373287285925
 21
12.52719852776379
 31
0.0
  0
LINE
  5
C5
330
6B
100
AcDbEntity
  8
0
100
AcDbLine
 10
6.918935441965577
 20
13.62333939616401
 30
0.0
 11
8.35800026608905
 21
12.71806143464728
 31
0.0
  0
LINE
  5
C6
330
6B
100
AcDbEntity
  8
0
100
AcDbLine
 10
6.919557876650938
 20
13.61926925771071
 30
0.0
 11
7.881975680705067
 21
12.31779656189868
 31
0.0
  0
LINE
  5
C7
330
6B
100
AcDbEntity
  8
0
100
AcDbLine
 10
7.733119018644422
 20
12.24898602589933
 30
0.0
 11
6.669305259558419
 21
13.62208272168565
 31
0.0
  0
LINE
  5
C8
330
6B
100
AcDbEntity
  8
0
100
AcDbLine
 10
7.795078036836303
 20
12.2800678544282
 30
0.0
 11
6.669264331785249
 21
13.65308269466818
 31
0.0
  0
LINE
  5
C9
330
6B
100
AcDbEntity
  8
0
100
AcDbLine
 10
6.865969241240549
 20
7.059836648250977
 30
0.0
 11
8.35936177467234
 21
11.68681233341404
 31
0.0
  0
LINE
  5
CA
330
6B
100
AcDbEntity
  8
0
100
AcDbLine
 10
6.803969295275499
 20
7.059754792704636
 30
0.0
 11
8.358866680642051
 21
12.06181200658976
 31
0.0
  0
LINE
  5
CB
330
6B
100
AcDbEntity
  8
0
100
AcDbLine
 10
6.865309115866833
 20
7.559836212485278
 30
0.0
 11
8.358701649298623
 21
12.18681189764834
 31
0.0
  0
LINE
  5
CC
330
6B
100
AcDbEntity
  8
0
100
AcDbLine
 10
6.865309115866833
 20
7.559836212485278
 30
0.0
 11
8.358373287285925
 21
12.52719852776379
 31
0.0
  0
LINE
  5
CD
330
6B
100
AcDbEntity
  8
0
100
AcDbLine
 10
6.677721197947939
 20
7.247588277262556
 30
0.0
 11
7.733119018644422
 21
12.24898602589933
 31
0.0
  0
LINE
  5
CE
330
6B
100
AcDbEntity
  8
0
100
AcDbLine
 10
7.795078036836303
 20
12.2800678544282
 30
0.0
 11
6.67776212572111
 21
7.21658830428003
 31
0.0
  0
LINE
  5
CF
330
6B
100
AcDbEntity
  8
0
100
AcDbLine
 10
7.881975680705067
 20
12.31779656189868
 30
0.0
 11
6.864908031703738
 21
7.55643018543591
 31
0.0
  0
LINE
  5
D0
330
6B
100
AcDbEntity
  8
0
100
AcDbLine
 10
6.857057548695368
 20
20.59275777531599
 30
0.0
 11
8.35771146123805
 21
19.71973825390175
 31
0.0
  0
LINE
  5
D1
330
6B
100
AcDbEntity
  8
0
100
AcDbLine
 10
6.810369540982645
 20
20.59412323557717
 30
0.0
 11
8.357835234745621
 21
19.62598833560782
 31
0.0
  0
LINE
  5
D2
330
6B
100
AcDbEntity
  8
0
100
AcDbLine
 10
6.918935441965577
 20
20.40626640606597
 30
0.0
 11
8.358373287285925
 21
19.31012553766575
 31
0.0
  0
LINE
  5
D3
330
6B
100
AcDbEntity
  8
0
100
AcDbLine
 10
6.918935441965577
 20
20.40626640606597
 30
0.0
 11
8.35800026608905
 21
19.50098844454924
 31
0.0
  0
LINE
  5
D4
330
6B
100
AcDbEntity
  8
0
100
AcDbLine
 10
6.919557876650938
 20
20.40219626761267
 30
0.0
 11
7.881975680705067
 21
19.10072357180064
 31
0.0
  0
LINE
  5
D5
330
6B
100
AcDbEntity
  8
0
100
AcDbLine
 10
7.733119018644422
 20
19.03191303580129
 30
0.0
 11
6.669305259558419
 21
20.40500973158761
 31
0.0
  0
LINE
  5
D6
330
6B
100
AcDbEntity
  8
0
100
AcDbLine
 10
7.795078036836303
 20
19.06299486433016
 30
0.0
 11
6.669264331785249
 21
20.43600970457014
 31
0.0
  0
LINE
  5
D7
330
6B
100
AcDbEntity
  8
0
100
AcDbLine
 10
6.865969241240549
 20
13.84276365815293
 30
0.0
 11
8.35936177467234
 21
18.469739343316
 31
0.0
  0
LINE
  5
D8
330
6B
100
AcDbEntity
  8
0
100
AcDbLine
 10
6.803969295275499
 20
13.84268180260659
 30
0.0
 11
8.358866680642051
 21
18.84473901649172
 31
0.0
  0
LINE
  5
D9
330
6B
100
AcDbEntity
  8
0
100
AcDbLine
 10
6.865309115866833
 20
14.34276322238723
 30
0.0
 11
8.358701649298623
 21
18.96973890755029
 31
0.0
  0
LINE
  5
DA
330
6B
100
AcDbEntity
  8
0
100
AcDbLine
 10
6.865309115866833
 20
14.34276322238723
 30
0.0
 11
8.358373287285925
 21
19.31012553766575
 31
0.0
  0
LINE
  5
DB
330
6B
100
AcDbEntity
  8
0
100
AcDbLine
 10
6.677721197947939
 20
14.03051528716451
 30
0.0
 11
7.733119018644422
 21
19.03191303580129
 31
0.0
  0
LINE
  5
DC
330
6B
100
AcDbEntity
  8
0
100
AcDbLine
 10
7.795078036836303
 20
19.06299486433016
 30
0.0
 11
6.67776212572111
 21
13.99951531418198
 31
0.0
  0
LINE
  5
DD
330
6B
100
AcDbEntity
  8
0
100
AcDbLine
 10
7.881975680705067
 20
19.10072357180064
 30
0.0
 11
6.864908031703738
 21
14.33935719533787
 31
0.0
  0
LINE
  5
DE
330
6B
100
AcDbEntity
  8
0
100
AcDbLine
 10
7.795078036836303
 20
25.81443629730074
 30
0.0
 11
6.669264331785249
 21
27.18745113754073
 31
0.0
  0
LINE
  5
DF
330
6B
100
AcDbEntity
  8
0
100
AcDbLine
 10
7.733119018644422
 20
25.78335446877187
 30
0.0
 11
6.669305259558419
 21
27.15645116455819
 31
0.0
  0
LINE
  5
E0
330
6B
100
AcDbEntity
  8
0
100
AcDbLine
 10
6.919557876650938
 20
27.15363770058325
 30
0.0
 11
7.881975680705067
 21
25.85216500477122
 31
0.0
  0
LINE
  5
E1
330
6B
100
AcDbEntity
  8
0
100
AcDbLine
 10
7.881975680705067
 20
25.85216500477122
 30
0.0
 11
6.864908031703738
 21
21.09079862830844
 31
0.0
  0
LINE
  5
E2
330
6B
100
AcDbEntity
  8
0
100
AcDbLine
 10
7.795078036836303
 20
25.81443629730074
 30
0.0
 11
6.67776212572111
 21
20.75095674715256
 31
0.0
  0
LINE
  5
E3
330
6B
100
AcDbEntity
  8
0
100
AcDbLine
 10
6.677721197947939
 20
20.78195672013509
 30
0.0
 11
7.733119018644422
 21
25.78335446877187
 31
0.0
  0
LINE
  5
E4
330
6B
100
AcDbEntity
  8
0
100
AcDbLine
 10
6.918935441965577
 20
27.15770783903654
 30
0.0
 11
8.35800026608905
 21
26.25242987751982
 31
0.0
  0
LINE
  5
E5
330
6B
100
AcDbEntity
  8
0
100
AcDbLine
 10
6.918935441965577
 20
27.15770783903654
 30
0.0
 11
8.358373287285925
 21
26.06156697063632
 31
0.0
  0
LINE
  5
E6
330
6B
100
AcDbEntity
  8
0
100
AcDbLine
 10
6.810369540982645
 20
27.34556466854775
 30
0.0
 11
8.357835234745621
 21
26.37742976857839
 31
0.0
  0
LINE
  5
E7
330
6B
100
AcDbEntity
  8
0
100
AcDbLine
 10
6.857057548695368
 20
27.34419920828658
 30
0.0
 11
8.35771146123805
 21
26.47117968687233
 31
0.0
  0
LINE
  5
E8
330
6B
100
AcDbEntity
  8
0
100
AcDbLine
 10
6.865309115866833
 20
21.09420465535781
 30
0.0
 11
8.358373287285925
 21
26.06156697063632
 31
0.0
  0
LINE
  5
E9
330
6B
100
AcDbEntity
  8
0
100
AcDbLine
 10
6.865309115866833
 20
21.09420465535781
 30
0.0
 11
8.358701649298623
 21
25.72118034052087
 31
0.0
  0
LINE
  5
EA
330
6B
100
AcDbEntity
  8
0
100
AcDbLine
 10
6.803969295275499
 20
20.59412323557717
 30
0.0
 11
8.358866680642051
 21
25.5961804494623
 31
0.0
  0
LINE
  5
EB
330
6B
100
AcDbEntity
  8
0
100
AcDbLine
 10
6.865969241240549
 20
20.59420509112351
 30
0.0
 11
8.35936177467234
 21
25.22118077628658
 31
0.0
  0
LINE
  5
EC
330
6B
100
AcDbEntity
  8
0
100
AcDbLine
 10
3.294308200976886
 20
20.40055388531502
 30
0.0
 11
4.362908529147719
 21
15.40196034926579
 31
0.0
  0
LINE
  5
ED
330
6B
100
AcDbEntity
  8
0
100
AcDbLine
 10
4.42494940288594
 20
15.37104223182961
 30
0.0
 11
3.294267273203717
 21
20.43155385829755
 31
0.0
  0
LINE
  5
EE
330
6B
100
AcDbEntity
  8
0
100
AcDbLine
 10
3.482059829988469
 20
20.58880192860764
 30
0.0
 11
4.98766468283402
 21
15.96578567543613
 31
0.0
  0
LINE
  5
EF
330
6B
100
AcDbEntity
  8
0
100
AcDbLine
 10
3.420059884023419
 20
20.5887200730613
 30
0.0
 11
4.988159776864308
 21
15.59078600226041
 31
0.0
  0
LINE
  5
F0
330
6B
100
AcDbEntity
  8
0
100
AcDbLine
 10
3.482719955362187
 20
20.08880236437334
 30
0.0
 11
4.988324808207736
 21
15.46578611120183
 31
0.0
  0
LINE
  5
F1
330
6B
100
AcDbEntity
  8
0
100
AcDbLine
 10
3.482719955362187
 20
20.08880236437334
 30
0.0
 11
4.988895237962085
 21
15.12539980067677
 31
0.0
  0
LINE
  5
F2
330
6B
100
AcDbEntity
  8
0
100
AcDbLine
 10
4.511946366440379
 20
15.33354310904464
 30
0.0
 11
3.482309878985646
 21
20.09220732048646
 31
0.0
  0
LINE
  5
F3
330
6B
100
AcDbEntity
  8
0
100
AcDbLine
 10
3.302724139366408
 20
14.02605944089192
 30
0.0
 11
2.234123811195577
 21
19.02465297694115
 31
0.0
  0
LINE
  5
F4
330
6B
100
AcDbEntity
  8
0
100
AcDbLine
 10
2.172082937457356
 20
19.05557109437734
 30
0.0
 11
3.302765067139577
 21
13.99505946790939
 31
0.0
  0
LINE
  5
F5
330
6B
100
AcDbEntity
  8
0
100
AcDbLine
 10
3.114972510354825
 20
13.83781139759931
 30
0.0
 11
1.609367657509277
 21
18.46082765077081
 31
0.0
  0
LINE
  5
F6
330
6B
100
AcDbEntity
  8
0
100
AcDbLine
 10
3.176972456319876
 20
13.83789325314565
 30
0.0
 11
1.608872563478988
 21
18.83582732394654
 31
0.0
  0
LINE
  5
F7
330
6B
100
AcDbEntity
  8
0
100
AcDbLine
 10
3.114312384981109
 20
14.33781096183361
 30
0.0
 11
1.60870753213556
 21
18.96082721500511
 31
0.0
  0
LINE
  5
F8
330
6B
100
AcDbEntity
  8
0
100
AcDbLine
 10
3.114312384981109
 20
14.33781096183361
 30
0.0
 11
1.608137102381212
 21
19.30121352553017
 31
0.0
  0
LINE
  5
F9
330
6B
100
AcDbEntity
  8
0
100
AcDbLine
 10
2.085085973902915
 20
19.0930702171623
 30
0.0
 11
3.11472246135765
 21
14.33440600572048
 31
0.0
  0
LINE
  5
FA
330
6B
100
AcDbEntity
  8
0
100
AcDbLine
 10
5.465050776801295
 20
15.33480144695149
 30
0.0
 11
6.482118425802622
 21
20.09616782341426
 31
0.0
  0
LINE
  5
FB
330
6B
100
AcDbEntity
  8
0
100
AcDbLine
 10
5.551948420670059
 20
15.37253015442196
 30
0.0
 11
6.669264331785249
 21
20.43600970457014
 31
0.0
  0
LINE
  5
FC
330
6B
100
AcDbEntity
  8
0
100
AcDbLine
 10
6.669305259558419
 20
20.40500973158761
 30
0.0
 11
5.613907438861938
 21
15.40361198295083
 31
0.0
  0
LINE
  5
FD
330
6B
100
AcDbEntity
  8
0
100
AcDbLine
 10
6.481717341639527
 20
20.09276179636489
 30
0.0
 11
4.988653170220435
 21
15.12539948108638
 31
0.0
  0
LINE
  5
FE
330
6B
100
AcDbEntity
  8
0
100
AcDbLine
 10
6.481717341639527
 20
20.09276179636489
 30
0.0
 11
4.988324808207736
 21
15.46578611120183
 31
0.0
  0
LINE
  5
FF
330
6B
100
AcDbEntity
  8
0
100
AcDbLine
 10
6.543057162230859
 20
20.59284321614553
 30
0.0
 11
4.988159776864308
 21
15.59078600226041
 31
0.0
  0
LINE
  5
100
330
6B
100
AcDbEntity
  8
0
100
AcDbLine
 10
6.481057216265809
 20
20.59276136059919
 30
0.0
 11
4.98766468283402
 21
15.96578567543613
 31
0.0
  0
LINE
  5
101
330
6B
100
AcDbEntity
  8
0
100
AcDbLine
 10
1.045083919673237
 20
19.05408317178498
 30
0.0
 11
-0.0722319914419538
 21
13.9906036216368
 31
0.0
  0
LINE
  5
102
330
6B
100
AcDbEntity
  8
0
100
AcDbLine
 10
-0.0722729192151244
 20
14.02160359461933
 30
0.0
 11
0.9831249014813581
 21
19.02300134325612
 31
0.0
  0
LINE
  5
103
330
6B
100
AcDbEntity
  8
0
100
AcDbLine
 10
1.131981563542001
 20
19.09181187925546
 30
0.0
 11
0.1149139145406748
 21
14.33044550279269
 31
0.0
  0
LINE
  5
104
330
6B
100
AcDbEntity
  8
0
100
AcDbLine
 10
0.1153149987037692
 20
14.33385152984205
 30
0.0
 11
1.608379170122861
 21
19.30121384512057
 31
0.0
  0
LINE
  5
105
330
6B
100
AcDbEntity
  8
0
100
AcDbLine
 10
0.1153149987037692
 20
14.33385152984205
 30
0.0
 11
1.60870753213556
 21
18.96082721500511
 31
0.0
  0
LINE
  5
106
330
6B
100
AcDbEntity
  8
0
100
AcDbLine
 10
0.0539751781124336
 20
13.83377011006141
 30
0.0
 11
1.608872563478988
 21
18.83582732394654
 31
0.0
  0
LINE
  5
107
330
6B
100
AcDbEntity
  8
0
100
AcDbLine
 10
0.1159751240774858
 20
13.83385196560775
 30
0.0
 11
1.609367657509277
 21
18.46082765077081
 31
0.0
  0
LINE
  5
108
330
6B
100
AcDbEntity
  8
0
100
AcDbLine
 10
2.234123811195577
 20
5.488275167717034
 30
0.0
 11
3.294308200976886
 21
6.864176076090904
 31
0.0
  0
LINE
  5
109
330
6B
100
AcDbEntity
  8
0
100
AcDbLine
 10
2.172082937457356
 20
5.519193285153221
 30
0.0
 11
3.294267273203717
 21
6.895176049073432
 31
0.0
  0
LINE
  5
10A
330
6B
100
AcDbEntity
  8
0
100
AcDbLine
 10
3.04467557056357
 20
6.864773597892991
 30
0.0
 11
1.608137102381212
 21
5.764835716306052
 31
0.0
  0
LINE
  5
10B
330
6B
100
AcDbEntity
  8
0
100
AcDbLine
 10
3.04467557056357
 20
6.864773597892991
 30
0.0
 11
1.608006148925984
 21
5.955698942779939
 31
0.0
  0
LINE
  5
10C
330
6B
100
AcDbEntity
  8
0
100
AcDbLine
 10
3.044063885245392
 20
6.86070183009042
 30
0.0
 11
2.085085973902915
 21
5.556692407938182
 31
0.0
  0
LINE
  5
10D
330
6B
100
AcDbEntity
  8
0
100
AcDbLine
 10
3.106060817809644
 20
7.05142770553825
 30
0.0
 11
1.607717344074983
 21
6.174448752132445
 31
0.0
  0
LINE
  5
10E
330
6B
100
AcDbEntity
  8
0
100
AcDbLine
 10
3.15274505726546
 20
7.052916440685976
 30
0.0
 11
1.607841117582554
 21
6.080698833838514
 31
0.0
  0
LINE
  5
10F
330
6B
100
AcDbEntity
  8
0
100
AcDbLine
 10
3.294308200976886
 20
6.864176076090906
 30
0.0
 11
4.362908529147719
 21
1.865582540041671
 31
0.0
  0
LINE
  5
110
330
6B
100
AcDbEntity
  8
0
100
AcDbLine
 10
4.42494940288594
 20
1.834664422605484
 30
0.0
 11
3.294267273203717
 21
6.895176049073432
 31
0.0
  0
LINE
  5
111
330
6B
100
AcDbEntity
  8
0
100
AcDbLine
 10
3.482059829988469
 20
7.05242411938352
 30
0.0
 11
4.98766468283402
 21
2.429407866212013
 31
0.0
  0
LINE
  5
112
330
6B
100
AcDbEntity
  8
0
100
AcDbLine
 10
3.420059884023419
 20
7.052342263837179
 30
0.0
 11
4.988159776864308
 21
2.054408193036287
 31
0.0
  0
LINE
  5
113
330
6B
100
AcDbEntity
  8
0
100
AcDbLine
 10
5.551948420670059
 20
1.836152345197845
 30
0.0
 11
6.669264331785249
 21
6.899631895346022
 31
0.0
  0
LINE
  5
114
330
6B
100
AcDbEntity
  8
0
100
AcDbLine
 10
6.669305259558419
 20
6.868631922363496
 30
0.0
 11
5.613907438861938
 21
1.867234173726711
 31
0.0
  0
LINE
  5
115
330
6B
100
AcDbEntity
  8
0
100
AcDbLine
 10
6.543057162230859
 20
7.056465406921414
 30
0.0
 11
4.988159776864308
 21
2.054408193036287
 31
0.0
  0
LINE
  5
116
330
6B
100
AcDbEntity
  8
0
100
AcDbLine
 10
6.481057216265809
 20
7.056383551375073
 30
0.0
 11
4.98766468283402
 21
2.429407866212013
 31
0.0
  0
LINE
  5
117
330
6B
100
AcDbEntity
  8
0
100
AcDbLine
 10
1.045083919673237
 20
5.517705362560864
 30
0.0
 11
-0.0807297853778133
 21
6.890720202800842
 31
0.0
  0
LINE
  5
118
330
6B
100
AcDbEntity
  8
0
100
AcDbLine
 10
0.9831249014813581
 20
5.486623534031995
 30
0.0
 11
-0.0806888576046427
 21
6.859720229818314
 31
0.0
  0
LINE
  5
119
330
6B
100
AcDbEntity
  8
0
100
AcDbLine
 10
0.1695637594878745
 20
6.856906765843373
 30
0.0
 11
1.131981563542001
 21
5.55543407003134
 31
0.0
  0
LINE
  5
11A
330
6B
100
AcDbEntity
  8
0
100
AcDbLine
 10
0.1689413248025149
 20
6.860976904296665
 30
0.0
 11
1.608006148925984
 21
5.955698942779939
 31
0.0
  0
LINE
  5
11B
330
6B
100
AcDbEntity
  8
0
100
AcDbLine
 10
0.1689413248025149
 20
6.860976904296665
 30
0.0
 11
1.608379170122861
 21
5.764836035896447
 31
0.0
  0
LINE
  5
11C
330
6B
100
AcDbEntity
  8
0
100
AcDbLine
 10
0.0603754238195817
 20
7.048833733807871
 30
0.0
 11
1.607841117582554
 21
6.080698833838514
 31
0.0
  0
LINE
  5
11D
330
6B
100
AcDbEntity
  8
0
100
AcDbLine
 10
0.107063431532306
 20
7.047468273546694
 30
0.0
 11
1.607717344074983
 21
6.174448752132445
 31
0.0
  0
LINE
  5
11E
330
6B
100
AcDbEntity
  8
0
100
AcDbLine
 10
4.42494940288594
 20
1.834664422605484
 30
0.0
 11
3.302765067139577
 21
0.4586816586852756
 31
0.0
  0
LINE
  5
11F
330
6B
100
AcDbEntity
  8
0
100
AcDbLine
 10
3.552968455097903
 20
0.4931558776682863
 30
0.0
 11
4.511946366440379
 21
1.797165299820523
 31
0.0
  0
LINE
  5
120
330
6B
100
AcDbEntity
  8
0
100
AcDbLine
 10
4.362908529147719
 20
1.865582540041671
 30
0.0
 11
3.302724139366408
 21
0.4896816316678035
 31
0.0
  0
LINE
  5
121
330
6B
100
AcDbEntity
  8
0
100
AcDbLine
 10
3.552356769779724
 20
0.4890841098657184
 30
0.0
 11
4.988895237962085
 21
1.589021991452653
 31
0.0
  0
LINE
  5
122
330
6B
100
AcDbEntity
  8
0
100
AcDbLine
 10
3.552356769779724
 20
0.4890841098657184
 30
0.0
 11
4.989026191417312
 21
1.398158764978767
 31
0.0
  0
LINE
  5
123
330
6B
100
AcDbEntity
  8
0
100
AcDbLine
 10
3.490971522533651
 20
0.3024300022204578
 30
0.0
 11
4.989314996268313
 21
1.179408955626261
 31
0.0
  0
LINE
  5
124
330
6B
100
AcDbEntity
  8
0
100
AcDbLine
 10
3.444287283077835
 20
0.3009412670727301
 30
0.0
 11
4.98919122276074
 21
1.273158873920191
 31
0.0
  0
LINE
  5
125
330
6B
100
AcDbEntity
  8
0
100
AcDbLine
 10
3.482719955362187
 20
6.552424555149219
 30
0.0
 11
4.988324808207736
 21
1.929408301977712
 31
0.0
  0
LINE
  5
126
330
6B
100
AcDbEntity
  8
0
100
AcDbLine
 10
3.482719955362187
 20
6.552424555149219
 30
0.0
 11
4.988895237962085
 21
1.589021991452653
 31
0.0
  0
LINE
  5
127
330
6B
100
AcDbEntity
  8
0
100
AcDbLine
 10
4.511946366440379
 20
1.797165299820523
 30
0.0
 11
3.482309878985646
 21
6.555829511262345
 31
0.0
  0
LINE
  5
128
330
6B
100
AcDbEntity
  8
0
100
AcDbLine
 10
3.302724139366408
 20
0.4896816316677999
 30
0.0
 11
2.234123811195577
 21
5.488275167717034
 31
0.0
  0
LINE
  5
129
330
6B
100
AcDbEntity
  8
0
100
AcDbLine
 10
2.172082937457356
 20
5.519193285153221
 30
0.0
 11
3.302765067139577
 21
0.4586816586852756
 31
0.0
  0
LINE
  5
12A
330
6B
100
AcDbEntity
  8
0
100
AcDbLine
 10
3.114972510354825
 20
0.3014335883751862
 30
0.0
 11
1.609367657509277
 21
4.924449841546692
 31
0.0
  0
LINE
  5
12B
330
6B
100
AcDbEntity
  8
0
100
AcDbLine
 10
3.176972456319876
 20
0.3015154439215273
 30
0.0
 11
1.608872563478988
 21
5.299449514722418
 31
0.0
  0
LINE
  5
12C
330
6B
100
AcDbEntity
  8
0
100
AcDbLine
 10
3.114312384981109
 20
0.8014331526094871
 30
0.0
 11
1.60870753213556
 21
5.424449405780993
 31
0.0
  0
LINE
  5
12D
330
6B
100
AcDbEntity
  8
0
100
AcDbLine
 10
3.114312384981109
 20
0.8014331526094871
 30
0.0
 11
1.608137102381212
 21
5.764835716306052
 31
0.0
  0
LINE
  5
12E
330
6B
100
AcDbEntity
  8
0
100
AcDbLine
 10
2.085085973902915
 20
5.556692407938182
 30
0.0
 11
3.11472246135765
 21
0.7980281964963645
 31
0.0
  0
LINE
  5
12F
330
6B
100
AcDbEntity
  8
0
100
AcDbLine
 10
1.045083919673237
 20
5.517705362560864
 30
0.0
 11
-0.0722319914419538
 21
0.4542258124126839
 31
0.0
  0
LINE
  5
130
330
6B
100
AcDbEntity
  8
0
100
AcDbLine
 10
-0.0722729192151244
 20
0.4852257853952118
 30
0.0
 11
0.9831249014813581
 21
5.486623534031995
 31
0.0
  0
LINE
  5
131
330
6B
100
AcDbEntity
  8
0
100
AcDbLine
 10
1.131981563542001
 20
5.55543407003134
 30
0.0
 11
0.1149139145406748
 21
0.7940676935685645
 31
0.0
  0
LINE
  5
132
330
6B
100
AcDbEntity
  8
0
100
AcDbLine
 10
0.1153149987037692
 20
0.7974737206179335
 30
0.0
 11
1.608379170122861
 21
5.764836035896447
 31
0.0
  0
LINE
  5
133
330
6B
100
AcDbEntity
  8
0
100
AcDbLine
 10
0.1153149987037692
 20
0.7974737206179335
 30
0.0
 11
1.60870753213556
 21
5.424449405780993
 31
0.0
  0
LINE
  5
134
330
6B
100
AcDbEntity
  8
0
100
AcDbLine
 10
0.0539751781124336
 20
0.2973923008372914
 30
0.0
 11
1.608872563478988
 21
5.299449514722418
 31
0.0
  0
LINE
  5
135
330
6B
100
AcDbEntity
  8
0
100
AcDbLine
 10
0.1159751240774858
 20
0.2974741563836325
 30
0.0
 11
1.609367657509277
 21
4.924449841546692
 31
0.0
  0
LINE
  5
136
330
6B
100
AcDbEntity
  8
0
100
AcDbLine
 10
-0.0722729192151244
 20
0.3043695211931841
 30
0.0
 11
0.1159751240774858
 21
0.2974741563836325
 31
0.0
  0
LINE
  5
137
330
6B
100
AcDbEntity
  8
0
100
AcDbLine
 10
-0.0722729192151244
 20
0.4852257853952118
 30
0.0
 11
-0.0722729192151244
 21
0.3043695211931841
 31
0.0
  0
LINE
  5
138
330
6B
100
AcDbEntity
  8
0
100
AcDbLine
 10
3.490971522533651
 20
0.3024300022204578
 30
0.0
 11
3.114972510354825
 21
0.3014335883751862
 31
0.0
  0
LINE
  5
139
330
6B
100
AcDbEntity
  8
0
100
AcDbLine
 10
2.085085973902915
 20
5.556692407938182
 30
0.0
 11
1.608137102381212
 21
5.764835716306052
 31
0.0
  0
LINE
  5
13A
330
6B
100
AcDbEntity
  8
0
100
AcDbLine
 10
1.608872563478988
 20
5.299449514722418
 30
0.0
 11
1.609367657509277
 21
4.924449841546692
 31
0.0
  0
LINE
  5
13B
330
6B
100
AcDbEntity
  8
0
100
AcDbLine
 10
1.131981563542001
 20
5.55543407003134
 30
0.0
 11
1.608379170122861
 21
5.764836035896447
 31
0.0
  0
LINE
  5
13C
330
6B
100
AcDbEntity
  8
0
100
AcDbLine
 10
1.045083919673237
 20
5.517705362560864
 30
0.0
 11
0.9775227355205222
 21
5.488422805253204
 31
0.0
  0
POINT
  5
13D
330
6B
100
AcDbEntity
  8
0
100
AcDbPoint
 10
1.608253695941129
 20
5.768199106192076
 30
0.0
  0
LINE
  5
13E
330
6B
100
AcDbEntity
  8
0
100
AcDbLine
 10
1.608379170122861
 20
5.764836035896447
 30
0.0
 11
1.608006148925984
 21
5.955698942779939
 31
0.0
  0
POINT
  5
13F
330
6B
100
AcDbEntity
  8
0
100
AcDbPoint
 10
1.571045745699673
 20
5.568540160045287
 30
0.0
  0
POINT
  5
140
330
6B
100
AcDbEntity
  8
0
100
AcDbPoint
 10
1.575277789882309
 20
5.526791152791435
 30
0.0
  0
LINE
  5
141
330
6B
100
AcDbEntity
  8
0
100
AcDbLine
 10
1.608379170122861
 20
5.764836035896447
 30
0.0
 11
1.60870753213556
 21
5.424449405780993
 31
0.0
  0
LINE
  5
142
330
6B
100
AcDbEntity
  8
0
100
AcDbLine
 10
1.607841117582554
 20
6.080698833838514
 30
0.0
 11
1.607717344074983
 21
6.174448752132445
 31
0.0
  0
LINE
  5
143
330
6B
100
AcDbEntity
  8
0
100
AcDbLine
 10
2.172082937457356
 20
5.519193285153221
 30
0.0
 11
2.239721206652357
 21
5.490089225180462
 31
0.0
  0
LINE
  5
144
330
6B
100
AcDbEntity
  8
0
100
AcDbLine
 10
5.551948420670059
 20
1.836152345197845
 30
0.0
 11
6.67776212572111
 21
0.4631375049578672
 31
0.0
  0
LINE
  5
145
330
6B
100
AcDbEntity
  8
0
100
AcDbLine
 10
5.613907438861938
 20
1.867234173726711
 30
0.0
 11
6.677721197947939
 21
0.4941374779403916
 31
0.0
  0
LINE
  5
146
330
6B
100
AcDbEntity
  8
0
100
AcDbLine
 10
6.42746858085542
 20
0.4969509419153369
 30
0.0
 11
5.465050776801295
 21
1.798423637727367
 31
0.0
  0
LINE
  5
147
330
6B
100
AcDbEntity
  8
0
100
AcDbLine
 10
6.428091015540782
 20
0.4928808034620431
 30
0.0
 11
4.989026191417312
 21
1.398158764978767
 31
0.0
  0
LINE
  5
148
330
6B
100
AcDbEntity
  8
0
100
AcDbLine
 10
6.428091015540782
 20
0.4928808034620431
 30
0.0
 11
4.988653170220435
 21
1.589021671862258
 31
0.0
  0
LINE
  5
149
330
6B
100
AcDbEntity
  8
0
100
AcDbLine
 10
6.536656916523715
 20
0.3050239739508385
 30
0.0
 11
4.98919122276074
 21
1.273158873920191
 31
0.0
  0
LINE
  5
14A
330
6B
100
AcDbEntity
  8
0
100
AcDbLine
 10
6.489968908810991
 20
0.3063894342120115
 30
0.0
 11
4.989314996268313
 21
1.179408955626261
 31
0.0
  0
LINE
  5
14B
330
6B
100
AcDbEntity
  8
0
100
AcDbLine
 10
6.865969241240549
 20
0.3063858489288158
 30
0.0
 11
6.489968908810991
 21
0.3063894342120115
 31
0.0
  0
LINE
  5
14C
330
6B
100
AcDbEntity
  8
0
100
AcDbLine
 10
5.465050776801295
 20
1.798423637727367
 30
0.0
 11
6.482118425802622
 21
6.559790014190141
 31
0.0
  0
LINE
  5
14D
330
6B
100
AcDbEntity
  8
0
100
AcDbLine
 10
6.481717341639527
 20
6.556383987140772
 30
0.0
 11
4.988653170220435
 21
1.589021671862258
 31
0.0
  0
LINE
  5
14E
330
6B
100
AcDbEntity
  8
0
100
AcDbLine
 10
6.481717341639527
 20
6.556383987140772
 30
0.0
 11
4.988324808207736
 21
1.929408301977712
 31
0.0
  0
LINE
  5
14F
330
6B
100
AcDbEntity
  8
0
100
AcDbLine
 10
4.511946366440379
 20
1.797165299820523
 30
0.0
 11
4.988895237962085
 21
1.589021991452653
 31
0.0
  0
LINE
  5
150
330
6B
100
AcDbEntity
  8
0
100
AcDbLine
 10
4.42494940288594
 20
1.834664422605484
 30
0.0
 11
4.357311133690939
 21
1.863768482578244
 31
0.0
  0
LINE
  5
151
330
6B
100
AcDbEntity
  8
0
100
AcDbLine
 10
5.465050776801295
 20
1.798423637727367
 30
0.0
 11
4.988653170220435
 21
1.589021671862258
 31
0.0
  0
LINE
  5
152
330
6B
100
AcDbEntity
  8
0
100
AcDbLine
 10
4.988653170220435
 20
1.589021671862258
 30
0.0
 11
4.988324808207736
 21
1.929408301977712
 31
0.0
  0
POINT
  5
153
330
6B
100
AcDbEntity
  8
0
100
AcDbPoint
 10
4.988778644402168
 20
1.585658601566631
 30
0.0
  0
LINE
  5
154
330
6B
100
AcDbEntity
  8
0
100
AcDbLine
 10
4.98919122276074
 20
1.273158873920191
 30
0.0
 11
4.989314996268313
 21
1.179408955626261
 31
0.0
  0
LINE
  5
155
330
6B
100
AcDbEntity
  8
0
100
AcDbLine
 10
4.988653170220435
 20
1.589021671862258
 30
0.0
 11
4.989026191417312
 21
1.398158764978767
 31
0.0
  0
LINE
  5
156
330
6B
100
AcDbEntity
  8
0
100
AcDbLine
 10
4.988159776864308
 20
2.054408193036287
 30
0.0
 11
4.98766468283402
 21
2.429407866212013
 31
0.0
  0
POINT
  5
157
330
6B
100
AcDbEntity
  8
0
100
AcDbPoint
 10
5.021754550460987
 20
1.82706655496727
 30
0.0
  0
POINT
  5
158
330
6B
100
AcDbEntity
  8
0
100
AcDbPoint
 10
5.025986594643623
 20
1.785317547713422
 30
0.0
  0
LINE
  5
159
330
6B
100
AcDbEntity
  8
0
100
AcDbLine
 10
5.551948420670059
 20
1.836152345197845
 30
0.0
 11
5.619509604822774
 21
1.865434902505501
 31
0.0
  0
LINE
  5
15A
330
6B
100
AcDbEntity
  8
0
100
AcDbLine
 10
4.42494940288594
 20
8.588115221927647
 30
0.0
 11
3.302765067139577
 21
7.212132458007438
 31
0.0
  0
LINE
  5
15B
330
6B
100
AcDbEntity
  8
0
100
AcDbLine
 10
3.552968455097903
 20
7.246606676990449
 30
0.0
 11
4.511946366440379
 21
8.550616099142686
 31
0.0
  0
LINE
  5
15C
330
6B
100
AcDbEntity
  8
0
100
AcDbLine
 10
4.362908529147719
 20
8.619033339363834
 30
0.0
 11
3.302724139366408
 21
7.243132430989964
 31
0.0
  0
LINE
  5
15D
330
6B
100
AcDbEntity
  8
0
100
AcDbLine
 10
3.552356769779724
 20
7.242534909187879
 30
0.0
 11
4.988895237962085
 21
8.342472790774817
 31
0.0
  0
LINE
  5
15E
330
6B
100
AcDbEntity
  8
0
100
AcDbLine
 10
3.552356769779724
 20
7.242534909187879
 30
0.0
 11
4.989026191417312
 21
8.151609564300931
 31
0.0
  0
LINE
  5
15F
330
6B
100
AcDbEntity
  8
0
100
AcDbLine
 10
3.490971522533651
 20
7.05588080154262
 30
0.0
 11
4.989314996268313
 21
7.932859754948424
 31
0.0
  0
LINE
  5
160
330
6B
100
AcDbEntity
  8
0
100
AcDbLine
 10
3.444287283077835
 20
7.054392066394893
 30
0.0
 11
4.98919122276074
 21
8.026609673242356
 31
0.0
  0
LINE
  5
161
330
6B
100
AcDbEntity
  8
0
100
AcDbLine
 10
3.294308200976886
 20
13.61762687541307
 30
0.0
 11
4.362908529147719
 21
8.619033339363834
 31
0.0
  0
LINE
  5
162
330
6B
100
AcDbEntity
  8
0
100
AcDbLine
 10
4.42494940288594
 20
8.588115221927647
 30
0.0
 11
3.294267273203717
 21
13.64862684839559
 31
0.0
  0
LINE
  5
163
330
6B
100
AcDbEntity
  8
0
100
AcDbLine
 10
3.482059829988469
 20
13.80587491870568
 30
0.0
 11
4.98766468283402
 21
9.182858665534176
 31
0.0
  0
LINE
  5
164
330
6B
100
AcDbEntity
  8
0
100
AcDbLine
 10
3.420059884023419
 20
13.80579306315934
 30
0.0
 11
4.988159776864308
 21
8.80785899235845
 31
0.0
  0
LINE
  5
165
330
6B
100
AcDbEntity
  8
0
100
AcDbLine
 10
3.482719955362187
 20
13.30587535447138
 30
0.0
 11
4.988324808207736
 21
8.682859101299875
 31
0.0
  0
LINE
  5
166
330
6B
100
AcDbEntity
  8
0
100
AcDbLine
 10
3.482719955362187
 20
13.30587535447138
 30
0.0
 11
4.988895237962085
 21
8.342472790774817
 31
0.0
  0
LINE
  5
167
330
6B
100
AcDbEntity
  8
0
100
AcDbLine
 10
4.511946366440379
 20
8.550616099142686
 30
0.0
 11
3.482309878985646
 21
13.30928031058451
 31
0.0
  0
LINE
  5
168
330
6B
100
AcDbEntity
  8
0
100
AcDbLine
 10
4.42494940288594
 20
15.37104223182961
 30
0.0
 11
3.302765067139577
 21
13.99505946790939
 31
0.0
  0
LINE
  5
169
330
6B
100
AcDbEntity
  8
0
100
AcDbLine
 10
3.552968455097903
 20
14.02953368689241
 30
0.0
 11
4.511946366440379
 21
15.33354310904464
 31
0.0
  0
LINE
  5
16A
330
6B
100
AcDbEntity
  8
0
100
AcDbLine
 10
4.362908529147719
 20
15.40196034926579
 30
0.0
 11
3.302724139366408
 21
14.02605944089192
 31
0.0
  0
LINE
  5
16B
330
6B
100
AcDbEntity
  8
0
100
AcDbLine
 10
3.552356769779724
 20
14.02546191908983
 30
0.0
 11
4.988895237962085
 21
15.12539980067677
 31
0.0
  0
LINE
  5
16C
330
6B
100
AcDbEntity
  8
0
100
AcDbLine
 10
3.552356769779724
 20
14.02546191908983
 30
0.0
 11
4.989026191417312
 21
14.93453657420289
 31
0.0
  0
LINE
  5
16D
330
6B
100
AcDbEntity
  8
0
100
AcDbLine
 10
3.490971522533651
 20
13.83880781144458
 30
0.0
 11
4.989314996268313
 21
14.71578676485038
 31
0.0
  0
LINE
  5
16E
330
6B
100
AcDbEntity
  8
0
100
AcDbLine
 10
3.444287283077835
 20
13.83731907629685
 30
0.0
 11
4.98919122276074
 21
14.80953668314431
 31
0.0
  0
LINE
  5
16F
330
6B
100
AcDbEntity
  8
0
100
AcDbLine
 10
1.608379170122861
 20
12.51828683521861
 30
0.0
 11
1.60870753213556
 21
12.17790020510315
 31
0.0
  0
LINE
  5
170
330
6B
100
AcDbEntity
  8
0
100
AcDbLine
 10
1.131981563542001
 20
12.3088848693535
 30
0.0
 11
1.608379170122861
 21
12.51828683521861
 31
0.0
  0
LINE
  5
171
330
6B
100
AcDbEntity
  8
0
100
AcDbLine
 10
2.085085973902915
 20
12.31014320726034
 30
0.0
 11
1.608137102381212
 21
12.51828651562821
 31
0.0
  0
LINE
  5
172
330
6B
100
AcDbEntity
  8
0
100
AcDbLine
 10
2.234123811195577
 20
12.24172596703919
 30
0.0
 11
3.294308200976886
 21
13.61762687541306
 31
0.0
  0
LINE
  5
173
330
6B
100
AcDbEntity
  8
0
100
AcDbLine
 10
2.172082937457356
 20
12.27264408447538
 30
0.0
 11
3.294267273203717
 21
13.64862684839559
 31
0.0
  0
LINE
  5
174
330
6B
100
AcDbEntity
  8
0
100
AcDbLine
 10
3.044063885245392
 20
13.61415262941258
 30
0.0
 11
2.085085973902915
 21
12.31014320726034
 31
0.0
  0
LINE
  5
175
330
6B
100
AcDbEntity
  8
0
100
AcDbLine
 10
3.114312384981109
 20
7.55488395193165
 30
0.0
 11
1.608137102381212
 21
12.51828651562821
 31
0.0
  0
LINE
  5
176
330
6B
100
AcDbEntity
  8
0
100
AcDbLine
 10
1.045083919673237
 20
12.27115616188302
 30
0.0
 11
-0.0807297853778133
 21
13.644171002123
 31
0.0
  0
LINE
  5
177
330
6B
100
AcDbEntity
  8
0
100
AcDbLine
 10
0.9831249014813581
 20
12.24007433335415
 30
0.0
 11
-0.0806888576046427
 21
13.61317102914047
 31
0.0
  0
LINE
  5
178
330
6B
100
AcDbEntity
  8
0
100
AcDbLine
 10
0.1153149987037692
 20
7.550924519940096
 30
0.0
 11
1.608379170122861
 21
12.51828683521861
 31
0.0
  0
LINE
  5
179
330
6B
100
AcDbEntity
  8
0
100
AcDbLine
 10
0.1695637594878745
 20
13.61035756516553
 30
0.0
 11
1.131981563542001
 21
12.3088848693535
 31
0.0
  0
LINE
  5
17A
330
6B
100
AcDbEntity
  8
0
100
AcDbLine
 10
3.114972510354825
 20
7.054884387697349
 30
0.0
 11
1.609367657509277
 21
11.67790064086885
 31
0.0
  0
LINE
  5
17B
330
6B
100
AcDbEntity
  8
0
100
AcDbLine
 10
3.176972456319876
 20
7.05496624324369
 30
0.0
 11
1.608872563478988
 21
12.05290031404458
 31
0.0
  0
LINE
  5
17C
330
6B
100
AcDbEntity
  8
0
100
AcDbLine
 10
3.114312384981109
 20
7.55488395193165
 30
0.0
 11
1.60870753213556
 21
12.17790020510315
 31
0.0
  0
LINE
  5
17D
330
6B
100
AcDbEntity
  8
0
100
AcDbLine
 10
1.045083919673237
 20
12.27115616188302
 30
0.0
 11
-0.0722319914419538
 21
7.207676611734846
 31
0.0
  0
LINE
  5
17E
330
6B
100
AcDbEntity
  8
0
100
AcDbLine
 10
-0.0722729192151244
 20
7.238676584717373
 30
0.0
 11
0.9831249014813581
 21
12.24007433335415
 31
0.0
  0
LINE
  5
17F
330
6B
100
AcDbEntity
  8
0
100
AcDbLine
 10
1.131981563542001
 20
12.3088848693535
 30
0.0
 11
0.1149139145406748
 21
7.547518492890729
 31
0.0
  0
LINE
  5
180
330
6B
100
AcDbEntity
  8
0
100
AcDbLine
 10
0.1153149987037692
 20
7.550924519940096
 30
0.0
 11
1.60870753213556
 21
12.17790020510315
 31
0.0
  0
LINE
  5
181
330
6B
100
AcDbEntity
  8
0
100
AcDbLine
 10
0.0539751781124336
 20
7.050843100159454
 30
0.0
 11
1.608872563478988
 21
12.05290031404458
 31
0.0
  0
LINE
  5
182
330
6B
100
AcDbEntity
  8
0
100
AcDbLine
 10
0.1159751240774858
 20
7.050924955705795
 30
0.0
 11
1.609367657509277
 21
11.67790064086885
 31
0.0
  0
LINE
  5
183
330
6B
100
AcDbEntity
  8
0
100
AcDbLine
 10
-0.0722319914419538
 20
7.207676611734846
 30
0.0
 11
-0.0807297853778133
 21
6.890720202800842
 31
0.0
  0
LINE
  5
184
330
6B
100
AcDbEntity
  8
0
100
AcDbLine
 10
1.045083919673237
 20
12.27115616188302
 30
0.0
 11
0.9775227355205222
 21
12.24187360457536
 31
0.0
  0
LINE
  5
185
330
6B
100
AcDbEntity
  8
0
100
AcDbLine
 10
1.608872563478988
 20
12.05290031404458
 30
0.0
 11
1.609367657509277
 21
11.67790064086885
 31
0.0
  0
POINT
  5
186
330
6B
100
AcDbEntity
  8
0
100
AcDbPoint
 10
1.571045745699673
 20
12.32199095936745
 30
0.0
  0
POINT
  5
187
330
6B
100
AcDbEntity
  8
0
100
AcDbPoint
 10
1.575277789882309
 20
12.28024195211359
 30
0.0
  0
LINE
  5
188
330
6B
100
AcDbEntity
  8
0
100
AcDbLine
 10
3.302724139366408
 20
7.243132430989962
 30
0.0
 11
2.234123811195577
 21
12.24172596703919
 31
0.0
  0
LINE
  5
189
330
6B
100
AcDbEntity
  8
0
100
AcDbLine
 10
2.172082937457356
 20
12.27264408447538
 30
0.0
 11
3.302765067139577
 21
7.212132458007438
 31
0.0
  0
LINE
  5
18A
330
6B
100
AcDbEntity
  8
0
100
AcDbLine
 10
2.085085973902915
 20
12.31014320726034
 30
0.0
 11
3.11472246135765
 21
7.551478995818525
 31
0.0
  0
LINE
  5
18B
330
6B
100
AcDbEntity
  8
0
100
AcDbLine
 10
2.172082937457356
 20
12.27264408447538
 30
0.0
 11
2.239721206652357
 21
12.24354002450262
 31
0.0
  0
LINE
  5
18C
330
6B
100
AcDbEntity
  8
0
100
AcDbLine
 10
3.04467557056357
 20
13.61822439721515
 30
0.0
 11
1.608137102381212
 21
12.51828651562821
 31
0.0
  0
LINE
  5
18D
330
6B
100
AcDbEntity
  8
0
100
AcDbLine
 10
3.04467557056357
 20
13.61822439721515
 30
0.0
 11
1.608006148925984
 21
12.7091497421021
 31
0.0
  0
LINE
  5
18E
330
6B
100
AcDbEntity
  8
0
100
AcDbLine
 10
3.106060817809644
 20
13.80487850486041
 30
0.0
 11
1.607717344074983
 21
12.9278995514546
 31
0.0
  0
LINE
  5
18F
330
6B
100
AcDbEntity
  8
0
100
AcDbLine
 10
3.15274505726546
 20
13.80636724000813
 30
0.0
 11
1.607841117582554
 21
12.83414963316067
 31
0.0
  0
LINE
  5
190
330
6B
100
AcDbEntity
  8
0
100
AcDbLine
 10
0.1689413248025149
 20
13.61442770361882
 30
0.0
 11
1.608006148925984
 21
12.7091497421021
 31
0.0
  0
LINE
  5
191
330
6B
100
AcDbEntity
  8
0
100
AcDbLine
 10
0.1689413248025149
 20
13.61442770361882
 30
0.0
 11
1.608379170122861
 21
12.51828683521861
 31
0.0
  0
LINE
  5
192
330
6B
100
AcDbEntity
  8
0
100
AcDbLine
 10
0.0603754238195817
 20
13.80228453313003
 30
0.0
 11
1.607841117582554
 21
12.83414963316067
 31
0.0
  0
LINE
  5
193
330
6B
100
AcDbEntity
  8
0
100
AcDbLine
 10
0.107063431532306
 20
13.80091907286885
 30
0.0
 11
1.607717344074983
 21
12.9278995514546
 31
0.0
  0
LINE
  5
194
330
6B
100
AcDbEntity
  8
0
100
AcDbLine
 10
-0.0722319914419538
 20
13.9906036216368
 30
0.0
 11
-0.0807297853778133
 21
13.644171002123
 31
0.0
  0
LINE
  5
195
330
6B
100
AcDbEntity
  8
0
100
AcDbLine
 10
1.607841117582554
 20
12.83414963316067
 30
0.0
 11
1.607717344074983
 21
12.9278995514546
 31
0.0
  0
POINT
  5
196
330
6B
100
AcDbEntity
  8
0
100
AcDbPoint
 10
1.608253695941129
 20
12.52164990551424
 30
0.0
  0
LINE
  5
197
330
6B
100
AcDbEntity
  8
0
100
AcDbLine
 10
1.608379170122861
 20
12.51828683521861
 30
0.0
 11
1.608006148925984
 21
12.7091497421021
 31
0.0
  0
LINE
  5
198
330
6B
100
AcDbEntity
  8
0
100
AcDbLine
 10
5.465050776801295
 20
8.55187443704953
 30
0.0
 11
6.482118425802622
 21
13.3132408135123
 31
0.0
  0
LINE
  5
199
330
6B
100
AcDbEntity
  8
0
100
AcDbLine
 10
5.551948420670059
 20
8.589603144520006
 30
0.0
 11
6.669264331785249
 21
13.65308269466818
 31
0.0
  0
LINE
  5
19A
330
6B
100
AcDbEntity
  8
0
100
AcDbLine
 10
6.669305259558419
 20
13.62208272168565
 30
0.0
 11
5.613907438861938
 21
8.620684973048875
 31
0.0
  0
LINE
  5
19B
330
6B
100
AcDbEntity
  8
0
100
AcDbLine
 10
6.481717341639527
 20
13.30983478646293
 30
0.0
 11
4.988653170220435
 21
8.342472471184422
 31
0.0
  0
LINE
  5
19C
330
6B
100
AcDbEntity
  8
0
100
AcDbLine
 10
6.481717341639527
 20
13.30983478646293
 30
0.0
 11
4.988324808207736
 21
8.682859101299875
 31
0.0
  0
LINE
  5
19D
330
6B
100
AcDbEntity
  8
0
100
AcDbLine
 10
6.543057162230859
 20
13.80991620624357
 30
0.0
 11
4.988159776864308
 21
8.80785899235845
 31
0.0
  0
LINE
  5
19E
330
6B
100
AcDbEntity
  8
0
100
AcDbLine
 10
6.481057216265809
 20
13.80983435069723
 30
0.0
 11
4.98766468283402
 21
9.182858665534176
 31
0.0
  0
LINE
  5
19F
330
6B
100
AcDbEntity
  8
0
100
AcDbLine
 10
5.551948420670059
 20
8.589603144520006
 30
0.0
 11
6.67776212572111
 21
7.216588304280028
 31
0.0
  0
LINE
  5
1A0
330
6B
100
AcDbEntity
  8
0
100
AcDbLine
 10
5.613907438861938
 20
8.620684973048875
 30
0.0
 11
6.677721197947939
 21
7.247588277262556
 31
0.0
  0
LINE
  5
1A1
330
6B
100
AcDbEntity
  8
0
100
AcDbLine
 10
6.42746858085542
 20
7.250401741237498
 30
0.0
 11
5.465050776801295
 21
8.55187443704953
 31
0.0
  0
LINE
  5
1A2
330
6B
100
AcDbEntity
  8
0
100
AcDbLine
 10
6.428091015540782
 20
7.246331602784206
 30
0.0
 11
4.989026191417312
 21
8.151609564300931
 31
0.0
  0
LINE
  5
1A3
330
6B
100
AcDbEntity
  8
0
100
AcDbLine
 10
6.428091015540782
 20
7.246331602784206
 30
0.0
 11
4.988653170220435
 21
8.342472471184422
 31
0.0
  0
LINE
  5
1A4
330
6B
100
AcDbEntity
  8
0
100
AcDbLine
 10
6.536656916523715
 20
7.058474773272999
 30
0.0
 11
4.98919122276074
 21
8.026609673242356
 31
0.0
  0
LINE
  5
1A5
330
6B
100
AcDbEntity
  8
0
100
AcDbLine
 10
6.489968908810991
 20
7.059840233534174
 30
0.0
 11
4.989314996268313
 21
7.932859754948424
 31
0.0
  0
LINE
  5
1A6
330
6B
100
AcDbEntity
  8
0
100
AcDbLine
 10
4.511946366440379
 20
8.550616099142686
 30
0.0
 11
4.988895237962085
 21
8.342472790774817
 31
0.0
  0
LINE
  5
1A7
330
6B
100
AcDbEntity
  8
0
100
AcDbLine
 10
4.42494940288594
 20
8.588115221927647
 30
0.0
 11
4.357311133690939
 21
8.617219281900407
 31
0.0
  0
LINE
  5
1A8
330
6B
100
AcDbEntity
  8
0
100
AcDbLine
 10
4.988653170220435
 20
8.342472471184422
 30
0.0
 11
4.989026191417312
 21
8.151609564300931
 31
0.0
  0
LINE
  5
1A9
330
6B
100
AcDbEntity
  8
0
100
AcDbLine
 10
4.98919122276074
 20
8.026609673242356
 30
0.0
 11
4.989314996268313
 21
7.932859754948424
 31
0.0
  0
LINE
  5
1AA
330
6B
100
AcDbEntity
  8
0
100
AcDbLine
 10
5.465050776801295
 20
8.55187443704953
 30
0.0
 11
4.988653170220435
 21
8.342472471184422
 31
0.0
  0
LINE
  5
1AB
330
6B
100
AcDbEntity
  8
0
100
AcDbLine
 10
4.988159776864308
 20
8.80785899235845
 30
0.0
 11
4.98766468283402
 21
9.182858665534176
 31
0.0
  0
POINT
  5
1AC
330
6B
100
AcDbEntity
  8
0
100
AcDbPoint
 10
5.021754550460987
 20
8.580517354289435
 30
0.0
  0
POINT
  5
1AD
330
6B
100
AcDbEntity
  8
0
100
AcDbPoint
 10
5.025986594643623
 20
8.538768347035583
 30
0.0
  0
POINT
  5
1AE
330
6B
100
AcDbEntity
  8
0
100
AcDbPoint
 10
4.988778644402168
 20
8.339109400888794
 30
0.0
  0
LINE
  5
1AF
330
6B
100
AcDbEntity
  8
0
100
AcDbLine
 10
4.988653170220435
 20
8.342472471184422
 30
0.0
 11
4.988324808207736
 21
8.682859101299875
 31
0.0
  0
LINE
  5
1B0
330
6B
100
AcDbEntity
  8
0
100
AcDbLine
 10
5.551948420670059
 20
8.589603144520006
 30
0.0
 11
5.619509604822774
 21
8.618885701827666
 31
0.0
  0
LINE
  5
1B1
330
6B
100
AcDbEntity
  8
0
100
AcDbLine
 10
5.551948420670059
 20
15.37253015442196
 30
0.0
 11
6.67776212572111
 21
13.99951531418198
 31
0.0
  0
LINE
  5
1B2
330
6B
100
AcDbEntity
  8
0
100
AcDbLine
 10
5.613907438861938
 20
15.40361198295083
 30
0.0
 11
6.677721197947939
 21
14.03051528716451
 31
0.0
  0
LINE
  5
1B3
330
6B
100
AcDbEntity
  8
0
100
AcDbLine
 10
6.42746858085542
 20
14.03332875113945
 30
0.0
 11
5.465050776801295
 21
15.33480144695149
 31
0.0
  0
LINE
  5
1B4
330
6B
100
AcDbEntity
  8
0
100
AcDbLine
 10
6.428091015540782
 20
14.02925861268616
 30
0.0
 11
4.989026191417312
 21
14.93453657420289
 31
0.0
  0
LINE
  5
1B5
330
6B
100
AcDbEntity
  8
0
100
AcDbLine
 10
6.428091015540782
 20
14.02925861268616
 30
0.0
 11
4.988653170220435
 21
15.12539948108638
 31
0.0
  0
LINE
  5
1B6
330
6B
100
AcDbEntity
  8
0
100
AcDbLine
 10
6.536656916523715
 20
13.84140178317496
 30
0.0
 11
4.98919122276074
 21
14.80953668314431
 31
0.0
  0
LINE
  5
1B7
330
6B
100
AcDbEntity
  8
0
100
AcDbLine
 10
6.489968908810991
 20
13.84276724343613
 30
0.0
 11
4.989314996268313
 21
14.71578676485038
 31
0.0
  0
LINE
  5
1B8
330
6B
100
AcDbEntity
  8
0
100
AcDbLine
 10
5.465050776801295
 20
15.33480144695149
 30
0.0
 11
4.988653170220435
 21
15.12539948108638
 31
0.0
  0
LINE
  5
1B9
330
6B
100
AcDbEntity
  8
0
100
AcDbLine
 10
4.988653170220435
 20
15.12539948108638
 30
0.0
 11
4.988324808207736
 21
15.46578611120183
 31
0.0
  0
LINE
  5
1BA
330
6B
100
AcDbEntity
  8
0
100
AcDbLine
 10
4.511946366440379
 20
15.33354310904464
 30
0.0
 11
4.988895237962085
 21
15.12539980067677
 31
0.0
  0
POINT
  5
1BB
330
6B
100
AcDbEntity
  8
0
100
AcDbPoint
 10
5.025986594643623
 20
15.32169535693754
 30
0.0
  0
POINT
  5
1BC
330
6B
100
AcDbEntity
  8
0
100
AcDbPoint
 10
4.988778644402168
 20
15.12203641079075
 30
0.0
  0
LINE
  5
1BD
330
6B
100
AcDbEntity
  8
0
100
AcDbLine
 10
4.98919122276074
 20
14.80953668314431
 30
0.0
 11
4.989314996268313
 21
14.71578676485038
 31
0.0
  0
LINE
  5
1BE
330
6B
100
AcDbEntity
  8
0
100
AcDbLine
 10
4.988653170220435
 20
15.12539948108638
 30
0.0
 11
4.989026191417312
 21
14.93453657420289
 31
0.0
  0
LINE
  5
1BF
330
6B
100
AcDbEntity
  8
0
100
AcDbLine
 10
4.42494940288594
 20
15.37104223182961
 30
0.0
 11
4.357311133690939
 21
15.40014629180236
 31
0.0
  0
LINE
  5
1C0
330
6B
100
AcDbEntity
  8
0
100
AcDbLine
 10
4.988159776864308
 20
15.59078600226041
 30
0.0
 11
4.98766468283402
 21
15.96578567543613
 31
0.0
  0
POINT
  5
1C1
330
6B
100
AcDbEntity
  8
0
100
AcDbPoint
 10
5.021754550460987
 20
15.36344436419139
 30
0.0
  0
LINE
  5
1C2
330
6B
100
AcDbEntity
  8
0
100
AcDbLine
 10
5.551948420670059
 20
15.37253015442196
 30
0.0
 11
5.619509604822774
 21
15.40181271172962
 31
0.0
  0
LINE
  5
1C3
330
6B
100
AcDbEntity
  8
0
100
AcDbLine
 10
4.362908529147719
 20
22.15340178223637
 30
0.0
 11
3.302724139366408
 21
20.7775008738625
 31
0.0
  0
LINE
  5
1C4
330
6B
100
AcDbEntity
  8
0
100
AcDbLine
 10
4.42494940288594
 20
22.12248366480018
 30
0.0
 11
3.302765067139577
 21
20.74650090087997
 31
0.0
  0
LINE
  5
1C5
330
6B
100
AcDbEntity
  8
0
100
AcDbLine
 10
3.552356769779724
 20
20.77690335206041
 30
0.0
 11
4.988895237962085
 21
21.87684123364735
 31
0.0
  0
LINE
  5
1C6
330
6B
100
AcDbEntity
  8
0
100
AcDbLine
 10
3.552356769779724
 20
20.77690335206041
 30
0.0
 11
4.989026191417312
 21
21.68597800717346
 31
0.0
  0
LINE
  5
1C7
330
6B
100
AcDbEntity
  8
0
100
AcDbLine
 10
3.552968455097903
 20
20.78097511986298
 30
0.0
 11
4.511946366440379
 21
22.08498454201522
 31
0.0
  0
LINE
  5
1C8
330
6B
100
AcDbEntity
  8
0
100
AcDbLine
 10
3.490971522533651
 20
20.59024924441515
 30
0.0
 11
4.989314996268313
 21
21.46722819782096
 31
0.0
  0
LINE
  5
1C9
330
6B
100
AcDbEntity
  8
0
100
AcDbLine
 10
3.444287283077835
 20
20.58876050926742
 30
0.0
 11
4.98919122276074
 21
21.56097811611489
 31
0.0
  0
LINE
  5
1CA
330
6B
100
AcDbEntity
  8
0
100
AcDbLine
 10
3.294308200976886
 20
27.1519953182856
 30
0.0
 11
4.362908529147719
 21
22.15340178223637
 31
0.0
  0
LINE
  5
1CB
330
6B
100
AcDbEntity
  8
0
100
AcDbLine
 10
4.42494940288594
 20
22.12248366480018
 30
0.0
 11
3.294267273203717
 21
27.18299529126813
 31
0.0
  0
LINE
  5
1CC
330
6B
100
AcDbEntity
  8
0
100
AcDbLine
 10
3.482059829988469
 20
27.34024336157822
 30
0.0
 11
4.98766468283402
 21
22.71722710840671
 31
0.0
  0
LINE
  5
1CD
330
6B
100
AcDbEntity
  8
0
100
AcDbLine
 10
3.420059884023419
 20
27.34016150603188
 30
0.0
 11
4.988159776864308
 21
22.34222743523099
 31
0.0
  0
LINE
  5
1CE
330
6B
100
AcDbEntity
  8
0
100
AcDbLine
 10
3.482719955362187
 20
26.84024379734392
 30
0.0
 11
4.988324808207736
 21
22.21722754417241
 31
0.0
  0
LINE
  5
1CF
330
6B
100
AcDbEntity
  8
0
100
AcDbLine
 10
3.482719955362187
 20
26.84024379734392
 30
0.0
 11
4.988895237962085
 21
21.87684123364735
 31
0.0
  0
LINE
  5
1D0
330
6B
100
AcDbEntity
  8
0
100
AcDbLine
 10
4.511946366440379
 20
22.08498454201522
 30
0.0
 11
3.482309878985646
 21
26.84364875345704
 31
0.0
  0
LINE
  5
1D1
330
6B
100
AcDbEntity
  8
0
100
AcDbLine
 10
3.302724139366408
 20
20.7775008738625
 30
0.0
 11
2.234123811195577
 21
25.77609440991173
 31
0.0
  0
LINE
  5
1D2
330
6B
100
AcDbEntity
  8
0
100
AcDbLine
 10
2.172082937457355
 20
25.80701252734792
 30
0.0
 11
3.302765067139577
 21
20.74650090087997
 31
0.0
  0
LINE
  5
1D3
330
6B
100
AcDbEntity
  8
0
100
AcDbLine
 10
3.114972510354825
 20
20.58925283056988
 30
0.0
 11
1.609367657509277
 21
25.21226908374139
 31
0.0
  0
LINE
  5
1D4
330
6B
100
AcDbEntity
  8
0
100
AcDbLine
 10
3.176972456319876
 20
20.58933468611622
 30
0.0
 11
1.608872563478988
 21
25.58726875691712
 31
0.0
  0
LINE
  5
1D5
330
6B
100
AcDbEntity
  8
0
100
AcDbLine
 10
3.114312384981109
 20
21.08925239480418
 30
0.0
 11
1.608707532135559
 21
25.71226864797569
 31
0.0
  0
LINE
  5
1D6
330
6B
100
AcDbEntity
  8
0
100
AcDbLine
 10
3.114312384981109
 20
21.08925239480418
 30
0.0
 11
1.608137102381212
 21
26.05265495850075
 31
0.0
  0
LINE
  5
1D7
330
6B
100
AcDbEntity
  8
0
100
AcDbLine
 10
2.085085973902916
 20
25.84451165013288
 30
0.0
 11
3.11472246135765
 21
21.08584743869106
 31
0.0
  0
LINE
  5
1D8
330
6B
100
AcDbEntity
  8
0
100
AcDbLine
 10
1.131981563542002
 20
25.84325331222604
 30
0.0
 11
0.1149139145406748
 21
21.08188693576326
 31
0.0
  0
LINE
  5
1D9
330
6B
100
AcDbEntity
  8
0
100
AcDbLine
 10
1.045083919673238
 20
25.80552460475556
 30
0.0
 11
-0.0722319914419538
 21
20.74204505460738
 31
0.0
  0
LINE
  5
1DA
330
6B
100
AcDbEntity
  8
0
100
AcDbLine
 10
-0.0722729192151244
 20
20.77304502758991
 30
0.0
 11
0.9831249014813581
 21
25.77444277622669
 31
0.0
  0
LINE
  5
1DB
330
6B
100
AcDbEntity
  8
0
100
AcDbLine
 10
0.1153149987037683
 20
21.08529296281263
 30
0.0
 11
1.608379170122861
 21
26.05265527809114
 31
0.0
  0
LINE
  5
1DC
330
6B
100
AcDbEntity
  8
0
100
AcDbLine
 10
0.1153149987037683
 20
21.08529296281263
 30
0.0
 11
1.608707532135559
 21
25.71226864797569
 31
0.0
  0
LINE
  5
1DD
330
6B
100
AcDbEntity
  8
0
100
AcDbLine
 10
0.0539751781124345
 20
20.58521154303199
 30
0.0
 11
1.608872563478988
 21
25.58726875691712
 31
0.0
  0
LINE
  5
1DE
330
6B
100
AcDbEntity
  8
0
100
AcDbLine
 10
0.1159751240774858
 20
20.58529339857833
 30
0.0
 11
1.609367657509277
 21
25.21226908374139
 31
0.0
  0
LINE
  5
1DF
330
6B
100
AcDbEntity
  8
0
100
AcDbLine
 10
2.085085973902915
 20
19.0930702171623
 30
0.0
 11
1.608137102381212
 21
19.30121352553017
 31
0.0
  0
LINE
  5
1E0
330
6B
100
AcDbEntity
  8
0
100
AcDbLine
 10
3.04467557056357
 20
20.40115140711711
 30
0.0
 11
1.608137102381212
 21
19.30121352553017
 31
0.0
  0
LINE
  5
1E1
330
6B
100
AcDbEntity
  8
0
100
AcDbLine
 10
3.04467557056357
 20
20.40115140711711
 30
0.0
 11
1.608006148925984
 21
19.49207675200406
 31
0.0
  0
LINE
  5
1E2
330
6B
100
AcDbEntity
  8
0
100
AcDbLine
 10
3.106060817809644
 20
20.58780551476237
 30
0.0
 11
1.607717344074983
 21
19.71082656135656
 31
0.0
  0
LINE
  5
1E3
330
6B
100
AcDbEntity
  8
0
100
AcDbLine
 10
3.15274505726546
 20
20.58929424991009
 30
0.0
 11
1.607841117582554
 21
19.61707664306263
 31
0.0
  0
LINE
  5
1E4
330
6B
100
AcDbEntity
  8
0
100
AcDbLine
 10
1.045083919673237
 20
19.05408317178498
 30
0.0
 11
-0.0807297853778133
 21
20.42709801202496
 31
0.0
  0
LINE
  5
1E5
330
6B
100
AcDbEntity
  8
0
100
AcDbLine
 10
0.9831249014813581
 20
19.02300134325612
 30
0.0
 11
-0.0806888576046427
 21
20.39609803904243
 31
0.0
  0
LINE
  5
1E6
330
6B
100
AcDbEntity
  8
0
100
AcDbLine
 10
0.1695637594878745
 20
20.39328457506749
 30
0.0
 11
1.131981563542001
 21
19.09181187925546
 31
0.0
  0
LINE
  5
1E7
330
6B
100
AcDbEntity
  8
0
100
AcDbLine
 10
0.1689413248025149
 20
20.39735471352078
 30
0.0
 11
1.608006148925984
 21
19.49207675200406
 31
0.0
  0
LINE
  5
1E8
330
6B
100
AcDbEntity
  8
0
100
AcDbLine
 10
0.1689413248025149
 20
20.39735471352078
 30
0.0
 11
1.608379170122861
 21
19.30121384512057
 31
0.0
  0
LINE
  5
1E9
330
6B
100
AcDbEntity
  8
0
100
AcDbLine
 10
0.0603754238195817
 20
20.58521154303199
 30
0.0
 11
1.607841117582554
 21
19.61707664306263
 31
0.0
  0
LINE
  5
1EA
330
6B
100
AcDbEntity
  8
0
100
AcDbLine
 10
0.107063431532306
 20
20.58384608277081
 30
0.0
 11
1.607717344074983
 21
19.71082656135656
 31
0.0
  0
LINE
  5
1EB
330
6B
100
AcDbEntity
  8
0
100
AcDbLine
 10
-0.0722729192151244
 20
20.77304502758991
 30
0.0
 11
-0.0807297853778133
 21
20.42709801202496
 31
0.0
  0
LINE
  5
1EC
330
6B
100
AcDbEntity
  8
0
100
AcDbLine
 10
1.607841117582554
 20
19.61707664306263
 30
0.0
 11
1.607717344074983
 21
19.71082656135656
 31
0.0
  0
LINE
  5
1ED
330
6B
100
AcDbEntity
  8
0
100
AcDbLine
 10
1.131981563542001
 20
19.09181187925546
 30
0.0
 11
1.608379170122861
 21
19.30121384512057
 31
0.0
  0
LINE
  5
1EE
330
6B
100
AcDbEntity
  8
0
100
AcDbLine
 10
1.045083919673237
 20
19.05408317178498
 30
0.0
 11
0.9775227355205222
 21
19.02480061447732
 31
0.0
  0
LINE
  5
1EF
330
6B
100
AcDbEntity
  8
0
100
AcDbLine
 10
1.608872563478988
 20
18.83582732394654
 30
0.0
 11
1.609367657509277
 21
18.46082765077081
 31
0.0
  0
POINT
  5
1F0
330
6B
100
AcDbEntity
  8
0
100
AcDbPoint
 10
1.608253695941129
 20
19.3045769154162
 30
0.0
  0
LINE
  5
1F1
330
6B
100
AcDbEntity
  8
0
100
AcDbLine
 10
1.608379170122861
 20
19.30121384512057
 30
0.0
 11
1.608006148925984
 21
19.49207675200406
 31
0.0
  0
POINT
  5
1F2
330
6B
100
AcDbEntity
  8
0
100
AcDbPoint
 10
1.571045745699673
 20
19.1049179692694
 30
0.0
  0
POINT
  5
1F3
330
6B
100
AcDbEntity
  8
0
100
AcDbPoint
 10
1.575277789882309
 20
19.06316896201555
 30
0.0
  0
LINE
  5
1F4
330
6B
100
AcDbEntity
  8
0
100
AcDbLine
 10
1.608379170122861
 20
19.30121384512057
 30
0.0
 11
1.60870753213556
 21
18.96082721500511
 31
0.0
  0
LINE
  5
1F5
330
6B
100
AcDbEntity
  8
0
100
AcDbLine
 10
2.234123811195577
 20
19.02465297694115
 30
0.0
 11
3.294308200976886
 21
20.40055388531502
 31
0.0
  0
LINE
  5
1F6
330
6B
100
AcDbEntity
  8
0
100
AcDbLine
 10
2.172082937457356
 20
19.05557109437734
 30
0.0
 11
3.294267273203717
 21
20.43155385829755
 31
0.0
  0
LINE
  5
1F7
330
6B
100
AcDbEntity
  8
0
100
AcDbLine
 10
3.044063885245392
 20
20.39707963931454
 30
0.0
 11
2.085085973902915
 21
19.0930702171623
 31
0.0
  0
LINE
  5
1F8
330
6B
100
AcDbEntity
  8
0
100
AcDbLine
 10
2.172082937457356
 20
19.05557109437734
 30
0.0
 11
2.239721206652357
 21
19.02646703440458
 31
0.0
  0
LINE
  5
1F9
330
6B
100
AcDbEntity
  8
0
100
AcDbLine
 10
2.085085973902916
 20
25.84451165013288
 30
0.0
 11
1.608137102381212
 21
26.05265495850075
 31
0.0
  0
LINE
  5
1FA
330
6B
100
AcDbEntity
  8
0
100
AcDbLine
 10
3.04467557056357
 20
27.15259284008769
 30
0.0
 11
1.608137102381212
 21
26.05265495850075
 31
0.0
  0
LINE
  5
1FB
330
6B
100
AcDbEntity
  8
0
100
AcDbLine
 10
3.04467557056357
 20
27.15259284008769
 30
0.0
 11
1.608006148925984
 21
26.24351818497464
 31
0.0
  0
LINE
  5
1FC
330
6B
100
AcDbEntity
  8
0
100
AcDbLine
 10
3.106060817809644
 20
27.33924694773295
 30
0.0
 11
1.607717344074983
 21
26.46226799432714
 31
0.0
  0
LINE
  5
1FD
330
6B
100
AcDbEntity
  8
0
100
AcDbLine
 10
3.15274505726546
 20
27.34073568288067
 30
0.0
 11
1.607841117582555
 21
26.36851807603321
 31
0.0
  0
LINE
  5
1FE
330
6B
100
AcDbEntity
  8
0
100
AcDbLine
 10
1.045083919673238
 20
25.80552460475556
 30
0.0
 11
-0.0807297853778133
 21
27.17853944499554
 31
0.0
  0
LINE
  5
1FF
330
6B
100
AcDbEntity
  8
0
100
AcDbLine
 10
0.9831249014813581
 20
25.77444277622669
 30
0.0
 11
-0.0806888576046427
 21
27.14753947201301
 31
0.0
  0
LINE
  5
200
330
6B
100
AcDbEntity
  8
0
100
AcDbLine
 10
0.1695637594878754
 20
27.14472600803807
 30
0.0
 11
1.131981563542002
 21
25.84325331222604
 31
0.0
  0
LINE
  5
201
330
6B
100
AcDbEntity
  8
0
100
AcDbLine
 10
0.1689413248025149
 20
27.14879614649136
 30
0.0
 11
1.608006148925984
 21
26.24351818497464
 31
0.0
  0
LINE
  5
202
330
6B
100
AcDbEntity
  8
0
100
AcDbLine
 10
0.1689413248025149
 20
27.14879614649136
 30
0.0
 11
1.608379170122861
 21
26.05265527809114
 31
0.0
  0
LINE
  5
203
330
6B
100
AcDbEntity
  8
0
100
AcDbLine
 10
0.0603754238195826
 20
27.33665297600257
 30
0.0
 11
1.607841117582555
 21
26.36851807603321
 31
0.0
  0
LINE
  5
204
330
6B
100
AcDbEntity
  8
0
100
AcDbLine
 10
0.107063431532306
 20
27.33528751574139
 30
0.0
 11
1.607717344074983
 21
26.46226799432714
 31
0.0
  0
LINE
  5
205
330
6B
100
AcDbEntity
  8
0
100
AcDbLine
 10
1.608872563478988
 20
25.58726875691712
 30
0.0
 11
1.609367657509277
 21
25.21226908374139
 31
0.0
  0
LINE
  5
206
330
6B
100
AcDbEntity
  8
0
100
AcDbLine
 10
1.131981563542002
 20
25.84325331222604
 30
0.0
 11
1.608379170122861
 21
26.05265527809114
 31
0.0
  0
LINE
  5
207
330
6B
100
AcDbEntity
  8
0
100
AcDbLine
 10
1.045083919673238
 20
25.80552460475556
 30
0.0
 11
0.9775227355205231
 21
25.7762420474479
 31
0.0
  0
LINE
  5
208
330
6B
100
AcDbEntity
  8
0
100
AcDbLine
 10
1.608379170122861
 20
26.05265527809114
 30
0.0
 11
1.608006148925984
 21
26.24351818497464
 31
0.0
  0
POINT
  5
209
330
6B
100
AcDbEntity
  8
0
100
AcDbPoint
 10
1.608253695941129
 20
26.05601834838678
 30
0.0
  0
POINT
  5
20A
330
6B
100
AcDbEntity
  8
0
100
AcDbPoint
 10
1.571045745699673
 20
25.85635940223999
 30
0.0
  0
POINT
  5
20B
330
6B
100
AcDbEntity
  8
0
100
AcDbPoint
 10
1.575277789882309
 20
25.81461039498613
 30
0.0
  0
LINE
  5
20C
330
6B
100
AcDbEntity
  8
0
100
AcDbLine
 10
1.608379170122861
 20
26.05265527809114
 30
0.0
 11
1.608707532135559
 21
25.71226864797569
 31
0.0
  0
LINE
  5
20D
330
6B
100
AcDbEntity
  8
0
100
AcDbLine
 10
1.607841117582555
 20
26.36851807603321
 30
0.0
 11
1.607717344074983
 21
26.46226799432714
 31
0.0
  0
LINE
  5
20E
330
6B
100
AcDbEntity
  8
0
100
AcDbLine
 10
-0.0807297853778133
 20
27.3412057122618
 30
0.0
 11
0.107063431532306
 21
27.33528751574139
 31
0.0
  0
LINE
  5
20F
330
6B
100
AcDbEntity
  8
0
100
AcDbLine
 10
-0.0807297853778133
 20
27.17853944499554
 30
0.0
 11
-0.0807297853778133
 21
27.3412057122618
 31
0.0
  0
LINE
  5
210
330
6B
100
AcDbEntity
  8
0
100
AcDbLine
 10
2.234123811195577
 20
25.77609440991173
 30
0.0
 11
3.294308200976886
 21
27.1519953182856
 31
0.0
  0
LINE
  5
211
330
6B
100
AcDbEntity
  8
0
100
AcDbLine
 10
2.172082937457355
 20
25.80701252734792
 30
0.0
 11
3.294267273203717
 21
27.18299529126813
 31
0.0
  0
LINE
  5
212
330
6B
100
AcDbEntity
  8
0
100
AcDbLine
 10
3.044063885245391
 20
27.14852107228512
 30
0.0
 11
2.085085973902916
 21
25.84451165013288
 31
0.0
  0
LINE
  5
213
330
6B
100
AcDbEntity
  8
0
100
AcDbLine
 10
2.172082937457355
 20
25.80701252734792
 30
0.0
 11
2.239721206652358
 21
25.77790846737516
 31
0.0
  0
LINE
  5
214
330
6B
100
AcDbEntity
  8
0
100
AcDbLine
 10
3.106060817809644
 20
27.33924694773295
 30
0.0
 11
3.482059829988469
 21
27.34024336157822
 31
0.0
  0
LINE
  5
215
330
6B
100
AcDbEntity
  8
0
100
AcDbLine
 10
5.465050776801295
 20
22.08624287992206
 30
0.0
 11
6.482118425802622
 21
26.84760925638484
 31
0.0
  0
LINE
  5
216
330
6B
100
AcDbEntity
  8
0
100
AcDbLine
 10
5.551948420670059
 20
22.12397158739254
 30
0.0
 11
6.669264331785249
 21
27.18745113754072
 31
0.0
  0
LINE
  5
217
330
6B
100
AcDbEntity
  8
0
100
AcDbLine
 10
6.669305259558419
 20
27.15645116455819
 30
0.0
 11
5.613907438861938
 21
22.15505341592141
 31
0.0
  0
LINE
  5
218
330
6B
100
AcDbEntity
  8
0
100
AcDbLine
 10
6.481717341639527
 20
26.84420322933547
 30
0.0
 11
4.988653170220435
 21
21.87684091405695
 31
0.0
  0
LINE
  5
219
330
6B
100
AcDbEntity
  8
0
100
AcDbLine
 10
6.481717341639527
 20
26.84420322933547
 30
0.0
 11
4.988324808207736
 21
22.21722754417241
 31
0.0
  0
LINE
  5
21A
330
6B
100
AcDbEntity
  8
0
100
AcDbLine
 10
6.543057162230859
 20
27.34428464911611
 30
0.0
 11
4.988159776864308
 21
22.34222743523099
 31
0.0
  0
LINE
  5
21B
330
6B
100
AcDbEntity
  8
0
100
AcDbLine
 10
6.481057216265809
 20
27.34420279356977
 30
0.0
 11
4.98766468283402
 21
22.71722710840671
 31
0.0
  0
LINE
  5
21C
330
6B
100
AcDbEntity
  8
0
100
AcDbLine
 10
5.551948420670059
 20
22.12397158739254
 30
0.0
 11
6.67776212572111
 21
20.75095674715256
 31
0.0
  0
LINE
  5
21D
330
6B
100
AcDbEntity
  8
0
100
AcDbLine
 10
5.613907438861938
 20
22.15505341592141
 30
0.0
 11
6.677721197947939
 21
20.78195672013509
 31
0.0
  0
LINE
  5
21E
330
6B
100
AcDbEntity
  8
0
100
AcDbLine
 10
6.42746858085542
 20
20.78477018411003
 30
0.0
 11
5.465050776801295
 21
22.08624287992206
 31
0.0
  0
LINE
  5
21F
330
6B
100
AcDbEntity
  8
0
100
AcDbLine
 10
6.428091015540782
 20
20.78070004565674
 30
0.0
 11
4.989026191417312
 21
21.68597800717346
 31
0.0
  0
LINE
  5
220
330
6B
100
AcDbEntity
  8
0
100
AcDbLine
 10
6.428091015540782
 20
20.78070004565674
 30
0.0
 11
4.988653170220435
 21
21.87684091405695
 31
0.0
  0
LINE
  5
221
330
6B
100
AcDbEntity
  8
0
100
AcDbLine
 10
6.536656916523715
 20
20.59284321614553
 30
0.0
 11
4.98919122276074
 21
21.56097811611489
 31
0.0
  0
LINE
  5
222
330
6B
100
AcDbEntity
  8
0
100
AcDbLine
 10
6.489968908810991
 20
20.59420867640671
 30
0.0
 11
4.989314996268313
 21
21.46722819782096
 31
0.0
  0
LINE
  5
223
330
6B
100
AcDbEntity
  8
0
100
AcDbLine
 10
4.511946366440379
 20
22.08498454201522
 30
0.0
 11
4.988895237962085
 21
21.87684123364735
 31
0.0
  0
LINE
  5
224
330
6B
100
AcDbEntity
  8
0
100
AcDbLine
 10
4.42494940288594
 20
22.12248366480018
 30
0.0
 11
4.357311133690939
 21
22.15158772477294
 31
0.0
  0
LINE
  5
225
330
6B
100
AcDbEntity
  8
0
100
AcDbLine
 10
4.988159776864308
 20
22.34222743523099
 30
0.0
 11
4.98766468283402
 21
22.71722710840671
 31
0.0
  0
LINE
  5
226
330
6B
100
AcDbEntity
  8
0
100
AcDbLine
 10
5.465050776801295
 20
22.08624287992206
 30
0.0
 11
4.988653170220435
 21
21.87684091405695
 31
0.0
  0
LINE
  5
227
330
6B
100
AcDbEntity
  8
0
100
AcDbLine
 10
4.988653170220435
 20
21.87684091405695
 30
0.0
 11
4.989026191417312
 21
21.68597800717346
 31
0.0
  0
LINE
  5
228
330
6B
100
AcDbEntity
  8
0
100
AcDbLine
 10
4.98919122276074
 20
21.56097811611489
 30
0.0
 11
4.989314996268313
 21
21.46722819782096
 31
0.0
  0
POINT
  5
229
330
6B
100
AcDbEntity
  8
0
100
AcDbPoint
 10
5.021754550460987
 20
22.11488579716197
 30
0.0
  0
POINT
  5
22A
330
6B
100
AcDbEntity
  8
0
100
AcDbPoint
 10
5.025986594643623
 20
22.07313678990812
 30
0.0
  0
POINT
  5
22B
330
6B
100
AcDbEntity
  8
0
100
AcDbPoint
 10
4.988778644402168
 20
21.87347784376133
 30
0.0
  0
LINE
  5
22C
330
6B
100
AcDbEntity
  8
0
100
AcDbLine
 10
4.988653170220435
 20
21.87684091405695
 30
0.0
 11
4.988324808207736
 21
22.21722754417241
 31
0.0
  0
LINE
  5
22D
330
6B
100
AcDbEntity
  8
0
100
AcDbLine
 10
5.551948420670059
 20
22.12397158739254
 30
0.0
 11
5.619509604822774
 21
22.1532541447002
 31
0.0
  0
LINE
  5
22E
330
6B
100
AcDbEntity
  8
0
100
AcDbLine
 10
6.481057216265809
 20
27.34420279356977
 30
0.0
 11
6.857057548695368
 21
27.34419920828658
 31
0.0
  0
LINE
  5
22F
330
6B
100
AcDbEntity
  8
0
100
AcDbLine
 10
13.23105133342887
 20
20.60167305314438
 30
0.0
 11
11.73765879999708
 21
15.97469736798132
 31
0.0
  0
LINE
  5
230
330
6B
100
AcDbEntity
  8
0
100
AcDbLine
 10
13.29305127939393
 20
20.60175490869072
 30
0.0
 11
11.73815389402737
 21
15.59969769480559
 31
0.0
  0
LINE
  5
231
330
6B
100
AcDbEntity
  8
0
100
AcDbLine
 10
13.23171145880259
 20
20.10167348891007
 30
0.0
 11
11.7383189253708
 21
15.47469780374701
 31
0.0
  0
LINE
  5
232
330
6B
100
AcDbEntity
  8
0
100
AcDbLine
 10
13.23171145880259
 20
20.10167348891007
 30
0.0
 11
11.7386472873835
 21
15.13431117363156
 31
0.0
  0
LINE
  5
233
330
6B
100
AcDbEntity
  8
0
100
AcDbLine
 10
13.41929937672148
 20
20.4139214241328
 30
0.0
 11
12.363901556025
 21
15.41252367549601
 31
0.0
  0
LINE
  5
234
330
6B
100
AcDbEntity
  8
0
100
AcDbLine
 10
12.30194253783312
 20
15.38144184696714
 30
0.0
 11
13.41925844894831
 21
20.44492139711532
 31
0.0
  0
LINE
  5
235
330
6B
100
AcDbEntity
  8
0
100
AcDbLine
 10
12.21504489396436
 20
15.34371313949667
 30
0.0
 11
13.23211254296568
 21
20.10507951595944
 31
0.0
  0
LINE
  5
236
330
6B
100
AcDbEntity
  8
0
100
AcDbLine
 10
8.835080091065982
 20
19.10198190970748
 30
0.0
 11
9.864716578520713
 21
14.34331769826567
 31
0.0
  0
LINE
  5
237
330
6B
100
AcDbEntity
  8
0
100
AcDbLine
 10
9.864306502144174
 20
14.34672265437879
 30
0.0
 11
8.358131219544276
 21
19.31012521807535
 31
0.0
  0
LINE
  5
238
330
6B
100
AcDbEntity
  8
0
100
AcDbLine
 10
9.864306502144174
 20
14.34672265437879
 30
0.0
 11
8.358701649298623
 21
18.96973890755029
 31
0.0
  0
LINE
  5
239
330
6B
100
AcDbEntity
  8
0
100
AcDbLine
 10
9.926966573482943
 20
13.84680494569083
 30
0.0
 11
8.358866680642051
 21
18.84473901649172
 31
0.0
  0
LINE
  5
23A
330
6B
100
AcDbEntity
  8
0
100
AcDbLine
 10
9.86496662751789
 20
13.84672309014449
 30
0.0
 11
8.35936177467234
 21
18.469739343316
 31
0.0
  0
LINE
  5
23B
330
6B
100
AcDbEntity
  8
0
100
AcDbLine
 10
8.92207705462042
 20
19.06448278692252
 30
0.0
 11
10.05275918430264
 21
14.00397116045458
 31
0.0
  0
LINE
  5
23C
330
6B
100
AcDbEntity
  8
0
100
AcDbLine
 10
10.05271825652947
 20
14.0349711334371
 30
0.0
 11
8.984117928358642
 21
19.03356466948634
 31
0.0
  0
LINE
  5
23D
330
6B
100
AcDbEntity
  8
0
100
AcDbLine
 10
11.26194048360344
 20
15.34245480158983
 30
0.0
 11
10.23230399614871
 21
20.10111901303165
 31
0.0
  0
LINE
  5
23E
330
6B
100
AcDbEntity
  8
0
100
AcDbLine
 10
10.23271407252525
 20
20.09771405691852
 30
0.0
 11
11.73888935512515
 21
15.13431149322196
 31
0.0
  0
LINE
  5
23F
330
6B
100
AcDbEntity
  8
0
100
AcDbLine
 10
10.23271407252525
 20
20.09771405691852
 30
0.0
 11
11.7383189253708
 21
15.47469780374701
 31
0.0
  0
LINE
  5
240
330
6B
100
AcDbEntity
  8
0
100
AcDbLine
 10
10.17005400118648
 20
20.59763176560648
 30
0.0
 11
11.73815389402737
 21
15.59969769480559
 31
0.0
  0
LINE
  5
241
330
6B
100
AcDbEntity
  8
0
100
AcDbLine
 10
10.23205394715153
 20
20.59771362115282
 30
0.0
 11
11.73765879999708
 21
15.97469736798132
 31
0.0
  0
LINE
  5
242
330
6B
100
AcDbEntity
  8
0
100
AcDbLine
 10
11.174943520049
 20
15.37995392437479
 30
0.0
 11
10.04426139036678
 21
20.44046555084273
 31
0.0
  0
LINE
  5
243
330
6B
100
AcDbEntity
  8
0
100
AcDbLine
 10
10.04430231813995
 20
20.40946557786021
 30
0.0
 11
11.11290264631078
 21
15.41087204181097
 31
0.0
  0
LINE
  5
244
330
6B
100
AcDbEntity
  8
0
100
AcDbLine
 10
9.794058002408455
 20
6.869613522635603
 30
0.0
 11
8.835080091065982
 21
5.565604100483366
 31
0.0
  0
LINE
  5
245
330
6B
100
AcDbEntity
  8
0
100
AcDbLine
 10
8.92207705462042
 20
5.528104977698403
 30
0.0
 11
10.04426139036678
 21
6.904087741618614
 31
0.0
  0
LINE
  5
246
330
6B
100
AcDbEntity
  8
0
100
AcDbLine
 10
8.984117928358642
 20
5.497186860262218
 30
0.0
 11
10.04430231813995
 21
6.873087768636086
 31
0.0
  0
LINE
  5
247
330
6B
100
AcDbEntity
  8
0
100
AcDbLine
 10
9.902739174428525
 20
7.061828133231159
 30
0.0
 11
8.357835234745621
 21
6.089610526383696
 31
0.0
  0
LINE
  5
248
330
6B
100
AcDbEntity
  8
0
100
AcDbLine
 10
9.856054934972707
 20
7.060339398083431
 30
0.0
 11
8.35771146123805
 21
6.183360444677628
 31
0.0
  0
LINE
  5
249
330
6B
100
AcDbEntity
  8
0
100
AcDbLine
 10
9.794669687726635
 20
6.873685290438171
 30
0.0
 11
8.35800026608905
 21
5.96461063532512
 31
0.0
  0
LINE
  5
24A
330
6B
100
AcDbEntity
  8
0
100
AcDbLine
 10
9.794669687726635
 20
6.873685290438171
 30
0.0
 11
8.358131219544276
 21
5.773747408851233
 31
0.0
  0
LINE
  5
24B
330
6B
100
AcDbEntity
  8
0
100
AcDbLine
 10
13.23105133342887
 20
7.065295243920257
 30
0.0
 11
11.73765879999708
 21
2.438319558757196
 31
0.0
  0
LINE
  5
24C
330
6B
100
AcDbEntity
  8
0
100
AcDbLine
 10
13.29305127939393
 20
7.065377099466598
 30
0.0
 11
11.73815389402737
 21
2.063319885581471
 31
0.0
  0
LINE
  5
24D
330
6B
100
AcDbEntity
  8
0
100
AcDbLine
 10
13.41929937672148
 20
6.877543614908677
 30
0.0
 11
12.363901556025
 21
1.876145866271894
 31
0.0
  0
LINE
  5
24E
330
6B
100
AcDbEntity
  8
0
100
AcDbLine
 10
12.30194253783312
 20
1.845064037743025
 30
0.0
 11
13.41925844894831
 21
6.908543587891204
 31
0.0
  0
LINE
  5
24F
330
6B
100
AcDbEntity
  8
0
100
AcDbLine
 10
10.17005400118648
 20
7.061253956382362
 30
0.0
 11
11.73815389402737
 21
2.063319885581471
 31
0.0
  0
LINE
  5
250
330
6B
100
AcDbEntity
  8
0
100
AcDbLine
 10
10.23205394715153
 20
7.061335811928701
 30
0.0
 11
11.73765879999708
 21
2.438319558757196
 31
0.0
  0
LINE
  5
251
330
6B
100
AcDbEntity
  8
0
100
AcDbLine
 10
11.174943520049
 20
1.843576115150668
 30
0.0
 11
10.04426139036678
 21
6.904087741618614
 31
0.0
  0
LINE
  5
252
330
6B
100
AcDbEntity
  8
0
100
AcDbLine
 10
10.04430231813995
 20
6.873087768636088
 30
0.0
 11
11.11290264631078
 21
1.874494232586854
 31
0.0
  0
LINE
  5
253
330
6B
100
AcDbEntity
  8
0
100
AcDbLine
 10
11.26194048360344
 20
1.806076992365706
 30
0.0
 11
11.73888935512515
 21
1.597933683997837
 31
0.0
  0
LINE
  5
254
330
6B
100
AcDbEntity
  8
0
100
AcDbLine
 10
10.1942814002409
 20
0.3098529596179134
 30
0.0
 11
11.7391853399238
 21
1.282070566465375
 31
0.0
  0
LINE
  5
255
330
6B
100
AcDbEntity
  8
0
100
AcDbLine
 10
10.24096563969671
 20
0.3113416947656411
 30
0.0
 11
11.73930911343137
 21
1.188320648171444
 31
0.0
  0
LINE
  5
256
330
6B
100
AcDbEntity
  8
0
100
AcDbLine
 10
10.30235088694279
 20
0.4979958024108982
 30
0.0
 11
11.73902030858037
 21
1.40707045752395
 31
0.0
  0
LINE
  5
257
330
6B
100
AcDbEntity
  8
0
100
AcDbLine
 10
10.30235088694279
 20
0.4979958024108982
 30
0.0
 11
11.73888935512515
 21
1.597933683997837
 31
0.0
  0
LINE
  5
258
330
6B
100
AcDbEntity
  8
0
100
AcDbLine
 10
10.23271407252525
 20
6.5613362476944
 30
0.0
 11
11.73888935512515
 21
1.597933683997837
 31
0.0
  0
LINE
  5
259
330
6B
100
AcDbEntity
  8
0
100
AcDbLine
 10
10.23271407252525
 20
6.5613362476944
 30
0.0
 11
11.7383189253708
 21
1.938319994522895
 31
0.0
  0
LINE
  5
25A
330
6B
100
AcDbEntity
  8
0
100
AcDbLine
 10
10.30296257226096
 20
0.5020675702134696
 30
0.0
 11
11.26194048360344
 21
1.806076992365706
 31
0.0
  0
LINE
  5
25B
330
6B
100
AcDbEntity
  8
0
100
AcDbLine
 10
11.174943520049
 20
1.843576115150668
 30
0.0
 11
10.05275918430264
 21
0.4675933512304589
 31
0.0
  0
LINE
  5
25C
330
6B
100
AcDbEntity
  8
0
100
AcDbLine
 10
11.11290264631078
 20
1.874494232586854
 30
0.0
 11
10.05271825652947
 21
0.4985933242129868
 31
0.0
  0
LINE
  5
25D
330
6B
100
AcDbEntity
  8
0
100
AcDbLine
 10
8.835080091065982
 20
5.565604100483366
 30
0.0
 11
9.864716578520713
 21
0.8069398890415442
 31
0.0
  0
LINE
  5
25E
330
6B
100
AcDbEntity
  8
0
100
AcDbLine
 10
9.864306502144174
 20
0.8103448451546704
 30
0.0
 11
8.358131219544276
 21
5.773747408851233
 31
0.0
  0
LINE
  5
25F
330
6B
100
AcDbEntity
  8
0
100
AcDbLine
 10
9.864306502144174
 20
0.8103448451546704
 30
0.0
 11
8.358701649298623
 21
5.433361098326177
 31
0.0
  0
LINE
  5
260
330
6B
100
AcDbEntity
  8
0
100
AcDbLine
 10
9.926966573482943
 20
0.3104271364667106
 30
0.0
 11
8.358866680642051
 21
5.308361207267601
 31
0.0
  0
LINE
  5
261
330
6B
100
AcDbEntity
  8
0
100
AcDbLine
 10
9.86496662751789
 20
0.3103452809203695
 30
0.0
 11
8.35936177467234
 21
4.933361534091876
 31
0.0
  0
LINE
  5
262
330
6B
100
AcDbEntity
  8
0
100
AcDbLine
 10
8.92207705462042
 20
5.528104977698403
 30
0.0
 11
10.05275918430264
 21
0.4675933512304589
 31
0.0
  0
LINE
  5
263
330
6B
100
AcDbEntity
  8
0
100
AcDbLine
 10
10.05271825652947
 20
0.4985933242129832
 30
0.0
 11
8.984117928358642
 21
5.497186860262218
 31
0.0
  0
LINE
  5
264
330
6B
100
AcDbEntity
  8
0
100
AcDbLine
 10
10.24096563969671
 20
0.3113416947656411
 30
0.0
 11
9.86496662751789
 21
0.3103452809203695
 31
0.0
  0
LINE
  5
265
330
6B
100
AcDbEntity
  8
0
100
AcDbLine
 10
8.835080091065982
 20
5.565604100483366
 30
0.0
 11
8.358131219544276
 21
5.773747408851233
 31
0.0
  0
LINE
  5
266
330
6B
100
AcDbEntity
  8
0
100
AcDbLine
 10
8.358866680642051
 20
5.308361207267601
 30
0.0
 11
8.35936177467234
 21
4.933361534091876
 31
0.0
  0
LINE
  5
267
330
6B
100
AcDbEntity
  8
0
100
AcDbLine
 10
7.881975680705067
 20
5.564345762576522
 30
0.0
 11
8.358373287285925
 21
5.773747728441628
 31
0.0
  0
LINE
  5
268
330
6B
100
AcDbEntity
  8
0
100
AcDbLine
 10
7.795078036836303
 20
5.526617055106044
 30
0.0
 11
7.727516852683588
 21
5.497334497798386
 31
0.0
  0
POINT
  5
269
330
6B
100
AcDbEntity
  8
0
100
AcDbPoint
 10
8.358247813104192
 20
5.777110798737258
 30
0.0
  0
LINE
  5
26A
330
6B
100
AcDbEntity
  8
0
100
AcDbLine
 10
8.358373287285925
 20
5.773747728441628
 30
0.0
 11
8.35800026608905
 21
5.96461063532512
 31
0.0
  0
POINT
  5
26B
330
6B
100
AcDbEntity
  8
0
100
AcDbPoint
 10
8.321039862862736
 20
5.577451852590467
 30
0.0
  0
POINT
  5
26C
330
6B
100
AcDbEntity
  8
0
100
AcDbPoint
 10
8.325271907045372
 20
5.535702845336615
 30
0.0
  0
LINE
  5
26D
330
6B
100
AcDbEntity
  8
0
100
AcDbLine
 10
8.358373287285925
 20
5.773747728441628
 30
0.0
 11
8.358701649298623
 21
5.433361098326177
 31
0.0
  0
LINE
  5
26E
330
6B
100
AcDbEntity
  8
0
100
AcDbLine
 10
8.357835234745621
 20
6.089610526383696
 30
0.0
 11
8.35771146123805
 21
6.183360444677628
 31
0.0
  0
LINE
  5
26F
330
6B
100
AcDbEntity
  8
0
100
AcDbLine
 10
8.92207705462042
 20
5.528104977698403
 30
0.0
 11
8.989715323815424
 21
5.499000917725645
 31
0.0
  0
LINE
  5
270
330
6B
100
AcDbEntity
  8
0
100
AcDbLine
 10
11.26194048360344
 20
1.806076992365706
 30
0.0
 11
10.23230399614871
 21
6.564741203807525
 31
0.0
  0
LINE
  5
271
330
6B
100
AcDbEntity
  8
0
100
AcDbLine
 10
11.174943520049
 20
1.843576115150668
 30
0.0
 11
11.107305250854
 21
1.872680175123427
 31
0.0
  0
LINE
  5
272
330
6B
100
AcDbEntity
  8
0
100
AcDbLine
 10
12.363901556025
 20
1.876145866271894
 30
0.0
 11
13.427715315111
 21
0.5030491704855749
 31
0.0
  0
LINE
  5
273
330
6B
100
AcDbEntity
  8
0
100
AcDbLine
 10
13.23996302597405
 20
0.3153011267571948
 30
0.0
 11
11.73930911343137
 21
1.188320648171444
 31
0.0
  0
LINE
  5
274
330
6B
100
AcDbEntity
  8
0
100
AcDbLine
 10
13.28665103368678
 20
0.3139356664960182
 30
0.0
 11
11.7391853399238
 21
1.282070566465375
 31
0.0
  0
LINE
  5
275
330
6B
100
AcDbEntity
  8
0
100
AcDbLine
 10
13.17808513270384
 20
0.5017924960072229
 30
0.0
 11
11.7386472873835
 21
1.597933364407442
 31
0.0
  0
LINE
  5
276
330
6B
100
AcDbEntity
  8
0
100
AcDbLine
 10
13.17808513270384
 20
0.5017924960072229
 30
0.0
 11
11.73902030858037
 21
1.40707045752395
 31
0.0
  0
LINE
  5
277
330
6B
100
AcDbEntity
  8
0
100
AcDbLine
 10
13.17746269801848
 20
0.5058626344605166
 30
0.0
 11
12.21504489396436
 21
1.807335330272547
 31
0.0
  0
LINE
  5
278
330
6B
100
AcDbEntity
  8
0
100
AcDbLine
 10
12.30194253783312
 20
1.845064037743025
 30
0.0
 11
13.42775624288417
 21
0.472049197503047
 31
0.0
  0
LINE
  5
279
330
6B
100
AcDbEntity
  8
0
100
AcDbLine
 10
13.42265229535322
 20
0.3139356664960182
 30
0.0
 11
13.427715315111
 21
0.5030491704855749
 31
0.0
  0
LINE
  5
27A
330
6B
100
AcDbEntity
  8
0
100
AcDbLine
 10
13.28665103368678
 20
0.3139356664960182
 30
0.0
 11
13.42265229535322
 21
0.3139356664960182
 31
0.0
  0
LINE
  5
27B
330
6B
100
AcDbEntity
  8
0
100
AcDbLine
 10
13.23171145880259
 20
6.565295679685956
 30
0.0
 11
11.7383189253708
 21
1.938319994522895
 31
0.0
  0
LINE
  5
27C
330
6B
100
AcDbEntity
  8
0
100
AcDbLine
 10
13.23171145880259
 20
6.565295679685956
 30
0.0
 11
11.7386472873835
 21
1.597933364407442
 31
0.0
  0
LINE
  5
27D
330
6B
100
AcDbEntity
  8
0
100
AcDbLine
 10
12.21504489396436
 20
1.807335330272547
 30
0.0
 11
13.23211254296568
 21
6.568701706735321
 31
0.0
  0
LINE
  5
27E
330
6B
100
AcDbEntity
  8
0
100
AcDbLine
 10
12.21504489396436
 20
1.807335330272547
 30
0.0
 11
11.7386472873835
 21
1.597933364407442
 31
0.0
  0
LINE
  5
27F
330
6B
100
AcDbEntity
  8
0
100
AcDbLine
 10
11.7386472873835
 20
1.597933364407442
 30
0.0
 11
11.7383189253708
 21
1.938319994522895
 31
0.0
  0
POINT
  5
280
330
6B
100
AcDbEntity
  8
0
100
AcDbPoint
 10
11.73877276156523
 20
1.594570294111814
 30
0.0
  0
LINE
  5
281
330
6B
100
AcDbEntity
  8
0
100
AcDbLine
 10
11.7391853399238
 20
1.282070566465375
 30
0.0
 11
11.73930911343137
 21
1.188320648171444
 31
0.0
  0
LINE
  5
282
330
6B
100
AcDbEntity
  8
0
100
AcDbLine
 10
11.7386472873835
 20
1.597933364407442
 30
0.0
 11
11.73902030858037
 21
1.40707045752395
 31
0.0
  0
LINE
  5
283
330
6B
100
AcDbEntity
  8
0
100
AcDbLine
 10
11.73815389402737
 20
2.063319885581471
 30
0.0
 11
11.73765879999708
 21
2.438319558757196
 31
0.0
  0
POINT
  5
284
330
6B
100
AcDbEntity
  8
0
100
AcDbPoint
 10
11.77598071180668
 20
1.794229240258601
 30
0.0
  0
POINT
  5
285
330
6B
100
AcDbEntity
  8
0
100
AcDbPoint
 10
11.77174866762405
 20
1.835978247512453
 30
0.0
  0
LINE
  5
286
330
6B
100
AcDbEntity
  8
0
100
AcDbLine
 10
12.30194253783312
 20
1.845064037743025
 30
0.0
 11
12.36950372198584
 21
1.874346595050685
 31
0.0
  0
LINE
  5
287
330
6B
100
AcDbEntity
  8
0
100
AcDbLine
 10
11.26194048360344
 20
8.55952779168787
 30
0.0
 11
11.73888935512515
 21
8.35138448332
 31
0.0
  0
LINE
  5
288
330
6B
100
AcDbEntity
  8
0
100
AcDbLine
 10
10.1942814002409
 20
7.063303758940074
 30
0.0
 11
11.7391853399238
 21
8.035521365787538
 31
0.0
  0
LINE
  5
289
330
6B
100
AcDbEntity
  8
0
100
AcDbLine
 10
10.24096563969671
 20
7.064792494087802
 30
0.0
 11
11.73930911343137
 21
7.941771447493607
 31
0.0
  0
LINE
  5
28A
330
6B
100
AcDbEntity
  8
0
100
AcDbLine
 10
10.30235088694279
 20
7.251446601733061
 30
0.0
 11
11.73902030858037
 21
8.160521256846113
 31
0.0
  0
LINE
  5
28B
330
6B
100
AcDbEntity
  8
0
100
AcDbLine
 10
10.30235088694279
 20
7.251446601733061
 30
0.0
 11
11.73888935512515
 21
8.35138448332
 31
0.0
  0
LINE
  5
28C
330
6B
100
AcDbEntity
  8
0
100
AcDbLine
 10
10.23271407252525
 20
13.31478704701656
 30
0.0
 11
11.73888935512515
 21
8.35138448332
 31
0.0
  0
LINE
  5
28D
330
6B
100
AcDbEntity
  8
0
100
AcDbLine
 10
10.23271407252525
 20
13.31478704701656
 30
0.0
 11
11.7383189253708
 21
8.691770793845059
 31
0.0
  0
LINE
  5
28E
330
6B
100
AcDbEntity
  8
0
100
AcDbLine
 10
10.17005400118648
 20
13.81470475570452
 30
0.0
 11
11.73815389402737
 21
8.816770684903634
 31
0.0
  0
LINE
  5
28F
330
6B
100
AcDbEntity
  8
0
100
AcDbLine
 10
10.23205394715153
 20
13.81478661125086
 30
0.0
 11
11.73765879999708
 21
9.191770358079359
 31
0.0
  0
LINE
  5
290
330
6B
100
AcDbEntity
  8
0
100
AcDbLine
 10
11.26194048360344
 20
15.34245480158983
 30
0.0
 11
11.73888935512515
 21
15.13431149322196
 31
0.0
  0
LINE
  5
291
330
6B
100
AcDbEntity
  8
0
100
AcDbLine
 10
10.1942814002409
 20
13.84623076884203
 30
0.0
 11
11.7391853399238
 21
14.81844837568949
 31
0.0
  0
LINE
  5
292
330
6B
100
AcDbEntity
  8
0
100
AcDbLine
 10
10.24096563969671
 20
13.84771950398976
 30
0.0
 11
11.73930911343137
 21
14.72469845739556
 31
0.0
  0
LINE
  5
293
330
6B
100
AcDbEntity
  8
0
100
AcDbLine
 10
10.30235088694279
 20
14.03437361163502
 30
0.0
 11
11.73902030858037
 21
14.94344826674807
 31
0.0
  0
LINE
  5
294
330
6B
100
AcDbEntity
  8
0
100
AcDbLine
 10
10.30235088694279
 20
14.03437361163502
 30
0.0
 11
11.73888935512515
 21
15.13431149322196
 31
0.0
  0
LINE
  5
295
330
6B
100
AcDbEntity
  8
0
100
AcDbLine
 10
9.794058002408455
 20
13.62306432195776
 30
0.0
 11
8.835080091065982
 21
12.31905489980553
 31
0.0
  0
LINE
  5
296
330
6B
100
AcDbEntity
  8
0
100
AcDbLine
 10
8.92207705462042
 20
12.28155577702056
 30
0.0
 11
10.04426139036678
 21
13.65753854094077
 31
0.0
  0
LINE
  5
297
330
6B
100
AcDbEntity
  8
0
100
AcDbLine
 10
8.984117928358642
 20
12.25063765958438
 30
0.0
 11
10.04430231813995
 21
13.62653856795825
 31
0.0
  0
LINE
  5
298
330
6B
100
AcDbEntity
  8
0
100
AcDbLine
 10
8.358373287285925
 20
12.52719852776379
 30
0.0
 11
8.358701649298623
 21
12.18681189764834
 31
0.0
  0
LINE
  5
299
330
6B
100
AcDbEntity
  8
0
100
AcDbLine
 10
7.881975680705067
 20
12.31779656189868
 30
0.0
 11
8.358373287285925
 21
12.52719852776379
 31
0.0
  0
LINE
  5
29A
330
6B
100
AcDbEntity
  8
0
100
AcDbLine
 10
8.835080091065982
 20
12.31905489980553
 30
0.0
 11
8.358131219544276
 21
12.52719820817339
 31
0.0
  0
LINE
  5
29B
330
6B
100
AcDbEntity
  8
0
100
AcDbLine
 10
9.864306502144174
 20
7.563795644476833
 30
0.0
 11
8.358131219544276
 21
12.52719820817339
 31
0.0
  0
LINE
  5
29C
330
6B
100
AcDbEntity
  8
0
100
AcDbLine
 10
11.26194048360344
 20
8.55952779168787
 30
0.0
 11
10.23230399614871
 21
13.31819200312968
 31
0.0
  0
LINE
  5
29D
330
6B
100
AcDbEntity
  8
0
100
AcDbLine
 10
11.174943520049
 20
8.597026914472831
 30
0.0
 11
10.04426139036678
 21
13.65753854094077
 31
0.0
  0
LINE
  5
29E
330
6B
100
AcDbEntity
  8
0
100
AcDbLine
 10
10.04430231813995
 20
13.62653856795825
 30
0.0
 11
11.11290264631078
 21
8.627945031909018
 31
0.0
  0
LINE
  5
29F
330
6B
100
AcDbEntity
  8
0
100
AcDbLine
 10
8.835080091065982
 20
12.31905489980553
 30
0.0
 11
9.864716578520713
 21
7.560390688363709
 31
0.0
  0
LINE
  5
2A0
330
6B
100
AcDbEntity
  8
0
100
AcDbLine
 10
9.864306502144174
 20
7.563795644476833
 30
0.0
 11
8.358701649298623
 21
12.18681189764834
 31
0.0
  0
LINE
  5
2A1
330
6B
100
AcDbEntity
  8
0
100
AcDbLine
 10
9.926966573482943
 20
7.063877935788873
 30
0.0
 11
8.358866680642051
 21
12.06181200658976
 31
0.0
  0
LINE
  5
2A2
330
6B
100
AcDbEntity
  8
0
100
AcDbLine
 10
9.86496662751789
 20
7.063796080242532
 30
0.0
 11
8.35936177467234
 21
11.68681233341404
 31
0.0
  0
LINE
  5
2A3
330
6B
100
AcDbEntity
  8
0
100
AcDbLine
 10
8.92207705462042
 20
12.28155577702056
 30
0.0
 11
10.05275918430264
 21
7.22104415055262
 31
0.0
  0
LINE
  5
2A4
330
6B
100
AcDbEntity
  8
0
100
AcDbLine
 10
10.05271825652947
 20
7.252044123535146
 30
0.0
 11
8.984117928358642
 21
12.25063765958438
 31
0.0
  0
LINE
  5
2A5
330
6B
100
AcDbEntity
  8
0
100
AcDbLine
 10
7.795078036836303
 20
12.2800678544282
 30
0.0
 11
7.727516852683588
 21
12.25078529712054
 31
0.0
  0
LINE
  5
2A6
330
6B
100
AcDbEntity
  8
0
100
AcDbLine
 10
8.358866680642051
 20
12.06181200658976
 30
0.0
 11
8.35936177467234
 21
11.68681233341404
 31
0.0
  0
POINT
  5
2A7
330
6B
100
AcDbEntity
  8
0
100
AcDbPoint
 10
8.321039862862736
 20
12.33090265191263
 30
0.0
  0
POINT
  5
2A8
330
6B
100
AcDbEntity
  8
0
100
AcDbPoint
 10
8.325271907045372
 20
12.28915364465877
 30
0.0
  0
LINE
  5
2A9
330
6B
100
AcDbEntity
  8
0
100
AcDbLine
 10
8.92207705462042
 20
12.28155577702056
 30
0.0
 11
8.989715323815424
 21
12.2524517170478
 31
0.0
  0
LINE
  5
2AA
330
6B
100
AcDbEntity
  8
0
100
AcDbLine
 10
10.30296257226096
 20
7.255518369535632
 30
0.0
 11
11.26194048360344
 21
8.55952779168787
 31
0.0
  0
LINE
  5
2AB
330
6B
100
AcDbEntity
  8
0
100
AcDbLine
 10
11.174943520049
 20
8.597026914472831
 30
0.0
 11
10.05275918430264
 21
7.22104415055262
 31
0.0
  0
LINE
  5
2AC
330
6B
100
AcDbEntity
  8
0
100
AcDbLine
 10
11.11290264631078
 20
8.627945031909018
 30
0.0
 11
10.05271825652947
 21
7.252044123535148
 31
0.0
  0
LINE
  5
2AD
330
6B
100
AcDbEntity
  8
0
100
AcDbLine
 10
11.174943520049
 20
8.597026914472831
 30
0.0
 11
11.107305250854
 21
8.62613097444559
 31
0.0
  0
LINE
  5
2AE
330
6B
100
AcDbEntity
  8
0
100
AcDbLine
 10
9.902739174428525
 20
13.81527893255332
 30
0.0
 11
8.357835234745621
 21
12.84306132570586
 31
0.0
  0
LINE
  5
2AF
330
6B
100
AcDbEntity
  8
0
100
AcDbLine
 10
9.856054934972707
 20
13.81379019740559
 30
0.0
 11
8.35771146123805
 21
12.93681124399979
 31
0.0
  0
LINE
  5
2B0
330
6B
100
AcDbEntity
  8
0
100
AcDbLine
 10
9.794669687726635
 20
13.62713608976033
 30
0.0
 11
8.35800026608905
 21
12.71806143464728
 31
0.0
  0
LINE
  5
2B1
330
6B
100
AcDbEntity
  8
0
100
AcDbLine
 10
9.794669687726635
 20
13.62713608976033
 30
0.0
 11
8.358131219544276
 21
12.52719820817339
 31
0.0
  0
LINE
  5
2B2
330
6B
100
AcDbEntity
  8
0
100
AcDbLine
 10
8.357835234745621
 20
12.84306132570586
 30
0.0
 11
8.35771146123805
 21
12.93681124399979
 31
0.0
  0
POINT
  5
2B3
330
6B
100
AcDbEntity
  8
0
100
AcDbPoint
 10
8.358247813104192
 20
12.53056159805942
 30
0.0
  0
LINE
  5
2B4
330
6B
100
AcDbEntity
  8
0
100
AcDbLine
 10
8.358373287285925
 20
12.52719852776379
 30
0.0
 11
8.35800026608905
 21
12.71806143464728
 31
0.0
  0
LINE
  5
2B5
330
6B
100
AcDbEntity
  8
0
100
AcDbLine
 10
10.30296257226096
 20
14.03844537943759
 30
0.0
 11
11.26194048360344
 21
15.34245480158983
 31
0.0
  0
LINE
  5
2B6
330
6B
100
AcDbEntity
  8
0
100
AcDbLine
 10
11.174943520049
 20
15.37995392437479
 30
0.0
 11
10.05275918430264
 21
14.00397116045458
 31
0.0
  0
LINE
  5
2B7
330
6B
100
AcDbEntity
  8
0
100
AcDbLine
 10
11.11290264631078
 20
15.41087204181097
 30
0.0
 11
10.05271825652947
 21
14.0349711334371
 31
0.0
  0
LINE
  5
2B8
330
6B
100
AcDbEntity
  8
0
100
AcDbLine
 10
11.174943520049
 20
15.37995392437479
 30
0.0
 11
11.107305250854
 21
15.40905798434754
 31
0.0
  0
LINE
  5
2B9
330
6B
100
AcDbEntity
  8
0
100
AcDbLine
 10
13.23105133342887
 20
13.81874604324242
 30
0.0
 11
11.73765879999708
 21
9.191770358079359
 31
0.0
  0
LINE
  5
2BA
330
6B
100
AcDbEntity
  8
0
100
AcDbLine
 10
13.29305127939393
 20
13.81882789878876
 30
0.0
 11
11.73815389402737
 21
8.816770684903634
 31
0.0
  0
LINE
  5
2BB
330
6B
100
AcDbEntity
  8
0
100
AcDbLine
 10
13.23171145880259
 20
13.31874647900812
 30
0.0
 11
11.7383189253708
 21
8.691770793845059
 31
0.0
  0
LINE
  5
2BC
330
6B
100
AcDbEntity
  8
0
100
AcDbLine
 10
13.23171145880259
 20
13.31874647900812
 30
0.0
 11
11.7386472873835
 21
8.351384163729605
 31
0.0
  0
LINE
  5
2BD
330
6B
100
AcDbEntity
  8
0
100
AcDbLine
 10
13.41929937672148
 20
13.63099441423084
 30
0.0
 11
12.363901556025
 21
8.629596665594057
 31
0.0
  0
LINE
  5
2BE
330
6B
100
AcDbEntity
  8
0
100
AcDbLine
 10
12.30194253783312
 20
8.598514837065188
 30
0.0
 11
13.41925844894831
 21
13.66199438721336
 31
0.0
  0
LINE
  5
2BF
330
6B
100
AcDbEntity
  8
0
100
AcDbLine
 10
12.21504489396436
 20
8.560786129594712
 30
0.0
 11
13.23211254296568
 21
13.32215250605748
 31
0.0
  0
LINE
  5
2C0
330
6B
100
AcDbEntity
  8
0
100
AcDbLine
 10
12.363901556025
 20
8.629596665594057
 30
0.0
 11
13.427715315111
 21
7.256499969807737
 31
0.0
  0
LINE
  5
2C1
330
6B
100
AcDbEntity
  8
0
100
AcDbLine
 10
13.23996302597405
 20
7.068751926079357
 30
0.0
 11
11.73930911343137
 21
7.941771447493607
 31
0.0
  0
LINE
  5
2C2
330
6B
100
AcDbEntity
  8
0
100
AcDbLine
 10
13.28665103368678
 20
7.067386465818183
 30
0.0
 11
11.7391853399238
 21
8.035521365787538
 31
0.0
  0
LINE
  5
2C3
330
6B
100
AcDbEntity
  8
0
100
AcDbLine
 10
13.17808513270384
 20
7.255243295329387
 30
0.0
 11
11.7386472873835
 21
8.351384163729605
 31
0.0
  0
LINE
  5
2C4
330
6B
100
AcDbEntity
  8
0
100
AcDbLine
 10
13.17808513270384
 20
7.255243295329387
 30
0.0
 11
11.73902030858037
 21
8.160521256846113
 31
0.0
  0
LINE
  5
2C5
330
6B
100
AcDbEntity
  8
0
100
AcDbLine
 10
13.17746269801848
 20
7.259313433782679
 30
0.0
 11
12.21504489396436
 21
8.560786129594712
 31
0.0
  0
LINE
  5
2C6
330
6B
100
AcDbEntity
  8
0
100
AcDbLine
 10
12.30194253783312
 20
8.598514837065188
 30
0.0
 11
13.42775624288417
 21
7.22549999682521
 31
0.0
  0
LINE
  5
2C7
330
6B
100
AcDbEntity
  8
0
100
AcDbLine
 10
11.7386472873835
 20
8.351384163729605
 30
0.0
 11
11.73902030858037
 21
8.160521256846113
 31
0.0
  0
LINE
  5
2C8
330
6B
100
AcDbEntity
  8
0
100
AcDbLine
 10
11.7391853399238
 20
8.035521365787538
 30
0.0
 11
11.73930911343137
 21
7.941771447493607
 31
0.0
  0
LINE
  5
2C9
330
6B
100
AcDbEntity
  8
0
100
AcDbLine
 10
12.21504489396436
 20
8.560786129594712
 30
0.0
 11
11.7386472873835
 21
8.351384163729605
 31
0.0
  0
LINE
  5
2CA
330
6B
100
AcDbEntity
  8
0
100
AcDbLine
 10
11.73815389402737
 20
8.816770684903634
 30
0.0
 11
11.73765879999708
 21
9.191770358079359
 31
0.0
  0
POINT
  5
2CB
330
6B
100
AcDbEntity
  8
0
100
AcDbPoint
 10
11.77598071180668
 20
8.547680039580766
 30
0.0
  0
POINT
  5
2CC
330
6B
100
AcDbEntity
  8
0
100
AcDbPoint
 10
11.77174866762405
 20
8.589429046834617
 30
0.0
  0
POINT
  5
2CD
330
6B
100
AcDbEntity
  8
0
100
AcDbPoint
 10
11.73877276156523
 20
8.348021093433976
 30
0.0
  0
LINE
  5
2CE
330
6B
100
AcDbEntity
  8
0
100
AcDbLine
 10
11.7386472873835
 20
8.351384163729605
 30
0.0
 11
11.7383189253708
 21
8.691770793845059
 31
0.0
  0
LINE
  5
2CF
330
6B
100
AcDbEntity
  8
0
100
AcDbLine
 10
12.30194253783312
 20
8.598514837065188
 30
0.0
 11
12.36950372198584
 21
8.627797394372848
 31
0.0
  0
LINE
  5
2D0
330
6B
100
AcDbEntity
  8
0
100
AcDbLine
 10
13.42775624288417
 20
7.22549999682521
 30
0.0
 11
13.41925844894831
 21
6.908543587891204
 31
0.0
  0
LINE
  5
2D1
330
6B
100
AcDbEntity
  8
0
100
AcDbLine
 10
12.363901556025
 20
15.41252367549601
 30
0.0
 11
13.427715315111
 21
14.03942697970969
 31
0.0
  0
LINE
  5
2D2
330
6B
100
AcDbEntity
  8
0
100
AcDbLine
 10
12.21504489396436
 20
15.34371313949667
 30
0.0
 11
11.7386472873835
 21
15.13431117363156
 31
0.0
  0
LINE
  5
2D3
330
6B
100
AcDbEntity
  8
0
100
AcDbLine
 10
11.7386472873835
 20
15.13431117363156
 30
0.0
 11
11.7383189253708
 21
15.47469780374701
 31
0.0
  0
LINE
  5
2D4
330
6B
100
AcDbEntity
  8
0
100
AcDbLine
 10
13.17746269801848
 20
14.04224044368464
 30
0.0
 11
12.21504489396436
 21
15.34371313949667
 31
0.0
  0
LINE
  5
2D5
330
6B
100
AcDbEntity
  8
0
100
AcDbLine
 10
12.30194253783312
 20
15.38144184696714
 30
0.0
 11
13.42775624288417
 21
14.00842700672717
 31
0.0
  0
LINE
  5
2D6
330
6B
100
AcDbEntity
  8
0
100
AcDbLine
 10
13.23996302597405
 20
13.85167893598131
 30
0.0
 11
11.73930911343137
 21
14.72469845739556
 31
0.0
  0
LINE
  5
2D7
330
6B
100
AcDbEntity
  8
0
100
AcDbLine
 10
13.28665103368678
 20
13.85031347572014
 30
0.0
 11
11.7391853399238
 21
14.81844837568949
 31
0.0
  0
LINE
  5
2D8
330
6B
100
AcDbEntity
  8
0
100
AcDbLine
 10
13.17808513270384
 20
14.03817030523134
 30
0.0
 11
11.7386472873835
 21
15.13431117363156
 31
0.0
  0
LINE
  5
2D9
330
6B
100
AcDbEntity
  8
0
100
AcDbLine
 10
13.17808513270384
 20
14.03817030523134
 30
0.0
 11
11.73902030858037
 21
14.94344826674807
 31
0.0
  0
POINT
  5
2DA
330
6B
100
AcDbEntity
  8
0
100
AcDbPoint
 10
11.73877276156523
 20
15.13094810333593
 30
0.0
  0
LINE
  5
2DB
330
6B
100
AcDbEntity
  8
0
100
AcDbLine
 10
11.7391853399238
 20
14.81844837568949
 30
0.0
 11
11.73930911343137
 21
14.72469845739556
 31
0.0
  0
LINE
  5
2DC
330
6B
100
AcDbEntity
  8
0
100
AcDbLine
 10
11.7386472873835
 20
15.13431117363156
 30
0.0
 11
11.73902030858037
 21
14.94344826674807
 31
0.0
  0
LINE
  5
2DD
330
6B
100
AcDbEntity
  8
0
100
AcDbLine
 10
13.427715315111
 20
14.03942697970969
 30
0.0
 11
13.41929937672148
 21
13.63099441423084
 31
0.0
  0
LINE
  5
2DE
330
6B
100
AcDbEntity
  8
0
100
AcDbLine
 10
11.73815389402737
 20
15.59969769480559
 30
0.0
 11
11.73765879999708
 21
15.97469736798132
 31
0.0
  0
POINT
  5
2DF
330
6B
100
AcDbEntity
  8
0
100
AcDbPoint
 10
11.77598071180668
 20
15.33060704948272
 30
0.0
  0
POINT
  5
2E0
330
6B
100
AcDbEntity
  8
0
100
AcDbPoint
 10
11.77174866762405
 20
15.37235605673657
 30
0.0
  0
LINE
  5
2E1
330
6B
100
AcDbEntity
  8
0
100
AcDbLine
 10
12.30194253783312
 20
15.38144184696714
 30
0.0
 11
12.36950372198584
 21
15.4107244042748
 31
0.0
  0
LINE
  5
2E2
330
6B
100
AcDbEntity
  8
0
100
AcDbLine
 10
11.26194048360344
 20
22.0938962345604
 30
0.0
 11
11.73888935512515
 21
21.88575292619253
 31
0.0
  0
LINE
  5
2E3
330
6B
100
AcDbEntity
  8
0
100
AcDbLine
 10
10.30235088694279
 20
20.78581504460559
 30
0.0
 11
11.73902030858037
 21
21.69488969971865
 31
0.0
  0
LINE
  5
2E4
330
6B
100
AcDbEntity
  8
0
100
AcDbLine
 10
10.30235088694279
 20
20.78581504460559
 30
0.0
 11
11.73888935512515
 21
21.88575292619253
 31
0.0
  0
LINE
  5
2E5
330
6B
100
AcDbEntity
  8
0
100
AcDbLine
 10
10.1942814002409
 20
20.59767220181261
 30
0.0
 11
11.7391853399238
 21
21.56988980866007
 31
0.0
  0
LINE
  5
2E6
330
6B
100
AcDbEntity
  8
0
100
AcDbLine
 10
10.24096563969671
 20
20.59916093696034
 30
0.0
 11
11.73930911343137
 21
21.47613989036614
 31
0.0
  0
LINE
  5
2E7
330
6B
100
AcDbEntity
  8
0
100
AcDbLine
 10
10.23271407252525
 20
26.8491554898891
 30
0.0
 11
11.73888935512515
 21
21.88575292619253
 31
0.0
  0
LINE
  5
2E8
330
6B
100
AcDbEntity
  8
0
100
AcDbLine
 10
10.23271407252525
 20
26.8491554898891
 30
0.0
 11
11.7383189253708
 21
22.22613923671759
 31
0.0
  0
LINE
  5
2E9
330
6B
100
AcDbEntity
  8
0
100
AcDbLine
 10
10.17005400118648
 20
27.34907319857706
 30
0.0
 11
11.73815389402737
 21
22.35113912777617
 31
0.0
  0
LINE
  5
2EA
330
6B
100
AcDbEntity
  8
0
100
AcDbLine
 10
10.23205394715153
 20
27.3491550541234
 30
0.0
 11
11.73765879999708
 21
22.72613880095189
 31
0.0
  0
LINE
  5
2EB
330
6B
100
AcDbEntity
  8
0
100
AcDbLine
 10
10.05271825652947
 20
20.78641256640768
 30
0.0
 11
8.984117928358642
 21
25.78500610245692
 31
0.0
  0
LINE
  5
2EC
330
6B
100
AcDbEntity
  8
0
100
AcDbLine
 10
8.92207705462042
 20
25.8159242198931
 30
0.0
 11
10.05275918430264
 21
20.75541259342516
 31
0.0
  0
LINE
  5
2ED
330
6B
100
AcDbEntity
  8
0
100
AcDbLine
 10
9.86496662751789
 20
20.59816452311507
 30
0.0
 11
8.35936177467234
 21
25.22118077628658
 31
0.0
  0
LINE
  5
2EE
330
6B
100
AcDbEntity
  8
0
100
AcDbLine
 10
9.926966573482943
 20
20.59824637866141
 30
0.0
 11
8.358866680642051
 21
25.5961804494623
 31
0.0
  0
LINE
  5
2EF
330
6B
100
AcDbEntity
  8
0
100
AcDbLine
 10
9.864306502144174
 20
21.09816408734937
 30
0.0
 11
8.358701649298623
 21
25.72118034052087
 31
0.0
  0
LINE
  5
2F0
330
6B
100
AcDbEntity
  8
0
100
AcDbLine
 10
9.864306502144174
 20
21.09816408734937
 30
0.0
 11
8.358131219544276
 21
26.06156665104593
 31
0.0
  0
LINE
  5
2F1
330
6B
100
AcDbEntity
  8
0
100
AcDbLine
 10
8.835080091065982
 20
25.85342334267807
 30
0.0
 11
9.864716578520713
 21
21.09475913123624
 31
0.0
  0
LINE
  5
2F2
330
6B
100
AcDbEntity
  8
0
100
AcDbLine
 10
11.26194048360344
 20
22.0938962345604
 30
0.0
 11
10.23230399614871
 21
26.85256044600222
 31
0.0
  0
LINE
  5
2F3
330
6B
100
AcDbEntity
  8
0
100
AcDbLine
 10
11.174943520049
 20
22.13139535734537
 30
0.0
 11
10.04426139036678
 21
27.19190698381331
 31
0.0
  0
LINE
  5
2F4
330
6B
100
AcDbEntity
  8
0
100
AcDbLine
 10
10.04430231813995
 20
27.16090701083079
 30
0.0
 11
11.11290264631078
 21
22.16231347478155
 31
0.0
  0
LINE
  5
2F5
330
6B
100
AcDbEntity
  8
0
100
AcDbLine
 10
9.794058002408455
 20
20.40599133185972
 30
0.0
 11
8.835080091065982
 21
19.10198190970748
 31
0.0
  0
LINE
  5
2F6
330
6B
100
AcDbEntity
  8
0
100
AcDbLine
 10
8.92207705462042
 20
19.06448278692252
 30
0.0
 11
10.04426139036678
 21
20.44046555084273
 31
0.0
  0
LINE
  5
2F7
330
6B
100
AcDbEntity
  8
0
100
AcDbLine
 10
8.984117928358642
 20
19.03356466948634
 30
0.0
 11
10.04430231813995
 21
20.40946557786021
 31
0.0
  0
LINE
  5
2F8
330
6B
100
AcDbEntity
  8
0
100
AcDbLine
 10
9.902739174428525
 20
20.59820594245528
 30
0.0
 11
8.357835234745621
 21
19.62598833560782
 31
0.0
  0
LINE
  5
2F9
330
6B
100
AcDbEntity
  8
0
100
AcDbLine
 10
9.856054934972707
 20
20.59671720730755
 30
0.0
 11
8.35771146123805
 21
19.71973825390175
 31
0.0
  0
LINE
  5
2FA
330
6B
100
AcDbEntity
  8
0
100
AcDbLine
 10
9.794669687726635
 20
20.41006309966229
 30
0.0
 11
8.35800026608905
 21
19.50098844454924
 31
0.0
  0
LINE
  5
2FB
330
6B
100
AcDbEntity
  8
0
100
AcDbLine
 10
9.794669687726635
 20
20.41006309966229
 30
0.0
 11
8.358131219544276
 21
19.31012521807535
 31
0.0
  0
LINE
  5
2FC
330
6B
100
AcDbEntity
  8
0
100
AcDbLine
 10
8.835080091065982
 20
19.10198190970748
 30
0.0
 11
8.358131219544276
 21
19.31012521807535
 31
0.0
  0
LINE
  5
2FD
330
6B
100
AcDbEntity
  8
0
100
AcDbLine
 10
7.881975680705067
 20
19.10072357180064
 30
0.0
 11
8.358373287285925
 21
19.31012553766575
 31
0.0
  0
LINE
  5
2FE
330
6B
100
AcDbEntity
  8
0
100
AcDbLine
 10
7.795078036836303
 20
19.06299486433016
 30
0.0
 11
7.727516852683588
 21
19.03371230702251
 31
0.0
  0
LINE
  5
2FF
330
6B
100
AcDbEntity
  8
0
100
AcDbLine
 10
8.358866680642051
 20
18.84473901649172
 30
0.0
 11
8.35936177467234
 21
18.469739343316
 31
0.0
  0
POINT
  5
300
330
6B
100
AcDbEntity
  8
0
100
AcDbPoint
 10
8.358247813104192
 20
19.31348860796138
 30
0.0
  0
LINE
  5
301
330
6B
100
AcDbEntity
  8
0
100
AcDbLine
 10
8.358373287285925
 20
19.31012553766575
 30
0.0
 11
8.35800026608905
 21
19.50098844454924
 31
0.0
  0
POINT
  5
302
330
6B
100
AcDbEntity
  8
0
100
AcDbPoint
 10
8.321039862862736
 20
19.11382966181459
 30
0.0
  0
POINT
  5
303
330
6B
100
AcDbEntity
  8
0
100
AcDbPoint
 10
8.325271907045372
 20
19.07208065456074
 30
0.0
  0
LINE
  5
304
330
6B
100
AcDbEntity
  8
0
100
AcDbLine
 10
8.358373287285925
 20
19.31012553766575
 30
0.0
 11
8.358701649298623
 21
18.96973890755029
 31
0.0
  0
LINE
  5
305
330
6B
100
AcDbEntity
  8
0
100
AcDbLine
 10
8.357835234745621
 20
19.62598833560782
 30
0.0
 11
8.35771146123805
 21
19.71973825390175
 31
0.0
  0
LINE
  5
306
330
6B
100
AcDbEntity
  8
0
100
AcDbLine
 10
8.92207705462042
 20
19.06448278692252
 30
0.0
 11
8.989715323815424
 21
19.03537872694976
 31
0.0
  0
LINE
  5
307
330
6B
100
AcDbEntity
  8
0
100
AcDbLine
 10
10.30296257226096
 20
20.78988681240816
 30
0.0
 11
11.26194048360344
 21
22.0938962345604
 31
0.0
  0
LINE
  5
308
330
6B
100
AcDbEntity
  8
0
100
AcDbLine
 10
11.174943520049
 20
22.13139535734537
 30
0.0
 11
10.05275918430264
 21
20.75541259342516
 31
0.0
  0
LINE
  5
309
330
6B
100
AcDbEntity
  8
0
100
AcDbLine
 10
11.11290264631078
 20
22.16231347478155
 30
0.0
 11
10.05271825652947
 21
20.78641256640768
 31
0.0
  0
LINE
  5
30A
330
6B
100
AcDbEntity
  8
0
100
AcDbLine
 10
11.174943520049
 20
22.13139535734537
 30
0.0
 11
11.107305250854
 21
22.16049941731812
 31
0.0
  0
LINE
  5
30B
330
6B
100
AcDbEntity
  8
0
100
AcDbLine
 10
8.984117928358642
 20
25.78500610245692
 30
0.0
 11
10.04430231813995
 21
27.16090701083079
 31
0.0
  0
LINE
  5
30C
330
6B
100
AcDbEntity
  8
0
100
AcDbLine
 10
8.92207705462042
 20
25.8159242198931
 30
0.0
 11
10.04426139036678
 21
27.19190698381331
 31
0.0
  0
LINE
  5
30D
330
6B
100
AcDbEntity
  8
0
100
AcDbLine
 10
9.794669687726635
 20
27.16150453263287
 30
0.0
 11
8.358131219544276
 21
26.06156665104593
 31
0.0
  0
LINE
  5
30E
330
6B
100
AcDbEntity
  8
0
100
AcDbLine
 10
9.794669687726635
 20
27.16150453263287
 30
0.0
 11
8.35800026608905
 21
26.25242987751982
 31
0.0
  0
LINE
  5
30F
330
6B
100
AcDbEntity
  8
0
100
AcDbLine
 10
9.794058002408455
 20
27.1574327648303
 30
0.0
 11
8.835080091065982
 21
25.85342334267807
 31
0.0
  0
LINE
  5
310
330
6B
100
AcDbEntity
  8
0
100
AcDbLine
 10
9.856054934972707
 20
27.34815864027813
 30
0.0
 11
8.35771146123805
 21
26.47117968687233
 31
0.0
  0
LINE
  5
311
330
6B
100
AcDbEntity
  8
0
100
AcDbLine
 10
9.902739174428525
 20
27.34964737542586
 30
0.0
 11
8.357835234745621
 21
26.37742976857839
 31
0.0
  0
LINE
  5
312
330
6B
100
AcDbEntity
  8
0
100
AcDbLine
 10
8.835080091065982
 20
25.85342334267807
 30
0.0
 11
8.358131219544276
 21
26.06156665104593
 31
0.0
  0
LINE
  5
313
330
6B
100
AcDbEntity
  8
0
100
AcDbLine
 10
8.358866680642051
 20
25.5961804494623
 30
0.0
 11
8.35936177467234
 21
25.22118077628658
 31
0.0
  0
LINE
  5
314
330
6B
100
AcDbEntity
  8
0
100
AcDbLine
 10
7.881975680705067
 20
25.85216500477122
 30
0.0
 11
8.358373287285925
 21
26.06156697063632
 31
0.0
  0
LINE
  5
315
330
6B
100
AcDbEntity
  8
0
100
AcDbLine
 10
7.795078036836303
 20
25.81443629730074
 30
0.0
 11
7.727516852683588
 21
25.78515373999308
 31
0.0
  0
LINE
  5
316
330
6B
100
AcDbEntity
  8
0
100
AcDbLine
 10
8.358373287285925
 20
26.06156697063632
 30
0.0
 11
8.358701649298623
 21
25.72118034052087
 31
0.0
  0
POINT
  5
317
330
6B
100
AcDbEntity
  8
0
100
AcDbPoint
 10
8.325271907045372
 20
25.82352208753131
 30
0.0
  0
POINT
  5
318
330
6B
100
AcDbEntity
  8
0
100
AcDbPoint
 10
8.321039862862736
 20
25.86527109478517
 30
0.0
  0
POINT
  5
319
330
6B
100
AcDbEntity
  8
0
100
AcDbPoint
 10
8.358247813104192
 20
26.06493004093195
 30
0.0
  0
LINE
  5
31A
330
6B
100
AcDbEntity
  8
0
100
AcDbLine
 10
8.357835234745621
 20
26.37742976857839
 30
0.0
 11
8.35771146123805
 21
26.47117968687233
 31
0.0
  0
LINE
  5
31B
330
6B
100
AcDbEntity
  8
0
100
AcDbLine
 10
8.358373287285925
 20
26.06156697063632
 30
0.0
 11
8.35800026608905
 21
26.25242987751982
 31
0.0
  0
LINE
  5
31C
330
6B
100
AcDbEntity
  8
0
100
AcDbLine
 10
8.92207705462042
 20
25.8159242198931
 30
0.0
 11
8.989715323815424
 21
25.78682015992034
 31
0.0
  0
LINE
  5
31D
330
6B
100
AcDbEntity
  8
0
100
AcDbLine
 10
9.856054934972707
 20
27.34815864027813
 30
0.0
 11
10.23205394715153
 21
27.3491550541234
 31
0.0
  0
LINE
  5
31E
330
6B
100
AcDbEntity
  8
0
100
AcDbLine
 10
13.41929937672148
 20
27.16536285710338
 30
0.0
 11
12.363901556025
 21
22.16396510846659
 31
0.0
  0
LINE
  5
31F
330
6B
100
AcDbEntity
  8
0
100
AcDbLine
 10
12.30194253783312
 20
22.13288327993772
 30
0.0
 11
13.41925844894831
 21
27.1963628300859
 31
0.0
  0
LINE
  5
320
330
6B
100
AcDbEntity
  8
0
100
AcDbLine
 10
13.23105133342887
 20
27.35311448611495
 30
0.0
 11
11.73765879999708
 21
22.72613880095189
 31
0.0
  0
LINE
  5
321
330
6B
100
AcDbEntity
  8
0
100
AcDbLine
 10
13.29305127939393
 20
27.35319634166129
 30
0.0
 11
11.73815389402737
 21
22.35113912777617
 31
0.0
  0
LINE
  5
322
330
6B
100
AcDbEntity
  8
0
100
AcDbLine
 10
13.23171145880259
 20
26.85311492188065
 30
0.0
 11
11.7383189253708
 21
22.22613923671759
 31
0.0
  0
LINE
  5
323
330
6B
100
AcDbEntity
  8
0
100
AcDbLine
 10
13.23171145880259
 20
26.85311492188065
 30
0.0
 11
11.7386472873835
 21
21.88575260660214
 31
0.0
  0
LINE
  5
324
330
6B
100
AcDbEntity
  8
0
100
AcDbLine
 10
12.21504489396436
 20
22.09515457246725
 30
0.0
 11
13.23211254296568
 21
26.85652094893002
 31
0.0
  0
LINE
  5
325
330
6B
100
AcDbEntity
  8
0
100
AcDbLine
 10
13.23996302597405
 20
20.60312036895189
 30
0.0
 11
11.73930911343137
 21
21.47613989036614
 31
0.0
  0
LINE
  5
326
330
6B
100
AcDbEntity
  8
0
100
AcDbLine
 10
13.28665103368678
 20
20.60175490869072
 30
0.0
 11
11.7391853399238
 21
21.56988980866007
 31
0.0
  0
LINE
  5
327
330
6B
100
AcDbEntity
  8
0
100
AcDbLine
 10
12.363901556025
 20
22.16396510846659
 30
0.0
 11
13.427715315111
 21
20.79086841268027
 31
0.0
  0
LINE
  5
328
330
6B
100
AcDbEntity
  8
0
100
AcDbLine
 10
12.30194253783312
 20
22.13288327993772
 30
0.0
 11
13.42775624288417
 21
20.75986843969774
 31
0.0
  0
LINE
  5
329
330
6B
100
AcDbEntity
  8
0
100
AcDbLine
 10
13.17808513270384
 20
20.78961173820192
 30
0.0
 11
11.7386472873835
 21
21.88575260660214
 31
0.0
  0
LINE
  5
32A
330
6B
100
AcDbEntity
  8
0
100
AcDbLine
 10
13.17808513270384
 20
20.78961173820192
 30
0.0
 11
11.73902030858037
 21
21.69488969971865
 31
0.0
  0
LINE
  5
32B
330
6B
100
AcDbEntity
  8
0
100
AcDbLine
 10
13.17746269801848
 20
20.79368187665521
 30
0.0
 11
12.21504489396436
 21
22.09515457246725
 31
0.0
  0
LINE
  5
32C
330
6B
100
AcDbEntity
  8
0
100
AcDbLine
 10
13.427715315111
 20
20.79086841268027
 30
0.0
 11
13.41929937672148
 21
20.4139214241328
 31
0.0
  0
LINE
  5
32D
330
6B
100
AcDbEntity
  8
0
100
AcDbLine
 10
11.73815389402737
 20
22.35113912777617
 30
0.0
 11
11.73765879999708
 21
22.72613880095189
 31
0.0
  0
LINE
  5
32E
330
6B
100
AcDbEntity
  8
0
100
AcDbLine
 10
12.21504489396436
 20
22.09515457246725
 30
0.0
 11
11.7386472873835
 21
21.88575260660214
 31
0.0
  0
LINE
  5
32F
330
6B
100
AcDbEntity
  8
0
100
AcDbLine
 10
11.7386472873835
 20
21.88575260660214
 30
0.0
 11
11.73902030858037
 21
21.69488969971865
 31
0.0
  0
LINE
  5
330
330
6B
100
AcDbEntity
  8
0
100
AcDbLine
 10
11.7391853399238
 20
21.56988980866007
 30
0.0
 11
11.73930911343137
 21
21.47613989036614
 31
0.0
  0
POINT
  5
331
330
6B
100
AcDbEntity
  8
0
100
AcDbPoint
 10
11.77598071180668
 20
22.0820484824533
 30
0.0
  0
POINT
  5
332
330
6B
100
AcDbEntity
  8
0
100
AcDbPoint
 10
11.77174866762405
 20
22.12379748970715
 30
0.0
  0
POINT
  5
333
330
6B
100
AcDbEntity
  8
0
100
AcDbPoint
 10
11.73877276156523
 20
21.88238953630651
 30
0.0
  0
LINE
  5
334
330
6B
100
AcDbEntity
  8
0
100
AcDbLine
 10
11.7386472873835
 20
21.88575260660214
 30
0.0
 11
11.7383189253708
 21
22.22613923671759
 31
0.0
  0
LINE
  5
335
330
6B
100
AcDbEntity
  8
0
100
AcDbLine
 10
12.30194253783312
 20
22.13288327993772
 30
0.0
 11
12.36950372198584
 21
22.16216583724538
 31
0.0
  0
LINE
  5
336
330
6B
100
AcDbEntity
  8
0
100
AcDbLine
 10
13.42265229535322
 20
27.35311448611495
 30
0.0
 11
13.41929937672148
 21
27.16536285710338
 31
0.0
  0
LINE
  5
337
330
6B
100
AcDbEntity
  8
0
100
AcDbLine
 10
13.23105133342887
 20
27.35311448611495
 30
0.0
 11
13.42265229535322
 21
27.35311448611495
 31
0.0
  0
ENDBLK
  5
338
330
6B
100
AcDbEntity
  8
0
100
AcDbBlockEnd
  0
BLOCK
  5
339
330
A0
100
AcDbEntity
  8
0
100
AcDbBlockBegin
  2
*D1
 70
     1
 10
0.0
 20
0.0
 30
0.0
  3
*D1
  1

  0
LINE
  5
33A
330
A0
100
AcDbEntity
  8
0
  6
BYBLOCK
 62
     0
100
AcDbLine
 10
-44.98488906312917
 20
60.55930166386932
 30
0.0
 11
-43.75324719650484
 21
60.55930166386932
 31
0.0
  0
LINE
  5
33B
330
A0
100
AcDbEntity
  8
0
  6
BYBLOCK
 62
     0
100
AcDbLine
 10
-44.98488906312917
 20
87.55930166386932
 30
0.0
 11
-43.75324719650484
 21
87.55930166386932
 31
0.0
  0
LINE
  5
33C
330
A0
100
AcDbEntity
  8
0
  6
BYBLOCK
 62
     0
100
AcDbLine
 10
-43.93324719650484
 20
60.55930166386932
 30
0.0
 11
-43.93324719650484
 21
73.83013499720265
 31
0.0
  0
LINE
  5
33D
330
A0
100
AcDbEntity
  8
0
  6
BYBLOCK
 62
     0
100
AcDbLine
 10
-43.93324719650484
 20
87.55930166386932
 30
0.0
 11
-43.93324719650484
 21
74.28846833053599
 31
0.0
  0
LINE
  5
33E
330
A0
100
AcDbEntity
  8
0
  6
BYBLOCK
 62
     0
100
AcDbLine
 10
-43.80824719650484
 20
60.43430166386933
 30
0.0
 11
-44.05824719650484
 21
60.68430166386932
 31
0.0
  0
LINE
  5
33F
330
A0
100
AcDbEntity
  8
0
  6
BYBLOCK
 62
     0
100
AcDbLine
 10
-43.80824719650484
 20
87.43430166386932
 30
0.0
 11
-44.05824719650484
 21
87.68430166386933
 31
0.0
  0
TEXT
  5
340
330
A0
100
AcDbEntity
  8
0
  6
BYBLOCK
 62
     0
100
AcDbText
 10
-43.87074719650484
 20
73.95513499720265
 30
0.0
 40
0.125
  1
27
 50
90.0
 72
     1
 11
-43.93324719650484
 21
74.05930166386932
 31
0.0
100
AcDbText
 73
     2
  0
POINT
  5
341
330
A0
100
AcDbEntity
  8
DEFPOINTS
  6
BYBLOCK
 62
     0
100
AcDbPoint
 10
-45.04738906312917
 20
60.55930166386932
 30
0.0
  0
POINT
  5
342
330
A0
100
AcDbEntity
  8
DEFPOINTS
  6
BYBLOCK
 62
     0
100
AcDbPoint
 10
-45.04738906312917
 20
87.55930166386932
 30
0.0
  0
POINT
  5
343
330
A0
100
AcDbEntity
  8
DEFPOINTS
  6
BYBLOCK
 62
     0
100
AcDbPoint
 10
-43.93324719650484
 20
87.55930166386932
 30
0.0
  0
ENDBLK
  5
344
330
A0
100
AcDbEntity
  8
0
100
AcDbBlockEnd
  0
BLOCK
  5
345
330
A1
100
AcDbEntity
  8
0
100
AcDbBlockBegin
  2
*D2
 70
     1
 10
0.0
 20
0.0
 30
0.0
  3
*D2
  1

  0
LINE
  5
346
330
A1
100
AcDbEntity
  8
0
  6
BYBLOCK
 62
     0
100
AcDbLine
 10
-63.7852299137366
 20
87.9620952600252
 30
0.0
 11
-63.7852299137366
 21
88.68715730270597
 31
0.0
  0
LINE
  5
347
330
A1
100
AcDbEntity
  8
0
  6
BYBLOCK
 62
     0
100
AcDbLine
 10
-50.28522991373661
 20
87.9620952600252
 30
0.0
 11
-50.28522991373661
 21
88.68715730270597
 31
0.0
  0
LINE
  5
348
330
A1
100
AcDbEntity
  8
0
  6
BYBLOCK
 62
     0
100
AcDbLine
 10
-63.7852299137366
 20
88.50715730270596
 30
0.0
 11
-57.47272991373661
 21
88.50715730270596
 31
0.0
  0
LINE
  5
349
330
A1
100
AcDbEntity
  8
0
  6
BYBLOCK
 62
     0
100
AcDbLine
 10
-50.28522991373661
 20
88.50715730270596
 30
0.0
 11
-56.5977299137366
 21
88.50715730270596
 31
0.0
  0
LINE
  5
34A
330
A1
100
AcDbEntity
  8
0
  6
BYBLOCK
 62
     0
100
AcDbLine
 10
-63.9102299137366
 20
88.38215730270595
 30
0.0
 11
-63.66022991373661
 21
88.63215730270596
 31
0.0
  0
LINE
  5
34B
330
A1
100
AcDbEntity
  8
0
  6
BYBLOCK
 62
     0
100
AcDbLine
 10
-50.41022991373661
 20
88.38215730270595
 30
0.0
 11
-50.1602299137366
 21
88.63215730270596
 31
0.0
  0
TEXT
  5
34C
330
A1
100
AcDbEntity
  8
0
  6
BYBLOCK
 62
     0
100
AcDbText
 10
-57.3477299137366
 20
88.44465730270597
 30
0.0
 40
0.125
  1
13 1/2
 72
     1
 11
-57.0352299137366
 21
88.50715730270596
 31
0.0
100
AcDbText
 73
     2
  0
POINT
  5
34D
330
A1
100
AcDbEntity
  8
DEFPOINTS
  6
BYBLOCK
 62
     0
100
AcDbPoint
 10
-63.7852299137366
 20
87.89959526002521
 30
0.0
  0
POINT
  5
34E
330
A1
100
AcDbEntity
  8
DEFPOINTS
  6
BYBLOCK
 62
     0
100
AcDbPoint
 10
-50.28522991373661
 20
87.89959526002521
 30
0.0
  0
POINT
  5
34F
330
A1
100
AcDbEntity
  8
DEFPOINTS
  6
BYBLOCK
 62
     0
100
AcDbPoint
 10
-50.28522991373661
 20
88.50715730270596
 30
0.0
  0
ENDBLK
  5
350
330
A1
100
AcDbEntity
  8
0
100
AcDbBlockEnd
  0
ENDSEC
  0
SECTION
  2
ENTITIES
  0
DIMENSION
  5
351
330
18
100
AcDbEntity
  8
ADPDIM
100
AcDbDimension
  2
*D1
 10
-49.18978377094447
 20
87.57497825493421
 30
0.0
 11
-49.18978377094447
 21
74.07497825493422
 31
0.0
 12
-5.256536574439621
 22
0.0156765910648957
 32
0.0
100
AcDbAlignedDimension
 13
-50.3039256375688
 23
60.57497825493422
 33
0.0
 14
-50.3039256375688
 24
87.57497825493421
 34
0.0
 50
90.0
100
AcDbRotatedDimension
  0
INSERT
  5
352
330
18
100
AcDbEntity
  8
ADP1DETAIL
100
AcDbBlockReference
  2
583
 10
-63.72657793292201
 20
60.2610425884382
 30
0.0
  0
DIMENSION
  5
353
330
18
100
AcDbEntity
  8
ADPDIM
100
AcDbDimension
  2
*D2
 10
-50.30730771829983
 20
88.20981034338075
 30
0.0
 11
-57.05730771829983
 21
88.20981034338075
 31
0.0
 12
-0.0220778045632244
 22
-0.2973469593252105
 32
0.0
100
AcDbAlignedDimension
 13
-63.80730771829983
 23
87.60224830069999
 33
0.0
 14
-50.30730771829983
 24
87.60224830069999
 34
0.0
100
AcDbRotatedDimension
  0
TEXT
  5
361
330
18
100
AcDbEntity
  8
ADPDIM
100
AcDbText
 10
-82.18233668251313
 20
59.1009385524732
 30
0.0
 40
0.5
  1
J U L I U S  B L U M  &  C O . ,  I N C .      ( 8 0 0 )  5 2 6 - 6 2 9 3        W W W . J U L I U S B L U M . C O M        P A R T  N o .  5 8 3
 41
1.25
  7
ARIAL_WIDE
 72
     1
 11
-56.44350653244493
 21
59.6009385524732
 31
0.0
100
AcDbText
 73
     3
  0
ENDSEC
  0
SECTION
  2
OBJECTS
  0
DICTIONARY
  5
C
330
0
100
AcDbDictionary
  3
ACAD_GROUP
350
D
  3
ACAD_LAYOUT
350
35A
  3
ACAD_MLINESTYLE
350
E
  3
ACAD_PLOTSETTINGS
350
35B
  3
ACAD_PLOTSTYLENAME
350
358
  3
ACDBHEADERROUNDTRIPXREC
350
4A5
  3
ACDBVARIABLEDICTIONARY
350
3BB
  0
DICTIONARY
  5
3B5
330
18
100
AcDbDictionary
280
     1
  3
ACAD_LAYOUTSELFREF
360
4C6
  0
DICTIONARY
  5
3B3
330
15
100
AcDbDictionary
280
     1
  3
ACAD_LAYOUTSELFREF
360
4C5
  0
DICTIONARY
  5
D
102
{ACAD_REACTORS
330
C
102
}
330
C
100
AcDbDictionary
  0
DICTIONARY
  5
35A
102
{ACAD_REACTORS
330
C
102
}
330
C
100
AcDbDictionary
  0
DICTIONARY
  5
E
102
{ACAD_REACTORS
330
C
102
}
330
C
100
AcDbDictionary
  3
STANDARD
350
1B
  0
DICTIONARY
  5
35B
102
{ACAD_REACTORS
330
C
102
}
330
C
100
AcDbDictionary
  0
ACDBDICTIONARYWDFLT
  5
358
102
{ACAD_REACTORS
330
C
102
}
330
C
100
AcDbDictionary
281
     1
  3
Normal
350
359
100
AcDbDictionaryWithDefault
340
359
  0
DICTIONARY
  5
4A5
102
{ACAD_REACTORS
330
C
102
}
330
C
100
AcDbDictionary
  3
CEPSNTYPE
350
4AF
  3
FINGERPRINTGUID
350
4B0
  3
HYPERLINKBASE
350
4A8
  3
INSUNITS
350
4AE
  3
LAYOUTDICT
350
4AA
  3
LWETCUNION
350
4AD
  3
PLOTSETDICT
350
4AB
  3
PLOTSTYLNAMDICT
350
4AC
  3
PSVPSCALE
350
4B2
  3
PUCSBASE
350
4B5
  3
PUCSORGBACK
350
4BB
  3
PUCSORGBOTTOM
350
4B7
  3
PUCSORGFRONT
350
4BA
  3
PUCSORGLEFT
350
4B8
  3
PUCSORGRIGHT
350
4B9
  3
PUCSORGTOP
350
4B6
  3
PUCSORTHOREF
350
4B3
  3
PUCSORTHOVIEW
350
4B4
  3
STYLESHEET
350
4A9
  3
TSTACKALIGN
350
4A6
  3
TSTACKSIZE
350
4A7
  3
UCSBASE
350
4BE
  3
UCSORGBACK
350
4C4
  3
UCSORGBOTTOM
350
4C0
  3
UCSORGFRONT
350
4C3
  3
UCSORGLEFT
350
4C1
  3
UCSORGRIGHT
350
4C2
  3
UCSORGTOP
350
4BF
  3
UCSORTHOREF
350
4BC
  3
UCSORTHOVIEW
350
4BD
  3
VERSIONGUID
350
4B1
  0
DICTIONARY
  5
3BB
102
{ACAD_REACTORS
330
C
102
}
330
C
100
AcDbDictionary
  3
DIMASSOC
350
3BC
  0
XRECORD
  5
4C6
102
{ACAD_REACTORS
330
3B5
102
}
330
3B5
100
AcDbXrecord
340
18
  0
XRECORD
  5
4C5
102
{ACAD_REACTORS
330
3B3
102
}
330
3B3
100
AcDbXrecord
340
15
  0
MLINESTYLE
  5
1B
102
{ACAD_REACTORS
330
E
102
}
330
E
100
AcDbMlineStyle
  2
STANDARD
 70
     0
  3

 62
     0
 51
90.0
 52
90.0
 71
     2
 49
0.5
 62
   256
  6
BYLAYER
 49
-0.5
 62
   256
  6
BYLAYER
  0
ACDBPLACEHOLDER
  5
359
102
{ACAD_REACTORS
330
358
102
}
330
358
100
AcDbPlaceHolder
280
     0
  0
XRECORD
  5
4AF
102
{ACAD_REACTORS
330
4A5
102
}
330
4A5
100
AcDbXrecord
 90
        0
  0
XRECORD
  5
4B0
102
{ACAD_REACTORS
330
4A5
102
}
330
4A5
100
AcDbXrecord
  1
{ABDFBA86-D5C4-4B0B-A37A-DFC7F4F65300}
  0
XRECORD
  5
4A8
102
{ACAD_REACTORS
330
4A5
102
}
330
4A5
100
AcDbXrecord
  1

  0
XRECORD
  5
4AE
102
{ACAD_REACTORS
330
4A5
102
}
330
4A5
100
AcDbXrecord
 90
        0
  0
XRECORD
  5
4AA
102
{ACAD_REACTORS
330
4A5
102
}
330
4A5
100
AcDbXrecord
340
35A
  0
XRECORD
  5
4AD
102
{ACAD_REACTORS
330
4A5
102
}
330
4A5
100
AcDbXrecord
 90
    14877
  0
XRECORD
  5
4AB
102
{ACAD_REACTORS
330
4A5
102
}
330
4A5
100
AcDbXrecord
340
35B
  0
XRECORD
  5
4AC
102
{ACAD_REACTORS
330
4A5
102
}
330
4A5
100
AcDbXrecord
340
358
  0
XRECORD
  5
4B2
102
{ACAD_REACTORS
330
4A5
102
}
330
4A5
100
AcDbXrecord
 40
0.0
  0
XRECORD
  5
4B5
102
{ACAD_REACTORS
330
4A5
102
}
330
4A5
100
AcDbXrecord
340
0
  0
XRECORD
  5
4BB
102
{ACAD_REACTORS
330
4A5
102
}
330
4A5
100
AcDbXrecord
 10
0.0
 20
0.0
 30
0.0
  0
XRECORD
  5
4B7
102
{ACAD_REACTORS
330
4A5
102
}
330
4A5
100
AcDbXrecord
 10
0.0
 20
0.0
 30
0.0
  0
XRECORD
  5
4BA
102
{ACAD_REACTORS
330
4A5
102
}
330
4A5
100
AcDbXrecord
 10
0.0
 20
0.0
 30
0.0
  0
XRECORD
  5
4B8
102
{ACAD_REACTORS
330
4A5
102
}
330
4A5
100
AcDbXrecord
 10
0.0
 20
0.0
 30
0.0
  0
XRECORD
  5
4B9
102
{ACAD_REACTORS
330
4A5
102
}
330
4A5
100
AcDbXrecord
 10
0.0
 20
0.0
 30
0.0
  0
XRECORD
  5
4B6
102
{ACAD_REACTORS
330
4A5
102
}
330
4A5
100
AcDbXrecord
 10
0.0
 20
0.0
 30
0.0
  0
XRECORD
  5
4B3
102
{ACAD_REACTORS
330
4A5
102
}
330
4A5
100
AcDbXrecord
340
0
  0
XRECORD
  5
4B4
102
{ACAD_REACTORS
330
4A5
102
}
330
4A5
100
AcDbXrecord
 70
     0
  0
XRECORD
  5
4A9
102
{ACAD_REACTORS
330
4A5
102
}
330
4A5
100
AcDbXrecord
  1

  0
XRECORD
  5
4A6
102
{ACAD_REACTORS
330
4A5
102
}
330
4A5
100
AcDbXrecord
 90
        1
  0
XRECORD
  5
4A7
102
{ACAD_REACTORS
330
4A5
102
}
330
4A5
100
AcDbXrecord
 90
       70
  0
XRECORD
  5
4BE
102
{ACAD_REACTORS
330
4A5
102
}
330
4A5
100
AcDbXrecord
340
0
  0
XRECORD
  5
4C4
102
{ACAD_REACTORS
330
4A5
102
}
330
4A5
100
AcDbXrecord
 10
0.0
 20
0.0
 30
0.0
  0
XRECORD
  5
4C0
102
{ACAD_REACTORS
330
4A5
102
}
330
4A5
100
AcDbXrecord
 10
0.0
 20
0.0
 30
0.0
  0
XRECORD
  5
4C3
102
{ACAD_REACTORS
330
4A5
102
}
330
4A5
100
AcDbXrecord
 10
0.0
 20
0.0
 30
0.0
  0
XRECORD
  5
4C1
102
{ACAD_REACTORS
330
4A5
102
}
330
4A5
100
AcDbXrecord
 10
0.0
 20
0.0
 30
0.0
  0
XRECORD
  5
4C2
102
{ACAD_REACTORS
330
4A5
102
}
330
4A5
100
AcDbXrecord
 10
0.0
 20
0.0
 30
0.0
  0
XRECORD
  5
4BF
102
{ACAD_REACTORS
330
4A5
102
}
330
4A5
100
AcDbXrecord
 10
0.0
 20
0.0
 30
0.0
  0
XRECORD
  5
4BC
102
{ACAD_REACTORS
330
4A5
102
}
330
4A5
100
AcDbXrecord
340
0
  0
XRECORD
  5
4BD
102
{ACAD_REACTORS
330
4A5
102
}
330
4A5
100
AcDbXrecord
 70
     0
  0
XRECORD
  5
4B1
102
{ACAD_REACTORS
330
4A5
102
}
330
4A5
100
AcDbXrecord
  1
{DD5139E8-A81B-49CD-91A9-BFEACBE539F5}
  0
DICTIONARYVAR
  5
3BC
102
{ACAD_REACTORS
330
3BB
102
}
330
3BB
100
DictionaryVariables
280
     0
  1
1
  0
ENDSEC
  0
EOF
