  0
SECTION
  2
HEADER
  9
$ACADVER
  1
AC1014
  9
$ACADMAINTVER
 70
     9
  9
$DWGCODEPAGE
  3
ANSI_1252
  9
$INSBASE
 10
-6.335535302493386
 20
-3.291816376259053
 30
0.0
  9
$EXTMIN
 10
-22.55712885166416
 20
-4.900126371756659
 30
0.0
  9
$EXTMAX
 10
3.181701298404053
 20
4.923327184541058
 30
0.0
  9
$LIMMIN
 10
0.0
 20
0.0
  9
$LIMMAX
 10
36.0
 20
36.0
  9
$ORTHOMODE
 70
     1
  9
$REGENMODE
 70
     1
  9
$FILLMODE
 70
     1
  9
$QTEXTMODE
 70
     0
  9
$MIRRTEXT
 70
     1
  9
$DRAGMODE
 70
     0
  9
$LTSCALE
 40
1.0
  9
$OSMODE
 70
    37
  9
$ATTMODE
 70
     1
  9
$TEXTSIZE
 40
0.2
  9
$TRACEWID
 40
0.05
  9
$TEXTSTYLE
  7
STANDARD
  9
$CLAYER
  8
ADPDIM
  9
$CELTYPE
  6
BYLAYER
  9
$CECOLOR
 62
   256
  9
$CELTSCALE
 40
1.0
  9
$DELOBJ
 70
     1
  9
$DISPSILH
 70
     0
  9
$DIMSCALE
 40
1.0
  9
$DIMASZ
 40
0.125
  9
$DIMEXO
 40
0.0625
  9
$DIMDLI
 40
0.38
  9
$DIMRND
 40
0.0
  9
$DIMDLE
 40
0.0
  9
$DIMEXE
 40
0.18
  9
$DIMTP
 40
0.0
  9
$DIMTM
 40
0.0
  9
$DIMTXT
 40
0.125
  9
$DIMCEN
 40
0.1875
  9
$DIMTSZ
 40
0.125
  9
$DIMTOL
 70
     0
  9
$DIMLIM
 70
     0
  9
$DIMTIH
 70
     0
  9
$DIMTOH
 70
     0
  9
$DIMSE1
 70
     0
  9
$DIMSE2
 70
     0
  9
$DIMTAD
 70
     0
  9
$DIMZIN
 70
     3
  9
$DIMBLK
  1

  9
$DIMASO
 70
     1
  9
$DIMSHO
 70
     1
  9
$DIMPOST
  1

  9
$DIMAPOST
  1

  9
$DIMALT
 70
     0
  9
$DIMALTD
 70
     1
  9
$DIMALTF
 40
25.4
  9
$DIMLFAC
 40
1.0
  9
$DIMTOFL
 70
     0
  9
$DIMTVP
 40
0.0
  9
$DIMTIX
 70
     0
  9
$DIMSOXD
 70
     0
  9
$DIMSAH
 70
     0
  9
$DIMBLK1
  1

  9
$DIMBLK2
  1

  9
$DIMSTYLE
  2
STANDARD
  9
$DIMCLRD
 70
     0
  9
$DIMCLRE
 70
     0
  9
$DIMCLRT
 70
     0
  9
$DIMTFAC
 40
1.0
  9
$DIMGAP
 40
0.125
  9
$DIMJUST
 70
     0
  9
$DIMSD1
 70
     0
  9
$DIMSD2
 70
     0
  9
$DIMTOLJ
 70
     1
  9
$DIMTZIN
 70
     3
  9
$DIMALTZ
 70
     3
  9
$DIMALTTZ
 70
     3
  9
$DIMFIT
 70
     5
  9
$DIMUPT
 70
     0
  9
$DIMUNIT
 70
     5
  9
$DIMDEC
 70
     5
  9
$DIMTDEC
 70
     5
  9
$DIMALTU
 70
     5
  9
$DIMALTTD
 70
     1
  9
$DIMTXSTY
  7
STANDARD
  9
$DIMAUNIT
 70
     0
  9
$LUNITS
 70
     5
  9
$LUPREC
 70
     5
  9
$SKETCHINC
 40
0.1
  9
$FILLETRAD
 40
0.062
  9
$AUNITS
 70
     0
  9
$AUPREC
 70
     0
  9
$MENU
  1
acad
  9
$ELEVATION
 40
0.0
  9
$PELEVATION
 40
0.0
  9
$THICKNESS
 40
0.0
  9
$LIMCHECK
 70
     0
  9
$BLIPMODE
 70
     0
  9
$CHAMFERA
 40
0.0
  9
$CHAMFERB
 40
0.0
  9
$CHAMFERC
 40
0.0
  9
$CHAMFERD
 40
0.0
  9
$SKPOLY
 70
     0
  9
$TDCREATE
 40
2450409.428142164
  9
$TDUPDATE
 40
2452297.073379988
  9
$TDINDWG
 40
0.0120636343
  9
$TDUSRTIMER
 40
0.0120636343
  9
$USRTIMER
 70
     1
  9
$ANGBASE
 50
0.0
  9
$ANGDIR
 70
     0
  9
$PDMODE
 70
     0
  9
$PDSIZE
 40
0.0
  9
$PLINEWID
 40
0.0
  9
$COORDS
 70
     2
  9
$SPLFRAME
 70
     0
  9
$SPLINETYPE
 70
     6
  9
$SPLINESEGS
 70
     8
  9
$ATTDIA
 70
     0
  9
$ATTREQ
 70
     1
  9
$HANDLING
 70
 22529
  9
$HANDSEED
  5
390
  9
$SURFTAB1
 70
     6
  9
$SURFTAB2
 70
     6
  9
$SURFTYPE
 70
     6
  9
$SURFU
 70
     6
  9
$SURFV
 70
     6
  9
$UCSNAME
  2

  9
$UCSORG
 10
0.0
 20
0.0
 30
0.0
  9
$UCSXDIR
 10
1.0
 20
0.0
 30
0.0
  9
$UCSYDIR
 10
0.0
 20
1.0
 30
0.0
  9
$PUCSNAME
  2

  9
$PUCSORG
 10
0.0
 20
0.0
 30
0.0
  9
$PUCSXDIR
 10
1.0
 20
0.0
 30
0.0
  9
$PUCSYDIR
 10
0.0
 20
1.0
 30
0.0
  9
$USERI1
 70
     0
  9
$USERI2
 70
     0
  9
$USERI3
 70
     0
  9
$USERI4
 70
     0
  9
$USERI5
 70
     0
  9
$USERR1
 40
0.0
  9
$USERR2
 40
0.0
  9
$USERR3
 40
0.0
  9
$USERR4
 40
0.0
  9
$USERR5
 40
0.0
  9
$WORLDVIEW
 70
     1
  9
$SHADEDGE
 70
     3
  9
$SHADEDIF
 70
    70
  9
$TILEMODE
 70
     1
  9
$MAXACTVP
 70
    15
  9
$PINSBASE
 10
0.0058594681322575
 20
8.002266177471257
 30
0.0
  9
$PLIMCHECK
 70
     0
  9
$PEXTMIN
 10
1.000000000000000E+20
 20
1.000000000000000E+20
 30
1.000000000000000E+20
  9
$PEXTMAX
 10
-1.000000000000000E+20
 20
-1.000000000000000E+20
 30
-1.000000000000000E+20
  9
$PLIMMIN
 10
0.0
 20
0.0
  9
$PLIMMAX
 10
12.0
 20
9.0
  9
$UNITMODE
 70
     0
  9
$VISRETAIN
 70
     0
  9
$PLINEGEN
 70
     0
  9
$PSLTSCALE
 70
     1
  9
$TREEDEPTH
 70
  3020
  9
$PICKSTYLE
 70
     1
  9
$CMLSTYLE
  2
STANDARD
  9
$CMLJUST
 70
     0
  9
$CMLSCALE
 40
1.0
  9
$PROXYGRAPHICS
 70
     1
  9
$MEASUREMENT
 70
     0
  0
ENDSEC
  0
SECTION
  2
CLASSES
  0
CLASS
  1
ACDBDICTIONARYWDFLT
  2
AcDbDictionaryWithDefault
  3
AutoCAD 2000
 90
        0
280
     0
281
     0
  0
CLASS
  1
ACDBPLACEHOLDER
  2
AcDbPlaceHolder
  3
AutoCAD 2000
 90
        0
280
     0
281
     0
  0
CLASS
  1
LAYOUT
  2
AcDbLayout
  3
AutoCAD 2000
 90
        0
280
     0
281
     0
  0
CLASS
  1
DICTIONARYVAR
  2
AcDbDictionaryVar
  3
AutoCAD 2000
 90
        0
280
     0
281
     0
  0
CLASS
  1
LONG_TRANSACTION
  2
AcDbLongTransaction
  3
AutoCAD 2000
 90
        0
280
     0
281
     0
  0
CLASS
  1
LWPOLYLINE
  2
AcDbPolyline
  3
AutoCAD 2000
 90
        0
280
     0
281
     1
  0
CLASS
  1
HATCH
  2
AcDbHatch
  3
AutoCAD 2000
 90
        0
280
     0
281
     1
  0
CLASS
  1
XRECORD
  2
AcDbXrecord
  3
AutoCAD 2000
 90
        0
280
     0
281
     0
  0
CLASS
  1
LONG_TRANSACTION
  2
AcDbLongTransaction
  3
AutoCAD 2000
 90
        0
280
     0
281
     0
  0
CLASS
  1
LWPOLYLINE
  2
AcDbPolyline
  3
AutoCAD 2000
 90
        0
280
     0
281
     1
  0
CLASS
  1
HATCH
  2
AcDbHatch
  3
AutoCAD 2000
 90
        0
280
     0
281
     1
  0
CLASS
  1
XRECORD
  2
AcDbXrecord
  3
AutoCAD 2000
 90
        0
280
     0
281
     0
  0
CLASS
  1
LONG_TRANSACTION
  2
AcDbLongTransaction
  3
AutoCAD 2000
 90
        0
280
     0
281
     0
  0
CLASS
  1
LWPOLYLINE
  2
AcDbPolyline
  3
AutoCAD 2000
 90
        0
280
     0
281
     1
  0
CLASS
  1
HATCH
  2
AcDbHatch
  3
AutoCAD 2000
 90
        0
280
     0
281
     1
  0
CLASS
  1
XRECORD
  2
AcDbXrecord
  3
AutoCAD 2000
 90
        0
280
     0
281
     0
  0
CLASS
  1
LONG_TRANSACTION
  2
AcDbLongTransaction
  3
AutoCAD 2000
 90
        0
280
     0
281
     0
  0
CLASS
  1
LWPOLYLINE
  2
AcDbPolyline
  3
AutoCAD 2000
 90
        0
280
     0
281
     1
  0
CLASS
  1
HATCH
  2
AcDbHatch
  3
AutoCAD 2000
 90
        0
280
     0
281
     1
  0
CLASS
  1
XRECORD
  2
AcDbXrecord
  3
AutoCAD 2000
 90
        0
280
     0
281
     0
  0
CLASS
  1
LONG_TRANSACTION
  2
AcDbLongTransaction
  3
AutoCAD 2000
 90
        0
280
     0
281
     0
  0
CLASS
  1
LWPOLYLINE
  2
AcDbPolyline
  3
AutoCAD 2000
 90
        0
280
     0
281
     1
  0
CLASS
  1
HATCH
  2
AcDbHatch
  3
AutoCAD 2000
 90
        0
280
     0
281
     1
  0
CLASS
  1
XRECORD
  2
AcDbXrecord
  3
AutoCAD 2000
 90
        0
280
     0
281
     0
  0
ENDSEC
  0
SECTION
  2
TABLES
  0
TABLE
  2
VPORT
  5
8
330
0
100
AcDbSymbolTable
 70
     2
  0
VPORT
  5
36C
330
8
100
AcDbSymbolTableRecord
100
AcDbViewportTableRecord
  2
*ACTIVE
 70
     0
 10
0.0
 20
0.0
 11
1.0
 21
1.0
 12
-9.667903145389198
 22
0.0115871563810099
 13
0.0
 23
0.0
 14
0.5740882589684922
 24
0.5740882589684922
 15
0.5
 25
0.5
 16
0.0
 26
0.0
 36
1.0
 17
0.0
 27
0.0
 37
0.0
 40
16.49632024848103
 41
1.570528967254408
 42
50.0
 43
0.0
 44
0.0
 50
0.0
 51
0.0
 71
     0
 72
   100
 73
     1
 74
     0
 75
     0
 76
     0
 77
     0
 78
     0
  0
ENDTAB
  0
TABLE
  2
LTYPE
  5
5
330
0
100
AcDbSymbolTable
 70
     1
  0
LTYPE
  5
13
330
5
100
AcDbSymbolTableRecord
100
AcDbLinetypeTableRecord
  2
BYBLOCK
 70
     0
  3

 72
    65
 73
     0
 40
0.0
  0
LTYPE
  5
14
330
5
100
AcDbSymbolTableRecord
100
AcDbLinetypeTableRecord
  2
BYLAYER
 70
     0
  3

 72
    65
 73
     0
 40
0.0
  0
LTYPE
  5
15
330
5
100
AcDbSymbolTableRecord
100
AcDbLinetypeTableRecord
  2
CONTINUOUS
 70
     0
  3
Solid line
 72
    65
 73
     0
 40
0.0
  0
ENDTAB
  0
TABLE
  2
LAYER
  5
2
330
0
100
AcDbSymbolTable
 70
     4
  0
LAYER
  5
10
330
2
100
AcDbSymbolTableRecord
100
AcDbLayerTableRecord
  2
0
 70
     0
 62
     7
  6
CONTINUOUS
  0
LAYER
  5
25
330
2
100
AcDbSymbolTableRecord
100
AcDbLayerTableRecord
  2
DEFPOINTS
 70
     0
 62
     7
  6
CONTINUOUS
  0
LAYER
  5
26
330
2
100
AcDbSymbolTableRecord
100
AcDbLayerTableRecord
  2
ADPDIM
 70
     0
 62
     3
  6
CONTINUOUS
  0
LAYER
  5
27
330
2
100
AcDbSymbolTableRecord
100
AcDbLayerTableRecord
  2
ADP1DETAIL
 70
     0
 62
     7
  6
CONTINUOUS
  0
ENDTAB
  0
TABLE
  2
STYLE
  5
3
330
0
100
AcDbSymbolTable
 70
     2
  0
STYLE
  5
11
330
3
100
AcDbSymbolTableRecord
100
AcDbTextStyleTableRecord
  2
STANDARD
 70
     0
 40
0.0
 41
1.0
 50
0.0
 71
     0
 42
0.2
  3
txt
  4

  0
STYLE
  5
1D9
330
3
100
AcDbSymbolTableRecord
100
AcDbTextStyleTableRecord
  2
ARIAL_WIDE
 70
     0
 40
0.0
 41
1.25
 50
0.0
 71
     0
 42
0.2
  3
ARIAL.TTF
  4

1001
ACAD
1000
Arial
1071
       34
  0
ENDTAB
  0
TABLE
  2
VIEW
  5
6
330
0
100
AcDbSymbolTable
 70
     0
  0
ENDTAB
  0
TABLE
  2
UCS
  5
7
330
0
100
AcDbSymbolTable
 70
     0
  0
ENDTAB
  0
TABLE
  2
APPID
  5
9
330
0
100
AcDbSymbolTable
 70
     1
  0
APPID
  5
12
330
9
100
AcDbSymbolTableRecord
100
AcDbRegAppTableRecord
  2
ACAD
 70
     0
  0
ENDTAB
  0
TABLE
  2
DIMSTYLE
  5
A
330
0
100
AcDbSymbolTable
 70
     1
  0
DIMSTYLE
105
1D7
330
A
100
AcDbSymbolTableRecord
100
AcDbDimStyleTableRecord
  2
STANDARD
 70
     0
  3

  4

  5

  6

  7

 40
1.0
 41
0.18
 42
0.0625
 43
0.38
 44
0.18
 45
0.0
 46
0.0
 47
0.0
 48
0.0
140
0.18
141
0.09
142
0.0
143
25.4
144
1.0
145
0.0
146
1.0
147
0.09
 71
     0
 72
     0
 73
     1
 74
     1
 75
     0
 76
     0
 77
     0
 78
     0
170
     0
171
     2
172
     0
173
     0
174
     0
175
     0
176
     0
177
     0
178
     0
270
     2
271
     4
272
     4
273
     2
274
     2
340
11
275
     0
280
     0
281
     0
282
     0
283
     1
284
     0
285
     0
286
     0
287
     3
288
     0
  0
ENDTAB
  0
TABLE
  2
BLOCK_RECORD
  5
1
330
0
100
AcDbSymbolTable
 70
     2
  0
BLOCK_RECORD
  5
1E
102
{ACAD_XDICTIONARY
360
216
102
}
330
1
100
AcDbSymbolTableRecord
100
AcDbBlockTableRecord
  2
*MODEL_SPACE
  0
BLOCK_RECORD
  5
1A
102
{ACAD_XDICTIONARY
360
218
102
}
330
1
100
AcDbSymbolTableRecord
100
AcDbBlockTableRecord
  2
*PAPER_SPACE
  0
BLOCK_RECORD
  5
22
330
1
100
AcDbSymbolTableRecord
100
AcDbBlockTableRecord
  2
*D0
  0
BLOCK_RECORD
  5
23
330
1
100
AcDbSymbolTableRecord
100
AcDbBlockTableRecord
  2
*D1
  0
ENDTAB
  0
ENDSEC
  0
SECTION
  2
BLOCKS
  0
BLOCK
  5
2A
330
1E
100
AcDbEntity
  8
0
100
AcDbBlockBegin
  2
*MODEL_SPACE
 70
     0
 10
0.0
 20
0.0
 30
0.0
  3
*MODEL_SPACE
  1

  0
ENDBLK
  5
2B
330
1E
100
AcDbEntity
  8
0
100
AcDbBlockEnd
  0
BLOCK
  5
28
330
1A
100
AcDbEntity
 67
     1
  8
0
100
AcDbBlockBegin
  2
*PAPER_SPACE
 70
     0
 10
0.0
 20
0.0
 30
0.0
  3
*PAPER_SPACE
  1

  0
ENDBLK
  5
29
330
1A
100
AcDbEntity
 67
     1
  8
0
100
AcDbBlockEnd
  0
BLOCK
  5
2C
330
22
100
AcDbEntity
  8
0
100
AcDbBlockBegin
  2
*D0
 70
     1
 10
0.0
 20
0.0
 30
0.0
  3
*D0
  1

  0
LINE
  5
2D
330
22
100
AcDbEntity
  8
0
  6
BYBLOCK
 62
     0
100
AcDbLine
 10
-13.70890428916479
 20
-2.709942690710664
 30
0.0
 11
-13.70890428916479
 21
-3.829801819393679
 31
0.0
  0
LINE
  5
2E
330
22
100
AcDbEntity
  8
0
  6
BYBLOCK
 62
     0
100
AcDbLine
 10
-5.70890428916479
 20
3.805391925963781
 30
0.0
 11
-5.70890428916479
 21
-3.829801819393679
 31
0.0
  0
LINE
  5
2F
330
22
100
AcDbEntity
  8
0
  6
BYBLOCK
 62
     0
100
AcDbLine
 10
-13.70890428916479
 20
-3.649801819393679
 30
0.0
 11
-9.875570955831456
 21
-3.649801819393679
 31
0.0
  0
LINE
  5
30
330
22
100
AcDbEntity
  8
0
  6
BYBLOCK
 62
     0
100
AcDbLine
 10
-5.70890428916479
 20
-3.649801819393679
 30
0.0
 11
-9.542237622498124
 21
-3.649801819393679
 31
0.0
  0
LINE
  5
31
330
22
100
AcDbEntity
  8
0
  6
BYBLOCK
 62
     0
100
AcDbLine
 10
-13.83390428916479
 20
-3.774801819393679
 30
0.0
 11
-13.58390428916479
 21
-3.524801819393679
 31
0.0
  0
LINE
  5
32
330
22
100
AcDbEntity
  8
0
  6
BYBLOCK
 62
     0
100
AcDbLine
 10
-5.83390428916479
 20
-3.774801819393679
 30
0.0
 11
-5.58390428916479
 21
-3.524801819393679
 31
0.0
  0
TEXT
  5
33
330
22
100
AcDbEntity
  8
0
  6
BYBLOCK
 62
     0
100
AcDbText
 10
-9.750570955831456
 20
-3.712301819393679
 30
0.0
 40
0.125
  1
8
 72
     1
 11
-9.70890428916479
 21
-3.649801819393679
 31
0.0
100
AcDbText
 73
     2
  0
POINT
  5
35
330
22
100
AcDbEntity
  8
DEFPOINTS
  6
BYBLOCK
 62
     0
100
AcDbPoint
 10
-13.70890428916479
 20
-2.647442690710664
 30
0.0
  0
POINT
  5
36
330
22
100
AcDbEntity
  8
DEFPOINTS
  6
BYBLOCK
 62
     0
100
AcDbPoint
 10
-5.70890428916479
 20
3.867891925963781
 30
0.0
  0
POINT
  5
37
330
22
100
AcDbEntity
  8
DEFPOINTS
  6
BYBLOCK
 62
     0
100
AcDbPoint
 10
-5.70890428916479
 20
-3.649801819393679
 30
0.0
  0
ENDBLK
  5
38
330
22
100
AcDbEntity
  8
0
100
AcDbBlockEnd
  0
BLOCK
  5
39
330
23
100
AcDbEntity
  8
0
100
AcDbBlockBegin
  2
*D1
 70
     1
 10
0.0
 20
0.0
 30
0.0
  3
*D1
  1

  0
LINE
  5
3A
330
23
100
AcDbEntity
  8
0
  6
BYBLOCK
 62
     0
100
AcDbLine
 10
-6.237227700436162
 20
-3.291816376259053
 30
0.0
 11
-4.902273500577621
 21
-3.291816376259053
 31
0.0
  0
LINE
  5
3B
330
23
100
AcDbEntity
  8
0
  6
BYBLOCK
 62
     0
100
AcDbLine
 10
-9.40618969491209
 20
4.708183623740946
 30
0.0
 11
-4.902273500577621
 21
4.708183623740946
 31
0.0
  0
LINE
  5
3C
330
23
100
AcDbEntity
  8
0
  6
BYBLOCK
 62
     0
100
AcDbLine
 10
-5.08227350057762
 20
-3.291816376259053
 30
0.0
 11
-5.08227350057762
 21
0.5415169570742798
 31
0.0
  0
LINE
  5
3D
330
23
100
AcDbEntity
  8
0
  6
BYBLOCK
 62
     0
100
AcDbLine
 10
-5.08227350057762
 20
4.708183623740946
 30
0.0
 11
-5.08227350057762
 21
0.8748502904076129
 31
0.0
  0
LINE
  5
3E
330
23
100
AcDbEntity
  8
0
  6
BYBLOCK
 62
     0
100
AcDbLine
 10
-4.95727350057762
 20
-3.416816376259053
 30
0.0
 11
-5.20727350057762
 21
-3.166816376259053
 31
0.0
  0
LINE
  5
3F
330
23
100
AcDbEntity
  8
0
  6
BYBLOCK
 62
     0
100
AcDbLine
 10
-4.95727350057762
 20
4.583183623740946
 30
0.0
 11
-5.20727350057762
 21
4.833183623740946
 31
0.0
  0
TEXT
  5
40
330
23
100
AcDbEntity
  8
0
  6
BYBLOCK
 62
     0
100
AcDbText
 10
-5.01977350057762
 20
0.6665169570742798
 30
0.0
 40
0.125
  1
8
 50
90.0
 72
     1
 11
-5.08227350057762
 21
0.7081836237409464
 31
0.0
100
AcDbText
 73
     2
  0
POINT
  5
41
330
23
100
AcDbEntity
  8
DEFPOINTS
  6
BYBLOCK
 62
     0
100
AcDbPoint
 10
-6.299727700436162
 20
-3.291816376259053
 30
0.0
  0
POINT
  5
42
330
23
100
AcDbEntity
  8
DEFPOINTS
  6
BYBLOCK
 62
     0
100
AcDbPoint
 10
-9.46868969491209
 20
4.708183623740946
 30
0.0
  0
POINT
  5
43
330
23
100
AcDbEntity
  8
DEFPOINTS
  6
BYBLOCK
 62
     0
100
AcDbPoint
 10
-5.08227350057762
 20
4.708183623740946
 30
0.0
  0
ENDBLK
  5
44
330
23
100
AcDbEntity
  8
0
100
AcDbBlockEnd
  0
ENDSEC
  0
SECTION
  2
ENTITIES
  0
DIMENSION
  5
45
330
1E
100
AcDbEntity
  8
ADPDIM
100
AcDbDimension
  2
*D1
 10
-5.08227350057762
 20
4.708183623740946
 30
0.0
 11
-5.08227350057762
 21
0.7081836237409464
 31
0.0
100
AcDbAlignedDimension
 13
-6.299727700436162
 23
-3.291816376259053
 33
0.0
 14
-9.46868969491209
 24
4.708183623740946
 34
0.0
 50
90.0
100
AcDbRotatedDimension
  0
DIMENSION
  5
46
330
1E
100
AcDbEntity
  8
ADPDIM
100
AcDbDimension
  2
*D0
 10
-5.70890428916479
 20
-3.649801819393679
 30
0.0
 11
-9.70890428916479
 21
-3.649801819393679
 31
0.0
100
AcDbAlignedDimension
 13
-13.70890428916479
 23
-2.647442690710664
 33
0.0
 14
-5.70890428916479
 24
3.867891925963781
 34
0.0
100
AcDbRotatedDimension
  0
ARC
  5
47
330
1E
100
AcDbEntity
  8
ADP1DETAIL
100
AcDbCircle
 10
-6.6462136350033
 20
1.134420011775605
 30
0.0
 40
0.178456515869467
100
AcDbArc
 50
332.0215790012377
 51
39.78539337252515
  0
ARC
  5
48
330
1E
100
AcDbEntity
  8
ADP1DETAIL
100
AcDbCircle
 10
-6.679777534264183
 20
0.3820437043461811
 30
0.0
 40
0.2130864998472694
100
AcDbArc
 50
339.3811725960572
 51
20.61882740394294
  0
LWPOLYLINE
  5
49
330
1E
100
AcDbEntity
  8
ADP1DETAIL
100
AcDbPolyline
 90
       22
 70
     0
 43
0.0
 10
-9.478698586450356
 20
1.756985847522668
 42
0.970916181568398
 10
-9.492277647571762
 20
2.476722041441275
 42
0.4376526746001101
 10
-10.0354752916073
 20
2.001424591787666
 42
0.1616254371222025
 10
-9.85893576396926
 20
1.417487808877943
 42
0.1579046604232129
 10
-9.587337919706465
 20
1.213788203487127
 42
0.1582458080133526
 10
-8.758961414776768
 20
1.200208164610741
 42
0.4004766929707996
 10
-7.76762737659537
 20
2.531041219191842
 42
0.1766554743282956
 10
-8.487363570513975
 20
3.943354507031262
 42
-0.8503755059747277
 10
-8.772541453653156
 20
4.119893056914326
 42
-0.8564772262047165
 10
-8.500943609390361
 20
4.038413801410987
 42
-0.0755741227461296
 10
-7.658987065584279
 20
3.79397505714599
 42
0.0606769359057566
 10
-6.667653027402879
 20
3.40015686299572
 42
0.3896934458081654
 10
-5.717057150340684
 20
3.902614390402102
 42
0.8454400270081855
 10
-6.545433655270381
 20
4.364331801179324
 42
0.6959640606286834
 10
-6.219514677747066
 20
3.821135134898762
 42
-0.3055059305661095
 10
-6.450373383135679
 20
3.658175646137105
 42
-0.1776971493810713
 10
-7.197269654807057
 20
3.712495801642649
 42
0.0925589380396982
 10
-8.460203492761204
 20
4.092733956916533
 42
0.8091336526230417
 10
-8.840441648035087
 20
4.119893056914326
 42
0.7190409822523439
 10
-8.487363570513975
 20
3.87545431264933
 42
-0.2501015939786253
 10
-7.957745965354822
 20
2.137224002796549
 42
-0.6290658573730437
 10
-9.478698586450356
 20
1.743405808646282
 42
-0.2013524715242787
  0
LWPOLYLINE
  5
61
330
1E
100
AcDbEntity
  8
ADP1DETAIL
100
AcDbPolyline
 90
       22
 70
     0
 43
0.0
 10
-8.68822129724025
 20
0.5479612948395607
 42
0.970916181568398
 10
-7.968485103321645
 20
0.5615403559609696
 42
0.4376526746001101
 10
-8.443782552975253
 20
1.104737999996509
 42
0.1616254371222025
 10
-9.027719335884977
 20
0.9281984723584669
 42
0.1579046604232129
 10
-9.231418941275792
 20
0.6566006280956727
 42
0.1582458080133526
 10
-9.244998980152178
 20
-0.1717758768340238
 42
0.4004766929707996
 10
-7.914165925571078
 20
-1.163109915015423
 42
0.1766554743282956
 10
-6.501852637731659
 20
-0.4433737210968173
 42
-0.8503755059747277
 10
-6.325314087848593
 20
-0.1581958379576373
 42
-0.8564772262047165
 10
-6.406793343351933
 20
-0.4297936822204308
 42
-0.0755741227461296
 10
-6.651232087616931
 20
-1.271750226026513
 42
0.0606769359057566
 10
-7.0450502817672
 20
-2.263084264207913
 42
0.3896934458081654
 10
-6.542592754360818
 20
-3.213680141270109
 42
0.8454400270081855
 10
-6.080875343583596
 20
-2.385303636340412
 42
0.6959640606286834
 10
-6.624072009864157
 20
-2.711222613863726
 42
-0.3055059305661095
 10
-6.787031498625815
 20
-2.480363908475114
 42
-0.1776971493810713
 10
-6.732711343120271
 20
-1.733467636803735
 42
0.0925589380396982
 10
-6.352473187846388
 20
-0.4705337988495898
 42
0.8091336526230417
 10
-6.325314087848593
 20
-0.0902956435757071
 42
0.7190409822523439
 10
-6.569752832113591
 20
-0.4433737210968173
 42
-0.2501015939786253
 10
-8.307983141966369
 20
-0.9729913262559708
 42
-0.6290658573730437
 10
-8.701801336116638
 20
0.5479612948395607
 42
-0.2013524715242787
  0
LWPOLYLINE
  5
79
330
1E
100
AcDbEntity
  8
ADP1DETAIL
100
AcDbPolyline
 90
        3
 70
     0
 43
0.0
 10
-8.500943609390361
 20
4.011253723658215
 42
-0.2708349060188656
 10
-6.35531408875595
 20
1.838465103026008
 42
0.5965040304395976
 10
-6.083715266738183
 20
1.770565886399053
 42
-1.08568130479878
  0
LWPOLYLINE
  5
7E
330
1E
100
AcDbEntity
  8
ADP1DETAIL
100
AcDbPolyline
 90
        4
 70
     0
 43
0.0
 10
-8.500943609390361
 20
4.038413801410987
 42
-0.2854523792914652
 10
-6.083715266738183
 20
1.879205219655166
 42
-0.9545906442004804
 10
-6.47753346088845
 20
1.743405808646281
 42
0.2299537538298535
 10
-8.487363570513975
 20
3.943354507031262
 42
1.446183893733701
  0
LWPOLYLINE
  5
84
330
1E
100
AcDbEntity
  8
ADP1DETAIL
100
AcDbPolyline
 90
        3
 70
     0
 43
0.0
 10
-6.433953421104705
 20
-0.4297936822204308
 42
-0.2708349060188656
 10
-8.606742041736911
 20
-2.575423202854842
 42
0.5965040304395976
 10
-8.674641258363866
 20
-2.847022024872611
 42
-1.08568130479878
  0
LWPOLYLINE
  5
89
330
1E
100
AcDbEntity
  8
ADP1DETAIL
100
AcDbPolyline
 90
        4
 70
     0
 43
0.0
 10
-6.406793343351933
 20
-0.4297936822204308
 42
-0.2854523792914652
 10
-8.566001925107753
 20
-2.847022024872611
 42
-0.9545906442004804
 10
-8.701801336116639
 20
-2.453203830722343
 42
0.2299537538298535
 10
-6.501852637731659
 20
-0.4433737210968173
 42
1.446183893733701
  0
LWPOLYLINE
  5
8F
330
1E
100
AcDbEntity
  8
ADP1DETAIL
100
AcDbPolyline
 90
       12
 70
     0
 43
0.0
 10
-6.461112521102499
 20
-2.398883675216799
 42
-0.1496338240089215
 10
-6.420373382228318
 20
-1.787786814554304
 42
-0.0500124369606076
 10
-6.067295304707209
 20
-0.8100318374943142
 42
0.0078756587881453
 10
-5.917915854821938
 20
-0.4026345822226351
 42
0.1833725591224606
 10
-5.931495893698323
 20
0.0998229451837469
 42
0.2279523591879847
 10
-6.067295304707209
 20
0.2220423173162458
 42
0.0197967898894056
 10
-6.393213304475546
 20
0.3035225505745629
 42
0.2975311770134964
 10
-6.705551265367499
 20
0.181303178442064
 42
-0.029822666889008
 10
-7.004310165138041
 20
-0.3347343878407045
 42
-0.1468589836545153
 10
-7.330228164906378
 20
-0.6063332098584742
 42
-0.1967898868413548
 10
-8.267244003092189
 20
-0.6199132487348602
 42
-0.4733382939843005
 10
-8.552421886231368
 20
0.2627824339454039
 42
-1.958293527635041
  0
LWPOLYLINE
  5
9D
330
1E
100
AcDbEntity
  8
ADP1DETAIL
100
AcDbPolyline
 90
        2
 70
     0
 43
0.0
 10
-7.547507809173581
 20
-1.516188970291511
 42
0.2657567005228531
 10
-6.501852637731659
 20
-0.4433737210968173
 42
-0.201121782079664
  0
LWPOLYLINE
  5
A1
330
1E
100
AcDbEntity
  8
ADP1DETAIL
100
AcDbPolyline
 90
        4
 70
     0
 43
0.0
 10
-5.771377305846232
 20
1.59402635876101
 42
-0.3678835537920499
 10
-6.110875344490953
 20
1.349587614496012
 42
-0.3362143321857395
 10
-6.749132282906219
 20
1.86562518077878
 10
-7.061470243798171
 20
2.49030208031766
  0
LWPOLYLINE
  5
A7
330
1E
100
AcDbEntity
  8
ADP1DETAIL
100
AcDbPolyline
 90
        9
 70
     0
 43
0.0
 10
-6.667653027402879
 20
3.40015686299572
 42
-0.0373637849891176
 10
-5.988655972358454
 20
2.476722041441274
 42
-0.1521753609685743
 10
-5.771377305846232
 20
1.59402635876101
 42
-0.7614894244464878
 10
-6.694812127400675
 20
1.458226947752124
 42
-0.0217275073086942
 10
-6.749132282906219
 20
1.634766475390168
 42
0.1507680152938123
 10
-7.414548321319282
 20
2.897699335589339
 42
-0.0415920917275103
 10
-7.400969260197872
 20
2.612521452450159
 42
0.2577685872733333
 10
-7.292328949186782
 20
2.191543180547117
 42
-0.3889817243350062
 10
-7.76762737659537
 20
2.205123219423504
 42
0.1560296929574663
  0
LWPOLYLINE
  5
B2
330
1E
100
AcDbEntity
  8
ADP1DETAIL
100
AcDbPolyline
 90
       16
 70
     1
 43
0.0
 10
-6.227824844942447
 20
1.092860529007159
 42
0.0700997198875033
 10
-6.4227832489801
 20
1.06539249285604
 42
0.0818796132302905
 10
-6.575317781983088
 20
0.9929596519621934
 42
0.1069060637774977
 10
-6.685211601939886
 20
0.8752478391707715
 42
0.1353321530826165
 10
-6.719254069334179
 20
0.7517775997072676
 42
0.1353321530826172
 10
-6.685211601939884
 20
0.6283073602437636
 42
0.1069060637774985
 10
-6.575317781983088
 20
0.5105955474523426
 42
0.0818796132302872
 10
-6.422783248980098
 20
0.4381627065584924
 42
0.0700997198875013
 10
-6.227824844942447
 20
0.4106946704073747
 42
0.070099719887503
 10
-6.032866440904797
 20
0.4381627065584933
 42
0.0818796132302875
 10
-5.880331907901809
 20
0.5105955474523426
 42
0.1069060637774992
 10
-5.770438087945012
 20
0.6283073602437645
 42
0.1353321530826166
 10
-5.736395620550717
 20
0.7517775997072676
 42
0.1353321530826157
 10
-5.770438087945012
 20
0.8752478391707708
 42
0.1069060637774978
 10
-5.880331907901809
 20
0.9929596519621926
 42
0.0818796132302846
 10
-6.032866440904795
 20
1.065392492856041
 42
0.0700997198874994
  0
LWPOLYLINE
  5
C4
330
1E
100
AcDbEntity
  8
ADP1DETAIL
100
AcDbPolyline
 90
       16
 70
     1
 43
0.0
 10
-9.352346615755761
 20
-2.702912446668347
 42
0.0700997198875033
 10
-9.37981465190688
 20
-2.507954042630695
 42
0.0818796132302905
 10
-9.452247492800726
 20
-2.355419509627709
 42
0.1069060637774977
 10
-9.569959305592149
 20
-2.24552568967091
 42
0.1353321530826165
 10
-9.693429545055654
 20
-2.211483222276616
 42
0.1353321530826172
 10
-9.816899784519158
 20
-2.245525689670911
 42
0.1069060637774985
 10
-9.934611597310578
 20
-2.355419509627708
 42
0.0818796132302872
 10
-10.00704443820442
 20
-2.507954042630697
 42
0.0700997198875013
 10
-10.03451247435554
 20
-2.702912446668347
 42
0.070099719887503
 10
-10.00704443820442
 20
-2.897870850705998
 42
0.0818796132302875
 10
-9.934611597310578
 20
-3.050405383708986
 42
0.1069060637774992
 10
-9.816899784519158
 20
-3.160299203665784
 42
0.1353321530826166
 10
-9.693429545055654
 20
-3.194341671060078
 42
0.1353321530826157
 10
-9.569959305592149
 20
-3.160299203665785
 42
0.1069060637774978
 10
-9.452247492800729
 20
-3.050405383708986
 42
0.0818796132302846
 10
-9.37981465190688
 20
-2.897870850706001
 42
0.0700997198874994
  0
LWPOLYLINE
  5
D6
330
1E
100
AcDbEntity
  8
ADP1DETAIL
100
AcDbPolyline
 90
       22
 70
     0
 43
0.0
 10
-9.897245849923359
 20
-0.2425159943705433
 42
0.970916181568398
 10
-9.883666788801953
 20
-0.9622521882891504
 42
0.4376526746001101
 10
-9.340469144766412
 20
-0.486954738635541
 42
0.1616254371222025
 10
-9.517008672404454
 20
0.0969820442741813
 42
0.1579046604232129
 10
-9.78860651666725
 20
0.3006816496649981
 42
0.1582458080133526
 10
-10.61698302159694
 20
0.3142616885413832
 42
0.4004766929707996
 10
-11.60831705977834
 20
-1.016571366039718
 42
0.1766554743282956
 10
-10.88858086585974
 20
-2.428884653879136
 42
-0.8503755059747277
 10
-10.60340298272055
 20
-2.605423203762203
 42
-0.8564772262047165
 10
-10.87500082698335
 20
-2.523943948258862
 42
-0.0755741227461296
 10
-11.71695737078943
 20
-2.279505203993865
 42
0.0606769359057566
 10
-12.70829140897083
 20
-1.885687009843596
 42
0.3896934458081654
 10
-13.65888728603303
 20
-2.388144537249977
 42
0.8454400270081855
 10
-12.83051078110333
 20
-2.849861948027201
 42
0.6959640606286834
 10
-13.15642975862664
 20
-2.306665281746637
 42
-0.3055059305661095
 10
-12.92557105323803
 20
-2.14370579298498
 42
-0.1776971493810713
 10
-12.17867478156665
 20
-2.198025948490525
 42
0.0925589380396982
 10
-10.91574094361251
 20
-2.578264103764407
 42
0.8091336526230417
 10
-10.53550278833862
 20
-2.605423203762203
 42
0.7190409822523439
 10
-10.88858086585974
 20
-2.360984459497205
 42
-0.2501015939786253
 10
-11.41819847101889
 20
-0.6227541496444261
 42
-0.6290658573730437
 10
-9.897245849923359
 20
-0.2289359554941573
 42
-0.2013524715242787
  0
LWPOLYLINE
  5
EE
330
1E
100
AcDbEntity
  8
ADP1DETAIL
100
AcDbPolyline
 90
        4
 70
     0
 43
0.0
 10
-10.87500082698335
 20
-2.523943948258862
 42
-0.2854523792914652
 10
-13.29222916963553
 20
-0.3647353665030417
 42
-0.9545906442004804
 10
-12.89841097548526
 20
-0.2289359554941568
 42
0.2299537538298535
 10
-10.88858086585974
 20
-2.428884653879136
 42
1.446183893733701
  0
LWPOLYLINE
  5
F4
330
1E
100
AcDbEntity
  8
ADP1DETAIL
100
AcDbPolyline
 90
       12
 70
     0
 43
0.0
 10
-12.84409081997972
 20
-2.469624770508295
 42
-0.1496338240089215
 10
-12.23299395931722
 20
-2.510363909382476
 42
-0.0500124369606076
 10
-11.25523898225723
 20
-2.863441986903587
 42
0.0078756587881453
 10
-10.84784172698555
 20
-3.012821436788858
 42
0.1833725591224606
 10
-10.34538419957917
 20
-2.999241397912472
 42
0.2279523591879847
 10
-10.22316482744667
 20
-2.863441986903587
 42
0.0197967898894056
 10
-10.14168459418835
 20
-2.537523987135249
 42
0.2975311770134964
 10
-10.26390396632085
 20
-2.225186026243297
 42
-0.029822666889008
 10
-10.77994153260362
 20
-1.926427126472755
 42
-0.1468589836545153
 10
-11.05154035462139
 20
-1.600509126704417
 42
-0.1967898868413548
 10
-11.06512039349778
 20
-0.6634932885186079
 42
-0.4733382939843005
 10
-10.18242471081751
 20
-0.3783154053794282
 42
-1.958293527635041
  0
LWPOLYLINE
  5
102
330
1E
100
AcDbEntity
  8
ADP1DETAIL
100
AcDbPolyline
 90
        3
 70
     0
 43
0.0
 10
-10.87500082698335
 20
-2.49678387050609
 42
-0.2708349060188656
 10
-13.02063034761776
 20
-0.3239952498738836
 42
0.5965040304395976
 10
-13.29222916963553
 20
-0.2560960332469289
 42
-1.08568130479878
  0
LWPOLYLINE
  5
107
330
1E
100
AcDbEntity
  8
ADP1DETAIL
100
AcDbPolyline
 90
        2
 70
     0
 43
0.0
 10
-11.96139611505443
 20
-1.383229482437214
 42
0.2657567005228531
 10
-10.88858086585974
 20
-2.428884653879136
 42
-0.201121782079664
  0
LWPOLYLINE
  5
10B
330
1E
100
AcDbEntity
  8
ADP1DETAIL
100
AcDbPolyline
 90
        4
 70
     0
 43
0.0
 10
-10.98364113799444
 20
-2.388144537249977
 42
-0.1733041427593249
 10
-11.60831705977834
 20
-1.396809521313601
 42
0.1318883163888871
 10
-11.8934959206725
 20
-0.7449735217769243
 42
0.2838208787359972
 10
-12.08361548718693
 20
-0.6770733273949931
 42
-0.1369492137409505
  0
LWPOLYLINE
  5
111
330
1E
100
AcDbEntity
  8
ADP1DETAIL
100
AcDbPolyline
 90
        4
 70
     0
 43
0.0
 10
-8.851180786001908
 20
-3.159359985764563
 42
-0.3678835537920499
 10
-9.095619530266906
 20
-2.81986194711984
 42
-0.3362143321857395
 10
-8.579581963984141
 20
-2.181605008704573
 10
-7.954905064445259
 20
-1.86926704781262
  0
LWPOLYLINE
  5
117
330
1E
100
AcDbEntity
  8
ADP1DETAIL
100
AcDbPolyline
 90
        9
 70
     0
 43
0.0
 10
-7.0450502817672
 20
-2.263084264207913
 42
-0.0373637849891176
 10
-7.968485103321647
 20
-2.942081319252339
 42
-0.1521753609685743
 10
-8.851180786001908
 20
-3.159359985764563
 42
-0.7614894244464878
 10
-8.986980197010797
 20
-2.235925164210117
 42
-0.0217275073086942
 10
-8.810440669372752
 20
-2.181605008704573
 42
0.1507680152938123
 10
-7.547507809173581
 20
-1.516188970291511
 42
-0.0415920917275103
 10
-7.832685692312761
 20
-1.52976803141292
 42
0.2577685872733333
 10
-8.253663964215803
 20
-1.638408342424009
 42
-0.3889817243350062
 10
-8.240083925339416
 20
-1.163109915015423
 42
0.1560296929574663
  0
ARC
  5
122
330
1E
100
AcDbEntity
  8
ADP1DETAIL
100
AcDbCircle
 10
-10.61688048218353
 20
-5.150446382698546
 30
0.0
 40
2.247231467078052
100
AcDbArc
 50
72.84432256728376
 51
80.35898774885781
  0
ARC
  5
123
330
1E
100
AcDbEntity
  8
ADP1DETAIL
100
AcDbCircle
 10
-10.06316344041674
 20
-2.250959757346612
 30
0.0
 40
0.2130864998472694
100
AcDbArc
 50
249.3811725960572
 51
290.6188274039429
  0
ARC
  5
124
330
1E
100
AcDbEntity
  8
ADP1DETAIL
100
AcDbCircle
 10
-9.226613510462337
 20
-3.267916953182679
 30
0.0
 40
0.322392283489688
100
AcDbArc
 50
84.65651925805815
 51
124.2715167307125
  0
ARC
  5
125
330
1E
100
AcDbEntity
  8
ADP1DETAIL
100
AcDbCircle
 10
-9.310787132987314
 20
-2.284523656607491
 30
0.0
 40
0.178456515869467
100
AcDbArc
 50
242.0215790012377
 51
309.7853933725251
  0
LWPOLYLINE
  5
126
330
1E
100
AcDbEntity
  8
ADP1DETAIL
100
AcDbPolyline
 90
       22
 70
     0
 43
0.0
 10
-10.68772313913346
 20
0.9665085583125661
 42
0.970916181568398
 10
-11.40745933305207
 20
0.9529294971911571
 42
0.4376526746001101
 10
-10.93216188339846
 20
0.409731853155617
 42
0.1616254371222025
 10
-10.34822510048874
 20
0.5862713807936599
 42
0.1579046604232129
 10
-10.14452549509792
 20
0.8578692250564541
 42
0.1582458080133526
 10
-10.13094545622153
 20
1.68624572998615
 42
0.4004766929707996
 10
-11.46177851080263
 20
2.67757976816755
 42
0.1766554743282956
 10
-12.87409179864205
 20
1.957843574248944
 42
-0.8503755059747277
 10
-13.05063034852512
 20
1.672665691109763
 42
-0.8564772262047165
 10
-12.96915109302178
 20
1.944263535372557
 42
-0.0755741227461296
 10
-12.72471234875678
 20
2.78622007917864
 42
0.0606769359057566
 10
-12.33089415460651
 20
3.77755411736004
 42
0.3896934458081654
 10
-12.8333516820129
 20
4.728149994422236
 42
0.8454400270081855
 10
-13.29506909279012
 20
3.899773489492539
 42
0.6959640606286834
 10
-12.75187242650956
 20
4.225692467015853
 42
-0.3055059305661095
 10
-12.5889129377479
 20
3.994833761627241
 42
-0.1776971493810713
 10
-12.64323309325344
 20
3.247937489955862
 42
0.0925589380396982
 10
-13.02347124852732
 20
1.985003652001716
 42
0.8091336526230417
 10
-13.05063034852512
 20
1.604765496727833
 42
0.7190409822523439
 10
-12.80619160426012
 20
1.957843574248944
 42
-0.2501015939786253
 10
-11.06796129440734
 20
2.487461179408097
 42
-0.6290658573730437
 10
-10.67414310025708
 20
0.9665085583125661
 42
-0.2013524715242787
  0
LWPOLYLINE
  5
13E
330
1E
100
AcDbEntity
  8
ADP1DETAIL
100
AcDbPolyline
 90
        4
 70
     0
 43
0.0
 10
-12.96915109302178
 20
1.944263535372557
 42
-0.2854523792914652
 10
-10.80994251126596
 20
4.361491878024738
 42
-0.9545906442004804
 10
-10.67414310025708
 20
3.967673683874469
 42
0.2299537538298535
 10
-12.87409179864205
 20
1.957843574248944
 42
1.446183893733701
  0
LWPOLYLINE
  5
144
330
1E
100
AcDbEntity
  8
ADP1DETAIL
100
AcDbPolyline
 90
        3
 70
     0
 43
0.0
 10
-12.94199101526901
 20
1.944263535372557
 42
-0.2708349060188656
 10
-10.7692023946368
 20
4.089893056006969
 42
0.5965040304395976
 10
-10.70130317800984
 20
4.361491878024738
 42
-1.08568130479878
  0
LWPOLYLINE
  5
149
330
1E
100
AcDbEntity
  8
ADP1DETAIL
100
AcDbPolyline
 90
        9
 70
     0
 43
0.0
 10
-12.70829140897083
 20
-1.885687009843596
 42
-0.0373637849891176
 10
-13.38728846401526
 20
-0.9622521882891499
 42
-0.1521753609685743
 10
-13.60456713052748
 20
-0.0795565056088858
 42
-0.7614894244464878
 10
-12.68113230897303
 20
0.0562429053999999
 42
-0.0217275073086942
 10
-12.62681215346749
 20
-0.1202966222380439
 42
0.1507680152938123
 10
-11.96139611505443
 20
-1.383229482437214
 42
-0.0415920917275103
 10
-11.97497517617584
 20
-1.098051599298034
 42
0.2577685872733333
 10
-12.08361548718693
 20
-0.6770733273949931
 42
-0.3889817243350062
 10
-11.60831705977834
 20
-0.6906533662713806
 42
0.1560296929574663
  0
LWPOLYLINE
  5
154
330
1E
100
AcDbEntity
  8
ADP1DETAIL
100
AcDbPolyline
 90
       12
 70
     0
 43
0.0
 10
-12.91483191527121
 20
3.913353528368925
 42
-0.1496338240089215
 10
-12.95557105414539
 20
3.302256667706431
 42
-0.0500124369606076
 10
-13.3086491316665
 20
2.32450169064644
 42
0.0078756587881453
 10
-13.45802858155177
 20
1.917104435374761
 42
0.1833725591224606
 10
-13.44444854267539
 20
1.414646907968379
 42
0.2279523591879847
 10
-13.3086491316665
 20
1.29242753583588
 42
0.0197967898894056
 10
-12.98273113189817
 20
1.210947302577563
 42
0.2975311770134964
 10
-12.67039317100621
 20
1.333166674710062
 42
-0.029822666889008
 10
-12.37163427123567
 20
1.849204240992831
 42
-0.1468589836545153
 10
-12.04571627146733
 20
2.1208030630106
 42
-0.1967898868413548
 10
-11.10870043328152
 20
2.134383101886986
 42
-0.4733382939843005
 10
-10.82352255014234
 20
1.251687419206722
 42
-1.958293527635041
  0
LWPOLYLINE
  5
162
330
1E
100
AcDbEntity
  8
ADP1DETAIL
100
AcDbPolyline
 90
       16
 70
     1
 43
0.0
 10
-13.14811959143127
 20
0.4216093241449673
 42
0.0700997198875033
 10
-12.95316118739361
 20
0.4490773602960859
 42
0.0818796132302905
 10
-12.80062665439062
 20
0.5215102011899334
 42
0.1069060637774977
 10
-12.69073283443383
 20
0.6392220139813554
 42
0.1353321530826165
 10
-12.65669036703953
 20
0.7626922534448593
 42
0.1353321530826172
 10
-12.69073283443383
 20
0.8861624929083633
 42
0.1069060637774985
 10
-12.80062665439062
 20
1.003874305699784
 42
0.0818796132302872
 10
-12.95316118739362
 20
1.076307146593634
 42
0.0700997198875013
 10
-13.14811959143127
 20
1.103775182744752
 42
0.070099719887503
 10
-13.34307799546892
 20
1.076307146593633
 42
0.0818796132302875
 10
-13.4956125284719
 20
1.003874305699784
 42
0.1069060637774992
 10
-13.6055063484287
 20
0.8861624929083625
 42
0.1353321530826166
 10
-13.639548815823
 20
0.7626922534448593
 42
0.1353321530826157
 10
-13.6055063484287
 20
0.6392220139813562
 42
0.1069060637774978
 10
-13.4956125284719
 20
0.5215102011899343
 42
0.0818796132302846
 10
-13.34307799546892
 20
0.449077360296085
 42
0.0700997198874994
  0
LWPOLYLINE
  5
174
330
1E
100
AcDbEntity
  8
ADP1DETAIL
100
AcDbPolyline
 90
        4
 70
     0
 43
0.0
 10
-13.60456713052748
 20
-0.0795565056088858
 42
-0.3678835537920499
 10
-13.26506909188276
 20
0.1648822386561124
 42
-0.3362143321857395
 10
-12.62681215346749
 20
-0.3511553276266556
 10
-12.31447419257554
 20
-0.9758322271655359
  0
ARC
  5
17A
330
1E
100
AcDbEntity
  8
ADP1DETAIL
100
AcDbCircle
 10
-13.7131240979456
 20
0.2958762188515425
 30
0.0
 40
0.322392283489688
100
AcDbArc
 50
354.6565192580581
 51
34.27151673071243
  0
ARC
  5
17B
330
1E
100
AcDbEntity
  8
ADP1DETAIL
100
AcDbCircle
 10
-15.59565352746146
 20
1.686143190572743
 30
0.0
 40
2.247231467078052
100
AcDbArc
 50
342.8443225672837
 51
350.3589877488578
  0
LWPOLYLINE
  5
17C
330
1E
100
AcDbEntity
  8
ADP1DETAIL
100
AcDbPolyline
 90
       16
 70
     1
 43
0.0
 10
-10.02359782061795
 20
4.217382299820473
 42
0.0700997198875033
 10
-9.996129784466834
 20
4.022423895782821
 42
0.0818796132302905
 10
-9.923696943572986
 20
3.869889362779833
 42
0.1069060637774977
 10
-9.805985130781564
 20
3.759995542823035
 42
0.1353321530826165
 10
-9.68251489131806
 20
3.725953075428741
 42
0.1353321530826172
 10
-9.559044651854557
 20
3.759995542823036
 42
0.1069060637774985
 10
-9.441332839063134
 20
3.869889362779833
 42
0.0818796132302872
 10
-9.368899998169284
 20
4.022423895782822
 42
0.0700997198875013
 10
-9.341431962018168
 20
4.217382299820473
 42
0.070099719887503
 10
-9.368899998169286
 20
4.412340703858123
 42
0.0818796132302875
 10
-9.441332839063134
 20
4.56487523686111
 42
0.1069060637774992
 10
-9.559044651854557
 20
4.674769056817909
 42
0.1353321530826166
 10
-9.68251489131806
 20
4.708811524212203
 42
0.1353321530826157
 10
-9.805985130781564
 20
4.674769056817909
 42
0.1069060637774978
 10
-9.923696943572984
 20
4.56487523686111
 42
0.0818796132302846
 10
-9.996129784466834
 20
4.412340703858125
 42
0.0700997198874994
  0
LWPOLYLINE
  5
18E
330
1E
100
AcDbEntity
  8
ADP1DETAIL
100
AcDbPolyline
 90
        9
 70
     0
 43
0.0
 10
-12.33089415460651
 20
3.77755411736004
 42
-0.0373637849891176
 10
-11.40745933305207
 20
4.456551172404466
 42
-0.1521753609685743
 10
-10.5247636503718
 20
4.67382983891669
 42
-0.7614894244464878
 10
-10.38896423936292
 20
3.750395017362244
 42
-0.0217275073086942
 10
-10.56550376700096
 20
3.6960748618567
 42
0.1507680152938123
 10
-11.82843662720013
 20
3.030658823443638
 42
-0.0415920917275103
 10
-11.54325874406095
 20
3.044237884565046
 42
0.2577685872733333
 10
-11.12228047215791
 20
3.152878195576136
 42
-0.3889817243350062
 10
-11.1358605110343
 20
2.67757976816755
 42
0.1560296929574663
  0
LWPOLYLINE
  5
199
330
1E
100
AcDbEntity
  8
ADP1DETAIL
100
AcDbPolyline
 90
        4
 70
     0
 43
0.0
 10
-10.5247636503718
 20
4.67382983891669
 42
-0.3678835537920499
 10
-10.28032490610681
 20
4.334331800271967
 42
-0.3362143321857395
 10
-10.79636247238957
 20
3.6960748618567
 10
-11.42103937192845
 20
3.383736900964747
  0
LWPOLYLINE
  5
19F
330
1E
100
AcDbEntity
  8
ADP1DETAIL
100
AcDbPolyline
 90
       12
 70
     0
 43
0.0
 10
-6.531853616393993
 20
3.98409462366042
 42
-0.1496338240089215
 10
-7.142950477056488
 20
4.024833762534601
 42
-0.0500124369606076
 10
-8.120705454116478
 20
4.377911840055711
 42
0.0078756587881453
 10
-8.528102709388157
 20
4.527291289940982
 42
0.1833725591224606
 10
-9.03056023679454
 20
4.513711251064597
 42
0.2279523591879847
 10
-9.152779608927039
 20
4.377911840055711
 42
0.0197967898894056
 10
-9.234259842185355
 20
4.051993840287374
 42
0.2975311770134964
 10
-9.112040470052857
 20
3.739655879395422
 42
-0.029822666889008
 10
-8.596002903770088
 20
3.44089697962488
 42
-0.1468589836545153
 10
-8.324404081752319
 20
3.114978979856542
 42
-0.1967898868413548
 10
-8.310824042875932
 20
2.177963141670732
 42
-0.4733382939843005
 10
-9.193519725556198
 20
1.892785258531553
 42
-1.958293527635041
  0
LWPOLYLINE
  5
1AD
330
1E
100
AcDbEntity
  8
ADP1DETAIL
100
AcDbPolyline
 90
        2
 70
     0
 43
0.0
 10
-7.414548321319282
 20
2.897699335589339
 42
0.2657567005228531
 10
-8.487363570513975
 20
3.943354507031262
 42
-0.201121782079664
  0
LWPOLYLINE
  5
1B1
330
1E
100
AcDbEntity
  8
ADP1DETAIL
100
AcDbPolyline
 90
        4
 70
     0
 43
0.0
 10
-8.392303298379271
 20
3.902614390402103
 42
-0.1733041427593249
 10
-7.76762737659537
 20
2.911279374465724
 42
0.1318883163888871
 10
-7.482448515701213
 20
2.259443374929048
 42
0.2838208787359972
 10
-7.292328949186782
 20
2.191543180547117
 42
-0.1369492137409505
  0
ARC
  5
1B7
330
1E
100
AcDbEntity
  8
ADP1DETAIL
100
AcDbCircle
 10
-12.72973080137041
 20
0.3800498413765188
 30
0.0
 40
0.178456515869467
100
AcDbArc
 50
152.0215790012377
 51
219.7853933725251
  0
ARC
  5
1B8
330
1E
100
AcDbEntity
  8
ADP1DETAIL
100
AcDbCircle
 10
-10.71413956569249
 20
0.3479354114161921
 30
0.0
 40
0.2179385304764274
100
AcDbArc
 50
163.6378575072408
 51
210.0538290020808
  0
ARC
  5
1B9
330
1E
100
AcDbEntity
  8
ADP1DETAIL
100
AcDbCircle
 10
-6.81304217718498
 20
3.32798554886798
 30
0.0
 40
4.493837548892273
100
AcDbArc
 50
217.8115234408424
 51
220.9643483125989
  0
LWPOLYLINE
  5
1BA
330
1E
100
AcDbEntity
  8
ADP1DETAIL
100
AcDbPolyline
 90
        4
 70
     0
 43
0.0
 10
-12.8333516820129
 20
2.052903846383647
 42
-0.1733041427593249
 10
-11.84201666607652
 20
2.67757976816755
 42
0.1318883163888871
 10
-11.19018066653984
 20
2.962758629061707
 42
0.2838208787359972
 10
-11.12228047215791
 20
3.152878195576136
 42
-0.1369492137409505
  0
LWPOLYLINE
  5
1C0
330
1E
100
AcDbEntity
  8
ADP1DETAIL
100
AcDbPolyline
 90
        2
 70
     0
 43
0.0
 10
-11.82843662720013
 20
3.030658823443638
 42
0.2657567005228531
 10
-12.87409179864205
 20
1.957843574248944
 42
-0.201121782079664
  0
ARC
  5
1C4
330
1E
100
AcDbEntity
  8
ADP1DETAIL
100
AcDbCircle
 10
-12.69616690210953
 20
1.132426148805945
 30
0.0
 40
0.2130864998472694
100
AcDbArc
 50
159.3811725960572
 51
200.6188274039429
  0
ARC
  5
1C5
330
1E
100
AcDbEntity
  8
ADP1DETAIL
100
AcDbCircle
 10
-7.117221595894939
 20
-2.117695114425814
 30
0.0
 40
4.493837548892273
100
AcDbArc
 50
127.8115234408425
 51
130.9643483125989
  0
ARC
  5
1C6
330
1E
100
AcDbEntity
  8
ADP1DETAIL
100
AcDbCircle
 10
-10.09727173334672
 20
1.783402274081694
 30
0.0
 40
0.2179385304764274
100
AcDbArc
 50
73.63785750724085
 51
120.0538290020809
  0
LWPOLYLINE
  5
1C7
330
1E
100
AcDbEntity
  8
ADP1DETAIL
100
AcDbPolyline
 90
        4
 70
     0
 43
0.0
 10
-6.542592754360818
 20
-0.5384339932315204
 42
-0.1733041427593249
 10
-7.533927770297195
 20
-1.163109915015423
 42
0.1318883163888871
 10
-8.18576376983387
 20
-1.44828877590958
 42
0.2838208787359972
 10
-8.253663964215803
 20
-1.638408342424009
 42
-0.1369492137409505
  0
ARC
  5
1CD
330
1E
100
AcDbEntity
  8
ADP1DETAIL
100
AcDbCircle
 10
-12.25872284047877
 20
3.632164967577941
 30
0.0
 40
4.493837548892273
100
AcDbArc
 50
307.8115234408424
 51
310.9643483125989
  0
ARC
  5
1CE
330
1E
100
AcDbEntity
  8
ADP1DETAIL
100
AcDbCircle
 10
-9.278672703026987
 20
-0.2689324209295693
 30
0.0
 40
0.2179385304764274
100
AcDbArc
 50
253.6378575072408
 51
300.0538290020809
  0
ARC
  5
1CF
330
1E
100
AcDbEntity
  8
ADP1DETAIL
100
AcDbCircle
 10
-13.71207161978715
 20
-2.726581550709853
 30
0.0
 40
5.94136792310146
100
AcDbArc
 50
38.04049706779208
 51
40.33223000254776
  0
ARC
  5
1D0
330
1E
100
AcDbEntity
  8
ADP1DETAIL
100
AcDbCircle
 10
-8.661804870681226
 20
1.166534441735934
 30
0.0
 40
0.2179385304764274
100
AcDbArc
 50
343.6378575072408
 51
30.0538290020809
  0
ARC
  5
1D1
330
1E
100
AcDbEntity
  8
ADP1DETAIL
100
AcDbCircle
 10
-10.0651573033864
 20
3.798993509759618
 30
0.0
 40
0.178456515869467
100
AcDbArc
 50
62.02157900123776
 51
129.7853933725251
  0
ARC
  5
1D2
330
1E
100
AcDbEntity
  8
ADP1DETAIL
100
AcDbCircle
 10
-10.14933092591137
 20
4.782386806334806
 30
0.0
 40
0.322392283489688
100
AcDbArc
 50
264.6565192580581
 51
304.2715167307124
  0
ARC
  5
1D3
330
1E
100
AcDbEntity
  8
ADP1DETAIL
100
AcDbCircle
 10
-8.759063954190176
 20
6.66491623585067
 30
0.0
 40
2.247231467078052
100
AcDbArc
 50
252.8443225672837
 51
260.3589877488578
  0
ARC
  5
1D4
330
1E
100
AcDbEntity
  8
ADP1DETAIL
100
AcDbCircle
 10
-9.312780995956973
 20
3.765429610498737
 30
0.0
 40
0.2130864998472694
100
AcDbArc
 50
69.3811725960572
 51
110.6188274039429
  0
ARC
  5
1D5
330
1E
100
AcDbEntity
  8
ADP1DETAIL
100
AcDbCircle
 10
-3.780290908912251
 20
-0.171673337420617
 30
0.0
 40
2.247231467078052
100
AcDbArc
 50
162.8443225672837
 51
170.3589877488578
  0
ARC
  5
1D6
330
1E
100
AcDbEntity
  8
ADP1DETAIL
100
AcDbCircle
 10
-5.662820338428113
 20
1.218593634300582
 30
0.0
 40
0.322392283489688
100
AcDbArc
 50
174.6565192580581
 51
214.2715167307124
  0
TEXT
  5
1DA
330
1E
100
AcDbEntity
  8
ADPDIM
100
AcDbText
 10
-22.55712885166416
 20
-4.826115457704817
 30
0.0
 40
0.25
  1
J U L I U S  B L U M  &  C O . ,  I N C .      ( 8 0 0 )  5 2 6 - 6 2 9 3        W W W . J U L I U S B L U M . C O M        P A R T  N o .  5 7 8
 41
1.25
  7
ARIAL_WIDE
 72
     1
 11
-9.687713776630054
 21
-4.576115457704817
 31
0.0
100
AcDbText
 73
     3
  0
ENDSEC
  0
SECTION
  2
OBJECTS
  0
DICTIONARY
  5
C
330
0
100
AcDbDictionary
  3
ACAD_GROUP
350
D
  3
ACAD_LAYOUT
350
19
  3
ACAD_MLINESTYLE
350
16
  3
ACAD_PLOTSETTINGS
350
18
  3
ACAD_PLOTSTYLENAME
350
E
  3
ACDBHEADERROUNDTRIPXREC
350
36D
  3
ACDBVARIABLEDICTIONARY
350
24B
  0
DICTIONARY
  5
216
330
1E
100
AcDbDictionary
280
     1
  3
ACAD_LAYOUTSELFREF
360
38F
  0
DICTIONARY
  5
218
330
1A
100
AcDbDictionary
280
     1
  3
ACAD_LAYOUTSELFREF
360
38E
  0
DICTIONARY
  5
D
102
{ACAD_REACTORS
330
C
102
}
330
C
100
AcDbDictionary
  0
DICTIONARY
  5
19
102
{ACAD_REACTORS
330
C
102
}
330
C
100
AcDbDictionary
  0
DICTIONARY
  5
16
102
{ACAD_REACTORS
330
C
102
}
330
C
100
AcDbDictionary
  3
STANDARD
350
17
  0
DICTIONARY
  5
18
102
{ACAD_REACTORS
330
C
102
}
330
C
100
AcDbDictionary
  0
ACDBDICTIONARYWDFLT
  5
E
102
{ACAD_REACTORS
330
C
102
}
330
C
100
AcDbDictionary
281
     1
  3
Normal
350
F
100
AcDbDictionaryWithDefault
340
F
  0
DICTIONARY
  5
36D
102
{ACAD_REACTORS
330
C
102
}
330
C
100
AcDbDictionary
  3
CEPSNTYPE
350
377
  3
DIMSTYLEDATA
350
37B
  3
FINGERPRINTGUID
350
378
  3
HYPERLINKBASE
350
370
  3
INSUNITS
350
376
  3
LAYOUTDICT
350
372
  3
LWETCUNION
350
375
  3
PLOTSETDICT
350
373
  3
PLOTSTYLNAMDICT
350
374
  3
PSVPSCALE
350
37A
  3
PUCSBASE
350
37E
  3
PUCSORGBACK
350
384
  3
PUCSORGBOTTOM
350
380
  3
PUCSORGFRONT
350
383
  3
PUCSORGLEFT
350
381
  3
PUCSORGRIGHT
350
382
  3
PUCSORGTOP
350
37F
  3
PUCSORTHOREF
350
37C
  3
PUCSORTHOVIEW
350
37D
  3
STYLESHEET
350
371
  3
TSTACKALIGN
350
36E
  3
TSTACKSIZE
350
36F
  3
UCSBASE
350
387
  3
UCSORGBACK
350
38D
  3
UCSORGBOTTOM
350
389
  3
UCSORGFRONT
350
38C
  3
UCSORGLEFT
350
38A
  3
UCSORGRIGHT
350
38B
  3
UCSORGTOP
350
388
  3
UCSORTHOREF
350
385
  3
UCSORTHOVIEW
350
386
  3
VERSIONGUID
350
379
  0
DICTIONARY
  5
24B
102
{ACAD_REACTORS
330
C
102
}
330
C
100
AcDbDictionary
  3
DIMASSOC
350
24D
  3
HIDETEXT
350
24C
  0
XRECORD
  5
38F
102
{ACAD_REACTORS
330
216
102
}
330
216
100
AcDbXrecord
340
1E
  0
XRECORD
  5
38E
102
{ACAD_REACTORS
330
218
102
}
330
218
100
AcDbXrecord
340
1A
  0
MLINESTYLE
  5
17
102
{ACAD_REACTORS
330
16
102
}
330
16
100
AcDbMlineStyle
  2
STANDARD
 70
     0
  3

 62
   256
 51
90.0
 52
90.0
 71
     2
 49
0.5
 62
   256
  6
BYLAYER
 49
-0.5
 62
   256
  6
BYLAYER
  0
ACDBPLACEHOLDER
  5
F
102
{ACAD_REACTORS
330
E
102
}
330
E
100
AcDbPlaceHolder
280
     0
  0
XRECORD
  5
377
102
{ACAD_REACTORS
330
36D
102
}
330
36D
100
AcDbXrecord
 90
        0
  0
XRECORD
  5
37B
102
{ACAD_REACTORS
330
36D
102
}
330
36D
100
AcDbXrecord
1000
DSTYLE
1002
{
1070
   277
 70
     5
1070
   279
 70
     2
1002
}
  0
XRECORD
  5
378
102
{ACAD_REACTORS
330
36D
102
}
330
36D
100
AcDbXrecord
  1
{A43EDE63-F492-4F45-B0E7-23AC5AE79BDA}
  0
XRECORD
  5
370
102
{ACAD_REACTORS
330
36D
102
}
330
36D
100
AcDbXrecord
  1

  0
XRECORD
  5
376
102
{ACAD_REACTORS
330
36D
102
}
330
36D
100
AcDbXrecord
 90
        0
  0
XRECORD
  5
372
102
{ACAD_REACTORS
330
36D
102
}
330
36D
100
AcDbXrecord
340
19
  0
XRECORD
  5
375
102
{ACAD_REACTORS
330
36D
102
}
330
36D
100
AcDbXrecord
 90
    14877
  0
XRECORD
  5
373
102
{ACAD_REACTORS
330
36D
102
}
330
36D
100
AcDbXrecord
340
18
  0
XRECORD
  5
374
102
{ACAD_REACTORS
330
36D
102
}
330
36D
100
AcDbXrecord
340
E
  0
XRECORD
  5
37A
102
{ACAD_REACTORS
330
36D
102
}
330
36D
100
AcDbXrecord
 40
0.0
  0
XRECORD
  5
37E
102
{ACAD_REACTORS
330
36D
102
}
330
36D
100
AcDbXrecord
340
0
  0
XRECORD
  5
384
102
{ACAD_REACTORS
330
36D
102
}
330
36D
100
AcDbXrecord
 10
0.0
 20
0.0
 30
0.0
  0
XRECORD
  5
380
102
{ACAD_REACTORS
330
36D
102
}
330
36D
100
AcDbXrecord
 10
0.0
 20
0.0
 30
0.0
  0
XRECORD
  5
383
102
{ACAD_REACTORS
330
36D
102
}
330
36D
100
AcDbXrecord
 10
0.0
 20
0.0
 30
0.0
  0
XRECORD
  5
381
102
{ACAD_REACTORS
330
36D
102
}
330
36D
100
AcDbXrecord
 10
0.0
 20
0.0
 30
0.0
  0
XRECORD
  5
382
102
{ACAD_REACTORS
330
36D
102
}
330
36D
100
AcDbXrecord
 10
0.0
 20
0.0
 30
0.0
  0
XRECORD
  5
37F
102
{ACAD_REACTORS
330
36D
102
}
330
36D
100
AcDbXrecord
 10
0.0
 20
0.0
 30
0.0
  0
XRECORD
  5
37C
102
{ACAD_REACTORS
330
36D
102
}
330
36D
100
AcDbXrecord
340
0
  0
XRECORD
  5
37D
102
{ACAD_REACTORS
330
36D
102
}
330
36D
100
AcDbXrecord
 70
     0
  0
XRECORD
  5
371
102
{ACAD_REACTORS
330
36D
102
}
330
36D
100
AcDbXrecord
  1

  0
XRECORD
  5
36E
102
{ACAD_REACTORS
330
36D
102
}
330
36D
100
AcDbXrecord
 90
        1
  0
XRECORD
  5
36F
102
{ACAD_REACTORS
330
36D
102
}
330
36D
100
AcDbXrecord
 90
       70
  0
XRECORD
  5
387
102
{ACAD_REACTORS
330
36D
102
}
330
36D
100
AcDbXrecord
340
0
  0
XRECORD
  5
38D
102
{ACAD_REACTORS
330
36D
102
}
330
36D
100
AcDbXrecord
 10
0.0
 20
0.0
 30
0.0
  0
XRECORD
  5
389
102
{ACAD_REACTORS
330
36D
102
}
330
36D
100
AcDbXrecord
 10
0.0
 20
0.0
 30
0.0
  0
XRECORD
  5
38C
102
{ACAD_REACTORS
330
36D
102
}
330
36D
100
AcDbXrecord
 10
0.0
 20
0.0
 30
0.0
  0
XRECORD
  5
38A
102
{ACAD_REACTORS
330
36D
102
}
330
36D
100
AcDbXrecord
 10
0.0
 20
0.0
 30
0.0
  0
XRECORD
  5
38B
102
{ACAD_REACTORS
330
36D
102
}
330
36D
100
AcDbXrecord
 10
0.0
 20
0.0
 30
0.0
  0
XRECORD
  5
388
102
{ACAD_REACTORS
330
36D
102
}
330
36D
100
AcDbXrecord
 10
0.0
 20
0.0
 30
0.0
  0
XRECORD
  5
385
102
{ACAD_REACTORS
330
36D
102
}
330
36D
100
AcDbXrecord
340
0
  0
XRECORD
  5
386
102
{ACAD_REACTORS
330
36D
102
}
330
36D
100
AcDbXrecord
 70
     0
  0
XRECORD
  5
379
102
{ACAD_REACTORS
330
36D
102
}
330
36D
100
AcDbXrecord
  1
{4027C5F1-932A-4A60-930F-53E92E40E65D}
  0
DICTIONARYVAR
  5
24D
102
{ACAD_REACTORS
330
24B
102
}
330
24B
100
DictionaryVariables
280
     0
  1
2
  0
DICTIONARYVAR
  5
24C
102
{ACAD_REACTORS
330
24B
102
}
330
24B
100
DictionaryVariables
280
     0
  1
1
  0
ENDSEC
  0
EOF
