  0
SECTION
  2
HEADER
  9
$ACADVER
  1
AC1014
  9
$ACADMAINTVER
 70
     9
  9
$DWGCODEPAGE
  3
ANSI_1252
  9
$INSBASE
 10
-35.92839884393462
 20
11.15214612158822
 30
0.0
  9
$EXTMIN
 10
-46.10732009159878
 20
-5.336582687520337
 30
0.0
  9
$EXTMAX
 10
-7.499074866496464
 20
12.02509235246733
 30
0.0
  9
$LIMMIN
 10
0.0
 20
0.0
  9
$LIMMAX
 10
36.0
 20
36.0
  9
$ORTHOMODE
 70
     1
  9
$REGENMODE
 70
     1
  9
$FILLMODE
 70
     1
  9
$QTEXTMODE
 70
     0
  9
$MIRRTEXT
 70
     1
  9
$DRAGMODE
 70
     0
  9
$LTSCALE
 40
1.0
  9
$OSMODE
 70
    37
  9
$ATTMODE
 70
     1
  9
$TEXTSIZE
 40
0.2
  9
$TRACEWID
 40
0.05
  9
$TEXTSTYLE
  7
STANDARD
  9
$CLAYER
  8
ADPDIM
  9
$CELTYPE
  6
BYLAYER
  9
$CECOLOR
 62
   256
  9
$CELTSCALE
 40
1.0
  9
$DELOBJ
 70
     1
  9
$DISPSILH
 70
     0
  9
$DIMSCALE
 40
1.0
  9
$DIMASZ
 40
0.125
  9
$DIMEXO
 40
0.0625
  9
$DIMDLI
 40
0.38
  9
$DIMRND
 40
0.0
  9
$DIMDLE
 40
0.0
  9
$DIMEXE
 40
0.18
  9
$DIMTP
 40
0.0
  9
$DIMTM
 40
0.0
  9
$DIMTXT
 40
0.125
  9
$DIMCEN
 40
0.1875
  9
$DIMTSZ
 40
0.125
  9
$DIMTOL
 70
     0
  9
$DIMLIM
 70
     0
  9
$DIMTIH
 70
     0
  9
$DIMTOH
 70
     0
  9
$DIMSE1
 70
     0
  9
$DIMSE2
 70
     0
  9
$DIMTAD
 70
     0
  9
$DIMZIN
 70
     3
  9
$DIMBLK
  1

  9
$DIMASO
 70
     1
  9
$DIMSHO
 70
     1
  9
$DIMPOST
  1

  9
$DIMAPOST
  1

  9
$DIMALT
 70
     0
  9
$DIMALTD
 70
     1
  9
$DIMALTF
 40
25.4
  9
$DIMLFAC
 40
1.0
  9
$DIMTOFL
 70
     0
  9
$DIMTVP
 40
0.0
  9
$DIMTIX
 70
     0
  9
$DIMSOXD
 70
     0
  9
$DIMSAH
 70
     0
  9
$DIMBLK1
  1

  9
$DIMBLK2
  1

  9
$DIMSTYLE
  2
STANDARD
  9
$DIMCLRD
 70
     0
  9
$DIMCLRE
 70
     0
  9
$DIMCLRT
 70
     0
  9
$DIMTFAC
 40
1.0
  9
$DIMGAP
 40
0.125
  9
$DIMJUST
 70
     0
  9
$DIMSD1
 70
     0
  9
$DIMSD2
 70
     0
  9
$DIMTOLJ
 70
     1
  9
$DIMTZIN
 70
     0
  9
$DIMALTZ
 70
     0
  9
$DIMALTTZ
 70
     0
  9
$DIMFIT
 70
     3
  9
$DIMUPT
 70
     0
  9
$DIMUNIT
 70
     2
  9
$DIMDEC
 70
     4
  9
$DIMTDEC
 70
     4
  9
$DIMALTU
 70
     2
  9
$DIMALTTD
 70
     2
  9
$DIMTXSTY
  7
STANDARD
  9
$DIMAUNIT
 70
     0
  9
$LUNITS
 70
     5
  9
$LUPREC
 70
     5
  9
$SKETCHINC
 40
0.1
  9
$FILLETRAD
 40
0.062
  9
$AUNITS
 70
     0
  9
$AUPREC
 70
     0
  9
$MENU
  1
acad
  9
$ELEVATION
 40
0.0
  9
$PELEVATION
 40
0.0
  9
$THICKNESS
 40
0.0
  9
$LIMCHECK
 70
     0
  9
$BLIPMODE
 70
     0
  9
$CHAMFERA
 40
0.0
  9
$CHAMFERB
 40
0.0
  9
$CHAMFERC
 40
0.0
  9
$CHAMFERD
 40
0.0
  9
$SKPOLY
 70
     0
  9
$TDCREATE
 40
2450409.422206597
  9
$TDUPDATE
 40
2452297.073353217
  9
$TDINDWG
 40
0.0123431944
  9
$TDUSRTIMER
 40
0.0123431944
  9
$USRTIMER
 70
     1
  9
$ANGBASE
 50
0.0
  9
$ANGDIR
 70
     0
  9
$PDMODE
 70
     0
  9
$PDSIZE
 40
0.0
  9
$PLINEWID
 40
0.0
  9
$COORDS
 70
     2
  9
$SPLFRAME
 70
     0
  9
$SPLINETYPE
 70
     6
  9
$SPLINESEGS
 70
     8
  9
$ATTDIA
 70
     0
  9
$ATTREQ
 70
     1
  9
$HANDLING
 70
 22529
  9
$HANDSEED
  5
39D
  9
$SURFTAB1
 70
     6
  9
$SURFTAB2
 70
     6
  9
$SURFTYPE
 70
     6
  9
$SURFU
 70
     6
  9
$SURFV
 70
     6
  9
$UCSNAME
  2

  9
$UCSORG
 10
0.0
 20
0.0
 30
0.0
  9
$UCSXDIR
 10
1.0
 20
0.0
 30
0.0
  9
$UCSYDIR
 10
0.0
 20
1.0
 30
0.0
  9
$PUCSNAME
  2

  9
$PUCSORG
 10
0.0
 20
0.0
 30
0.0
  9
$PUCSXDIR
 10
1.0
 20
0.0
 30
0.0
  9
$PUCSYDIR
 10
0.0
 20
1.0
 30
0.0
  9
$USERI1
 70
     0
  9
$USERI2
 70
     0
  9
$USERI3
 70
     0
  9
$USERI4
 70
     0
  9
$USERI5
 70
     0
  9
$USERR1
 40
0.0
  9
$USERR2
 40
0.0
  9
$USERR3
 40
0.0
  9
$USERR4
 40
0.0
  9
$USERR5
 40
0.0
  9
$WORLDVIEW
 70
     1
  9
$SHADEDGE
 70
     3
  9
$SHADEDIF
 70
    70
  9
$TILEMODE
 70
     1
  9
$MAXACTVP
 70
    15
  9
$PINSBASE
 10
0.0058594681322575
 20
8.002266177471257
 30
0.0
  9
$PLIMCHECK
 70
     0
  9
$PEXTMIN
 10
1.000000000000000E+20
 20
1.000000000000000E+20
 30
1.000000000000000E+20
  9
$PEXTMAX
 10
-1.000000000000000E+20
 20
-1.000000000000000E+20
 30
-1.000000000000000E+20
  9
$PLIMMIN
 10
0.0
 20
0.0
  9
$PLIMMAX
 10
12.0
 20
9.0
  9
$UNITMODE
 70
     0
  9
$VISRETAIN
 70
     0
  9
$PLINEGEN
 70
     0
  9
$PSLTSCALE
 70
     1
  9
$TREEDEPTH
 70
  3020
  9
$PICKSTYLE
 70
     1
  9
$CMLSTYLE
  2
STANDARD
  9
$CMLJUST
 70
     0
  9
$CMLSCALE
 40
1.0
  9
$PROXYGRAPHICS
 70
     1
  9
$MEASUREMENT
 70
     0
  0
ENDSEC
  0
SECTION
  2
CLASSES
  0
CLASS
  1
ACDBDICTIONARYWDFLT
  2
AcDbDictionaryWithDefault
  3
AutoCAD 2000
 90
        0
280
     0
281
     0
  0
CLASS
  1
ACDBPLACEHOLDER
  2
AcDbPlaceHolder
  3
AutoCAD 2000
 90
        0
280
     0
281
     0
  0
CLASS
  1
LAYOUT
  2
AcDbLayout
  3
AutoCAD 2000
 90
        0
280
     0
281
     0
  0
CLASS
  1
DICTIONARYVAR
  2
AcDbDictionaryVar
  3
AutoCAD 2000
 90
        0
280
     0
281
     0
  0
CLASS
  1
LONG_TRANSACTION
  2
AcDbLongTransaction
  3
AutoCAD 2000
 90
        0
280
     0
281
     0
  0
CLASS
  1
LWPOLYLINE
  2
AcDbPolyline
  3
AutoCAD 2000
 90
        0
280
     0
281
     1
  0
CLASS
  1
HATCH
  2
AcDbHatch
  3
AutoCAD 2000
 90
        0
280
     0
281
     1
  0
CLASS
  1
XRECORD
  2
AcDbXrecord
  3
AutoCAD 2000
 90
        0
280
     0
281
     0
  0
CLASS
  1
LONG_TRANSACTION
  2
AcDbLongTransaction
  3
AutoCAD 2000
 90
        0
280
     0
281
     0
  0
CLASS
  1
LWPOLYLINE
  2
AcDbPolyline
  3
AutoCAD 2000
 90
        0
280
     0
281
     1
  0
CLASS
  1
HATCH
  2
AcDbHatch
  3
AutoCAD 2000
 90
        0
280
     0
281
     1
  0
CLASS
  1
XRECORD
  2
AcDbXrecord
  3
AutoCAD 2000
 90
        0
280
     0
281
     0
  0
CLASS
  1
LONG_TRANSACTION
  2
AcDbLongTransaction
  3
AutoCAD 2000
 90
        0
280
     0
281
     0
  0
CLASS
  1
LWPOLYLINE
  2
AcDbPolyline
  3
AutoCAD 2000
 90
        0
280
     0
281
     1
  0
CLASS
  1
HATCH
  2
AcDbHatch
  3
AutoCAD 2000
 90
        0
280
     0
281
     1
  0
CLASS
  1
XRECORD
  2
AcDbXrecord
  3
AutoCAD 2000
 90
        0
280
     0
281
     0
  0
CLASS
  1
LONG_TRANSACTION
  2
AcDbLongTransaction
  3
AutoCAD 2000
 90
        0
280
     0
281
     0
  0
CLASS
  1
LWPOLYLINE
  2
AcDbPolyline
  3
AutoCAD 2000
 90
        0
280
     0
281
     1
  0
CLASS
  1
HATCH
  2
AcDbHatch
  3
AutoCAD 2000
 90
        0
280
     0
281
     1
  0
CLASS
  1
XRECORD
  2
AcDbXrecord
  3
AutoCAD 2000
 90
        0
280
     0
281
     0
  0
CLASS
  1
LONG_TRANSACTION
  2
AcDbLongTransaction
  3
AutoCAD 2000
 90
        0
280
     0
281
     0
  0
CLASS
  1
LWPOLYLINE
  2
AcDbPolyline
  3
AutoCAD 2000
 90
        0
280
     0
281
     1
  0
CLASS
  1
HATCH
  2
AcDbHatch
  3
AutoCAD 2000
 90
        0
280
     0
281
     1
  0
CLASS
  1
XRECORD
  2
AcDbXrecord
  3
AutoCAD 2000
 90
        0
280
     0
281
     0
  0
ENDSEC
  0
SECTION
  2
TABLES
  0
TABLE
  2
VPORT
  5
8
330
0
100
AcDbSymbolTable
 70
     2
  0
VPORT
  5
37A
330
8
100
AcDbSymbolTableRecord
100
AcDbViewportTableRecord
  2
*ACTIVE
 70
     0
 10
0.0
 20
0.0
 11
1.0
 21
1.0
 12
-26.77212874289033
 22
3.344066533002569
 13
0.0
 23
0.0
 14
0.5740882589684922
 24
0.5740882589684922
 15
0.5
 25
0.5
 16
0.0
 26
0.0
 36
1.0
 17
0.0
 27
0.0
 37
0.0
 40
24.74128960003091
 41
1.570528967254408
 42
50.0
 43
0.0
 44
0.0
 50
0.0
 51
0.0
 71
     0
 72
   100
 73
     1
 74
     0
 75
     0
 76
     0
 77
     0
 78
     0
  0
ENDTAB
  0
TABLE
  2
LTYPE
  5
5
330
0
100
AcDbSymbolTable
 70
     1
  0
LTYPE
  5
12
330
5
100
AcDbSymbolTableRecord
100
AcDbLinetypeTableRecord
  2
BYBLOCK
 70
     0
  3

 72
    65
 73
     0
 40
0.0
  0
LTYPE
  5
13
330
5
100
AcDbSymbolTableRecord
100
AcDbLinetypeTableRecord
  2
BYLAYER
 70
     0
  3

 72
    65
 73
     0
 40
0.0
  0
LTYPE
  5
14
330
5
100
AcDbSymbolTableRecord
100
AcDbLinetypeTableRecord
  2
CONTINUOUS
 70
     0
  3
Solid line
 72
    65
 73
     0
 40
0.0
  0
ENDTAB
  0
TABLE
  2
LAYER
  5
2
330
0
100
AcDbSymbolTable
 70
     4
  0
LAYER
  5
F
330
2
100
AcDbSymbolTableRecord
100
AcDbLayerTableRecord
  2
0
 70
     0
 62
     7
  6
CONTINUOUS
  0
LAYER
  5
1F
330
2
100
AcDbSymbolTableRecord
100
AcDbLayerTableRecord
  2
DEFPOINTS
 70
     0
 62
     7
  6
CONTINUOUS
  0
LAYER
  5
20
330
2
100
AcDbSymbolTableRecord
100
AcDbLayerTableRecord
  2
ADPDIM
 70
     0
 62
     3
  6
CONTINUOUS
  0
LAYER
  5
21
330
2
100
AcDbSymbolTableRecord
100
AcDbLayerTableRecord
  2
ADP1DETAIL
 70
     0
 62
     7
  6
CONTINUOUS
  0
ENDTAB
  0
TABLE
  2
STYLE
  5
3
330
0
100
AcDbSymbolTable
 70
     2
  0
STYLE
  5
10
330
3
100
AcDbSymbolTableRecord
100
AcDbTextStyleTableRecord
  2
STANDARD
 70
     0
 40
0.0
 41
1.0
 50
0.0
 71
     0
 42
0.2
  3
txt
  4

  0
STYLE
  5
236
330
3
100
AcDbSymbolTableRecord
100
AcDbTextStyleTableRecord
  2
ARIAL_WIDE
 70
     0
 40
0.0
 41
1.25
 50
0.0
 71
     0
 42
0.2
  3
ARIAL.TTF
  4

1001
ACAD
1000
Arial
1071
       34
  0
ENDTAB
  0
TABLE
  2
VIEW
  5
6
330
0
100
AcDbSymbolTable
 70
     0
  0
ENDTAB
  0
TABLE
  2
UCS
  5
7
330
0
100
AcDbSymbolTable
 70
     0
  0
ENDTAB
  0
TABLE
  2
APPID
  5
9
330
0
100
AcDbSymbolTable
 70
     1
  0
APPID
  5
11
330
9
100
AcDbSymbolTableRecord
100
AcDbRegAppTableRecord
  2
ACAD
 70
     0
  0
ENDTAB
  0
TABLE
  2
DIMSTYLE
  5
A
330
0
100
AcDbSymbolTable
 70
     1
  0
DIMSTYLE
105
22A
330
A
100
AcDbSymbolTableRecord
100
AcDbDimStyleTableRecord
  2
STANDARD
 70
     0
  3

  4

  5

  6

  7

 40
1.0
 41
0.18
 42
0.0625
 43
0.38
 44
0.18
 45
0.0
 46
0.0
 47
0.0
 48
0.0
140
0.18
141
0.09
142
0.0
143
25.4
144
1.0
145
0.0
146
1.0
147
0.09
 71
     0
 72
     0
 73
     1
 74
     1
 75
     0
 76
     0
 77
     0
 78
     0
170
     0
171
     2
172
     0
173
     0
174
     0
175
     0
176
     0
177
     0
178
     0
270
     2
271
     4
272
     4
273
     2
274
     2
340
10
275
     0
280
     0
281
     0
282
     0
283
     1
284
     0
285
     0
286
     0
287
     3
288
     0
  0
ENDTAB
  0
TABLE
  2
BLOCK_RECORD
  5
1
330
0
100
AcDbSymbolTable
 70
     2
  0
BLOCK_RECORD
  5
18
102
{ACAD_XDICTIONARY
360
28B
102
}
330
1
100
AcDbSymbolTableRecord
100
AcDbBlockTableRecord
  2
*MODEL_SPACE
  0
BLOCK_RECORD
  5
15
102
{ACAD_XDICTIONARY
360
289
102
}
330
1
100
AcDbSymbolTableRecord
100
AcDbBlockTableRecord
  2
*PAPER_SPACE
  0
BLOCK_RECORD
  5
1C
330
1
100
AcDbSymbolTableRecord
100
AcDbBlockTableRecord
  2
*D0
  0
BLOCK_RECORD
  5
1D
330
1
100
AcDbSymbolTableRecord
100
AcDbBlockTableRecord
  2
*D1
  0
ENDTAB
  0
ENDSEC
  0
SECTION
  2
BLOCKS
  0
BLOCK
  5
24
330
18
100
AcDbEntity
  8
0
100
AcDbBlockBegin
  2
*MODEL_SPACE
 70
     0
 10
0.0
 20
0.0
 30
0.0
  3
*MODEL_SPACE
  1

  0
ENDBLK
  5
25
330
18
100
AcDbEntity
  8
0
100
AcDbBlockEnd
  0
BLOCK
  5
22
330
15
100
AcDbEntity
 67
     1
  8
0
100
AcDbBlockBegin
  2
*PAPER_SPACE
 70
     0
 10
0.0
 20
0.0
 30
0.0
  3
*PAPER_SPACE
  1

  0
ENDBLK
  5
23
330
15
100
AcDbEntity
 67
     1
  8
0
100
AcDbBlockEnd
  0
BLOCK
  5
26
330
1C
100
AcDbEntity
  8
0
100
AcDbBlockBegin
  2
*D0
 70
     1
 10
0.0
 20
0.0
 30
0.0
  3
*D0
  1

  0
LINE
  5
27
330
1C
100
AcDbEntity
  8
0
  6
BYBLOCK
 62
     0
100
AcDbLine
 10
-35.80714906867604
 20
13.34678847104414
 30
0.0
 11
-35.80714906867604
 21
14.42375242554653
 31
0.0
  0
LINE
  5
28
330
1C
100
AcDbEntity
  8
0
  6
BYBLOCK
 62
     0
100
AcDbLine
 10
-17.80714906867604
 20
13.34678847104414
 30
0.0
 11
-17.80714906867604
 21
14.42375242554653
 31
0.0
  0
LINE
  5
29
330
1C
100
AcDbEntity
  8
0
  6
BYBLOCK
 62
     0
100
AcDbLine
 10
-35.80714906867604
 20
14.24375242554653
 30
0.0
 11
-27.01548240200938
 21
14.24375242554653
 31
0.0
  0
LINE
  5
2A
330
1C
100
AcDbEntity
  8
0
  6
BYBLOCK
 62
     0
100
AcDbLine
 10
-17.80714906867604
 20
14.24375242554653
 30
0.0
 11
-26.59881573534271
 21
14.24375242554653
 31
0.0
  0
LINE
  5
2B
330
1C
100
AcDbEntity
  8
0
  6
BYBLOCK
 62
     0
100
AcDbLine
 10
-35.93214906867604
 20
14.11875242554653
 30
0.0
 11
-35.68214906867604
 21
14.36875242554653
 31
0.0
  0
LINE
  5
2C
330
1C
100
AcDbEntity
  8
0
  6
BYBLOCK
 62
     0
100
AcDbLine
 10
-17.93214906867604
 20
14.11875242554653
 30
0.0
 11
-17.68214906867604
 21
14.36875242554653
 31
0.0
  0
TEXT
  5
2D
330
1C
100
AcDbEntity
  8
0
  6
BYBLOCK
 62
     0
100
AcDbText
 10
-26.89048240200937
 20
14.18125242554653
 30
0.0
 40
0.125
  1
18
 72
     1
 11
-26.80714906867605
 21
14.24375242554653
 31
0.0
100
AcDbText
 73
     2
  0
POINT
  5
2E
330
1C
100
AcDbEntity
  8
DEFPOINTS
  6
BYBLOCK
 62
     0
100
AcDbPoint
 10
-35.80714906867604
 20
13.28428847104414
 30
0.0
  0
POINT
  5
2F
330
1C
100
AcDbEntity
  8
DEFPOINTS
  6
BYBLOCK
 62
     0
100
AcDbPoint
 10
-17.80714906867604
 20
13.28428847104414
 30
0.0
  0
POINT
  5
30
330
1C
100
AcDbEntity
  8
DEFPOINTS
  6
BYBLOCK
 62
     0
100
AcDbPoint
 10
-17.80714906867604
 20
14.24375242554653
 30
0.0
  0
ENDBLK
  5
31
330
1C
100
AcDbEntity
  8
0
100
AcDbBlockEnd
  0
BLOCK
  5
32
330
1D
100
AcDbEntity
  8
0
100
AcDbBlockBegin
  2
*D1
 70
     1
 10
0.0
 20
0.0
 30
0.0
  3
*D1
  1

  0
LINE
  5
33
330
1D
100
AcDbEntity
  8
0
  6
BYBLOCK
 62
     0
100
AcDbLine
 10
-37.57578866828667
 20
11.15214612158822
 30
0.0
 11
-38.65299209474327
 21
11.15214612158822
 31
0.0
  0
LINE
  5
34
330
1D
100
AcDbEntity
  8
0
  6
BYBLOCK
 62
     0
100
AcDbLine
 10
-37.57578866828667
 20
-4.097853878411777
 30
0.0
 11
-38.65299209474327
 21
-4.097853878411777
 31
0.0
  0
LINE
  5
35
330
1D
100
AcDbEntity
  8
0
  6
BYBLOCK
 62
     0
100
AcDbLine
 10
-38.47299209474327
 20
11.15214612158822
 30
0.0
 11
-38.47299209474327
 21
3.964646121588222
 31
0.0
  0
LINE
  5
36
330
1D
100
AcDbEntity
  8
0
  6
BYBLOCK
 62
     0
100
AcDbLine
 10
-38.47299209474327
 20
-4.097853878411777
 30
0.0
 11
-38.47299209474327
 21
3.089646121588222
 31
0.0
  0
LINE
  5
37
330
1D
100
AcDbEntity
  8
0
  6
BYBLOCK
 62
     0
100
AcDbLine
 10
-38.34799209474327
 20
11.02714612158822
 30
0.0
 11
-38.59799209474327
 21
11.27714612158822
 31
0.0
  0
LINE
  5
38
330
1D
100
AcDbEntity
  8
0
  6
BYBLOCK
 62
     0
100
AcDbLine
 10
-38.34799209474327
 20
-4.222853878411777
 30
0.0
 11
-38.59799209474327
 21
-3.972853878411778
 31
0.0
  0
TEXT
  5
39
330
1D
100
AcDbEntity
  8
0
  6
BYBLOCK
 62
     0
100
AcDbText
 10
-38.41049209474327
 20
3.214646121588222
 30
0.0
 40
0.125
  1
15 1/4
 50
90.0
 72
     1
 11
-38.47299209474327
 21
3.527146121588222
 31
0.0
100
AcDbText
 73
     2
  0
POINT
  5
3A
330
1D
100
AcDbEntity
  8
DEFPOINTS
  6
BYBLOCK
 62
     0
100
AcDbPoint
 10
-37.51328866828667
 20
11.15214612158822
 30
0.0
  0
POINT
  5
3B
330
1D
100
AcDbEntity
  8
DEFPOINTS
  6
BYBLOCK
 62
     0
100
AcDbPoint
 10
-37.51328866828667
 20
-4.097853878411777
 30
0.0
  0
POINT
  5
3C
330
1D
100
AcDbEntity
  8
DEFPOINTS
  6
BYBLOCK
 62
     0
100
AcDbPoint
 10
-38.47299209474327
 20
-4.097853878411777
 30
0.0
  0
ENDBLK
  5
3D
330
1D
100
AcDbEntity
  8
0
100
AcDbBlockEnd
  0
ENDSEC
  0
SECTION
  2
ENTITIES
  0
LWPOLYLINE
  5
3E
330
18
100
AcDbEntity
  8
ADP1DETAIL
100
AcDbPolyline
 90
        5
 70
     0
 43
0.0
 10
-31.44630809816591
 20
0.5758984406207262
 42
-0.0072971234096784
 10
-31.44381863435097
 20
0.5123818379032823
 42
-0.3878336932203419
 10
-33.35289820210745
 20
-2.149574179109263
 42
0.0999049951952704
 10
-34.88553954523588
 20
-2.633566182202454
 42
0.3689985876986422
 10
-35.20820088063134
 20
-3.493996409923683
 42
1.392031442229728
  0
LWPOLYLINE
  5
45
330
18
100
AcDbEntity
  8
ADP1DETAIL
100
AcDbPolyline
 90
       12
 70
     0
 43
0.0
 10
-35.47708532679422
 20
-2.552900848353587
 42
-0.0771247070352098
 10
-34.58976665445671
 20
-2.23023951295813
 42
0.2281781502875373
 10
-34.48221287599155
 20
-2.149574179109263
 42
0.2314428247850571
 10
-34.13266309597981
 20
-1.558028397550923
 42
0.5118472819254329
 10
-34.42843598675898
 20
-1.074036394457728
 42
0.0936439163729604
 10
-34.67043198830558
 20
-1.100924839074018
 42
-0.5693896899664676
 10
-34.96620487908475
 20
-0.8320403929111357
 42
-0.8310035088089035
 10
-34.02510931751465
 20
-1.047147949841443
 10
-34.02510931751465
 20
-1.289143951388034
 42
-0.2360679774997612
 10
-33.4604519805726
 20
-1.262255506771744
 42
0.0515864914088188
 10
-33.78311331596806
 20
-1.746247509864932
 42
-0.1882851890171793
 10
-34.50910132060784
 20
-2.337793291423279
 42
-1.348732090552813
  0
LWPOLYLINE
  5
53
330
18
100
AcDbEntity
  8
ADP1DETAIL
100
AcDbPolyline
 90
       12
 70
     0
 43
0.0
 10
-31.92781063744416
 20
-0.8589288375274275
 42
-0.2008175085627773
 10
-33.51422886980518
 20
-2.015131956027822
 42
0.0910677072841137
 10
-35.10064710216619
 20
-2.71423151605132
 42
0.5358297258787181
 10
-35.26197776986392
 20
-3.81665774531914
 42
-1.288015861449874
 10
-34.67043198830558
 20
-3.843546189935432
 42
-0.4907159970332014
 10
-35.45019688217794
 20
-4.139319080714598
 42
-0.3927987363679397
 10
-35.69219288372453
 20
-2.983115962214203
 10
-35.47708532679422
 20
-2.552900848353587
 42
-0.2360679774998014
 10
-35.66530443910824
 20
-2.095797289876681
 42
0.2714983898790147
 10
-34.88553954523588
 20
-1.934466622178957
 42
0.1856776554368403
 10
-34.53598976522413
 20
-1.450474619085767
 42
0.359778512836143
 10
-34.69732043292187
 20
-1.100924839074018
 42
0.0327110680745123
  0
LWPOLYLINE
  5
61
330
18
100
AcDbEntity
  8
ADP1DETAIL
100
AcDbPolyline
 90
        2
 70
     0
 43
0.0
 10
-35.66530443910824
 20
-2.095797289876681
 42
0.1978251872643275
 10
-35.3157546590965
 20
-2.472235514504721
 42
18.73277170080507
  0
DIMENSION
  5
65
330
18
100
AcDbEntity
  8
ADPDIM
100
AcDbDimension
  2
*D1
 10
-36.28700055716292
 20
-4.097853878411777
 30
0.0
 11
-36.28700055716292
 21
3.527146121588222
 31
0.0
 12
2.185991537580349
 22
0.0
 32
0.0
100
AcDbAlignedDimension
 13
-35.32729713070632
 23
11.15214612158822
 33
0.0
 14
-35.32729713070632
 24
-4.097853878411777
 34
0.0
 50
90.0
100
AcDbRotatedDimension
  0
LWPOLYLINE
  5
66
330
18
100
AcDbEntity
  8
ADP1DETAIL
100
AcDbPolyline
 90
        9
 70
     0
 43
0.0
 10
-34.56287820984042
 20
3.066784076450673
 10
-34.10577465136352
 20
2.932341853369232
 10
-33.27223286825858
 20
2.986118742601806
 42
-0.0963202345406437
 10
-32.41180264053736
 20
2.824788074904073
 42
0.1053007875701524
 10
-31.30937641126953
 20
2.475238294892326
 42
0.0926055581332341
 10
-29.18518928658275
 20
2.878564964136657
 42
0.1462318338847628
 10
-28.08276305731493
 20
3.738995191857878
 42
0.8449068952290769
 10
-28.35164750347781
 20
4.007879638020761
 42
-0.200223954509624
 10
-30.71783062971118
 20
2.878564964136657
 42
0.2630842127552617
  0
LWPOLYLINE
  5
71
330
18
100
AcDbEntity
  8
ADP1DETAIL
100
AcDbPolyline
 90
        9
 70
     0
 43
0.0
 10
-31.20182263280438
 20
5.486744091916621
 42
-0.4964739350086351
 10
-31.8471453035953
 20
5.567409425765488
 42
-0.557805401787848
 10
-31.06738040972294
 20
7.019385435045057
 42
-0.4815336461977174
 10
-29.34651995428048
 20
5.110305867288589
 42
-0.2639663724210671
 10
-30.82538440817634
 20
3.28189163338098
 42
-0.2391544410311257
 10
-32.51935641900251
 20
3.443222301078712
 42
-0.3105898035406979
 10
-33.51422886980518
 20
4.76075608727684
 42
-0.297609361049928
 10
-33.19156753440972
 20
5.432967202684046
 42
-0.2133500455450886
 10
-32.9764599774794
 20
5.459855647300337
 42
-0.9674522110795017
  0
LWPOLYLINE
  5
7C
330
18
100
AcDbEntity
  8
ADP1DETAIL
100
AcDbPolyline
 90
       12
 70
     0
 43
0.0
 10
-32.9764599774794
 20
5.459855647300337
 42
0.7562595738807873
 10
-33.00334842209569
 20
5.137194311904873
 42
0.9153932168796817
 10
-32.41180264053736
 20
5.728740093463213
 42
0.3333333333333602
 10
-32.81512930978168
 20
5.970736095009812
 42
0.2360679774997882
 10
-33.62178264827033
 20
5.701851648846929
 42
0.3832764392105545
 10
-33.29912131287487
 20
3.38944541184613
 42
0.3817390841789506
 10
-29.61540440044336
 20
3.49699919031128
 42
0.3137025540377568
 10
-28.99697017426873
 20
6.481616542719292
 42
0.2810219201921029
 10
-31.28248796665324
 20
7.557154327370822
 42
0.2496736042086707
 10
-32.41180264053736
 20
7.019385435045057
 42
-0.2360679774997967
 10
-33.32600975749115
 20
6.293397430405276
 42
0.1622776601683881
 10
-33.08401375594456
 20
5.970736095009812
 42
0.4675732263181476
  0
LWPOLYLINE
  5
8A
330
18
100
AcDbEntity
  8
ADP1DETAIL
100
AcDbPolyline
 90
        5
 70
     0
 43
0.0
 10
-35.23508932524763
 20
3.362556967229839
 42
0.1655478968266108
 10
-35.20820088063134
 20
2.824788074904073
 42
0.364335481061969
 10
-34.85865110061959
 20
2.636568962590057
 42
0.0427269555025918
 10
-33.59489420365405
 20
2.636568962590057
 42
-0.2969800525383092
 10
-31.61853890436206
 20
1.315093865057555
 42
-0.3878336932203419
  0
LWPOLYLINE
  5
91
330
18
100
AcDbEntity
  8
ADP1DETAIL
100
AcDbPolyline
 90
        8
 70
     0
 43
0.0
 10
-34.24021687444496
 20
2.340796071810885
 10
-34.93931643446845
 20
2.287019182578317
 42
1.10070584606775
 10
-33.218455979026
 20
-0.2673830559690806
 42
0.6422221051820638
 10
-33.6755595375029
 20
1.453477399473378
 42
1.532289774830004
 10
-33.51422886980518
 20
0.8081547286824495
 42
0.3275918295671556
 10
-33.4604519805726
 20
0.9963738409964726
 42
-0.4839224655155821
 10
-33.51422886980518
 20
-0.1329408328876394
 42
-0.9429050803486116
 10
-34.91242798985217
 20
1.937469402566561
 42
-1.588401201431055
  0
LWPOLYLINE
  5
9B
330
18
100
AcDbEntity
  8
ADP1DETAIL
100
AcDbPolyline
 90
        6
 70
     0
 43
0.0
 10
-33.51422886980518
 20
0.8081547286824495
 42
-0.3444106588115022
 10
-33.51422886980518
 20
0.1897205025078179
 42
-0.2893504211870175
 10
-34.29399376367754
 20
-0.1329408328876394
 42
-0.5314413113610837
 10
-35.01998176831732
 20
1.480365844089655
 42
-0.6918588926400027
 10
-32.14291819437447
 20
0.915708507147606
 42
-0.4709048012347866
 10
-33.75622487135176
 20
-1.665582176016075
 42
-0.0417896333010611
  0
LWPOLYLINE
  5
A3
330
18
100
AcDbEntity
  8
ADP1DETAIL
100
AcDbPolyline
 90
       12
 70
     0
 43
0.0
 10
-35.15442399139876
 20
10.43421790131367
 42
-0.2619510834095353
 10
-34.91242798985217
 20
9.708229896673888
 42
-0.0596024475323587
 10
-35.12753554678248
 20
9.036018781266676
 42
0.0257646605074741
 10
-35.69219288372453
 20
7.610931216603397
 42
0.1180798688479301
 10
-35.7459697729571
 20
7.019385435045057
 42
0.3553997391505339
 10
-34.88553954523588
 20
6.804277878114749
 42
0.2077945517352218
 10
-34.58976665445671
 20
7.718484995068554
 42
-0.1806573091622471
 10
-34.48221287599155
 20
8.121811664312877
 42
-0.1740499078715223
 10
-33.40667509134002
 20
9.412457005894715
 42
-0.2357578556463683
 10
-31.95469908206045
 20
9.304903227429564
 42
-0.3161305721313428
 10
-31.6051493020487
 20
8.525138333557201
 42
-0.6044356998076458
 10
-32.11602974975818
 20
8.121811664312877
 42
-7.502398165900076
  0
LWPOLYLINE
  5
B1
330
18
100
AcDbEntity
  8
ADP1DETAIL
100
AcDbPolyline
 90
        5
 70
     0
 43
0.0
 10
-33.27223286825858
 20
2.986118742601806
 42
-0.1616458741277812
 10
-35.3157546590965
 20
5.110305867288589
 42
-0.3151942925256081
 10
-35.23508932524763
 20
5.594297870381779
 42
-0.6246693830775313
 10
-34.91242798985217
 20
5.486744091916621
 42
0.2163856423142286
 10
-32.86890619901426
 20
2.986118742601806
 42
-10.60664746310333
  0
LWPOLYLINE
  5
B8
330
18
100
AcDbEntity
  8
ADP1DETAIL
100
AcDbPolyline
 90
        2
 70
     0
 43
0.0
 10
-33.32600975749115
 20
6.293397430405276
 42
0.3729333862125281
 10
-32.46557952976993
 20
6.239620541172694
 42
-0.0335028563683392
  0
LWPOLYLINE
  5
BC
330
18
100
AcDbEntity
  8
ADP1DETAIL
100
AcDbPolyline
 90
        6
 70
     0
 43
0.0
 10
-33.95212564516257
 20
10.27047826056728
 42
-0.1313579597091006
 10
-31.8471453035953
 20
11.13331746133717
 42
-0.3974374909231458
 10
-31.55137241281613
 20
10.91820990440685
 42
-0.0929711415083057
 10
-31.55137241281613
 20
10.32666412284852
 42
-0.4744753104946887
 10
-31.8471453035953
 20
10.16533345515079
 42
0.0712450733997388
 10
-32.62583464227727
 20
10.01265014712772
 42
-0.0617265049450816
  0
LWPOLYLINE
  5
C4
330
18
100
AcDbEntity
  8
ADP1DETAIL
100
AcDbPolyline
 90
        5
 70
     0
 43
0.0
 10
-33.97133242828208
 20
9.869560564371614
 42
-0.0722022700787113
 10
-32.27736041745592
 20
10.83754457055799
 42
-0.5790415866183329
 10
-31.87403374821158
 20
10.51488323516254
 42
-0.3268015098703034
 10
-31.95469908206045
 20
10.43421790131367
 42
0.11103983979634
 10
-33.35289820210745
 20
9.896449008987904
 42
-0.191411069695982
  0
LWPOLYLINE
  5
CB
330
18
100
AcDbEntity
  8
ADP1DETAIL
100
AcDbPolyline
 90
        8
 70
     0
 43
0.0
 10
-31.44381863435097
 20
8.498249888940918
 42
-0.6143223689064153
 10
-32.38491419592107
 20
7.90670410738257
 42
0.8084157902340283
 10
-32.27736041745592
 20
8.444472999708334
 42
0.7722976177140552
 10
-32.76135242054911
 20
7.826038773533712
 42
0.4255818939363682
 10
-31.36315330050211
 20
7.664708105835979
 42
0.2558674336029419
 10
-31.25559952203695
 20
9.116684115115548
 42
0.3537938032707879
 10
-32.9764599774794
 20
9.97711434283677
 42
0.0944988995994501
 10
-34.10577465136352
 20
9.493122339743589
 42
-1.07615545973722
  0
DIMENSION
  5
D5
330
18
100
AcDbEntity
  8
ADPDIM
100
AcDbDimension
  2
*D0
 10
-17.80714906867604
 20
11.84509235246733
 30
0.0
 11
-26.80714906867605
 21
11.84509235246733
 31
0.0
 12
0.0
 22
-2.3986600730792
 32
0.0
100
AcDbAlignedDimension
 13
-35.80714906867604
 23
10.88562839796494
 33
0.0
 14
-17.80714906867604
 24
10.88562839796494
 34
0.0
100
AcDbRotatedDimension
  0
LWPOLYLINE
  5
D6
330
18
100
AcDbEntity
  8
ADP1DETAIL
100
AcDbPolyline
 90
       12
 70
     0
 43
0.0
 10
-34.85865110061959
 20
9.466233895127297
 42
0.4092627106021245
 10
-35.15442399139876
 20
10.83754457055799
 42
-1.628340266650863
 10
-35.7728582175734
 20
10.75687923670913
 42
-0.2779728340764709
 10
-35.3157546590965
 20
11.13331746133717
 42
-0.4258105132915134
 10
-34.48221287599155
 20
10.38044101208109
 42
-0.1124487944816758
 10
-34.50910132060784
 20
9.654453007441313
 42
-0.0265437847926715
 10
-35.39641999294535
 20
7.664708105835979
 42
0.2407735625706002
 10
-35.39641999294535
 20
7.261381436591648
 42
0.563920852183313
 10
-35.01998176831732
 20
7.234492991975365
 42
0.1660596702371474
 10
-34.88553954523588
 20
7.691596550452263
 42
-0.0876519990676483
 10
-34.10577465136352
 20
9.493122339743589
 42
0.239187931085862
 10
-33.99822087289837
 20
10.43421790131367
 42
-5.302917005431636
  0
LWPOLYLINE
  5
E4
330
18
100
AcDbEntity
  8
ADP1DETAIL
100
AcDbPolyline
 90
        3
 70
     0
 43
0.0
 10
-34.48221287599155
 20
10.38044101208109
 42
-0.1783509616166754
 10
-33.99822087289837
 20
10.67621390286026
 42
-0.1622776601683806
 10
-34.21332842982867
 20
9.466233895127297
 42
-0.2935794195908548
  0
LWPOLYLINE
  5
E9
330
18
100
AcDbEntity
  8
ADP1DETAIL
100
AcDbPolyline
 90
        4
 70
     0
 43
0.0
 10
-33.83689020520064
 20
2.932341853369232
 42
-0.1929949836045246
 10
-35.66530443910824
 20
5.35230186883518
 42
-0.9532350863263538
 10
-34.67043198830558
 20
5.674963204230638
 42
0.1105446450403395
 10
-33.59489420365405
 20
3.712106747241588
 42
0.1554652591732631
  0
LWPOLYLINE
  5
EF
330
18
100
AcDbEntity
  8
ADP1DETAIL
100
AcDbPolyline
 90
        4
 70
     0
 43
0.0
 10
-34.93931643446845
 20
2.287019182578317
 42
-0.6911463573104082
 10
-35.45019688217794
 20
3.900325859555611
 42
-0.5611061167149112
 10
-34.72420887753815
 20
3.631441413392728
 42
-1.103667343195614
 10
-35.28886621448021
 20
3.577664524160153
 42
-45.1387151757288
  0
LWPOLYLINE
  5
F5
330
18
100
AcDbEntity
  8
ADP1DETAIL
100
AcDbPolyline
 90
        2
 70
     0
 43
0.0
 10
-34.13266309597981
 20
-1.558028397550923
 42
-0.2166091947189393
 10
-33.78311331596806
 20
-1.342920840620617
 42
-5.53591952085047
  0
LWPOLYLINE
  5
F9
330
18
100
AcDbEntity
  8
ADP1DETAIL
100
AcDbPolyline
 90
        2
 70
     0
 43
0.0
 10
-34.50910132060784
 20
-1.235367062155459
 42
0.0274198739698579
 10
-34.21332842982867
 20
-1.181590172922884
 42
-1.122480733239377
  0
LWPOLYLINE
  5
FD
330
18
100
AcDbEntity
  8
ADP1DETAIL
100
AcDbPolyline
 90
        3
 70
     0
 43
0.0
 10
-34.29399376367754
 20
2.609680517973774
 42
-0.062257748298558
 10
-34.56287820984042
 20
3.066784076450673
 42
0.090169943749484
 10
-33.97133242828208
 20
3.013007187218091
 42
5.82419470146696
  0
LINE
  5
102
330
18
100
AcDbEntity
  8
ADP1DETAIL
100
AcDbLine
 10
-34.99309332370103
 20
6.777389433498465
 30
0.0
 11
-35.01998176831732
 21
6.696724099649593
 31
0.0
  0
LWPOLYLINE
  5
103
330
18
100
AcDbEntity
  8
ADP1DETAIL
100
AcDbPolyline
 90
       16
 70
     1
 43
0.0
 10
-35.82663510680597
 20
6.400951208870426
 42
0.1406252413798172
 10
-35.79223183301702
 20
6.268991183257303
 42
0.1071377243579717
 10
-35.67148555500605
 20
6.138835191830923
 42
0.0794805798196464
 10
-35.50302568356654
 20
6.057294515428608
 42
0.0670457147863304
 10
-35.28432733965979
 20
6.022387739565391
 42
0.06704571478633
 10
-35.0641872841401
 20
6.046591139832839
 42
0.0794805798196484
 10
-34.89195249253286
 20
6.119822190307185
 42
0.1071377243579714
 10
-34.76500449113251
 20
6.243936857845483
 42
0.1406252413798171
 10
-34.72420887753815
 20
6.374062764254134
 42
0.1406252413798177
 10
-34.7586121513271
 20
6.506022789867258
 42
0.1071377243579721
 10
-34.87935842933807
 20
6.636178781293637
 42
0.0794805798196514
 10
-35.04781830077758
 20
6.717719457695951
 42
0.0670457147863345
 10
-35.26651664468433
 20
6.752626233559171
 42
0.0670457147863338
 10
-35.48665670020402
 20
6.72842283329172
 42
0.0794805798196515
 10
-35.65889149181126
 20
6.655191782817376
 42
0.1071377243579742
 10
-35.78583949321161
 20
6.531077115279076
 42
0.1406252413798178
  0
LINE
  5
115
330
18
100
AcDbEntity
  8
ADP1DETAIL
100
AcDbLine
 10
-35.55775066064308
 20
6.669835655033309
 30
0.0
 11
-35.50397377141051
 21
6.804277878114749
 31
0.0
  0
LINE
  5
116
330
18
100
AcDbEntity
  8
ADP1DETAIL
100
AcDbLine
 10
-35.5308622160268
 20
5.83629387192837
 30
0.0
 11
-35.50302568356654
 21
6.057294515428608
 31
0.0
  0
LINE
  5
117
330
18
100
AcDbEntity
  8
ADP1DETAIL
100
AcDbLine
 10
-35.04687021293362
 20
6.078289873474961
 30
0.0
 11
-34.96620487908475
 21
5.970736095009812
 31
0.0
  0
LWPOLYLINE
  5
118
330
18
100
AcDbEntity
  8
ADP1DETAIL
100
AcDbPolyline
 90
        5
 70
     0
 43
0.0
 10
-19.80112211549813
 20
9.654453007441313
 42
-0.3072551911251218
 10
-19.74734522626555
 20
9.036018781266676
 42
-0.3609990999358549
 10
-20.33889100782389
 20
8.982241892034107
 42
0.152297621505507
 10
-19.82801056011441
 20
9.143572559731833
 42
0.2577722289894115
 10
-19.88178744934699
 20
9.600676118208738
 42
-26.52749747112961
  0
LWPOLYLINE
  5
11F
330
18
100
AcDbEntity
  8
ADP1DETAIL
100
AcDbPolyline
 90
        7
 70
     0
 43
0.0
 10
-18.0264847708231
 20
10.64932545824398
 42
-0.3569633781724377
 10
-19.55912611395153
 20
9.842672119755336
 42
-0.1021264604839912
 10
-21.38754034785913
 20
10.40732945669738
 42
0.3027756377320125
 10
-21.89842079556862
 20
10.70310234747655
 42
0.8088469384416484
 10
-21.7102016832546
 20
10.24599878899965
 42
-0.2498835028039724
 10
-21.03799056784738
 20
10.03089123206934
 42
-0.414213562373093
 10
-21.54887101555686
 20
6.831166322731041
 42
-2.549562850388717
  0
LWPOLYLINE
  5
128
330
18
100
AcDbEntity
  8
ADP1DETAIL
100
AcDbPolyline
 90
        9
 70
     0
 43
0.0
 10
-23.1084008033016
 20
8.605803667406068
 42
0.5521325634087966
 10
-23.1084008033016
 20
7.28826988120794
 42
0.4209382093260253
 10
-21.19932123554512
 20
7.745373439684838
 42
0.3658443842740136
 10
-21.81775546171976
 20
9.815783675139046
 42
-0.4351331948519542
 10
-22.27485902019665
 20
10.70310234747655
 42
-0.4637989512251063
 10
-21.65642479402202
 20
11.0526521274883
 42
-0.0896979925126255
 10
-21.14554434631255
 20
10.91820990440685
 10
-19.8548990047307
 20
10.35355256746481
 42
0.229950481668342
 10
-18.26848077236969
 20
10.64932545824398
 42
-0.7152947365096911
  0
LWPOLYLINE
  5
133
330
18
100
AcDbEntity
  8
ADP1DETAIL
100
AcDbPolyline
 90
       15
 70
     0
 43
0.0
 10
-18.0264847708231
 20
10.64932545824398
 42
-1.174764123487936
 10
-18.21470388313711
 20
11.13331746133717
 42
-0.5215294541599455
 10
-17.81137721389279
 20
10.75687923670913
 42
-0.4137972865023731
 10
-19.80112211549813
 20
9.762006785906464
 42
-0.0376822659183121
 10
-21.44131723709171
 20
10.38044101208109
 42
0.2079872407968637
 10
-21.7102016832546
 20
10.64932545824398
 42
0.780776406404498
 10
-21.84464390633603
 20
10.46110634592996
 42
0.2472204245292294
 10
-21.44131723709171
 20
10.29977567823223
 42
-0.2938767032271734
 10
-20.55399856475419
 20
8.955353447417817
 10
-20.44644478628904
 20
8.847799668952665
 42
-0.501478413072111
 10
-22.67818568944097
 20
6.589170321184442
 42
-0.516431755476742
 10
-23.75372347409251
 20
8.659580556638649
 42
-0.4394712141591363
 10
-22.67818568944097
 20
8.955353447417817
 42
-0.5534883984763987
 10
-22.67818568944097
 20
8.28314233201061
 42
-0.9109930402433182
 10
-23.02773546945272
 20
8.740245890487509
 42
-0.2816392861846051
  0
CIRCLE
  5
144
330
18
100
AcDbEntity
  8
ADP1DETAIL
100
AcDbCircle
 10
-19.61617321942122
 20
8.911387206896588
 30
0.0
 40
0.180939560929985
  0
LWPOLYLINE
  5
145
330
18
100
AcDbEntity
  8
ADP1DETAIL
100
AcDbPolyline
 90
        4
 70
     0
 43
0.0
 10
-30.71567945452869
 20
7.552000822779847
 42
-0.2852123475457209
 10
-31.12115729895551
 20
8.417584555092052
 42
-0.3669728131318754
 10
-30.4758346281646
 20
9.520010784359872
 42
-0.2336842787156418
 10
-28.27098216962895
 20
9.251126338196989
 42
0.276073646332188
  0
LWPOLYLINE
  5
14B
330
18
100
AcDbEntity
  8
ADP1DETAIL
100
AcDbPolyline
 90
       10
 70
     0
 43
0.0
 10
-26.81900616034938
 20
6.508504987335576
 42
-0.1217630489768547
 10
-27.08789060651227
 20
6.024512984242386
 42
-0.5725841390385851
 10
-27.32988660805886
 20
6.078289873474961
 10
-27.35677505267514
 20
6.93872010119619
 42
0.1829005087385977
 10
-28.21720528039637
 20
9.224237893580699
 42
0.1604605953182782
 10
-30.07250795892026
 20
10.32666412284852
 42
-0.4235029969686109
 10
-30.28761551585057
 20
10.67621390286026
 42
-0.3524694861736694
 10
-30.18006173738542
 20
10.75687923670913
 42
-0.1150572103987728
 10
-29.31963150966419
 20
10.56866012439511
 42
-0.3153503859407859
 10
-27.14166749574484
 20
6.723612544265884
 42
-0.1562290173271636
  0
LWPOLYLINE
  5
157
330
18
100
AcDbEntity
  8
ADP1DETAIL
100
AcDbPolyline
 90
        5
 70
     0
 43
0.0
 10
-29.15830084196647
 20
9.654453007441313
 42
0.0777873233988407
 10
-30.28761551585057
 20
10.05777967668563
 42
-0.4015376431108719
 10
-30.74471907432748
 20
10.5955485690114
 42
-0.3998607175467788
 10
-30.28761551585057
 20
11.10642901672088
 42
-0.2126134245318188
 10
-27.54499416498917
 20
9.304903227429564
 42
-0.3059288135878109
  0
LWPOLYLINE
  5
15E
330
18
100
AcDbEntity
  8
ADP1DETAIL
100
AcDbPolyline
 90
        5
 70
     0
 43
0.0
 10
-25.82413370954671
 20
8.605803667406068
 42
-0.2407789100006528
 10
-24.10327325410426
 20
10.05777967668563
 42
0.0223622127367491
 10
-23.43106213869705
 20
10.24599878899965
 42
0.8757647445101451
 10
-23.7806119187088
 20
11.13331746133717
 42
0.1882212083461537
 10
-26.25434882340732
 20
9.385568561278423
 42
116.0344591640125
  0
LWPOLYLINE
  5
165
330
18
100
AcDbEntity
  8
ADP1DETAIL
100
AcDbPolyline
 90
        6
 70
     0
 43
0.0
 10
-26.3081257126399
 20
8.767134335103801
 42
-0.183481258443069
 10
-24.07638480948797
 20
10.75687923670913
 42
-0.4738791275956336
 10
-23.69994658485993
 20
10.67621390286026
 42
-0.4332320124663065
 10
-23.88816569717395
 20
10.40732945669738
 42
0.2756907067166611
 10
-26.46945638033763
 20
7.79915032891742
 10
-26.81900616034938
 20
6.508504987335576
  0
ARC
  5
16D
330
18
100
AcDbEntity
  8
ADP1DETAIL
100
AcDbCircle
 10
-26.40972876975563
 20
8.989955790079827
 30
0.0
 40
1.006850749709781
100
AcDbArc
 50
119.1179493242472
 51
160.1529775295571
  0
ARC
  5
16E
330
18
100
AcDbEntity
  8
ADP1DETAIL
100
AcDbCircle
 10
-27.18476809079154
 20
9.26536139711149
 30
0.0
 40
0.6680843532869991
100
AcDbArc
 50
8.029390030512017
 51
64.73931360115959
  0
LWPOLYLINE
  5
16F
330
18
100
AcDbEntity
  8
ADP1DETAIL
100
AcDbPolyline
 90
        6
 70
     0
 43
0.0
 10
-20.55399856475419
 20
8.955353447417817
 42
0.5803225354712018
 10
-20.66155234321934
 20
9.681341452057605
 42
-0.5166452361584985
 10
-20.71532923245193
 20
9.896449008987904
 42
-0.4598471071807344
 10
-20.58088700937049
 20
9.896449008987904
 42
0.1289478598603092
 10
-20.23133722935874
 20
9.654453007441313
 42
0.3355915680049206
 10
-19.88178744934699
 20
9.762006785906464
 42
3.486139162738557
  0
LWPOLYLINE
  5
177
330
18
100
AcDbEntity
  8
ADP1DETAIL
100
AcDbPolyline
 90
        5
 70
     0
 43
0.0
 10
-19.77423367088184
 20
9.708229896673888
 42
-0.2360679774997914
 10
-20.12378345089359
 20
9.520010784359872
 42
-0.1818947680566216
 10
-20.60777545398678
 20
9.788895230522754
 42
2.723257374111763
 10
-20.60777545398678
 20
9.73511834129018
 42
-0.544026866548026
 10
-20.44644478628904
 20
8.847799668952665
 42
0.8488698336379966
  0
ARC
  5
17E
330
18
100
AcDbEntity
  8
ADP1DETAIL
100
AcDbCircle
 10
-26.32288156639276
 20
8.713029538010081
 30
0.0
 40
0.6760218004471773
100
AcDbArc
 50
84.18155741214357
 51
130.8695793353011
  0
ARC
  5
17F
330
18
100
AcDbEntity
  8
ADP1DETAIL
100
AcDbCircle
 10
-26.265070165248
 20
8.691063862043792
 30
0.0
 40
0.5870488314978633
100
AcDbArc
 50
88.95354226300637
 51
188.3509032976058
  0
ARC
  5
180
330
18
100
AcDbEntity
  8
ADP1DETAIL
100
AcDbCircle
 10
-20.08494458644799
 20
5.854219501672622
 30
0.0
 40
7.055772301185232
100
AcDbArc
 50
150.971316260028
 51
171.3792637034919
  0
LWPOLYLINE
  5
181
330
18
100
AcDbEntity
  8
ADP1DETAIL
100
AcDbPolyline
 90
        3
 70
     0
 43
0.0
 10
-27.14166749574484
 20
6.723612544265884
 42
1.908568330833815
 10
-27.03411371727968
 20
6.696724099649593
 42
-0.0737774320191326
 10
-26.3081257126399
 20
8.767134335103801
 42
-0.9999999282256728
  0
LWPOLYLINE
  5
186
330
18
100
AcDbEntity
  8
ADP1DETAIL
100
AcDbPolyline
 90
       10
 70
     0
 43
0.0
 10
-27.2223328295937
 20
5.890070761160945
 42
0.3663078514478536
 10
-26.7652292711168
 20
6.508504987335576
 42
-0.0743892073650575
 10
-26.17368348955846
 20
7.584042771987113
 42
-0.1880722848187185
 10
-24.6948190356626
 20
8.094923219696587
 42
-0.2927082441923295
 10
-23.80750036332508
 20
7.476488993521963
 42
-0.1988606087280978
 10
-23.80750036332508
 20
6.93872010119619
 42
-1.191265768741339
 10
-24.39904614488343
 20
7.31515832582423
 42
0.366026860753277
 10
-25.79724526493043
 20
7.180716102742782
 42
0.122398897794614
 10
-26.44256793572134
 20
6.078289873474961
 42
-0.1585204985373539
 10
-26.74554262795175
 20
5.635839586438128
 42
-0.1813345817725187
  0
ARC
  5
192
330
18
100
AcDbEntity
  8
ADP1DETAIL
100
AcDbCircle
 10
-24.26111838268507
 20
6.436304534199262
 30
0.0
 40
2.355607416355962
100
AcDbArc
 50
112.9282393914676
 51
166.3426874623377
  0
LWPOLYLINE
  5
193
330
18
100
AcDbEntity
  8
ADP1DETAIL
100
AcDbPolyline
 90
        4
 70
     0
 43
0.0
 10
-26.46945638033763
 20
7.79915032891742
 42
-0.0816439127272212
 10
-25.82413370954671
 20
8.605803667406068
 42
-0.3839160338475413
 10
-25.17881103875579
 20
8.605803667406068
 42
-0.3027756377319822
 10
-25.28636481722095
 20
8.363807665859468
 42
-3.574875414907536
  0
LWPOLYLINE
  5
199
330
18
100
AcDbEntity
  8
ADP1DETAIL
100
AcDbPolyline
 90
        6
 70
     0
 43
0.0
 10
-29.91117729122254
 20
3.255003188764689
 42
0.0522694492467197
 10
-28.35164750347781
 20
4.411206307265092
 42
-0.3379195796514831
 10
-28.05587461269865
 20
4.438094751881376
 42
-0.268336114585756
 10
-27.62565949883803
 20
4.007879638020761
 42
-0.2488947414602649
 10
-27.70632483268689
 20
3.658329858009013
 42
-0.2249943897002397
 10
-29.91117729122254
 20
2.394572961043467
 42
0.0865163185027319
  0
LWPOLYLINE
  5
1A1
330
18
100
AcDbEntity
  8
ADP1DETAIL
100
AcDbPolyline
 90
       10
 70
     0
 43
0.0
 10
-31.20182263280438
 20
0.8350431732987413
 42
-1.451242408913844
 10
-30.63716529586232
 20
0.6199356163684336
 42
-0.6525560006825124
 10
-31.63203774666499
 20
0.9425969517638979
 42
-0.5274795850451649
 10
-29.91117729122254
 20
2.394572961043467
 42
-0.2360679774997759
 10
-29.23896617581533
 20
1.991246291799136
 42
-0.6563411849700576
 10
-29.85740040198996
 20
1.587919622554812
 42
-0.6801469812248416
 10
-29.74984662352481
 20
2.098800070264292
 42
0.4528377830293201
 10
-31.33626485588582
 20
1.426588954857088
 42
0.2784043214654773
 10
-31.20182263280438
 20
0.8350431732987413
 42
-0.4342053419502854
 10
-29.93806573583883
 20
1.856804068717694
 42
-4.55251802979855
  0
LWPOLYLINE
  5
1AD
330
18
100
AcDbEntity
  8
ADP1DETAIL
100
AcDbPolyline
 90
        2
 70
     0
 43
0.0
 10
-31.1806245472132
 20
2.09987475396741
 42
-0.0278249156525913
 10
-32.30424886207213
 20
2.179465404113139
 42
-0.0433206310257161
  0
LWPOLYLINE
  5
1B1
330
18
100
AcDbEntity
  8
ADP1DETAIL
100
AcDbPolyline
 90
        8
 70
     0
 43
0.0
 10
-27.73519356300351
 20
5.906748125559292
 42
-0.0369287694403928
 10
-27.78699016653576
 20
6.051401428858677
 42
0.0312195418813963
 10
-27.76010172191947
 20
6.9118316565799
 42
0.1195590958436459
 10
-28.19031683578009
 20
8.471361444324626
 42
0.3526944778081747
 10
-30.04561951430398
 20
9.224237893580699
 42
0.6172080236713838
 10
-30.26072707123429
 20
7.987369441231436
 42
-1.416943079770866
 10
-29.61540440044336
 20
7.637819661219689
 42
-0.1641101217273202
 10
-30.14713925203052
 20
7.408353603879637
 42
-0.3669728131318754
  0
LWPOLYLINE
  5
1BB
330
18
100
AcDbEntity
  8
ADP1DETAIL
100
AcDbPolyline
 90
        9
 70
     0
 43
0.0
 10
-32.33113730668849
 20
5.406078758067756
 42
0.446906555885488
 10
-30.77160751894377
 20
5.137194311904873
 42
0.2481469872592038
 10
-30.4758346281646
 20
5.809405427312086
 42
0.8739029144621484
 10
-31.33626485588582
 20
5.863182316544654
 42
0.7633232847638044
 10
-30.79849596356005
 20
5.594297870381779
 42
-0.526030489934228
 10
-31.52448396819984
 20
5.164082756521157
 42
-0.4394986984099753
 10
-32.22358352822333
 20
6.078289873474961
 42
-0.1827877498230112
 10
-31.55137241281613
 20
7.207604547359073
 42
-0.1748023082923072
 10
-30.20695018200171
 20
7.180716102742782
 42
0.353438701892223
  0
LWPOLYLINE
  5
1C6
330
18
100
AcDbEntity
  8
ADP1DETAIL
100
AcDbPolyline
 90
        2
 70
     0
 43
0.0
 10
-31.95469908206045
 20
7.046273879661341
 42
0.2647284503905776
 10
-32.49246797438621
 20
5.83629387192837
 42
1.639337631016617
  0
LWPOLYLINE
  5
1CA
330
18
100
AcDbEntity
  8
ADP1DETAIL
100
AcDbPolyline
 90
        3
 70
     0
 43
0.0
 10
-30.26072707123429
 20
7.987369441231436
 42
0.312376477871286
 10
-30.09939640353656
 20
7.745373439684838
 42
-0.4142135623731076
 10
-30.20695018200171
 20
7.503377438138247
 42
3.712834052397673
  0
LWPOLYLINE
  5
1CF
330
18
100
AcDbEntity
  8
ADP1DETAIL
100
AcDbPolyline
 90
       10
 70
     0
 43
0.0
 10
-28.13653994654751
 20
5.916959205777236
 42
-0.3681867696493978
 10
-27.35677505267514
 20
5.567409425765488
 42
-0.3663078514478486
 10
-26.52323326957021
 20
5.486744091916621
 10
-26.57701015880278
 20
5.298524979602605
 42
0.228748884014938
 10
-26.84589460496567
 20
5.137194311904873
 42
-0.2312368528978608
 10
-27.38366349729143
 20
4.330540973416218
 42
-0.7105799216631164
 10
-28.08276305731493
 20
5.056528978056006
 42
0.1046029409329072
 10
-27.97520927884978
 20
5.459855647300337
 42
0.3052726422812912
 10
-28.13653994654751
 20
5.728740093463213
 10
-28.13653994654751
 20
5.916959205777236
  0
LWPOLYLINE
  5
1DB
330
18
100
AcDbEntity
  8
ADP1DETAIL
100
AcDbPolyline
 90
        3
 70
     0
 43
0.0
 10
-28.13653994654751
 20
5.728740093463213
 42
-0.3027756377320024
 10
-27.54499416498917
 20
5.621186314998062
 42
-0.3123764778713206
 10
-27.4643288311403
 20
5.217859645753739
 42
21.12629800506092
  0
LINE
  5
1E0
330
18
100
AcDbEntity
  8
ADP1DETAIL
100
AcDbLine
 10
-28.05587461269865
 20
4.438094751881376
 30
0.0
 11
-28.08276305731493
 21
4.572536974962817
 31
0.0
  0
LWPOLYLINE
  5
1E1
330
18
100
AcDbEntity
  8
ADP1DETAIL
100
AcDbPolyline
 90
        3
 70
     0
 43
0.0
 10
-27.32988660805886
 20
4.922086754974565
 42
-1.443000468164724
 10
-27.59877105422174
 20
5.083417422672298
 42
0.4890838056657269
 10
-27.35677505267514
 20
5.567409425765488
 42
0.023383991444816
  0
LINE
  5
1E6
330
18
100
AcDbEntity
  8
ADP1DETAIL
100
AcDbLine
 10
-27.67943638807061
 20
4.142321861102209
 30
0.0
 11
-27.54499416498917
 21
4.303652528799934
 31
0.0
  0
CIRCLE
  5
1E7
330
18
100
AcDbEntity
  8
ADP1DETAIL
100
AcDbCircle
 10
-27.49121727575658
 20
4.948975199590859
 30
0.0
 40
0.1344422230814405
  0
LWPOLYLINE
  5
1E8
330
18
100
AcDbEntity
  8
ADP1DETAIL
100
AcDbPolyline
 90
        2
 70
     0
 43
0.0
 10
-26.57701015880278
 20
5.298524979602605
 42
0.4490660643102497
 10
-27.2223328295937
 20
5.459855647300337
 42
-0.0452657405780376
  0
ARC
  5
1EC
330
18
100
AcDbEntity
  8
ADP1DETAIL
100
AcDbCircle
 10
-30.62127296023556
 20
7.359734389167607
 30
0.0
 40
3.588334574056491
100
AcDbArc
 50
352.8295292580447
 51
31.80936125522876
  0
ARC
  5
1ED
330
18
100
AcDbEntity
  8
ADP1DETAIL
100
AcDbCircle
 10
-27.40716862768449
 20
8.811117420005933
 30
0.0
 40
0.5126600260858371
100
AcDbArc
 50
339.6326262726482
 51
105.5954856665743
  0
ARC
  5
1EE
330
18
100
AcDbEntity
  8
ADP1DETAIL
100
AcDbCircle
 10
-27.504897361614
 20
8.749798364232768
 30
0.0
 40
0.5057833142043604
100
AcDbArc
 50
349.7250261977214
 51
97.61053409453973
  0
LINE
  5
1EF
330
18
100
AcDbEntity
  8
ADP1DETAIL
100
AcDbLine
 10
-27.57188260960546
 20
9.251126338196989
 30
0.0
 11
-27.54499416498917
 21
9.304903227429564
 31
0.0
  0
ARC
  5
1F0
330
18
100
AcDbEntity
  8
ADP1DETAIL
100
AcDbCircle
 10
-25.77483822775025
 20
8.780578557411942
 30
0.0
 40
1.085222569499175
100
AcDbArc
 50
155.8693477948325
 51
189.2678362628216
  0
ARC
  5
1F1
330
18
100
AcDbEntity
  8
ADP1DETAIL
100
AcDbCircle
 10
-26.80921226479497
 20
8.523090477290319
 30
0.0
 40
0.0904824065745502
100
AcDbArc
 50
113.9167307696157
 51
178.7031341784295
  0
ARC
  5
1F2
330
18
100
AcDbEntity
  8
ADP1DETAIL
100
AcDbCircle
 10
-26.92778214084254
 20
8.575248616705742
 30
0.0
 40
0.0574564959946875
100
AcDbArc
 50
88.78112476487011
 51
299.2913621709843
  0
ARC
  5
1F3
330
18
100
AcDbEntity
  8
ADP1DETAIL
100
AcDbCircle
 10
-26.84589460496567
 20
8.552026778173493
 30
0.0
 40
0.1938953315630006
100
AcDbArc
 50
146.3099324740184
 51
236.3099324740222
  0
ARC
  5
1F4
330
18
100
AcDbEntity
  8
ADP1DETAIL
100
AcDbCircle
 10
-26.9380835579358
 20
8.517455920809689
 30
0.0
 40
0.1276876163861876
100
AcDbArc
 50
263.0887728809745
 51
43.781124764871
  0
LINE
  5
1F5
330
18
100
AcDbEntity
  8
ADP1DETAIL
100
AcDbLine
 10
-25.28636481722095
 20
8.363807665859468
 30
0.0
 11
-25.34014170645352
 21
8.068034775080302
 31
0.0
  0
ARC
  5
1F6
330
18
100
AcDbEntity
  8
ADP1DETAIL
100
AcDbCircle
 10
-26.25434882340732
 20
9.278014782813274
 30
0.0
 40
0.0
100
AcDbArc
 50
0.0
 51
121.9426325200561
  0
LWPOLYLINE
  5
1F7
330
18
100
AcDbEntity
  8
ADP1DETAIL
100
AcDbPolyline
 90
        2
 70
     0
 43
0.0
 10
-24.39904614488343
 20
7.31515832582423
 42
0.4747578773936105
 10
-23.96883103102282
 20
7.557154327370822
 42
-9.29167167623798
  0
LWPOLYLINE
  5
1FB
330
18
100
AcDbEntity
  8
ADP1DETAIL
100
AcDbPolyline
 90
       16
 70
     1
 43
0.0
 10
-31.1480457435718
 20
11.16020590595345
 42
0.1257924725851392
 10
-31.28647911232218
 20
11.12481818820383
 42
0.1059278976127979
 10
-31.41439746974846
 20
11.01451020874124
 42
0.0862574668330564
 10
-31.49471193508161
 20
10.85873346007824
 42
0.0761316239664671
 10
-31.52472396709232
 20
10.66276968055212
 42
0.0761316239664648
 10
-31.49471193508161
 20
10.466805901026
 42
0.086257466833054
 10
-31.41439746974846
 20
10.311029152363
 42
0.1059278976127969
 10
-31.28647911232218
 20
10.20072117290041
 42
0.125792472585143
 10
-31.1480457435718
 20
10.16533345515079
 42
0.125792472585133
 10
-31.00961237482142
 20
10.20072117290041
 42
0.105927897612794
 10
-30.88169401739514
 20
10.311029152363
 42
0.0862574668330562
 10
-30.801379552062
 20
10.466805901026
 42
0.0761316239664687
 10
-30.77136752005127
 20
10.66276968055212
 42
0.0761316239664687
 10
-30.801379552062
 20
10.85873346007825
 42
0.0862574668330563
 10
-30.88169401739514
 20
11.01451020874124
 42
0.1059278976128015
 10
-31.00961237482143
 20
11.12481818820383
 42
0.1257924725851408
  0
LINE
  5
20D
330
18
100
AcDbEntity
  8
ADP1DETAIL
100
AcDbLine
 10
-31.55137241281613
 20
10.32666412284852
 30
0.0
 11
-31.44381863435097
 21
10.38044101208109
 31
0.0
  0
LINE
  5
20E
330
18
100
AcDbEntity
  8
ADP1DETAIL
100
AcDbLine
 10
-31.63203774666499
 20
10.99887523825573
 30
0.0
 11
-31.41439746974846
 21
11.01451020874124
 31
0.0
  0
LINE
  5
20F
330
18
100
AcDbEntity
  8
ADP1DETAIL
100
AcDbLine
 10
-30.91207073833655
 20
11.03949879533032
 30
0.0
 11
-30.4758346281646
 21
11.0526521274883
 31
0.0
  0
LINE
  5
210
330
18
100
AcDbEntity
  8
ADP1DETAIL
100
AcDbLine
 10
-30.88169401739514
 20
10.311029152363
 30
0.0
 11
-30.65234862870067
 21
10.2785891388775
 31
0.0
  0
CIRCLE
  5
211
330
18
100
AcDbEntity
  8
ADP1DETAIL
100
AcDbCircle
 10
-26.88969674861478
 20
10.04346808519632
 30
0.0
 40
0.174193344731799
  0
LINE
  5
212
330
18
100
AcDbEntity
  8
ADP1DETAIL
100
AcDbLine
 10
-23.02773546945272
 20
10.99887523825573
 30
0.0
 11
-23.40998402994769
 21
11.05441858026575
 31
0.0
  0
LWPOLYLINE
  5
213
330
18
100
AcDbEntity
  8
ADP1DETAIL
100
AcDbPolyline
 90
       16
 70
     1
 43
0.0
 10
-22.73196257867355
 20
11.21398279518603
 42
0.1269498989193118
 10
-22.87969412907316
 20
11.17639453652338
 42
0.1060869887595715
 10
-23.01700482771629
 20
11.0576343131253
 42
0.0857240433338078
 10
-23.10331985787851
 20
10.88991934290969
 42
0.0753601748762364
 10
-23.13614272441285
 20
10.67824142499708
 42
0.0753601748762392
 10
-23.10475972051299
 20
10.46634525097413
 42
0.0857240433338081
 10
-23.01958690467099
 20
10.29804733919898
 42
0.1060869887595706
 10
-22.88308677731509
 20
10.17835634599044
 42
0.1269498989193088
 10
-22.73561418692198
 20
10.13976459485748
 42
0.1269498989193118
 10
-22.58788263652237
 20
10.17735285352014
 42
0.1060869887595717
 10
-22.45057193787924
 20
10.29611307691821
 42
0.0857240433338098
 10
-22.36425690771702
 20
10.46382804713383
 42
0.075360174876237
 10
-22.33143404118269
 20
10.67550596504643
 42
0.0753601748762369
 10
-22.36281704508254
 20
10.88740213906938
 42
0.0857240433338104
 10
-22.44798986092455
 20
11.05570005084453
 42
0.1060869887595681
 10
-22.58448998828044
 20
11.17539104405308
 42
0.1269498989193159
  0
LINE
  5
225
330
18
100
AcDbEntity
  8
ADP1DETAIL
100
AcDbLine
 10
-23.29661991561561
 20
10.43421790131367
 30
0.0
 11
-23.10475972051299
 21
10.46634525097413
 31
0.0
  0
LINE
  5
226
330
18
100
AcDbEntity
  8
ADP1DETAIL
100
AcDbLine
 10
-22.46307813251067
 20
11.0526521274883
 30
0.0
 11
-22.11352835249892
 21
10.97198679363944
 31
0.0
  0
LINE
  5
227
330
18
100
AcDbEntity
  8
ADP1DETAIL
100
AcDbLine
 10
-22.4093012432781
 20
10.38044101208109
 30
0.0
 11
-22.32863590942922
 21
10.35355256746481
 31
0.0
  0
ARC
  5
228
330
18
100
AcDbEntity
  8
ADP1DETAIL
100
AcDbCircle
 10
-20.352335230132
 20
9.587231895900579
 30
0.0
 40
0.6320214559415848
100
AcDbArc
 50
128.0887728809775
 51
150.7086378290166
  0
ARC
  5
229
330
18
100
AcDbEntity
  8
ADP1DETAIL
100
AcDbCircle
 10
-19.78767789319029
 20
9.103239892807625
 30
0.0
 40
1.294141705308766
100
AcDbArc
 50
132.4738830883771
 51
145.1542665802004
  0
TEXT
  5
237
330
18
100
AcDbEntity
  8
ADPDIM
100
AcDbText
 10
-46.10732009159878
 20
-5.225566316442574
 30
0.0
 40
0.375
  1
J U L I U S  B L U M  &  C O . ,  I N C .      ( 8 0 0 )  5 2 6 - 6 2 9 3        W W W . J U L I U S B L U M . C O M        P A R T  N o .  5 7 7
 41
1.25
  7
ARIAL_WIDE
 72
     1
 11
-26.80319747904762
 21
-4.850566316442574
 31
0.0
100
AcDbText
 73
     3
  0
ENDSEC
  0
SECTION
  2
OBJECTS
  0
DICTIONARY
  5
C
330
0
100
AcDbDictionary
  3
ACAD_GROUP
350
D
  3
ACAD_LAYOUT
350
230
  3
ACAD_MLINESTYLE
350
E
  3
ACAD_PLOTSETTINGS
350
231
  3
ACAD_PLOTSTYLENAME
350
22E
  3
ACDBHEADERROUNDTRIPXREC
350
37B
  3
ACDBVARIABLEDICTIONARY
350
291
  0
DICTIONARY
  5
28B
330
18
100
AcDbDictionary
280
     1
  3
ACAD_LAYOUTSELFREF
360
39C
  0
DICTIONARY
  5
289
330
15
100
AcDbDictionary
280
     1
  3
ACAD_LAYOUTSELFREF
360
39B
  0
DICTIONARY
  5
D
102
{ACAD_REACTORS
330
C
102
}
330
C
100
AcDbDictionary
  0
DICTIONARY
  5
230
102
{ACAD_REACTORS
330
C
102
}
330
C
100
AcDbDictionary
  0
DICTIONARY
  5
E
102
{ACAD_REACTORS
330
C
102
}
330
C
100
AcDbDictionary
  3
STANDARD
350
1B
  0
DICTIONARY
  5
231
102
{ACAD_REACTORS
330
C
102
}
330
C
100
AcDbDictionary
  0
ACDBDICTIONARYWDFLT
  5
22E
102
{ACAD_REACTORS
330
C
102
}
330
C
100
AcDbDictionary
281
     1
  3
Normal
350
22F
100
AcDbDictionaryWithDefault
340
22F
  0
DICTIONARY
  5
37B
102
{ACAD_REACTORS
330
C
102
}
330
C
100
AcDbDictionary
  3
CEPSNTYPE
350
385
  3
FINGERPRINTGUID
350
386
  3
HYPERLINKBASE
350
37E
  3
INSUNITS
350
384
  3
LAYOUTDICT
350
380
  3
LWETCUNION
350
383
  3
PLOTSETDICT
350
381
  3
PLOTSTYLNAMDICT
350
382
  3
PSVPSCALE
350
388
  3
PUCSBASE
350
38B
  3
PUCSORGBACK
350
391
  3
PUCSORGBOTTOM
350
38D
  3
PUCSORGFRONT
350
390
  3
PUCSORGLEFT
350
38E
  3
PUCSORGRIGHT
350
38F
  3
PUCSORGTOP
350
38C
  3
PUCSORTHOREF
350
389
  3
PUCSORTHOVIEW
350
38A
  3
STYLESHEET
350
37F
  3
TSTACKALIGN
350
37C
  3
TSTACKSIZE
350
37D
  3
UCSBASE
350
394
  3
UCSORGBACK
350
39A
  3
UCSORGBOTTOM
350
396
  3
UCSORGFRONT
350
399
  3
UCSORGLEFT
350
397
  3
UCSORGRIGHT
350
398
  3
UCSORGTOP
350
395
  3
UCSORTHOREF
350
392
  3
UCSORTHOVIEW
350
393
  3
VERSIONGUID
350
387
  0
DICTIONARY
  5
291
102
{ACAD_REACTORS
330
C
102
}
330
C
100
AcDbDictionary
  3
DIMASSOC
350
292
  0
XRECORD
  5
39C
102
{ACAD_REACTORS
330
28B
102
}
330
28B
100
AcDbXrecord
340
18
  0
XRECORD
  5
39B
102
{ACAD_REACTORS
330
289
102
}
330
289
100
AcDbXrecord
340
15
  0
MLINESTYLE
  5
1B
102
{ACAD_REACTORS
330
E
102
}
330
E
100
AcDbMlineStyle
  2
STANDARD
 70
     0
  3

 62
     0
 51
90.0
 52
90.0
 71
     2
 49
0.5
 62
   256
  6
BYLAYER
 49
-0.5
 62
   256
  6
BYLAYER
  0
ACDBPLACEHOLDER
  5
22F
102
{ACAD_REACTORS
330
22E
102
}
330
22E
100
AcDbPlaceHolder
280
     0
  0
XRECORD
  5
385
102
{ACAD_REACTORS
330
37B
102
}
330
37B
100
AcDbXrecord
 90
        0
  0
XRECORD
  5
386
102
{ACAD_REACTORS
330
37B
102
}
330
37B
100
AcDbXrecord
  1
{AF9274BC-CDAF-43FE-AD20-0A9AB350BB3B}
  0
XRECORD
  5
37E
102
{ACAD_REACTORS
330
37B
102
}
330
37B
100
AcDbXrecord
  1

  0
XRECORD
  5
384
102
{ACAD_REACTORS
330
37B
102
}
330
37B
100
AcDbXrecord
 90
        0
  0
XRECORD
  5
380
102
{ACAD_REACTORS
330
37B
102
}
330
37B
100
AcDbXrecord
340
230
  0
XRECORD
  5
383
102
{ACAD_REACTORS
330
37B
102
}
330
37B
100
AcDbXrecord
 90
    14877
  0
XRECORD
  5
381
102
{ACAD_REACTORS
330
37B
102
}
330
37B
100
AcDbXrecord
340
231
  0
XRECORD
  5
382
102
{ACAD_REACTORS
330
37B
102
}
330
37B
100
AcDbXrecord
340
22E
  0
XRECORD
  5
388
102
{ACAD_REACTORS
330
37B
102
}
330
37B
100
AcDbXrecord
 40
0.0
  0
XRECORD
  5
38B
102
{ACAD_REACTORS
330
37B
102
}
330
37B
100
AcDbXrecord
340
0
  0
XRECORD
  5
391
102
{ACAD_REACTORS
330
37B
102
}
330
37B
100
AcDbXrecord
 10
0.0
 20
0.0
 30
0.0
  0
XRECORD
  5
38D
102
{ACAD_REACTORS
330
37B
102
}
330
37B
100
AcDbXrecord
 10
0.0
 20
0.0
 30
0.0
  0
XRECORD
  5
390
102
{ACAD_REACTORS
330
37B
102
}
330
37B
100
AcDbXrecord
 10
0.0
 20
0.0
 30
0.0
  0
XRECORD
  5
38E
102
{ACAD_REACTORS
330
37B
102
}
330
37B
100
AcDbXrecord
 10
0.0
 20
0.0
 30
0.0
  0
XRECORD
  5
38F
102
{ACAD_REACTORS
330
37B
102
}
330
37B
100
AcDbXrecord
 10
0.0
 20
0.0
 30
0.0
  0
XRECORD
  5
38C
102
{ACAD_REACTORS
330
37B
102
}
330
37B
100
AcDbXrecord
 10
0.0
 20
0.0
 30
0.0
  0
XRECORD
  5
389
102
{ACAD_REACTORS
330
37B
102
}
330
37B
100
AcDbXrecord
340
0
  0
XRECORD
  5
38A
102
{ACAD_REACTORS
330
37B
102
}
330
37B
100
AcDbXrecord
 70
     0
  0
XRECORD
  5
37F
102
{ACAD_REACTORS
330
37B
102
}
330
37B
100
AcDbXrecord
  1

  0
XRECORD
  5
37C
102
{ACAD_REACTORS
330
37B
102
}
330
37B
100
AcDbXrecord
 90
        1
  0
XRECORD
  5
37D
102
{ACAD_REACTORS
330
37B
102
}
330
37B
100
AcDbXrecord
 90
       70
  0
XRECORD
  5
394
102
{ACAD_REACTORS
330
37B
102
}
330
37B
100
AcDbXrecord
340
0
  0
XRECORD
  5
39A
102
{ACAD_REACTORS
330
37B
102
}
330
37B
100
AcDbXrecord
 10
0.0
 20
0.0
 30
0.0
  0
XRECORD
  5
396
102
{ACAD_REACTORS
330
37B
102
}
330
37B
100
AcDbXrecord
 10
0.0
 20
0.0
 30
0.0
  0
XRECORD
  5
399
102
{ACAD_REACTORS
330
37B
102
}
330
37B
100
AcDbXrecord
 10
0.0
 20
0.0
 30
0.0
  0
XRECORD
  5
397
102
{ACAD_REACTORS
330
37B
102
}
330
37B
100
AcDbXrecord
 10
0.0
 20
0.0
 30
0.0
  0
XRECORD
  5
398
102
{ACAD_REACTORS
330
37B
102
}
330
37B
100
AcDbXrecord
 10
0.0
 20
0.0
 30
0.0
  0
XRECORD
  5
395
102
{ACAD_REACTORS
330
37B
102
}
330
37B
100
AcDbXrecord
 10
0.0
 20
0.0
 30
0.0
  0
XRECORD
  5
392
102
{ACAD_REACTORS
330
37B
102
}
330
37B
100
AcDbXrecord
340
0
  0
XRECORD
  5
393
102
{ACAD_REACTORS
330
37B
102
}
330
37B
100
AcDbXrecord
 70
     0
  0
XRECORD
  5
387
102
{ACAD_REACTORS
330
37B
102
}
330
37B
100
AcDbXrecord
  1
{AE4CC480-8594-4370-B3A5-68A082C43F95}
  0
DICTIONARYVAR
  5
292
102
{ACAD_REACTORS
330
291
102
}
330
291
100
DictionaryVariables
280
     0
  1
1
  0
ENDSEC
  0
EOF
