  0
SECTION
  2
HEADER
  9
$ACADVER
  1
AC1014
  9
$ACADMAINTVER
 70
     9
  9
$DWGCODEPAGE
  3
ANSI_1252
  9
$INSBASE
 10
-73.32296882565593
 20
-3.589802145628107
 30
0.0
  9
$EXTMIN
 10
-86.05702077489693
 20
-4.876977626514126
 30
0.0
  9
$EXTMAX
 10
-47.4487755497946
 20
7.907707960867771
 30
0.0
  9
$LIMMIN
 10
0.0
 20
0.0
  9
$LIMMAX
 10
36.0
 20
36.0
  9
$ORTHOMODE
 70
     1
  9
$REGENMODE
 70
     1
  9
$FILLMODE
 70
     1
  9
$QTEXTMODE
 70
     0
  9
$MIRRTEXT
 70
     1
  9
$DRAGMODE
 70
     0
  9
$LTSCALE
 40
1.0
  9
$OSMODE
 70
    37
  9
$ATTMODE
 70
     1
  9
$TEXTSIZE
 40
0.2
  9
$TRACEWID
 40
0.05
  9
$TEXTSTYLE
  7
STANDARD
  9
$CLAYER
  8
ADP1DETAIL
  9
$CELTYPE
  6
BYLAYER
  9
$CECOLOR
 62
   256
  9
$CELTSCALE
 40
1.0
  9
$DELOBJ
 70
     1
  9
$DISPSILH
 70
     0
  9
$DIMSCALE
 40
1.0
  9
$DIMASZ
 40
0.125
  9
$DIMEXO
 40
0.0625
  9
$DIMDLI
 40
0.38
  9
$DIMRND
 40
0.0
  9
$DIMDLE
 40
0.0
  9
$DIMEXE
 40
0.18
  9
$DIMTP
 40
0.0
  9
$DIMTM
 40
0.0
  9
$DIMTXT
 40
0.125
  9
$DIMCEN
 40
0.1875
  9
$DIMTSZ
 40
0.125
  9
$DIMTOL
 70
     0
  9
$DIMLIM
 70
     0
  9
$DIMTIH
 70
     0
  9
$DIMTOH
 70
     0
  9
$DIMSE1
 70
     0
  9
$DIMSE2
 70
     0
  9
$DIMTAD
 70
     0
  9
$DIMZIN
 70
     3
  9
$DIMBLK
  1

  9
$DIMASO
 70
     1
  9
$DIMSHO
 70
     1
  9
$DIMPOST
  1

  9
$DIMAPOST
  1

  9
$DIMALT
 70
     0
  9
$DIMALTD
 70
     1
  9
$DIMALTF
 40
25.4
  9
$DIMLFAC
 40
1.0
  9
$DIMTOFL
 70
     0
  9
$DIMTVP
 40
0.0
  9
$DIMTIX
 70
     0
  9
$DIMSOXD
 70
     0
  9
$DIMSAH
 70
     0
  9
$DIMBLK1
  1

  9
$DIMBLK2
  1

  9
$DIMSTYLE
  2
STANDARD
  9
$DIMCLRD
 70
     0
  9
$DIMCLRE
 70
     0
  9
$DIMCLRT
 70
     0
  9
$DIMTFAC
 40
1.0
  9
$DIMGAP
 40
0.125
  9
$DIMJUST
 70
     0
  9
$DIMSD1
 70
     0
  9
$DIMSD2
 70
     0
  9
$DIMTOLJ
 70
     1
  9
$DIMTZIN
 70
     0
  9
$DIMALTZ
 70
     0
  9
$DIMALTTZ
 70
     0
  9
$DIMFIT
 70
     3
  9
$DIMUPT
 70
     0
  9
$DIMUNIT
 70
     2
  9
$DIMDEC
 70
     4
  9
$DIMTDEC
 70
     4
  9
$DIMALTU
 70
     2
  9
$DIMALTTD
 70
     2
  9
$DIMTXSTY
  7
STANDARD
  9
$DIMAUNIT
 70
     0
  9
$LUNITS
 70
     5
  9
$LUPREC
 70
     4
  9
$SKETCHINC
 40
0.1
  9
$FILLETRAD
 40
0.062
  9
$AUNITS
 70
     0
  9
$AUPREC
 70
     0
  9
$MENU
  1
acad
  9
$ELEVATION
 40
0.0
  9
$PELEVATION
 40
0.0
  9
$THICKNESS
 40
0.0
  9
$LIMCHECK
 70
     0
  9
$BLIPMODE
 70
     0
  9
$CHAMFERA
 40
0.0
  9
$CHAMFERB
 40
0.0
  9
$CHAMFERC
 40
0.0
  9
$CHAMFERD
 40
0.0
  9
$SKPOLY
 70
     0
  9
$TDCREATE
 40
2450409.397032210
  9
$TDUPDATE
 40
2452297.073299143
  9
$TDINDWG
 40
0.0084718634
  9
$TDUSRTIMER
 40
0.0084718634
  9
$USRTIMER
 70
     1
  9
$ANGBASE
 50
0.0
  9
$ANGDIR
 70
     0
  9
$PDMODE
 70
     0
  9
$PDSIZE
 40
0.0
  9
$PLINEWID
 40
0.0
  9
$COORDS
 70
     2
  9
$SPLFRAME
 70
     0
  9
$SPLINETYPE
 70
     6
  9
$SPLINESEGS
 70
     8
  9
$ATTDIA
 70
     0
  9
$ATTREQ
 70
     1
  9
$HANDLING
 70
 22529
  9
$HANDSEED
  5
536
  9
$SURFTAB1
 70
     6
  9
$SURFTAB2
 70
     6
  9
$SURFTYPE
 70
     6
  9
$SURFU
 70
     6
  9
$SURFV
 70
     6
  9
$UCSNAME
  2

  9
$UCSORG
 10
0.0
 20
0.0
 30
0.0
  9
$UCSXDIR
 10
1.0
 20
0.0
 30
0.0
  9
$UCSYDIR
 10
0.0
 20
1.0
 30
0.0
  9
$PUCSNAME
  2

  9
$PUCSORG
 10
0.0
 20
0.0
 30
0.0
  9
$PUCSXDIR
 10
1.0
 20
0.0
 30
0.0
  9
$PUCSYDIR
 10
0.0
 20
1.0
 30
0.0
  9
$USERI1
 70
     0
  9
$USERI2
 70
     0
  9
$USERI3
 70
     0
  9
$USERI4
 70
     0
  9
$USERI5
 70
     0
  9
$USERR1
 40
0.0
  9
$USERR2
 40
0.0
  9
$USERR3
 40
0.0
  9
$USERR4
 40
0.0
  9
$USERR5
 40
0.0
  9
$WORLDVIEW
 70
     1
  9
$SHADEDGE
 70
     3
  9
$SHADEDIF
 70
    70
  9
$TILEMODE
 70
     1
  9
$MAXACTVP
 70
    15
  9
$PINSBASE
 10
0.0058594681322575
 20
8.002266177471257
 30
0.0
  9
$PLIMCHECK
 70
     0
  9
$PEXTMIN
 10
1.000000000000000E+20
 20
1.000000000000000E+20
 30
1.000000000000000E+20
  9
$PEXTMAX
 10
-1.000000000000000E+20
 20
-1.000000000000000E+20
 30
-1.000000000000000E+20
  9
$PLIMMIN
 10
0.0
 20
0.0
  9
$PLIMMAX
 10
12.0
 20
9.0
  9
$UNITMODE
 70
     0
  9
$VISRETAIN
 70
     0
  9
$PLINEGEN
 70
     0
  9
$PSLTSCALE
 70
     1
  9
$TREEDEPTH
 70
  3020
  9
$PICKSTYLE
 70
     1
  9
$CMLSTYLE
  2
STANDARD
  9
$CMLJUST
 70
     0
  9
$CMLSCALE
 40
1.0
  9
$PROXYGRAPHICS
 70
     1
  9
$MEASUREMENT
 70
     0
  0
ENDSEC
  0
SECTION
  2
CLASSES
  0
CLASS
  1
ACDBDICTIONARYWDFLT
  2
AcDbDictionaryWithDefault
  3
AutoCAD 2000
 90
        0
280
     0
281
     0
  0
CLASS
  1
ACDBPLACEHOLDER
  2
AcDbPlaceHolder
  3
AutoCAD 2000
 90
        0
280
     0
281
     0
  0
CLASS
  1
LAYOUT
  2
AcDbLayout
  3
AutoCAD 2000
 90
        0
280
     0
281
     0
  0
CLASS
  1
DICTIONARYVAR
  2
AcDbDictionaryVar
  3
AutoCAD 2000
 90
        0
280
     0
281
     0
  0
CLASS
  1
LONG_TRANSACTION
  2
AcDbLongTransaction
  3
AutoCAD 2000
 90
        0
280
     0
281
     0
  0
CLASS
  1
LWPOLYLINE
  2
AcDbPolyline
  3
AutoCAD 2000
 90
        0
280
     0
281
     1
  0
CLASS
  1
HATCH
  2
AcDbHatch
  3
AutoCAD 2000
 90
        0
280
     0
281
     1
  0
CLASS
  1
XRECORD
  2
AcDbXrecord
  3
AutoCAD 2000
 90
        0
280
     0
281
     0
  0
CLASS
  1
LONG_TRANSACTION
  2
AcDbLongTransaction
  3
AutoCAD 2000
 90
        0
280
     0
281
     0
  0
CLASS
  1
LWPOLYLINE
  2
AcDbPolyline
  3
AutoCAD 2000
 90
        0
280
     0
281
     1
  0
CLASS
  1
HATCH
  2
AcDbHatch
  3
AutoCAD 2000
 90
        0
280
     0
281
     1
  0
CLASS
  1
XRECORD
  2
AcDbXrecord
  3
AutoCAD 2000
 90
        0
280
     0
281
     0
  0
CLASS
  1
LONG_TRANSACTION
  2
AcDbLongTransaction
  3
AutoCAD 2000
 90
        0
280
     0
281
     0
  0
CLASS
  1
LWPOLYLINE
  2
AcDbPolyline
  3
AutoCAD 2000
 90
        0
280
     0
281
     1
  0
CLASS
  1
HATCH
  2
AcDbHatch
  3
AutoCAD 2000
 90
        0
280
     0
281
     1
  0
CLASS
  1
XRECORD
  2
AcDbXrecord
  3
AutoCAD 2000
 90
        0
280
     0
281
     0
  0
CLASS
  1
LONG_TRANSACTION
  2
AcDbLongTransaction
  3
AutoCAD 2000
 90
        0
280
     0
281
     0
  0
CLASS
  1
LWPOLYLINE
  2
AcDbPolyline
  3
AutoCAD 2000
 90
        0
280
     0
281
     1
  0
CLASS
  1
HATCH
  2
AcDbHatch
  3
AutoCAD 2000
 90
        0
280
     0
281
     1
  0
CLASS
  1
XRECORD
  2
AcDbXrecord
  3
AutoCAD 2000
 90
        0
280
     0
281
     0
  0
CLASS
  1
LONG_TRANSACTION
  2
AcDbLongTransaction
  3
AutoCAD 2000
 90
        0
280
     0
281
     0
  0
CLASS
  1
LWPOLYLINE
  2
AcDbPolyline
  3
AutoCAD 2000
 90
        0
280
     0
281
     1
  0
CLASS
  1
HATCH
  2
AcDbHatch
  3
AutoCAD 2000
 90
        0
280
     0
281
     1
  0
CLASS
  1
XRECORD
  2
AcDbXrecord
  3
AutoCAD 2000
 90
        0
280
     0
281
     0
  0
CLASS
  1
LONG_TRANSACTION
  2
AcDbLongTransaction
  3
AutoCAD 2000
 90
        0
280
     0
281
     0
  0
CLASS
  1
LWPOLYLINE
  2
AcDbPolyline
  3
AutoCAD 2000
 90
        0
280
     0
281
     1
  0
CLASS
  1
HATCH
  2
AcDbHatch
  3
AutoCAD 2000
 90
        0
280
     0
281
     1
  0
CLASS
  1
XRECORD
  2
AcDbXrecord
  3
AutoCAD 2000
 90
        0
280
     0
281
     0
  0
ENDSEC
  0
SECTION
  2
TABLES
  0
TABLE
  2
VPORT
  5
8
330
0
100
AcDbSymbolTable
 70
     2
  0
VPORT
  5
513
330
8
100
AcDbSymbolTableRecord
100
AcDbViewportTableRecord
  2
*ACTIVE
 70
     0
 10
0.0
 20
0.0
 11
1.0
 21
1.0
 12
-66.72434854620568
 22
1.515314341391729
 13
0.0
 23
0.0
 14
0.5740882589684922
 24
0.5740882589684922
 15
0.5
 25
0.5
 16
0.0
 26
0.0
 36
1.0
 17
0.0
 27
0.0
 37
0.0
 40
24.74792313569084
 41
1.570528967254408
 42
50.0
 43
0.0
 44
0.0
 50
0.0
 51
0.0
 71
     0
 72
   100
 73
     1
 74
     0
 75
     0
 76
     0
 77
     0
 78
     0
  0
ENDTAB
  0
TABLE
  2
LTYPE
  5
5
330
0
100
AcDbSymbolTable
 70
     1
  0
LTYPE
  5
12
330
5
100
AcDbSymbolTableRecord
100
AcDbLinetypeTableRecord
  2
BYBLOCK
 70
     0
  3

 72
    65
 73
     0
 40
0.0
  0
LTYPE
  5
13
330
5
100
AcDbSymbolTableRecord
100
AcDbLinetypeTableRecord
  2
BYLAYER
 70
     0
  3

 72
    65
 73
     0
 40
0.0
  0
LTYPE
  5
14
330
5
100
AcDbSymbolTableRecord
100
AcDbLinetypeTableRecord
  2
CONTINUOUS
 70
     0
  3
Solid line
 72
    65
 73
     0
 40
0.0
  0
ENDTAB
  0
TABLE
  2
LAYER
  5
2
330
0
100
AcDbSymbolTable
 70
     4
  0
LAYER
  5
F
330
2
100
AcDbSymbolTableRecord
100
AcDbLayerTableRecord
  2
0
 70
     0
 62
     7
  6
CONTINUOUS
  0
LAYER
  5
1F
330
2
100
AcDbSymbolTableRecord
100
AcDbLayerTableRecord
  2
DEFPOINTS
 70
     0
 62
     7
  6
CONTINUOUS
  0
LAYER
  5
20
330
2
100
AcDbSymbolTableRecord
100
AcDbLayerTableRecord
  2
ADP1DETAIL
 70
     0
 62
     7
  6
CONTINUOUS
  0
LAYER
  5
21
330
2
100
AcDbSymbolTableRecord
100
AcDbLayerTableRecord
  2
ADPDIM
 70
     0
 62
     3
  6
CONTINUOUS
  0
ENDTAB
  0
TABLE
  2
STYLE
  5
3
330
0
100
AcDbSymbolTable
 70
     2
  0
STYLE
  5
10
330
3
100
AcDbSymbolTableRecord
100
AcDbTextStyleTableRecord
  2
STANDARD
 70
     0
 40
0.0
 41
1.0
 50
0.0
 71
     0
 42
0.2
  3
txt
  4

  0
STYLE
  5
3CB
330
3
100
AcDbSymbolTableRecord
100
AcDbTextStyleTableRecord
  2
ARIAL_WIDE
 70
     0
 40
0.0
 41
1.25
 50
0.0
 71
     0
 42
0.2
  3
ARIAL.TTF
  4

1001
ACAD
1000
Arial
1071
       34
  0
ENDTAB
  0
TABLE
  2
VIEW
  5
6
330
0
100
AcDbSymbolTable
 70
     0
  0
ENDTAB
  0
TABLE
  2
UCS
  5
7
330
0
100
AcDbSymbolTable
 70
     0
  0
ENDTAB
  0
TABLE
  2
APPID
  5
9
330
0
100
AcDbSymbolTable
 70
     1
  0
APPID
  5
11
330
9
100
AcDbSymbolTableRecord
100
AcDbRegAppTableRecord
  2
ACAD
 70
     0
  0
ENDTAB
  0
TABLE
  2
DIMSTYLE
  5
A
330
0
100
AcDbSymbolTable
 70
     1
  0
DIMSTYLE
105
3BF
330
A
100
AcDbSymbolTableRecord
100
AcDbDimStyleTableRecord
  2
STANDARD
 70
     0
  3

  4

  5

  6

  7

 40
1.0
 41
0.18
 42
0.0625
 43
0.38
 44
0.18
 45
0.0
 46
0.0
 47
0.0
 48
0.0
140
0.18
141
0.09
142
0.0
143
25.4
144
1.0
145
0.0
146
1.0
147
0.09
 71
     0
 72
     0
 73
     1
 74
     1
 75
     0
 76
     0
 77
     0
 78
     0
170
     0
171
     2
172
     0
173
     0
174
     0
175
     0
176
     0
177
     0
178
     0
270
     2
271
     4
272
     4
273
     2
274
     2
340
10
275
     0
280
     0
281
     0
282
     0
283
     1
284
     0
285
     0
286
     0
287
     3
288
     0
  0
ENDTAB
  0
TABLE
  2
BLOCK_RECORD
  5
1
330
0
100
AcDbSymbolTable
 70
     2
  0
BLOCK_RECORD
  5
18
102
{ACAD_XDICTIONARY
360
420
102
}
330
1
100
AcDbSymbolTableRecord
100
AcDbBlockTableRecord
  2
*MODEL_SPACE
  0
BLOCK_RECORD
  5
15
102
{ACAD_XDICTIONARY
360
41E
102
}
330
1
100
AcDbSymbolTableRecord
100
AcDbBlockTableRecord
  2
*PAPER_SPACE
  0
BLOCK_RECORD
  5
1C
330
1
100
AcDbSymbolTableRecord
100
AcDbBlockTableRecord
  2
*D0
  0
BLOCK_RECORD
  5
1D
330
1
100
AcDbSymbolTableRecord
100
AcDbBlockTableRecord
  2
*D1
  0
ENDTAB
  0
ENDSEC
  0
SECTION
  2
BLOCKS
  0
BLOCK
  5
24
330
18
100
AcDbEntity
  8
0
100
AcDbBlockBegin
  2
*MODEL_SPACE
 70
     0
 10
0.0
 20
0.0
 30
0.0
  3
*MODEL_SPACE
  1

  0
ENDBLK
  5
25
330
18
100
AcDbEntity
  8
0
100
AcDbBlockEnd
  0
BLOCK
  5
22
330
15
100
AcDbEntity
 67
     1
  8
0
100
AcDbBlockBegin
  2
*PAPER_SPACE
 70
     0
 10
0.0
 20
0.0
 30
0.0
  3
*PAPER_SPACE
  1

  0
ENDBLK
  5
23
330
15
100
AcDbEntity
 67
     1
  8
0
100
AcDbBlockEnd
  0
BLOCK
  5
26
330
1C
100
AcDbEntity
  8
0
100
AcDbBlockBegin
  2
*D0
 70
     1
 10
0.0
 20
0.0
 30
0.0
  3
*D0
  1

  0
LINE
  5
27
330
1C
100
AcDbEntity
  8
0
  6
BYBLOCK
 62
     0
100
AcDbLine
 10
-74.77501639049497
 20
4.04156706732617
 30
0.0
 11
-74.77501639049497
 21
7.907707960867771
 31
0.0
  0
LINE
  5
28
330
1C
100
AcDbEntity
  8
0
  6
BYBLOCK
 62
     0
100
AcDbLine
 10
-58.77501639049498
 20
5.194994990103499
 30
0.0
 11
-58.77501639049498
 21
7.907707960867771
 31
0.0
  0
LINE
  5
29
330
1C
100
AcDbEntity
  8
0
  6
BYBLOCK
 62
     0
100
AcDbLine
 10
-74.77501639049497
 20
7.727707960867771
 30
0.0
 11
-66.9833497238283
 21
7.727707960867771
 31
0.0
  0
LINE
  5
2A
330
1C
100
AcDbEntity
  8
0
  6
BYBLOCK
 62
     0
100
AcDbLine
 10
-58.77501639049498
 20
7.727707960867771
 30
0.0
 11
-66.56668305716164
 21
7.727707960867771
 31
0.0
  0
LINE
  5
2B
330
1C
100
AcDbEntity
  8
0
  6
BYBLOCK
 62
     0
100
AcDbLine
 10
-74.90001639049497
 20
7.602707960867771
 30
0.0
 11
-74.65001639049496
 21
7.852707960867771
 31
0.0
  0
LINE
  5
2C
330
1C
100
AcDbEntity
  8
0
  6
BYBLOCK
 62
     0
100
AcDbLine
 10
-58.90001639049497
 20
7.602707960867771
 30
0.0
 11
-58.65001639049498
 21
7.852707960867771
 31
0.0
  0
TEXT
  5
2D
330
1C
100
AcDbEntity
  8
0
  6
BYBLOCK
 62
     0
100
AcDbText
 10
-66.8583497238283
 20
7.665207960867771
 30
0.0
 40
0.125
  1
16
 72
     1
 11
-66.77501639049497
 21
7.727707960867771
 31
0.0
100
AcDbText
 73
     2
  0
POINT
  5
2E
330
1C
100
AcDbEntity
  8
DEFPOINTS
  6
BYBLOCK
 62
     0
100
AcDbPoint
 10
-74.77501639049497
 20
3.979067067326169
 30
0.0
  0
POINT
  5
2F
330
1C
100
AcDbEntity
  8
DEFPOINTS
  6
BYBLOCK
 62
     0
100
AcDbPoint
 10
-58.77501639049498
 20
5.132494990103499
 30
0.0
  0
POINT
  5
30
330
1C
100
AcDbEntity
  8
DEFPOINTS
  6
BYBLOCK
 62
     0
100
AcDbPoint
 10
-58.77501639049498
 20
7.727707960867771
 30
0.0
  0
ENDBLK
  5
31
330
1C
100
AcDbEntity
  8
0
100
AcDbBlockEnd
  0
BLOCK
  5
32
330
1D
100
AcDbEntity
  8
0
100
AcDbBlockBegin
  2
*D1
 70
     1
 10
0.0
 20
0.0
 30
0.0
  3
*D1
  1

  0
LINE
  5
33
330
1D
100
AcDbEntity
  8
0
  6
BYBLOCK
 62
     0
100
AcDbLine
 10
-71.8696679580589
 20
6.658820246141782
 30
0.0
 11
-76.18113688750179
 21
6.658820246141782
 31
0.0
  0
LINE
  5
34
330
1D
100
AcDbEntity
  8
0
  6
BYBLOCK
 62
     0
100
AcDbLine
 10
-74.01038520429721
 20
-3.591179753858217
 30
0.0
 11
-76.18113688750179
 21
-3.591179753858217
 31
0.0
  0
LINE
  5
35
330
1D
100
AcDbEntity
  8
0
  6
BYBLOCK
 62
     0
100
AcDbLine
 10
-76.00113688750179
 20
6.658820246141782
 30
0.0
 11
-76.00113688750179
 21
1.960903579475116
 31
0.0
  0
LINE
  5
36
330
1D
100
AcDbEntity
  8
0
  6
BYBLOCK
 62
     0
100
AcDbLine
 10
-76.00113688750179
 20
-3.591179753858217
 30
0.0
 11
-76.00113688750179
 21
1.106736912808449
 31
0.0
  0
LINE
  5
37
330
1D
100
AcDbEntity
  8
0
  6
BYBLOCK
 62
     0
100
AcDbLine
 10
-75.87613688750178
 20
6.533820246141782
 30
0.0
 11
-76.12613688750179
 21
6.783820246141782
 31
0.0
  0
LINE
  5
38
330
1D
100
AcDbEntity
  8
0
  6
BYBLOCK
 62
     0
100
AcDbLine
 10
-75.87613688750178
 20
-3.716179753858217
 30
0.0
 11
-76.12613688750179
 21
-3.466179753858217
 31
0.0
  0
TEXT
  5
39
330
1D
100
AcDbEntity
  8
0
  6
BYBLOCK
 62
     0
100
AcDbText
 10
-75.93863688750179
 20
1.231736912808449
 30
0.0
 40
0.125
  1
10 1/4
 50
90.0
 72
     1
 11
-76.00113688750179
 21
1.533820246141782
 31
0.0
100
AcDbText
 73
     2
  0
POINT
  5
3A
330
1D
100
AcDbEntity
  8
DEFPOINTS
  6
BYBLOCK
 62
     0
100
AcDbPoint
 10
-71.80716795805889
 20
6.658820246141782
 30
0.0
  0
POINT
  5
3B
330
1D
100
AcDbEntity
  8
DEFPOINTS
  6
BYBLOCK
 62
     0
100
AcDbPoint
 10
-73.9478852042972
 20
-3.591179753858217
 30
0.0
  0
POINT
  5
3C
330
1D
100
AcDbEntity
  8
DEFPOINTS
  6
BYBLOCK
 62
     0
100
AcDbPoint
 10
-76.00113688750179
 20
-3.591179753858217
 30
0.0
  0
ENDBLK
  5
3D
330
1D
100
AcDbEntity
  8
0
100
AcDbBlockEnd
  0
ENDSEC
  0
SECTION
  2
ENTITIES
  0
DIMENSION
  5
3E
330
18
100
AcDbEntity
  8
ADPDIM
100
AcDbDimension
  2
*D1
 10
-76.00113688750179
 20
-3.591179753858217
 30
0.0
 11
-76.00113688750179
 21
1.533820246141782
 31
0.0
100
AcDbAlignedDimension
 13
-71.80716795805889
 23
6.658820246141782
 33
0.0
 14
-73.9478852042972
 24
-3.591179753858217
 34
0.0
 50
90.0
100
AcDbRotatedDimension
  0
LWPOLYLINE
  5
3F
330
18
100
AcDbEntity
  8
ADP1DETAIL
100
AcDbPolyline
 90
        6
 70
     0
 43
0.0
 10
-65.92559206673699
 20
1.414444730628909
 42
-0.009565398831401
 10
-67.15059780777545
 20
-0.2308057977519886
 42
-0.3046796856405542
 10
-72.54029305987955
 20
-0.6821811792802111
 42
-0.3138736550140039
 10
-72.57040308922092
 20
-3.089516547430728
 42
-0.3134589033619249
 10
-74.22645470299591
 20
-3.570983621060832
 42
-0.7375183573641836
 10
-73.95546443892364
 20
-1.705298710744181
 42
-0.0779702000303676
  0
LWPOLYLINE
  5
47
330
18
100
AcDbEntity
  8
ADP1DETAIL
100
AcDbPolyline
 90
       16
 70
     0
 43
0.0
 10
-72.55164276308898
 20
-2.371413908422778
 42
-0.3635058005241318
 10
-72.6556755100665
 20
-2.527326725538761
 42
-0.1221104316326902
 10
-73.09781468472104
 20
-2.787181420732068
 42
-0.2163914550493073
 10
-73.56596204611998
 20
-2.722217746933741
 42
0.1803472213813054
 10
-73.72201116658628
 20
-2.592290399337088
 42
-0.334133063103124
 10
-73.77402754007504
 20
-2.514333990779096
 42
-0.5451646588057418
 10
-73.8260439135638
 20
-2.150537417508466
 42
0.1468917277419901
 10
-73.86505619368039
 20
-1.903675457074825
 42
-0.2918717925939269
 10
-73.8260439135638
 20
-1.578857088083192
 42
0.3026341712006537
 10
-73.80003572681943
 20
-1.319002392889885
 42
-0.2412051831639165
 10
-73.20184743169858
 20
-1.150096841014236
 42
-0.2825338159681701
 10
-73.09781468472104
 20
-1.383966066688212
 42
-0.4214045770512904
 10
-72.55164276308898
 20
-1.942653661353821
 42
-0.0237871342252108
 10
-72.40859773599485
 20
-2.033602804671478
 42
-0.4909944305596847
 10
-72.53863866971677
 20
-2.358421173663112
 42
0.3799510395244303
 10
-73.09781468472104
 20
-2.67024680789508
 42
1.408307847704372
  0
LWPOLYLINE
  5
59
330
18
100
AcDbEntity
  8
ADP1DETAIL
100
AcDbPolyline
 90
        5
 70
     0
 43
0.0
 10
-73.09781468472104
 20
-1.396958801447877
 42
0.3012275680946473
 10
-73.74801935333064
 20
-1.747762639958841
 42
0.430402780387784
 10
-73.6699947930975
 20
-1.981631865632817
 42
0.3166662792944839
 10
-73.162835151582
 20
-1.89068272231516
 42
-0.085721627215879
 10
-72.85073691064939
 20
-1.69579170092018
 42
-0.1960459810350286
  0
LWPOLYLINE
  5
60
330
18
100
AcDbEntity
  8
ADP1DETAIL
100
AcDbPolyline
 90
        6
 70
     0
 43
0.0
 10
-72.6686796034387
 20
-2.098566478469805
 42
0.6303295472416444
 10
-72.57765094983334
 20
-1.968639130873152
 42
0.2254526745337268
 10
-72.73370007029966
 20
-1.786740844237837
 42
0.8470053476032457
 10
-72.78571644378843
 20
-1.864697252795829
 42
0.2400559656321979
 10
-72.6556755100665
 20
-2.241486560826124
 42
0.0918793025908439
 10
-72.61666322994992
 20
-2.111559213229471
 42
-0.8970295265409504
  0
ARC
  5
68
330
18
100
AcDbEntity
  8
ADP1DETAIL
100
AcDbCircle
 10
-74.44045894127025
 20
-1.552235258221876
 30
0.0
 40
0.4458247173390605
100
AcDbArc
 50
277.1174088980913
 51
302.1585328495037
  0
LWPOLYLINE
  5
69
330
18
100
AcDbEntity
  8
ADP1DETAIL
100
AcDbPolyline
 90
        7
 70
     0
 43
0.0
 10
-72.6556755100665
 20
-2.228493826066459
 42
0.0633377794247234
 10
-72.92876147088254
 20
-2.332435704143781
 42
-0.1364866906009622
 10
-73.27987199193173
 20
-2.501341256019431
 42
-0.2461548486148206
 10
-73.77402754007504
 20
-2.345428438903446
 42
-0.4142046250677823
 10
-73.56596204611998
 20
-2.111559213229471
 42
-0.2062665850551601
 10
-73.27987199193173
 20
-2.215501091306793
 42
0.2781795249576787
 10
-72.74670416367185
 20
-2.254479295585789
 42
-0.2392453232156328
  0
LWPOLYLINE
  5
72
330
18
100
AcDbEntity
  8
ADP1DETAIL
100
AcDbPolyline
 90
        4
 70
     0
 43
0.0
 10
-74.44926892012197
 20
-2.728416242208151
 42
0.5803663343404183
 10
-73.90728839197741
 20
-3.33025008424578
 42
0.3461893520085999
 10
-72.64266715964014
 20
-2.608049473800625
 42
0.0084969488129365
 10
-72.61420018381063
 20
-2.507647998288737
 42
0.0369404311890983
  0
LWPOLYLINE
  5
78
330
18
100
AcDbEntity
  8
ADP1DETAIL
100
AcDbPolyline
 90
        7
 70
     0
 43
0.0
 10
-74.42423220868466
 20
-2.566304929817757
 42
0.1621610914819128
 10
-74.56727723577877
 20
-2.605283134096754
 42
-0.0156245929087544
 10
-74.47624858217342
 20
-2.722217746933741
 42
0.3506715794918165
 10
-74.3332035550793
 20
-2.761195951212737
 42
0.5999862706777798
 10
-73.91707256716916
 20
-2.540319460298427
 42
-0.1578342831254818
 10
-73.86505619368039
 20
-3.021050646406044
 42
0.1966798298149251
 10
-73.63098251298092
 20
-2.67024680789508
 42
-0.8176255846534257
  0
LWPOLYLINE
  5
81
330
18
100
AcDbEntity
  8
ADP1DETAIL
100
AcDbPolyline
 90
        4
 70
     0
 43
0.0
 10
-74.42423220868466
 20
-2.579297664577422
 42
-0.5879165923577166
 10
-73.98209303403011
 20
-2.254479295585789
 42
0.1401726677232117
 10
-74.00810122077451
 20
-2.410392112701774
 42
-0.3941369996386447
 10
-74.42423220868466
 20
-2.566304929817757
 42
-5.031267975906297
  0
ARC
  5
87
330
18
100
AcDbEntity
  8
ADP1DETAIL
100
AcDbCircle
 10
-74.31369741502102
 20
-1.971665724801125
 30
0.0
 40
0.1595172441618606
100
AcDbArc
 50
253.4216977270063
 51
320.7556242179634
  0
LWPOLYLINE
  5
88
330
18
100
AcDbEntity
  8
ADP1DETAIL
100
AcDbPolyline
 90
        5
 70
     0
 43
0.0
 10
-72.61238690850483
 20
3.891603955126205
 42
0.4588128204548223
 10
-72.00135625243082
 20
3.449850973297583
 42
0.0794944806185738
 10
-71.46832950989818
 20
3.436858238537918
 42
-0.259147453335853
 10
-71.07830994219137
 20
2.982112521949632
 42
0.1729594991200917
 10
-71.58533538021022
 20
3.12503260430595
 42
0.0192119637988309
  0
LWPOLYLINE
  5
8F
330
18
100
AcDbEntity
  8
ADP1DETAIL
100
AcDbPolyline
 90
       12
 70
     0
 43
0.0
 10
-71.58533538021022
 20
3.12503260430595
 10
-72.15736407951355
 20
3.12503260430595
 42
-0.3332500956798042
 10
-72.76839473558756
 20
3.488829177576579
 42
-0.2761408958359335
 10
-72.59938625624792
 20
4.138465915559846
 42
0.3205785137484718
 10
-72.54738364722036
 20
4.255400528396835
 42
-0.2826630862652984
 10
-71.91035168663256
 20
4.905037266380102
 42
-0.3126599516985817
 10
-70.87029950608107
 20
4.840073592581775
 42
-0.4105480290708428
 10
-70.19426558872258
 20
4.255400528396835
 42
-0.3205785137484703
 10
-70.49328059063114
 20
3.696712933731225
 42
-0.0784191187101715
 10
-70.84429820156728
 20
3.605763790413568
 42
0.4144595391111408
 10
-71.14331320347583
 20
3.241967217142938
 42
-0.0489630538870411
 10
-71.14331320347583
 20
3.177003543344612
 42
1.102967721889589
  0
LWPOLYLINE
  5
9D
330
18
100
AcDbEntity
  8
ADP1DETAIL
100
AcDbPolyline
 90
        5
 70
     0
 43
0.0
 10
-74.34667391957444
 20
3.787662077048883
 42
-0.0514165259024483
 10
-73.68364065447287
 20
4.411313345512818
 42
-0.2791438966253618
 10
-73.68364065447287
 20
4.723138979744787
 42
-0.355201292115729
 10
-73.02060738937128
 20
4.944015470659097
 42
0.0517338176138579
 10
-72.22756760170075
 20
4.762117184023782
 42
0.0517338176138579
  0
LWPOLYLINE
  5
A4
330
18
100
AcDbEntity
  8
ADP1DETAIL
100
AcDbPolyline
 90
        7
 70
     0
 43
0.0
 10
-74.34667391957444
 20
2.800214235314317
 42
-0.2471307939848555
 10
-73.65763934995908
 20
4.112480446040516
 42
0.1072223192924619
 10
-73.34562369579362
 20
3.891603955126205
 42
0.3711267065289946
 10
-73.26761978225227
 20
4.151458650319511
 42
-0.9197140188102288
 10
-73.17661521645399
 20
4.177444119838844
 42
0.7096368829866635
 10
-73.00760673711438
 20
4.216422324117839
 42
-0.2233070936323334
 10
-72.47457999458174
 20
4.489269754070811
 42
-0.0168535217950582
  0
ARC
  5
AD
330
18
100
AcDbEntity
  8
ADP1DETAIL
100
AcDbCircle
 10
-72.79232517399728
 20
3.358995892889575
 30
0.0
 40
1.362402526500855
100
AcDbArc
 50
82.63110281898239
 51
129.4302509155293
  0
ARC
  5
AE
330
18
100
AcDbEntity
  8
ADP1DETAIL
100
AcDbCircle
 10
-72.94260347582993
 20
3.526532276409016
 30
0.0
 40
1.066758578554268
100
AcDbArc
 50
74.44785007730738
 51
105.5521499226927
  0
LWPOLYLINE
  5
AF
330
18
100
AcDbEntity
  8
ADP1DETAIL
100
AcDbPolyline
 90
        4
 70
     0
 43
0.0
 10
-74.31130170084698
 20
3.828048941783631
 42
-0.0479099418531115
 10
-74.11805859736695
 20
4.583864938549046
 42
-0.1388945711334313
 10
-71.95013648478877
 20
6.178724619948766
 42
-0.241019961857341
 10
-69.93276451891741
 20
5.937991083133713
 42
0.3048424789673472
  0
LWPOLYLINE
  5
B5
330
18
100
AcDbEntity
  8
ADP1DETAIL
100
AcDbPolyline
 90
        4
 70
     0
 43
0.0
 10
-74.66887899402348
 20
3.735691138010222
 42
-0.04793737802729
 10
-74.44926892012197
 20
4.704231706956575
 42
-0.247798531823379
 10
-71.82969636742331
 20
6.539824925171345
 42
-0.0061754165903203
 10
-71.76734451180672
 20
6.558207125905211
 42
0.2936038979996153
  0
LWPOLYLINE
  5
BB
330
18
100
AcDbEntity
  8
ADP1DETAIL
100
AcDbPolyline
 90
        7
 70
     0
 43
0.0
 10
-74.28167065828998
 20
2.225415649546779
 42
0.1783188744551571
 10
-73.56663478416082
 20
1.27694601209121
 42
0.1277474968677392
 10
-72.5395832558662
 20
0.9391349083399123
 42
0.3789148018057836
 10
-72.42257738555416
 20
1.030084051657569
 42
0.2092689925225395
 10
-72.46157934232484
 20
1.198989603533218
 42
-0.3220987889944354
 10
-72.7605943442334
 20
1.250960542571879
 42
-0.2924448004181058
 10
-72.39657608104038
 20
2.290379323345107
 42
-0.3452698403193577
  0
LWPOLYLINE
  5
C4
330
18
100
AcDbEntity
  8
ADP1DETAIL
100
AcDbPolyline
 90
       24
 70
     0
 43
0.0
 10
-72.27957021072834
 20
2.160451975748453
 42
-0.1806524774614604
 10
-72.08456042687493
 20
1.744684463439162
 42
-0.4347458489509192
 10
-72.25356890621454
 20
1.185996868773553
 42
0.0828122772091173
 10
-72.26656955847144
 20
0.9911058473785733
 42
0.2068648500241256
 10
-72.00655651333356
 20
1.095047725455895
 42
-0.3041659972056881
 10
-71.90255129527841
 20
1.640742585361839
 42
-0.3702820148408778
 10
-71.10951150760789
 20
1.770669932958493
 42
-0.2097991222968591
 10
-70.74549324441486
 20
1.406873359687863
 42
0.2541347516043071
 10
-70.31647171993737
 20
1.030084051657569
 42
0.142131518157403
 10
-70.8624991147269
 20
0.8222002955029235
 42
-0.2300729206858705
 10
-71.4995310753147
 20
0.5493528655499529
 42
-0.3238410080779893
 10
-71.9285525997922
 20
0.8481857650222547
 42
-0.1621802254137871
 10
-72.25356890621454
 20
0.8222002955029235
 42
0.0087764114677012
 10
-72.22756760170075
 20
0.6273092741079443
 42
-0.2008491433905699
 10
-71.99355586107666
 20
0.3024909051163105
 42
-0.3029291329712724
 10
-72.07155977461804
 20
0.0556289446826694
 42
-0.1398434308061295
 10
-72.5395832558662
 20
-0.4121095066652832
 42
-0.2361381822904848
 10
-72.91660217131613
 20
0.211541761798653
 42
-0.7171261758171039
 10
-72.44857869006795
 20
0.5883310698289486
 10
-72.43557803781105
 20
0.796214825983594
 42
-0.1507069596558876
 10
-73.35862434805052
 20
0.978113112618908
 42
-0.8512204841273819
 10
-73.52763282739013
 20
0.9651203778592428
 42
0.0399305710695428
 10
-73.76164456801423
 20
1.147018664494556
 10
-73.83964848155558
 20
1.017091316897903
  0
ARC
  5
DE
330
18
100
AcDbEntity
  8
ADP1DETAIL
100
AcDbCircle
 10
-71.81165665153284
 20
-0.7309207632773483
 30
0.0
 40
1.430198665650334
100
AcDbArc
 50
117.6143750671883
 51
132.975128173494
  0
ARC
  5
DF
330
18
100
AcDbEntity
  8
ADP1DETAIL
100
AcDbCircle
 10
-71.79252065627402
 20
-0.5880262200451592
 30
0.0
 40
1.177251116471711
100
AcDbArc
 50
122.3570110821487
 51
147.608084720012
  0
ARC
  5
E0
330
18
100
AcDbEntity
  8
ADP1DETAIL
100
AcDbCircle
 10
-72.50713800666078
 20
1.530354463168217
 30
0.0
 40
0.1755745130655085
100
AcDbArc
 50
182.1368320676093
 51
272.1401685113373
  0
LWPOLYLINE
  5
E1
330
18
100
AcDbEntity
  8
ADP1DETAIL
100
AcDbPolyline
 90
        4
 70
     0
 43
0.0
 10
-72.52096710950425
 20
-1.960574904902994
 42
0.0404485369661049
 10
-72.52222704227469
 20
-1.464565173929129
 42
0.0369404311890983
 10
-73.15453765844331
 20
-0.5317227187708041
 42
-0.0602397558381779
 10
-73.89978365107113
 20
0.3373878906626606
 42
-0.0376881401723955
  0
DIMENSION
  5
E7
330
18
100
AcDbEntity
  8
ADPDIM
100
AcDbDimension
  2
*D0
 10
-58.77501639049498
 20
7.727707960867771
 30
0.0
 11
-66.77501639049497
 21
7.727707960867771
 31
0.0
100
AcDbAlignedDimension
 13
-74.77501639049497
 23
3.979067067326169
 33
0.0
 14
-58.77501639049498
 24
5.132494990103499
 34
0.0
100
AcDbRotatedDimension
  0
LWPOLYLINE
  5
E8
330
18
100
AcDbEntity
  8
ADP1DETAIL
100
AcDbPolyline
 90
       13
 70
     0
 43
0.0
 10
-74.20366674474862
 20
1.263953277331545
 42
-0.4804419417447642
 10
-74.34667391957444
 20
1.198989603533218
 42
-0.0244639948602294
 10
-74.13866348346414
 20
0.1595708227599921
 42
-0.4638154876268727
 10
-74.21666739700551
 20
0.0946071489616651
 42
0.2096249004078645
 10
-74.60668696471232
 20
-0.2172184852703025
 42
0.0400295186679024
 10
-74.56768500794163
 20
-0.6589714670989242
 42
-0.1800398491152093
 10
-74.55468435568476
 20
-1.30860820508219
 42
0.1488262788330162
 10
-74.00865696089521
 20
-1.08773171416788
 42
0.2808409430885035
 10
-73.67064000221597
 20
-0.3341530981072909
 42
0.383126600162792
 10
-74.00865696089521
 20
0.0426362099230038
 42
0.1231784017616212
 10
-74.03465826540899
 20
0.2894981703566453
 42
0.4140351450770706
 10
-73.89165109058317
 20
0.3544618441549718
 42
-0.0687734551608769
 10
-74.20366674474862
 20
1.263953277331545
 42
-1.214540715217406
  0
LWPOLYLINE
  5
F7
330
18
100
AcDbEntity
  8
ADP1DETAIL
100
AcDbPolyline
 90
        2
 70
     0
 43
0.0
 10
-72.80399189353565
 20
-0.14102811910027
 42
-0.0916987332315085
 10
-73.80268995775297
 20
1.078651343193463
 42
-0.0540077622587867
  0
ARC
  5
FB
330
18
100
AcDbEntity
  8
ADP1DETAIL
100
AcDbCircle
 10
-77.43314592310255
 20
-0.3026865661084019
 30
0.0
 40
3.323243556030516
100
AcDbArc
 50
350.9071121021404
 51
7.543504096242203
  0
ARC
  5
FC
330
18
100
AcDbEntity
  8
ADP1DETAIL
100
AcDbCircle
 10
-72.67722987699371
 20
-1.93616104977852
 30
0.0
 40
2.065182637866284
100
AcDbArc
 50
134.5360812761227
 51
145.8184426555718
  0
ARC
  5
FD
330
18
100
AcDbEntity
  8
ADP1DETAIL
100
AcDbCircle
 10
-77.13349335882464
 20
2.311436567586671
 30
0.0
 40
3.934977262819344
100
AcDbArc
 50
313.2427115436945
 51
319.268478283017
  0
ARC
  5
FE
330
18
100
AcDbEntity
  8
ADP1DETAIL
100
AcDbCircle
 10
-64.48597000065501
 20
7.400444439148285
 30
0.0
 40
12.28204359854406
100
AcDbArc
 50
218.8756818839628
 51
220.7697941843426
  0
ARC
  5
FF
330
18
100
AcDbEntity
  8
ADP1DETAIL
100
AcDbCircle
 10
-74.63830675942417
 20
-0.5963730597986139
 30
0.0
 40
0.4943910701702747
100
AcDbArc
 50
297.2840033712662
 51
338.7068591702171
  0
ARC
  5
100
330
18
100
AcDbEntity
  8
ADP1DETAIL
100
AcDbCircle
 10
-74.05044038781996
 20
-0.7868234424216305
 30
0.0
 40
0.1023778134531101
100
AcDbArc
 50
336.3592469811608
 51
95.72870906157238
  0
ARC
  5
101
330
18
100
AcDbEntity
  8
ADP1DETAIL
100
AcDbCircle
 10
-74.39933861927833
 20
-1.621919669576846
 30
0.0
 40
0.4516850606072543
100
AcDbArc
 50
348.912219375204
 51
64.25794763198878
  0
ARC
  5
102
330
18
100
AcDbEntity
  8
ADP1DETAIL
100
AcDbCircle
 10
-74.34583297794027
 20
-1.657222585432458
 30
0.0
 40
0.6531859162985451
100
AcDbArc
 50
31.1848490484265
 51
58.86521863784697
  0
ARC
  5
103
330
18
100
AcDbEntity
  8
ADP1DETAIL
100
AcDbCircle
 10
-73.24239575252128
 20
-2.198887391091044
 30
0.0
 40
0.646602708639346
100
AcDbArc
 50
38.11990443412329
 51
143.329277383927
  0
LINE
  5
104
330
18
100
AcDbEntity
  8
ADP1DETAIL
100
AcDbLine
 10
-74.32067261506066
 20
-0.1782402809913064
 30
0.0
 11
-74.16466478797793
 21
-0.0483129333946533
 31
0.0
  0
LINE
  5
105
330
18
100
AcDbEntity
  8
ADP1DETAIL
100
AcDbLine
 10
-74.11266217895036
 20
-0.0613056681543185
 30
0.0
 11
-73.78764587252802
 21
-0.2951748938282948
 31
0.0
  0
LWPOLYLINE
  5
106
330
18
100
AcDbEntity
  8
ADP1DETAIL
100
AcDbPolyline
 90
        4
 70
     0
 43
0.0
 10
-74.66887899402348
 20
3.735691138010222
 10
-74.77569544405193
 20
3.735691138010222
 10
-74.77569544405193
 20
2.306490314447035
 10
-74.65325510577994
 20
2.306490314447035
  0
LWPOLYLINE
  5
10C
330
18
100
AcDbEntity
  8
ADP1DETAIL
100
AcDbPolyline
 90
        3
 70
     0
 43
0.0
 10
-74.1558826151702
 20
1.919037580288779
 42
-0.0046226826331616
 10
-74.17827865604968
 20
1.995979417787241
 42
-0.0540077622587867
 10
-74.3456574463069
 20
2.858769792599423
 42
-0.1388945711334313
  0
LWPOLYLINE
  5
111
330
18
100
AcDbEntity
  8
ADP1DETAIL
100
AcDbPolyline
 90
        3
 70
     0
 43
0.0
 10
-74.33374173366184
 20
1.147036271488046
 42
-0.0222085063262664
 10
-74.47937894946332
 20
1.544604036259018
 42
-0.0376881401723955
 10
-74.65325510577994
 20
2.306490314447035
 42
-0.247798531823379
  0
ARC
  5
116
330
18
100
AcDbEntity
  8
ADP1DETAIL
100
AcDbCircle
 10
-73.07234891312778
 20
4.425544528842676
 30
0.0
 40
0.5112734307999638
100
AcDbArc
 50
125.8280216887777
 51
172.8400214439826
  0
ARC
  5
117
330
18
100
AcDbEntity
  8
ADP1DETAIL
100
AcDbCircle
 10
-72.5418285669463
 20
4.3947494599215
 30
0.0
 40
0.825671748699839
100
AcDbArc
 50
146.2835251360878
 51
163.2873273306984
  0
ARC
  5
118
330
18
100
AcDbEntity
  8
ADP1DETAIL
100
AcDbCircle
 10
-72.71116155726655
 20
4.41963360413656
 30
0.0
 40
0.4799324385287002
100
AcDbArc
 50
118.8317069481803
 51
146.552281130149
  0
ARC
  5
119
330
18
100
AcDbEntity
  8
ADP1DETAIL
100
AcDbCircle
 10
-73.15061391194022
 20
2.095779150563004
 30
0.0
 40
2.328672095899007
100
AcDbArc
 50
83.91093167372751
 51
96.08906832627248
  0
ARC
  5
11A
330
18
100
AcDbEntity
  8
ADP1DETAIL
100
AcDbCircle
 10
-73.40809729356452
 20
4.612849175884328
 30
0.0
 40
0.2954189149621067
100
AcDbArc
 50
234.5029764599034
 51
295.5635650166172
  0
ARC
  5
11B
330
18
100
AcDbEntity
  8
ADP1DETAIL
100
AcDbCircle
 10
-73.15711423806867
 20
4.088151122133041
 30
0.0
 40
0.2862171755243956
100
AcDbArc
 50
64.43643498338275
 51
115.5635650166171
  0
ARC
  5
11C
330
18
100
AcDbEntity
  8
ADP1DETAIL
100
AcDbCircle
 10
-61.71104435352242
 20
3.561456220725368
 30
0.0
 40
2.869688777349851
100
AcDbArc
 50
136.4441729404023
 51
153.2545827895916
  0
LWPOLYLINE
  5
11D
330
18
100
AcDbEntity
  8
ADP1DETAIL
100
AcDbPolyline
 90
       14
 70
     0
 43
0.0
 10
-63.06621436254669
 20
5.106950445794829
 10
-63.02808262738409
 20
4.865596532391919
 10
-63.37126824384747
 20
4.852893694844397
 42
-0.3432727604044196
 10
-63.28229419513474
 20
5.094247608247307
 42
0.380045447515061
 10
-62.85013452995865
 20
5.322898684102696
 42
0.0137670900179595
 10
-62.90097684350878
 20
5.856417861098606
 42
-0.1032310339817191
 10
-62.87555568673371
 20
6.161285962239123
 42
0.1806508947694582
 10
-63.7017432819233
 20
5.805606510908519
 42
0.2657250157122308
 10
-63.75258559547344
 20
5.34830435919774
 42
0.3379756838933133
 10
-63.43482113578513
 20
5.170464633532438
 42
0.3029291329712757
 10
-63.53650576288539
 20
4.840190857296875
 42
0.1766275831940153
 10
-64.27371930936226
 20
4.852893694844397
 42
0.2181219230159498
 10
-64.80756360163863
 20
4.484511405966271
 42
-0.019689210159499
 10
-64.78214244486356
 20
4.776676669559268
 42
-0.8811738826425296
  0
LWPOLYLINE
  5
12D
330
18
100
AcDbEntity
  8
ADP1DETAIL
100
AcDbPolyline
 90
       11
 70
     0
 43
0.0
 10
-62.60863354059553
 20
4.268563167658403
 42
-0.2008752547902495
 10
-62.63405469737059
 20
3.900180878780276
 42
0.2123326145913301
 10
-62.68489701092072
 20
3.646124127829843
 42
0.0787284145482566
 10
-63.01537204899656
 20
3.646124127829843
 42
-0.1122969230826098
 10
-63.54921634127293
 20
3.671529802924886
 42
-0.8735973195412769
 10
-63.4602422925602
 20
4.319374517848489
 42
-0.1358847567892925
 10
-63.63819038998565
 20
4.662351131631574
 42
0.2505340213769213
 10
-64.4008250932376
 20
4.649648294084052
 42
0.2673554288588053
 10
-64.47708856356277
 20
4.522619918608835
 42
-0.0109559287791422
 10
-64.94737996390148
 20
3.582609940092235
 42
-0.1510843055974278
 10
-65.26514442358979
 20
3.265039001404195
 42
4.040885416032877
  0
LWPOLYLINE
  5
13A
330
18
100
AcDbEntity
  8
ADP1DETAIL
100
AcDbPolyline
 90
       10
 70
     0
 43
0.0
 10
-66.40909647846766
 20
3.112604950833935
 42
0.3850932100378821
 10
-64.97280112067649
 20
4.459105730871227
 42
-0.1434231021316271
 10
-64.84569533680117
 20
4.789379507106788
 42
-0.759267063164173
 10
-64.78214244486351
 20
4.763973832011746
 42
0.2657049281102076
 10
-64.73130013131338
 20
4.929110720129527
 42
0.2052458479212695
 10
-64.98551169906403
 20
6.085068936953994
 42
0.241611262815147
 10
-66.11675317555441
 20
6.313720012809383
 42
0.4295097450803961
 10
-66.24385895942975
 20
6.072366099406472
 42
0.8470422270745453
 10
-66.16759548910454
 20
5.996149074121342
 42
-0.599874343889449
 10
-66.19301664587959
 20
5.653172460338259
 42
4.73630402356435
  0
LWPOLYLINE
  5
146
330
18
100
AcDbEntity
  8
ADP1DETAIL
100
AcDbPolyline
 90
        9
 70
     0
 43
0.0
 10
-66.84125614364376
 20
5.068841933152263
 42
0.1771624390611428
 10
-66.95565134913154
 20
4.344780192943531
 42
0.208880459719414
 10
-66.84125614364376
 20
4.17964330482575
 42
-0.1819224708836415
 10
-66.70143978138091
 20
3.811261015947625
 42
0.1209356648415627
 10
-66.2692801162048
 20
3.785855340852581
 42
0.0249996004484112
 10
-66.25656953781727
 20
4.344780192943531
 42
0.2055162887344091
 10
-66.33283300814247
 20
4.509917081061313
 42
0.0191673461855228
 10
-66.63788688944324
 20
4.763973832011746
 42
-0.2502870952359993
 10
-66.81583498686869
 20
5.335601521650218
 42
-0.827094887544491
  0
ARC
  5
151
330
18
100
AcDbEntity
  8
ADP1DETAIL
100
AcDbCircle
 10
-66.65608623067271
 20
4.987302048627089
 30
0.0
 40
1.945466114882867
100
AcDbArc
 50
186.9685004541396
 51
259.4865150840099
  0
ARC
  5
152
330
18
100
AcDbEntity
  8
ADP1DETAIL
100
AcDbCircle
 10
-71.22659873332328
 20
4.122480535861905
 30
0.0
 40
2.233041993682116
100
AcDbArc
 50
334.5649426195054
 51
10.65406876817091
  0
ARC
  5
153
330
18
100
AcDbEntity
  8
ADP1DETAIL
100
AcDbCircle
 10
-65.13537292458626
 20
5.970408003096302
 30
0.0
 40
4.108302406997034
100
AcDbArc
 50
201.0895235204349
 51
222.9526216440492
  0
LWPOLYLINE
  5
154
330
18
100
AcDbEntity
  8
ADP1DETAIL
100
AcDbPolyline
 90
        3
 70
     0
 43
0.0
 10
-63.9589346975909
 20
4.734323399058455
 42
0.0084132525209039
 10
-65.49454619400044
 20
2.026071109889122
 42
-0.0000477713177523
 10
-65.50039027228198
 20
2.017656336945173
 42
-0.3046796856405542
  0
LWPOLYLINE
  5
159
330
18
100
AcDbEntity
  8
ADP1DETAIL
100
AcDbPolyline
 90
        4
 70
     0
 43
0.0
 10
-70.85729885382417
 20
4.853066327341441
 42
-0.1640494739735264
 10
-70.87029950608107
 20
4.138465915559846
 42
0.0186718353862967
 10
-70.94830341962243
 20
3.891603955126205
 42
0.4868980800221773
 10
-70.7662942880259
 20
4.684160775465791
 42
-2.096031067662653
  0
LWPOLYLINE
  5
15F
330
18
100
AcDbEntity
  8
ADP1DETAIL
100
AcDbPolyline
 90
        5
 70
     0
 43
0.0
 10
-70.37627472031909
 20
4.229415058877505
 42
-0.1848274138539455
 10
-70.89630081059485
 20
3.813647546568213
 42
0.1785160386554668
 10
-71.35132363958613
 20
3.397880034258923
 42
0.3065523356887649
 10
-71.50733146666886
 20
3.761676607529552
 42
-0.2104977764077046
 10
-71.78034516406363
 20
4.086494976521185
 42
-1.33364999234214
  0
LWPOLYLINE
  5
166
330
18
100
AcDbEntity
  8
ADP1DETAIL
100
AcDbPolyline
 90
        5
 70
     0
 43
0.0
 10
-71.07830994219137
 20
3.722698403250556
 42
0.2321612401417947
 10
-71.2083164647603
 20
3.969560363684198
 42
-0.204111308208579
 10
-71.52033211892575
 20
4.411313345512818
 42
0.5033101879698975
 10
-71.88435038211878
 20
4.242407793637168
 42
0.1098157458484235
 10
-71.81934712083431
 20
4.09948771128085
 42
-0.0453885456064915
  0
LWPOLYLINE
  5
16D
330
18
100
AcDbEntity
  8
ADP1DETAIL
100
AcDbPolyline
 90
        3
 70
     0
 43
0.0
 10
-71.81934712083431
 20
4.09948771128085
 42
-0.155350362538476
 10
-71.83234777309121
 20
3.852625750847209
 42
0.1486357126329296
 10
-71.85834907760498
 20
3.436858238537918
 42
1.960796105265607
  0
LWPOLYLINE
  5
172
330
18
100
AcDbEntity
  8
ADP1DETAIL
100
AcDbPolyline
 90
        4
 70
     0
 43
0.0
 10
-71.31232168281545
 20
4.060509507001855
 42
0.3818373462579976
 10
-71.39032559635682
 20
4.541240693109472
 42
0.3451454192638028
 10
-72.14436342725666
 20
4.359342406474159
 42
0.5473382083817003
 10
-72.15736407951355
 20
3.449850973297583
 42
0.3003169776562378
  0
LWPOLYLINE
  5
178
330
18
100
AcDbEntity
  8
ADP1DETAIL
100
AcDbPolyline
 90
       11
 70
     0
 43
0.0
 10
-68.34714340959582
 20
-0.3104514703798742
 10
-68.07959857176658
 20
-0.4793242499367048
 42
0.2846366607406766
 10
-68.0232733427499
 20
-0.1837968857122516
 42
-0.4144634366093015
 10
-68.0232733427499
 20
-0.0430695694148926
 42
0.1590377776755581
 10
-68.17816772254578
 20
0.4072578427366547
 42
0.2787999703084349
 10
-68.75550131996675
 20
0.2946759896987681
 42
-0.2266915925277908
 10
-68.99488354328766
 20
0.2665305264392961
 42
-0.8766250360038494
 10
-68.98080223603348
 20
0.3368941845879756
 42
0.1070274642741749
 10
-68.75550131996675
 20
1.026458034445032
 42
0.1741266216858362
 10
-68.51611909664587
 20
1.040530766074769
 42
0.3057492531639787
 10
-68.44571256037501
 20
0.4494760376258627
 42
0.4578883235401892
  0
LWPOLYLINE
  5
185
330
18
100
AcDbEntity
  8
ADP1DETAIL
100
AcDbPolyline
 90
        6
 70
     0
 43
0.0
 10
-68.09367987902074
 20
0.3087487213285036
 42
0.2111751837914665
 10
-67.81205373393735
 20
0.3931851111069191
 42
-0.2868634345635206
 10
-67.53042758885394
 20
0.4354033059961267
 42
-0.2291751371806968
 10
-67.58675281787062
 20
0.7872215967395229
 42
0.3801800359075415
 10
-68.12184249352909
 20
1.406421788447901
 42
0.3065623255547517
 10
-68.51611909664587
 20
1.209403545631599
 42
1.709985190979107
  0
ARC
  5
18D
330
18
100
AcDbEntity
  8
ADP1DETAIL
100
AcDbCircle
 10
-68.80972389370237
 20
-0.0050180721757482
 30
0.0
 40
1.24086879469171
100
AcDbArc
 50
25.02262037970806
 51
72.94125809310736
  0
ARC
  5
18E
330
18
100
AcDbEntity
  8
ADP1DETAIL
100
AcDbCircle
 10
-68.78933316882474
 20
-0.5305056212658706
 30
0.0
 40
0.6985500316265569
100
AcDbArc
 50
17.14973971649345
 51
89.53499856496511
  0
ARC
  5
18F
330
18
100
AcDbEntity
  8
ADP1DETAIL
100
AcDbCircle
 10
-68.08663922539366
 20
0.6622119112943899
 30
0.0
 40
0.6350080815385955
100
AcDbArc
 50
76.53581202633765
 51
122.9077229080685
  0
LINE
  5
190
330
18
100
AcDbEntity
  8
ADP1DETAIL
100
AcDbLine
 10
-68.62876955467922
 20
0.182094136660881
 30
0.0
 11
-68.20633033705411
 21
0.3087487213285036
 31
0.0
  0
LINE
  5
191
330
18
100
AcDbEntity
  8
ADP1DETAIL
100
AcDbLine
 10
-68.40346863861251
 20
0.125803210141938
 30
0.0
 11
-68.09367987902074
 21
0.224312331550089
 31
0.0
  0
LINE
  5
192
330
18
100
AcDbEntity
  8
ADP1DETAIL
100
AcDbLine
 10
-68.30489948783331
 20
0.0132213571040509
 30
0.0
 11
-68.06551726451241
 21
0.0272940887337865
 31
0.0
  0
LWPOLYLINE
  5
193
330
18
100
AcDbEntity
  8
ADP1DETAIL
100
AcDbPolyline
 90
        3
 70
     0
 43
0.0
 10
-67.10273809705232
 20
0.4007849014539988
 42
-0.090473919597779
 10
-68.57781319855604
 20
-0.6821811792802111
 42
-0.1393954762479059
 10
-69.93276451891742
 20
-0.9229147160952626
 42
-0.1215714497060979
  0
LWPOLYLINE
  5
198
330
18
100
AcDbEntity
  8
ADP1DETAIL
100
AcDbPolyline
 90
       22
 70
     0
 43
0.0
 10
-68.51611909664587
 20
1.223476277261335
 10
-68.75550131996675
 20
1.209403545631599
 42
0.0529434200838235
 10
-68.85407047074593
 20
1.828603737339977
 42
0.2954221341292889
 10
-68.50203778939169
 20
2.264858417861789
 42
0.3839763450997433
 10
-68.95263962152514
 20
2.954422267718847
 42
-0.0641575464345007
 10
-69.54405452620029
 20
3.461040606389337
 42
-0.0384245516905223
 10
-69.68486759874199
 20
2.982567730978318
 42
0.1113296683349691
 10
-69.68486759874199
 20
2.222640222972582
 42
0.5038100501959601
 10
-69.09345269406685
 20
1.856749200599449
 42
-0.2143049271074936
 10
-68.95263962152514
 20
1.265694472150542
 42
-0.2359393762300483
 10
-69.19202184484603
 20
1.321985398669486
 42
0.4554253141365845
 10
-69.22018445935437
 20
1.701949152672354
 42
0.2802815171671874
 10
-69.64262367697948
 20
1.842676468969714
 42
0.0166532490241503
 10
-70.12138812362128
 20
1.71602188430209
 42
-0.1470073024089163
 10
-70.37485165419633
 20
1.71602188430209
 42
-0.0384173681115853
 10
-70.23403858165464
 20
1.462712714966844
 42
0.2882716492707046
 10
-70.05098158735044
 20
0.9983125711855617
 42
0.5651838486294957
 10
-69.26242838111689
 20
1.082748960963975
 42
0.0847067496504321
 10
-68.95263962152514
 20
1.012385302815296
 42
-0.1572402514685308
 10
-69.17794053759187
 20
0.3087487213285036
 42
-0.1866820893777434
 10
-69.4032414536586
 20
0.3228214529582396
 42
0.3763402728573697
 10
-69.54405452620029
 20
0.8294397916287309
 42
0.3763402728573697
  0
LINE
  5
1B0
330
18
100
AcDbEntity
  8
ADP1DETAIL
100
AcDbLine
 10
-68.34714340959582
 20
0.6605670120719008
 30
0.0
 11
-68.41754994586667
 21
1.167185350742391
 31
0.0
  0
LINE
  5
1B1
330
18
100
AcDbEntity
  8
ADP1DETAIL
100
AcDbLine
 10
-71.78554542496636
 20
1.043076786417235
 30
0.0
 11
-71.44752846628714
 21
0.6532947436272747
 31
0.0
  0
LINE
  5
1B2
330
18
100
AcDbEntity
  8
ADP1DETAIL
100
AcDbLine
 10
-71.62953759788364
 20
1.160011399254222
 30
0.0
 11
-71.2915206392044
 21
0.796214825983594
 31
0.0
  0
LINE
  5
1B3
330
18
100
AcDbEntity
  8
ADP1DETAIL
100
AcDbLine
 10
-71.23951803017682
 20
1.263953277331545
 30
0.0
 11
-70.95350368052516
 21
0.9521276430995776
 31
0.0
  0
LWPOLYLINE
  5
1B4
330
18
100
AcDbEntity
  8
ADP1DETAIL
100
AcDbPolyline
 90
        8
 70
     0
 43
0.0
 10
-69.81159936402953
 20
0.8153670599989947
 42
-0.0082601961218024
 10
-70.31852642517967
 20
0.6183488171826937
 42
-0.1175766761112871
 10
-70.13546943087544
 20
0.2946759896987681
 42
0.6178655937994356
 10
-69.47364798992945
 20
0.153948673401409
 42
-0.2359393762300509
 10
-69.31875361013357
 20
0.1117304785122015
 42
-0.1148278455825438
 10
-69.86792459304621
 20
-0.5215424448259119
 42
0.1401370045090286
 10
-69.83976197853786
 20
-0.3245242020096102
 42
-0.3193118194784974
 10
-71.12116093866737
 20
-0.859288003939573
 42
-8.939393614943401
  0
LWPOLYLINE
  5
1BE
330
18
100
AcDbEntity
  8
ADP1DETAIL
100
AcDbPolyline
 90
        2
 70
     0
 43
0.0
 10
-70.77392578315194
 20
-0.8860526388693195
 42
-0.0825686288838008
 10
-72.49211701293332
 20
-0.3812642582613952
 42
-0.114658400404188
  0
ARC
  5
1C2
330
18
100
AcDbEntity
  8
ADP1DETAIL
100
AcDbCircle
 10
-71.23397542949311
 20
-1.000253859197085
 30
0.0
 40
1.69741663624951
100
AcDbArc
 50
134.446400975082
 51
146.9405702105483
  0
ARC
  5
1C3
330
18
100
AcDbEntity
  8
ADP1DETAIL
100
AcDbCircle
 10
-73.46147712953747
 20
0.4584290659430353
 30
0.0
 40
1.11720531162538
100
AcDbArc
 50
324.4434326118597
 51
1.331482686124116
  0
ARC
  5
1C4
330
18
100
AcDbEntity
  8
ADP1DETAIL
100
AcDbCircle
 10
-73.06448904956235
 20
-0.1338804453988751
 30
0.0
 40
0.9672943616621251
100
AcDbArc
 50
25.10393584379032
 51
40.73839341574148
  0
ARC
  5
1C5
330
18
100
AcDbEntity
  8
ADP1DETAIL
100
AcDbCircle
 10
-71.72109621972431
 20
0.4065040623800785
 30
0.0
 40
0.6449240078566119
100
AcDbArc
 50
198.8110886538233
 51
214.3469421630635
  0
ARC
  5
1C6
330
18
100
AcDbEntity
  8
ADP1DETAIL
100
AcDbCircle
 10
-73.52018269090336
 20
-0.8086255141233117
 30
0.0
 40
1.288362276643763
100
AcDbArc
 50
29.2940511894919
 51
34.74809397499217
  0
LWPOLYLINE
  5
1C7
330
18
100
AcDbEntity
  8
ADP1DETAIL
100
AcDbPolyline
 90
        8
 70
     0
 43
0.0
 10
-69.93833112931707
 20
-0.9859425886071955
 10
-69.88200590030039
 20
-0.831142540680101
 42
2.288131689229856
 10
-69.8256806712837
 20
-0.7044879560124784
 42
0.1811159489736771
 10
-69.13569661582936
 20
0.055439551993258
 42
-0.1159975375288625
 10
-68.85407047074593
 20
0.1117304785122015
 42
-0.5135314166257711
 10
-68.82590785623761
 20
0.0695122836229945
 42
0.1814380416110696
 10
-68.86815177800013
 20
-0.1697241540825156
 42
0.6240362909548888
 10
-68.36122471684998
 20
-0.3104514703798742
 42
-0.0308276727508642
  0
ARC
  5
1D1
330
18
100
AcDbEntity
  8
ADP1DETAIL
100
AcDbCircle
 10
-69.99723230584547
 20
-0.5597914250077523
 30
0.0
 40
0.1177353622701985
100
AcDbArc
 50
278.1335239092012
 51
11.84963638338817
  0
ARC
  5
1D2
330
18
100
AcDbEntity
  8
ADP1DETAIL
100
AcDbCircle
 10
-70.66347655691834
 20
-1.134526549278195
 30
0.0
 40
1.794475956055396
100
AcDbArc
 50
47.86360886463437
 51
75.69059283542876
  0
LINE
  5
1D3
330
18
100
AcDbEntity
  8
ADP1DETAIL
100
AcDbLine
 10
-69.92424982206289
 20
0.1680214050311455
 30
0.0
 11
-69.61446106247113
 21
0.3228214529582396
 31
0.0
  0
LINE
  5
1D4
330
18
100
AcDbEntity
  8
ADP1DETAIL
100
AcDbLine
 10
-69.61446106247113
 20
0.3228214529582396
 30
0.0
 11
-69.61446106247113
 21
0.6464942804421648
 31
0.0
  0
LINE
  5
1D5
330
18
100
AcDbEntity
  8
ADP1DETAIL
100
AcDbLine
 10
-70.03690028009625
 20
0.2946759896987681
 30
0.0
 11
-69.7834367495212
 21
0.4213305743663907
 31
0.0
  0
LINE
  5
1D6
330
18
100
AcDbEntity
  8
ADP1DETAIL
100
AcDbLine
 10
-69.7834367495212
 20
0.4213305743663907
 30
0.0
 11
-69.79751805677536
 21
0.7590761334800518
 31
0.0
  0
LINE
  5
1D7
330
18
100
AcDbEntity
  8
ADP1DETAIL
100
AcDbLine
 10
-70.16363204538379
 20
0.4213305743663907
 30
0.0
 11
-69.91016851480871
 21
0.5057669641448066
 31
0.0
  0
LINE
  5
1D8
330
18
100
AcDbEntity
  8
ADP1DETAIL
100
AcDbLine
 10
-69.91016851480871
 20
0.5057669641448066
 30
0.0
 11
-70.02281897284209
 21
0.7027852069611087
 31
0.0
  0
LINE
  5
1D9
330
18
100
AcDbEntity
  8
ADP1DETAIL
100
AcDbLine
 10
-68.44571256037501
 20
-0.2823060071204027
 30
0.0
 11
-68.44571256037501
 21
0.055439551993258
 31
0.0
  0
LINE
  5
1DA
330
18
100
AcDbEntity
  8
ADP1DETAIL
100
AcDbLine
 10
-68.62876955467922
 20
-0.2682332754906667
 30
0.0
 11
-68.67101347644174
 21
0.1398759417716735
 31
0.0
  0
LWPOLYLINE
  5
1DB
330
18
100
AcDbEntity
  8
ADP1DETAIL
100
AcDbPolyline
 90
        2
 70
     0
 43
0.0
 10
-71.49848604466831
 20
2.657996644028633
 42
0.3961063172924575
 10
-69.6918842841865
 20
2.236712954602292
 42
-0.2688039015194679
  0
LWPOLYLINE
  5
1DF
330
18
100
AcDbEntity
  8
ADP1DETAIL
100
AcDbPolyline
 90
       11
 70
     0
 43
0.0
 10
-69.73924275973129
 20
2.592330479159671
 42
-0.0118985870730849
 10
-70.24626819775015
 20
2.34546851872603
 42
-0.2670941939954168
 10
-70.80529624479659
 20
2.397439457764692
 42
0.0572194684373953
 10
-70.90930146285174
 20
2.800214235314317
 42
0.1726407936908887
 10
-70.98730537639309
 20
2.891163378631974
 42
-0.3189114015910705
 10
-70.75329363576902
 20
2.943134317670636
 42
-0.0604193832056534
 10
-70.64928841771387
 20
2.423424927284022
 42
0.308359948023515
 10
-70.59728580868629
 20
2.358461253485696
 42
-0.0901944997739412
 10
-70.53228254740182
 20
2.462403131563018
 42
0.0869292204155018
 10
-70.42827732934667
 20
2.904156113391641
 42
0.2502583762466506
 10
-70.50628124288803
 20
3.073061665267289
 42
-2.979072417717226
  0
LWPOLYLINE
  5
1EC
330
18
100
AcDbEntity
  8
ADP1DETAIL
100
AcDbPolyline
 90
        4
 70
     0
 43
0.0
 10
-70.85729885382417
 20
2.969119787189967
 42
0.0116205724959386
 10
-70.49328059063114
 20
3.086054400026954
 42
-0.3026473292114169
 10
-69.97325450035539
 20
3.254959951902603
 42
0.2575465407198917
 10
-70.54528319965872
 20
3.527807381855576
 42
33.84663630211454
  0
LWPOLYLINE
  5
1F2
330
18
100
AcDbEntity
  8
ADP1DETAIL
100
AcDbPolyline
 90
        4
 70
     0
 43
0.0
 10
-72.17036473177043
 20
3.12503260430595
 42
0.2953456902500716
 10
-71.49433081441197
 20
2.787221500554652
 42
0.2784369386473342
 10
-70.54528319965872
 20
3.51481464709591
 42
0.0374838752146146
 10
-70.49328059063114
 20
3.683720198971559
 42
-0.7980149842754299
  0
LWPOLYLINE
  5
1F8
330
18
100
AcDbEntity
  8
ADP1DETAIL
100
AcDbPolyline
 90
        8
 70
     0
 43
0.0
 10
-71.19531581250339
 20
2.787221500554652
 42
0.3799390397096378
 10
-71.70234125052227
 20
2.15057749733105
 42
-0.2590292476601089
 10
-71.93635299114636
 20
2.800214235314317
 42
0.4910505582842493
 10
-72.27436994982558
 20
2.215541171129377
 42
-1.490213968184993
 10
-72.31337190659627
 20
2.215541171129377
 42
-0.1381268456922101
 10
-72.50838169044968
 20
2.683279622477329
 42
-0.3768738389383428
 10
-72.33937321111006
 20
2.93014158291097
 42
-0.0387940524694022
 10
-72.04035820920151
 20
2.982112521949632
 42
-0.0473046329121454
  0
ARC
  5
202
330
18
100
AcDbEntity
  8
ADP1DETAIL
100
AcDbCircle
 10
-71.05678732498872
 20
0.1705242450349855
 30
0.0
 40
1.169126598652661
100
AcDbArc
 50
73.23170463151247
 51
134.5213727957348
  0
ARC
  5
203
330
18
100
AcDbEntity
  8
ADP1DETAIL
100
AcDbCircle
 10
-70.58620884796768
 20
1.166355383006474
 30
0.0
 40
1.075033512290701
100
AcDbArc
 50
143.2450937469476
 51
174.0954345300126
  0
ARC
  5
204
330
18
100
AcDbEntity
  8
ADP1DETAIL
100
AcDbCircle
 10
-71.59865277869728
 20
1.719658903986921
 30
0.0
 40
0.846882131786249
100
AcDbArc
 50
153.6546866568875
 51
217.9379182916155
  0
ARC
  5
205
330
18
100
AcDbEntity
  8
ADP1DETAIL
100
AcDbCircle
 10
-72.59873548313293
 20
2.126464845648415
 30
0.0
 40
0.3400213005942258
100
AcDbArc
 50
301.2035224403703
 51
334.2143522814303
  0
ARC
  5
206
330
18
100
AcDbEntity
  8
ADP1DETAIL
100
AcDbCircle
 10
-72.40972711993736
 20
1.913590015314811
 30
0.0
 40
0.1931136505545462
100
AcDbArc
 50
160.3422301095746
 51
250.3771343074142
  0
ARC
  5
207
330
18
100
AcDbEntity
  8
ADP1DETAIL
100
AcDbCircle
 10
-72.39665206586905
 20
1.783795722199538
 30
0.0
 40
0.2679723515754464
100
AcDbArc
 50
202.8536964705047
 51
255.9782061929086
  0
ARC
  5
208
330
18
100
AcDbEntity
  8
ADP1DETAIL
100
AcDbCircle
 10
-72.34162974520474
 20
1.488806787769817
 30
0.0
 40
0.212561824727247
100
AcDbArc
 50
290.6783697712564
 51
344.7395049505443
  0
ARC
  5
209
330
18
100
AcDbEntity
  8
ADP1DETAIL
100
AcDbCircle
 10
-72.0440228230312
 20
1.496686715727864
 30
0.0
 40
0.3450601571963261
100
AcDbArc
 50
119.6199520804906
 51
155.3243803603209
  0
ARC
  5
20A
330
18
100
AcDbEntity
  8
ADP1DETAIL
100
AcDbCircle
 10
-72.46795302707217
 20
1.76429236422275
 30
0.0
 40
0.3125917827776493
100
AcDbArc
 50
290.6775802665196
 51
339.2875155356413
  0
ARC
  5
20B
330
18
100
AcDbEntity
  8
ADP1DETAIL
100
AcDbCircle
 10
-72.14605101510855
 20
1.979853596181873
 30
0.0
 40
0.3287369960517065
100
AcDbArc
 50
156.9659778636913
 51
196.2970073547725
  0
LINE
  5
20C
330
18
100
AcDbEntity
  8
ADP1DETAIL
100
AcDbLine
 10
-71.83754803399394
 20
1.173004134013888
 30
0.0
 11
-71.68154020691121
 21
1.757677198198827
 31
0.0
  0
ARC
  5
20D
330
18
100
AcDbEntity
  8
ADP1DETAIL
100
AcDbCircle
 10
-70.79634512951463
 20
1.228658179267379
 30
0.0
 40
0.6974292514360461
100
AcDbArc
 50
132.2772999070992
 51
171.7348234835441
  0
LINE
  5
20E
330
18
100
AcDbEntity
  8
ADP1DETAIL
100
AcDbLine
 10
-71.44752846628714
 20
1.224975073052549
 30
0.0
 11
-71.18751542114925
 21
0.9651203778592428
 31
0.0
  0
LINE
  5
20F
330
18
100
AcDbEntity
  8
ADP1DETAIL
100
AcDbLine
 10
-71.00550628955274
 20
1.27694601209121
 30
0.0
 11
-70.79749585344244
 21
1.017091316897903
 31
0.0
  0
LINE
  5
210
330
18
100
AcDbEntity
  8
ADP1DETAIL
100
AcDbLine
 10
-71.25251868243371
 20
1.354902420649203
 30
0.0
 11
-71.0835102030941
 21
1.653735320121505
 31
0.0
  0
LINE
  5
211
330
18
100
AcDbEntity
  8
ADP1DETAIL
100
AcDbLine
 10
-71.03150759406652
 20
1.406873359687863
 30
0.0
 11
-70.92750237601137
 21
1.510815237765186
 31
0.0
  0
ARC
  5
212
330
18
100
AcDbEntity
  8
ADP1DETAIL
100
AcDbCircle
 10
-64.39695362092867
 20
4.575179049436119
 30
0.0
 40
5.311173987400484
100
AcDbArc
 50
199.0478067171265
 51
209.7313793330798
  0
LINE
  5
213
330
18
100
AcDbEntity
  8
ADP1DETAIL
100
AcDbLine
 10
-68.99488354328766
 20
2.081912906675222
 30
0.0
 11
-68.74142001271258
 21
2.588531245345714
 31
0.0
  0
LINE
  5
214
330
18
100
AcDbEntity
  8
ADP1DETAIL
100
AcDbLine
 10
-69.06529007955851
 20
2.349294807640204
 30
0.0
 11
-68.86815177800013
 21
2.7011130983836
 31
0.0
  0
LINE
  5
215
330
18
100
AcDbEntity
  8
ADP1DETAIL
100
AcDbLine
 10
-69.29059099562524
 20
2.405585734159148
 30
0.0
 11
-69.69894890599618
 21
2.546313050456506
 31
0.0
  0
ARC
  5
216
330
18
100
AcDbEntity
  8
ADP1DETAIL
100
AcDbCircle
 10
-71.07924383628698
 20
-1.095576252983312
 30
0.0
 40
2.893084942299046
100
AcDbArc
 50
51.45579201958377
 51
74.17632635413093
  0
ARC
  5
217
330
18
100
AcDbEntity
  8
ADP1DETAIL
100
AcDbCircle
 10
-67.32157413166342
 20
2.039737602972729
 30
0.0
 40
2.158326649065416
100
AcDbArc
 50
187.8710569863366
 51
200.2178598705107
  0
ARC
  5
218
330
18
100
AcDbEntity
  8
ADP1DETAIL
100
AcDbCircle
 10
-70.7770453469125
 20
-0.7733027115407256
 30
0.0
 40
2.495032796438995
100
AcDbArc
 50
52.62328579555895
 51
78.75176107643124
  0
LINE
  5
219
330
18
100
AcDbEntity
  8
ADP1DETAIL
100
AcDbLine
 10
-69.23426576660855
 20
2.278931149491525
 30
0.0
 11
-69.71303021325033
 21
2.349294807640204
 31
0.0
  0
LINE
  5
21A
330
18
100
AcDbEntity
  8
ADP1DETAIL
100
AcDbLine
 10
-69.07937138681266
 20
2.011549248526543
 30
0.0
 11
-69.55813583345447
 21
2.081912906675222
 31
0.0
  0
ARC
  5
21B
330
18
100
AcDbEntity
  8
ADP1DETAIL
100
AcDbCircle
 10
-69.62399719953473
 20
0.7843042589787959
 30
0.0
 40
0.8015944739046259
100
AcDbArc
 50
110.9162294281142
 51
135.0996112391592
  0
LINE
  5
21C
330
18
100
AcDbEntity
  8
ADP1DETAIL
100
AcDbLine
 10
-69.74119282775868
 20
1.040530766074769
 30
0.0
 11
-69.43140406816692
 21
1.265694472150542
 31
0.0
  0
LINE
  5
21D
330
18
100
AcDbEntity
  8
ADP1DETAIL
100
AcDbLine
 10
-69.95241243657123
 20
1.110894424223448
 30
0.0
 11
-69.57221714070863
 21
1.37827632518843
 31
0.0
  0
LINE
  5
21E
330
18
100
AcDbEntity
  8
ADP1DETAIL
100
AcDbLine
 10
-70.16363204538379
 20
1.195330814001863
 30
0.0
 11
-69.7834367495212
 21
1.476785446596581
 31
0.0
  0
LINE
  5
21F
330
18
100
AcDbEntity
  8
ADP1DETAIL
100
AcDbLine
 10
-69.95241243657123
 20
1.730094615931827
 30
0.0
 11
-69.88200590030039
 21
1.575294568004732
 31
0.0
  0
LINE
  5
220
330
18
100
AcDbEntity
  8
ADP1DETAIL
100
AcDbLine
 10
-69.7834367495212
 20
1.772312810821033
 30
0.0
 11
-69.7271115205045
 21
1.504930909856052
 31
0.0
  0
LINE
  5
221
330
18
100
AcDbEntity
  8
ADP1DETAIL
100
AcDbLine
 10
-69.62854236972532
 20
1.800458274080506
 30
0.0
 11
-69.54405452620029
 21
1.406421788447901
 31
0.0
  0
LINE
  5
222
330
18
100
AcDbEntity
  8
ADP1DETAIL
100
AcDbLine
 10
-68.89631439250845
 20
1.983403785267072
 30
0.0
 11
-68.57244432566254
 21
2.391513002529411
 31
0.0
  0
LINE
  5
223
330
18
100
AcDbEntity
  8
ADP1DETAIL
100
AcDbLine
 10
-69.36099753189608
 20
2.574458513715977
 30
0.0
 11
-69.71303021325033
 21
2.84184041468096
 31
0.0
  0
LINE
  5
224
330
18
100
AcDbEntity
  8
ADP1DETAIL
100
AcDbLine
 10
-69.50181060443778
 20
2.827767683051223
 30
0.0
 11
-69.62854236972532
 21
3.095149584016205
 31
0.0
  0
ARC
  5
225
330
18
100
AcDbEntity
  8
ADP1DETAIL
100
AcDbCircle
 10
-70.72556639577159
 20
4.0244040861933
 30
0.0
 40
2.069536939563165
100
AcDbArc
 50
329.4626896865463
 51
355.1483173996885
  0
LINE
  5
226
330
18
100
AcDbEntity
  8
ADP1DETAIL
100
AcDbLine
 10
-69.19202184484603
 20
2.461876660678091
 30
0.0
 11
-69.05120877230434
 21
2.855913146310695
 31
0.0
  0
LINE
  5
227
330
18
100
AcDbEntity
  8
ADP1DETAIL
100
AcDbLine
 10
-69.30467230287939
 20
2.687040366753865
 30
0.0
 11
-69.19202184484603
 21
3.038858657497261
 31
0.0
  0
LINE
  5
228
330
18
100
AcDbEntity
  8
ADP1DETAIL
100
AcDbLine
 10
-69.36099753189608
 20
2.855913146310695
 30
0.0
 11
-69.3469162246419
 21
3.207731437054092
 31
0.0
  0
LWPOLYLINE
  5
229
330
18
100
AcDbEntity
  8
ADP1DETAIL
100
AcDbPolyline
 90
        6
 70
     0
 43
0.0
 10
-66.35405271066942
 20
1.202928591982792
 10
-67.10275881339649
 20
0.3996600647556874
 42
-0.1203104858315525
 10
-66.93760305544198
 20
1.026869736700139
 42
0.1416658370902366
 10
-66.86053036839656
 20
1.378987447265445
 42
0.0593598139749332
 10
-66.46415654930575
 20
1.279954341168952
 42
-0.2469356098501515
 10
-66.35405271066942
 20
1.202928591982792
 42
0.6094133641564651
  0
ARC
  5
231
330
18
100
AcDbEntity
  8
ADP1DETAIL
100
AcDbCircle
 10
-67.9669481137332
 20
0.4629482926420541
 30
0.0
 40
0.5470877776331116
100
AcDbArc
 50
55.510822544276
 51
101.8827334260069
  0
LINE
  5
232
330
18
100
AcDbEntity
  8
ADP1DETAIL
100
AcDbLine
 10
-68.19224902979994
 20
0.5761306222934857
 30
0.0
 11
-68.27673687332496
 21
1.082748960963975
 31
0.0
  0
LINE
  5
233
330
18
100
AcDbEntity
  8
ADP1DETAIL
100
AcDbLine
 10
-68.06551726451241
 20
0.5620578906637497
 30
0.0
 11
-68.07959857176658
 21
0.9560943762963539
 31
0.0
  0
LINE
  5
234
330
18
100
AcDbEntity
  8
ADP1DETAIL
100
AcDbLine
 10
-67.84021634844569
 20
0.5339124274042777
 30
0.0
 11
-67.89654157746236
 21
0.8153670599989947
 31
0.0
  0
LINE
  5
235
330
18
100
AcDbEntity
  8
ADP1DETAIL
100
AcDbLine
 10
-67.89654157746236
 20
0.8153670599989947
 30
0.0
 11
-67.60083412512478
 21
0.7309306702205807
 31
0.0
  0
LINE
  5
236
330
18
100
AcDbEntity
  8
ADP1DETAIL
100
AcDbLine
 10
-68.26265556607079
 20
-0.2682332754906667
 30
0.0
 11
-68.27673687332496
 21
-0.0430695694148926
 31
0.0
  0
ARC
  5
237
330
18
100
AcDbEntity
  8
ADP1DETAIL
100
AcDbCircle
 10
-66.45164925593016
 20
4.511499998722563
 30
0.0
 40
1.721419912062998
100
AcDbArc
 50
278.2133755296133
 51
312.9903843169843
  0
LWPOLYLINE
  5
238
330
18
100
AcDbEntity
  8
ADP1DETAIL
100
AcDbPolyline
 90
       19
 70
     0
 43
0.0
 10
-66.59628115566937
 20
1.312965376534449
 42
-0.0929958635735946
 10
-66.56325000407846
 20
1.632072051734259
 42
-0.5127848278818929
 10
-66.31001117521491
 20
1.720101479375585
 42
0.2886397636043701
 10
-65.80353351748778
 20
1.400994804175776
 42
0.0924582826891804
 10
-65.37412854680607
 20
1.544042624092931
 42
-0.1765261246401541
 10
-65.16493125339704
 20
1.577053659458429
 42
0.2902306287137012
 10
-65.82555428521505
 20
2.138241260671886
 42
0.2387301352058195
 10
-66.23293848816946
 20
1.962182405389233
 42
0.0710298582448923
 10
-66.48617731703303
 20
1.896160334658238
 42
-0.0554186820525316
 10
-66.49718770089666
 20
2.083222868396056
 42
0.2601432661509629
 10
-66.16687618498767
 20
2.347311151320036
 42
0.1998313182181413
 10
-66.43112539771486
 20
3.106564964726477
 42
-0.1489942400465598
 10
-66.53021885248756
 20
3.524704746022778
 42
0.1861428334630318
 10
-67.00366535862379
 20
3.051546572450649
 42
0.2187567569614917
 10
-67.10275881339649
 20
2.479355292782026
 42
0.3334697519645964
 10
-66.7063849943057
 20
2.061215511485726
 42
0.1970862997786386
 10
-66.71739537816934
 20
1.885156656203072
 42
-0.0040627392690052
 10
-66.95962382316927
 20
1.940175048478901
 42
0.0785036055179319
 10
-66.91558228771473
 20
2.138241260671886
 42
0.0785036055179319
  0
ARC
  5
24D
330
18
100
AcDbEntity
  8
ADP1DETAIL
100
AcDbCircle
 10
-65.93905580015398
 20
-0.0224773386068864
 30
0.0
 40
1.864913272306525
100
AcDbArc
 50
75.88408009549265
 51
99.06675894843523
  0
ARC
  5
24E
330
18
100
AcDbEntity
  8
ADP1DETAIL
100
AcDbCircle
 10
-65.70593414651956
 20
1.376502533217276
 30
0.0
 40
0.6882272225080627
100
AcDbArc
 50
105.6522568621429
 51
139.9730296801887
  0
ARC
  5
24F
330
18
100
AcDbEntity
  8
ADP1DETAIL
100
AcDbCircle
 10
-65.27276646774968
 20
2.316863863481221
 30
0.0
 40
1.086618391980343
100
AcDbArc
 50
207.9162185886626
 51
227.8675814728182
  0
LWPOLYLINE
  5
250
330
18
100
AcDbEntity
  8
ADP1DETAIL
100
AcDbPolyline
 90
       11
 70
     0
 43
0.0
 10
-67.11376919726013
 20
2.479355292782026
 42
0.1309665597829797
 10
-67.44408071316913
 20
2.435340578961362
 42
-0.0192119637988318
 10
-67.92853760316898
 20
2.446344257416529
 42
1.734896877868365
 10
-67.91752721930535
 20
2.424336900506197
 42
-0.299120384158109
 10
-67.71934030975995
 20
2.006197119209895
 42
0.3621911302672824
 10
-67.58721570339635
 20
1.65407940864459
 42
0.354798970929651
 10
-67.05871727794195
 20
1.742108836285916
 42
-0.0415693347951474
 10
-66.78345768135113
 20
1.731105157830751
 42
-0.4148079977061051
 10
-66.7063849943057
 20
1.632072051734259
 42
0.0100049702103314
 10
-66.72840576203296
 20
1.411998482630942
 42
-0.3067733206767238
 10
-66.77244729748749
 20
1.356980090355113
 42
6.606759256825947
  0
ARC
  5
25D
330
18
100
AcDbEntity
  8
ADP1DETAIL
100
AcDbCircle
 10
-64.8769353582412
 20
2.839429224162709
 30
0.0
 40
1.852947771454164
100
AcDbArc
 50
165.8109559983961
 51
198.96383658622
  0
ARC
  5
25E
330
18
100
AcDbEntity
  8
ADP1DETAIL
100
AcDbCircle
 10
-67.68862952340086
 20
3.524302025935565
 30
0.0
 40
1.535058516023575
100
AcDbArc
 50
313.636650011012
 51
327.9818471245016
  0
ARC
  5
25F
330
18
100
AcDbEntity
  8
ADP1DETAIL
100
AcDbCircle
 10
-67.65304338874551
 20
0.9265085551999789
 30
0.0
 40
1.652752972387841
100
AcDbArc
 50
55.05591860414668
 51
66.86450406946088
  0
ARC
  5
260
330
18
100
AcDbEntity
  8
ADP1DETAIL
100
AcDbCircle
 10
-66.80605784448747
 20
2.396440955750501
 30
0.0
 40
0.6138436873748646
100
AcDbArc
 50
210.680955212795
 51
250.1319547403976
  0
ARC
  5
261
330
18
100
AcDbEntity
  8
ADP1DETAIL
100
AcDbCircle
 10
-67.59442550734885
 20
2.462701232122792
 30
0.0
 40
0.7352561578140133
100
AcDbArc
 50
275.7193163140174
 51
305.3698286850803
  0
ARC
  5
262
330
18
100
AcDbEntity
  8
ADP1DETAIL
100
AcDbCircle
 10
-68.30340292082521
 20
2.132739421444302
 30
0.0
 40
1.107593343222913
100
AcDbArc
 50
354.0122965172137
 51
15.26425520035167
  0
ARC
  5
263
330
18
100
AcDbEntity
  8
ADP1DETAIL
100
AcDbCircle
 10
-67.94801869934071
 20
1.718907518927679
 30
0.0
 40
0.7139839189167374
100
AcDbArc
 50
30.68095521279504
 51
73.17538995652973
  0
ARC
  5
264
330
18
100
AcDbEntity
  8
ADP1DETAIL
100
AcDbCircle
 10
-67.26241206076586
 20
-0.302003331977112
 30
0.0
 40
2.442981477607431
100
AcDbArc
 50
92.71235398542421
 51
98.16172338903518
  0
ARC
  5
265
330
18
100
AcDbEntity
  8
ADP1DETAIL
100
AcDbCircle
 10
-67.69074234195278
 20
3.395258181756403
 30
0.0
 40
1.466887977298091
100
AcDbArc
 50
271.8937387309709
 51
285.8569350471154
  0
ARC
  5
266
330
18
100
AcDbEntity
  8
ADP1DETAIL
100
AcDbCircle
 10
-67.71661321424751
 20
2.21644357988841
 30
0.0
 40
0.3451986367183058
100
AcDbArc
 50
348.7747527506891
 51
34.77576745558204
  0
ARC
  5
267
330
18
100
AcDbEntity
  8
ADP1DETAIL
100
AcDbCircle
 10
-68.08301688085689
 20
0.5740409795491224
 30
0.0
 40
0.5541560629304309
100
AcDbArc
 50
57.33091843374701
 51
104.3553582393536
  0
LWPOLYLINE
  5
268
330
18
100
AcDbEntity
  8
ADP1DETAIL
100
AcDbPolyline
 90
        2
 70
     0
 43
0.0
 10
-66.87154075226018
 20
1.367983768810279
 42
0.3481905083592669
 10
-66.36506309453307
 20
1.202928591982792
 42
-0.179433639801342
  0
ARC
  5
26C
330
18
100
AcDbEntity
  8
ADP1DETAIL
100
AcDbCircle
 10
-69.11512518784923
 20
3.701132511139582
 30
0.0
 40
3.002076642863265
100
AcDbArc
 50
329.8492665087562
 51
334.8300842996586
  0
ARC
  5
26D
330
18
100
AcDbEntity
  8
ADP1DETAIL
100
AcDbCircle
 10
-67.8611516294903
 20
2.223012823382623
 30
0.0
 40
0.7928345308622863
100
AcDbArc
 50
338.2460535266539
 51
3.418275271119184
  0
LWPOLYLINE
  5
26E
330
18
100
AcDbEntity
  8
ADP1DETAIL
100
AcDbPolyline
 90
        2
 70
     0
 43
0.0
 10
-66.22149162623327
 20
1.587583333928698
 42
-0.0080865497047835
 10
-66.44000111531922
 20
1.273778807342073
 42
-0.1450879144934911
  0
ARC
  5
272
330
18
100
AcDbEntity
  8
ADP1DETAIL
100
AcDbCircle
 10
-67.22591250597298
 20
4.024177737421229
 30
0.0
 40
1.252051719754351
100
AcDbArc
 50
222.9526216440492
 51
275.1853754670672
  0
ARC
  5
273
330
18
100
AcDbEntity
  8
ADP1DETAIL
100
AcDbCircle
 10
-66.49595308956232
 20
3.444523333004874
 30
0.0
 40
0.4203823362187836
100
AcDbArc
 50
57.37034802766228
 51
119.2623341265534
  0
ARC
  5
274
330
18
100
AcDbEntity
  8
ADP1DETAIL
100
AcDbCircle
 10
-66.25011769726274
 20
3.255114623871216
 30
0.0
 40
0.5599475282140421
100
AcDbArc
 50
172.661375724186
 51
197.7337781774098
  0
ARC
  5
275
330
18
100
AcDbEntity
  8
ADP1DETAIL
100
AcDbCircle
 10
-66.98221309596388
 20
3.335649950148832
 30
0.0
 40
0.4840144164372745
100
AcDbArc
 50
303.1701867706268
 51
343.0565070496335
  0
ARC
  5
276
330
18
100
AcDbEntity
  8
ADP1DETAIL
100
AcDbCircle
 10
-67.13103146519014
 20
3.212511094905361
 30
0.0
 40
0.7776861410264954
100
AcDbArc
 50
308.0848480108457
 51
340.4686822799837
  0
ARC
  5
277
330
18
100
AcDbEntity
  8
ADP1DETAIL
100
AcDbCircle
 10
-66.67632675009366
 20
2.843911582005796
 30
0.0
 40
0.3231617764741413
100
AcDbArc
 50
204.3960051523893
 51
262.698891157591
  0
ARC
  5
278
330
18
100
AcDbEntity
  8
ADP1DETAIL
100
AcDbCircle
 10
-65.96523048395558
 20
3.435002350809071
 30
0.0
 40
1.061856242527619
100
AcDbArc
 50
200.5335423484504
 51
221.4247729527093
  0
LWPOLYLINE
  5
279
330
18
100
AcDbEntity
  8
ADP1DETAIL
100
AcDbPolyline
 90
        2
 70
     0
 43
0.0
 10
-65.32593002968877
 20
3.169555409760617
 42
-0.0246845900028351
 10
-65.87242172020572
 20
2.138852216546821
 42
-0.1450879144934911
  0
ARC
  5
27D
330
18
100
AcDbEntity
  8
ADP1DETAIL
100
AcDbCircle
 10
-65.16533980485883
 20
1.897726691244466
 30
0.0
 40
0.3554464276773168
100
AcDbArc
 50
196.4407012844396
 51
234.0273769510348
  0
ARC
  5
27E
330
18
100
AcDbEntity
  8
ADP1DETAIL
100
AcDbCircle
 10
-65.39431871946717
 20
1.574906698644292
 30
0.0
 40
0.2882484135374849
100
AcDbArc
 50
90.36387390673224
 51
117.6921919372199
  0
ARC
  5
27F
330
18
100
AcDbEntity
  8
ADP1DETAIL
100
AcDbCircle
 10
-65.517640604731
 20
1.590420063215511
 30
0.0
 40
0.3719143805651728
100
AcDbArc
 50
91.63835335096026
 51
132.835235449801
  0
ARC
  5
280
330
18
100
AcDbEntity
  8
ADP1DETAIL
100
AcDbCircle
 10
-67.20053840830683
 20
0.7215656934352146
 30
0.0
 40
1.814344176791686
100
AcDbArc
 50
26.95683639167601
 51
38.54537416821233
  0
ARC
  5
281
330
18
100
AcDbEntity
  8
ADP1DETAIL
100
AcDbCircle
 10
-65.63940652065371
 20
1.886473500288042
 30
0.0
 40
0.3666674591667085
100
AcDbArc
 50
188.8380000675391
 51
249.0512122986895
  0
ARC
  5
282
330
18
100
AcDbEntity
  8
ADP1DETAIL
100
AcDbCircle
 10
-65.62241560222448
 20
1.581461402132823
 30
0.0
 40
0.453555213524305
100
AcDbArc
 50
110.5349026260068
 51
146.7506632828958
  0
ARC
  5
283
330
18
100
AcDbEntity
  8
ADP1DETAIL
100
AcDbCircle
 10
-69.13930177920372
 20
4.961028694798649
 30
0.0
 40
1.205750812344817
100
AcDbArc
 50
27.94886706047945
 51
67.17550733627894
  0
ARC
  5
284
330
18
100
AcDbEntity
  8
ADP1DETAIL
100
AcDbCircle
 10
-67.90090952330217
 20
5.720923508324563
 30
0.0
 40
0.4108843820085132
100
AcDbArc
 50
168.1061386900748
 51
214.5271547254258
  0
ARC
  5
285
330
18
100
AcDbEntity
  8
ADP1DETAIL
100
AcDbCircle
 10
-68.170063986217
 20
5.66261336624005
 30
0.0
 40
0.422910848397578
100
AcDbArc
 50
87.34117124105406
 51
127.9389124308251
  0
LWPOLYLINE
  5
286
330
18
100
AcDbEntity
  8
ADP1DETAIL
100
AcDbPolyline
 90
        8
 70
     0
 43
0.0
 10
-68.62531292611774
 20
5.475332734672957
 42
0.0482450720732318
 10
-67.96436284996606
 20
5.437224222030392
 42
0.0166708332864508
 10
-68.00249458512865
 20
5.576955435053131
 42
0.0208369778038502
 10
-68.0152051635162
 20
6.05966326185895
 42
0.3847486764166358
 10
-68.38381193675463
 20
6.301017175261861
 42
0.228143370016132
 10
-68.73970813160553
 20
6.110474612049037
 42
0.2903020388837417
 10
-69.75655440260813
 20
6.135880287144081
 42
-0.0753968545464228
 10
-70.23955638133435
 20
6.440748388284598
 42
0.3727255001911427
  0
LWPOLYLINE
  5
290
330
18
100
AcDbEntity
  8
ADP1DETAIL
100
AcDbPolyline
 90
       12
 70
     0
 43
0.0
 10
-70.5318996842476
 20
6.364531362999469
 42
0.0453425028003814
 10
-69.88366018648346
 20
6.072366099406472
 42
0.0044665523973664
 10
-69.98534481358371
 20
5.691280972980825
 42
0.4098520661529335
 10
-70.34124100843462
 20
5.399115709387826
 42
0.2329040601515762
 10
-70.18871406778422
 20
4.865596532391919
 42
-0.12549325547176
 10
-70.02347654874632
 20
4.535322756156357
 42
0.0827708047012177
 10
-69.64215919712035
 20
4.992624907867135
 42
0.2331725454089693
 10
-69.65486977550788
 20
5.373710034292782
 42
0.1158953098999964
 10
-69.84552845132085
 20
5.627766785243217
 42
-0.1907988110671756
 10
-69.73113324583305
 20
5.919932048836214
 42
-0.0553814021868041
 10
-69.43878994291981
 20
5.653172460338259
 42
0.2656076206726767
 10
-69.64215919712035
 20
5.34830435919774
 42
0.2656076206726767
  0
LWPOLYLINE
  5
29E
330
18
100
AcDbEntity
  8
ADP1DETAIL
100
AcDbPolyline
 90
        4
 70
     0
 43
0.0
 10
-71.76734451180672
 20
6.558207125905211
 10
-71.76734451180672
 20
6.698034663213917
 10
-70.41527667708978
 20
6.698034663213917
 10
-70.41527667708978
 20
6.529129111338267
  0
LWPOLYLINE
  5
2A4
330
18
100
AcDbEntity
  8
ADP1DETAIL
100
AcDbPolyline
 90
        3
 70
     0
 43
0.0
 10
-71.88435038211878
 20
4.905037266380102
 42
0.2361322691433259
 10
-71.79334581632052
 20
4.788102653543113
 42
0.286944409443023
 10
-71.72834255503606
 20
4.957008205418762
 42
0.286944409443023
  0
LWPOLYLINE
  5
2A9
330
18
100
AcDbEntity
  8
ADP1DETAIL
100
AcDbPolyline
 90
        3
 70
     0
 43
0.0
 10
-72.59938625624792
 20
4.125473180800181
 42
0.3618805160566642
 10
-72.44337842916521
 20
4.190436854598509
 42
-0.1622463756907342
 10
-72.53438299496346
 20
4.255400528396835
 42
-1.964617940797881
  0
ARC
  5
2AE
330
18
100
AcDbEntity
  8
ADP1DETAIL
100
AcDbCircle
 10
-70.56956849128373
 20
4.430964394703012
 30
0.0
 40
1.712108643170068
100
AcDbArc
 50
8.196393911823856
 51
44.34862811647343
  0
ARC
  5
2AF
330
18
100
AcDbEntity
  8
ADP1DETAIL
100
AcDbCircle
 10
-68.61393987961388
 20
4.81348677765143
 30
0.0
 40
0.9803103176792017
100
AcDbArc
 50
137.5350365382808
 51
163.3574512086967
  0
ARC
  5
2B0
330
18
100
AcDbEntity
  8
ADP1DETAIL
100
AcDbCircle
 10
-68.6010197048209
 20
4.991319654107387
 30
0.0
 40
1.444786668218237
100
AcDbArc
 50
156.0873067199259
 51
192.6445094659385
  0
ARC
  5
2B1
330
18
100
AcDbEntity
  8
ADP1DETAIL
100
AcDbCircle
 10
-69.97359493661076
 20
5.275627538743894
 30
0.0
 40
0.2266515093591292
100
AcDbArc
 50
25.64194404775352
 51
83.31571459143539
  0
ARC
  5
2B2
330
18
100
AcDbEntity
  8
ADP1DETAIL
100
AcDbCircle
 10
-69.29308260043687
 20
4.350419237449493
 30
0.0
 40
1.369466515034616
100
AcDbArc
 50
122.8624017652297
 51
139.1212074481518
  0
LWPOLYLINE
  5
2B3
330
18
100
AcDbEntity
  8
ADP1DETAIL
100
AcDbPolyline
 90
        7
 70
     0
 43
0.0
 10
-69.64215919712035
 20
4.992624907867135
 42
0.3237794936805222
 10
-69.20999953194423
 20
4.5607284312514
 42
-0.4075422528564073
 10
-68.79055044515567
 20
4.243157492563359
 42
-0.1804498528938603
 10
-68.66344466128033
 20
4.573431268798922
 42
0.1814380416110688
 10
-68.58718119095515
 20
5.34830435919774
 42
0.1904653664672899
 10
-68.8795244938684
 20
5.767497998265953
 42
0.3492903091316942
 10
-69.17186779678164
 20
5.742092323170911
 42
2.508150455307383
  0
ARC
  5
2BC
330
18
100
AcDbEntity
  8
ADP1DETAIL
100
AcDbCircle
 10
-68.38022665434573
 20
4.852847235653015
 30
0.0
 40
1.000249204739622
100
AcDbArc
 50
146.8979198133912
 51
171.9670337734304
  0
ARC
  5
2BD
330
18
100
AcDbEntity
  8
ADP1DETAIL
100
AcDbCircle
 10
-69.50661808601764
 20
4.482616839867318
 30
0.0
 40
0.9330116090785169
100
AcDbArc
 50
123.6396542820655
 51
143.0523449828515
  0
ARC
  5
2BE
330
18
100
AcDbEntity
  8
ADP1DETAIL
100
AcDbCircle
 10
-70.21402688579875
 20
4.954555111217382
 30
0.0
 40
0.1727812935762613
100
AcDbArc
 50
306.0073751442454
 51
342.8842485251987
  0
ARC
  5
2BF
330
18
100
AcDbEntity
  8
ADP1DETAIL
100
AcDbCircle
 10
-70.29322621388046
 20
4.510462731910386
 30
0.0
 40
0.5871549518891055
100
AcDbArc
 50
34.16438666615101
 51
59.82030191502911
  0
ARC
  5
2C0
330
18
100
AcDbEntity
  8
ADP1DETAIL
100
AcDbCircle
 10
-70.10193284558501
 20
4.958966666364124
 30
0.0
 40
0.3580402964325955
100
AcDbArc
 50
26.6663847084783
 51
70.99635887251247
  0
ARC
  5
2C1
330
18
100
AcDbEntity
  8
ADP1DETAIL
100
AcDbCircle
 10
-67.70083931353105
 20
4.592453361064643
 30
0.0
 40
1.492214407268294
100
AcDbArc
 50
156.1479173357364
 51
172.4166078697346
  0
ARC
  5
2C2
330
18
100
AcDbEntity
  8
ADP1DETAIL
100
AcDbCircle
 10
-68.01669013886564
 20
4.569899261391919
 30
0.0
 40
0.959986979709132
100
AcDbArc
 50
161.2611931049675
 51
180.5473593552029
  0
ARC
  5
2C3
330
18
100
AcDbEntity
  8
ADP1DETAIL
100
AcDbCircle
 10
-68.96384225413955
 20
4.617742530802843
 30
0.0
 40
0.2929220145271946
100
AcDbArc
 50
24.36096771257595
 51
77.4854774349791
  0
ARC
  5
2C4
330
18
100
AcDbEntity
  8
ADP1DETAIL
100
AcDbCircle
 10
-69.31278547881131
 20
3.888396623776664
 30
0.0
 40
1.382924571546802
100
AcDbArc
 50
61.78050929838324
 51
79.1681762371891
  0
ARC
  5
2C5
330
18
100
AcDbEntity
  8
ADP1DETAIL
100
AcDbCircle
 10
-70.1055033143238
 20
5.290843477089222
 30
0.0
 40
1.036967116501901
100
AcDbArc
 50
25.7956125615869
 51
49.98818749989391
  0
LWPOLYLINE
  5
2C6
330
18
100
AcDbEntity
  8
ADP1DETAIL
100
AcDbPolyline
 90
        4
 70
     0
 43
0.0
 10
-69.29897358065696
 20
5.665875297885781
 10
-69.5913168835702
 20
6.085068936953994
 42
-0.0827128124529011
 10
-68.85410333709332
 20
6.021554749216386
 42
0.1231784017616193
 10
-68.8795244938684
 20
5.780200835813475
 42
0.8687993785180651
  0
ARC
  5
2CC
330
18
100
AcDbEntity
  8
ADP1DETAIL
100
AcDbCircle
 10
-73.85914607524703
 20
2.088168160603106
 30
0.0
 40
5.508101530624809
100
AcDbArc
 50
38.79040856760783
 51
42.44667588961362
  0
LWPOLYLINE
  5
2CD
330
18
100
AcDbEntity
  8
ADP1DETAIL
100
AcDbPolyline
 90
        2
 70
     0
 43
0.0
 10
-70.41527667708978
 20
6.577841432292467
 42
-0.0816448967119706
 10
-69.63166422550377
 20
6.238908004152529
 42
0.2936038979996153
  0
ARC
  5
2D1
330
18
100
AcDbEntity
  8
ADP1DETAIL
100
AcDbCircle
 10
-67.67473461060915
 20
5.86277470011136
 30
0.0
 40
0.8318254399604443
100
AcDbArc
 50
178.6878096361156
 51
206.7759042989252
  0
ARC
  5
2D2
330
18
100
AcDbEntity
  8
ADP1DETAIL
100
AcDbCircle
 10
-79.86999494651998
 20
6.515698227094398
 30
0.0
 40
11.20822132079633
100
AcDbArc
 50
355.4561844573577
 51
357.6031404211582
  0
ARC
  5
2D3
330
18
100
AcDbEntity
  8
ADP1DETAIL
100
AcDbCircle
 10
-67.48960398016845
 20
2.753185534597625
 30
0.0
 40
3.519110678109586
100
AcDbArc
 50
104.4294912664933
 51
109.4060948796297
  0
ARC
  5
2D4
330
18
100
AcDbEntity
  8
ADP1DETAIL
100
AcDbCircle
 10
-69.30074841854153
 20
3.790125387852701
 30
0.0
 40
1.762810915350139
100
AcDbArc
 50
76.02220193942073
 51
87.72736367097531
  0
LWPOLYLINE
  5
2D5
330
18
100
AcDbEntity
  8
ADP1DETAIL
100
AcDbPolyline
 90
        9
 70
     0
 43
0.0
 10
-64.41353567162508
 20
4.814785182201832
 42
0.2957886108026784
 10
-65.07448574777676
 20
6.567776763759814
 10
-65.07448574777676
 20
6.656696626592466
 10
-66.05320028361674
 20
6.656696626592466
 10
-66.05320028361674
 20
6.593182438854858
 42
0.1081946159352082
 10
-66.42180705685518
 20
6.45345122583212
 42
0.0583388782244997
 10
-66.49807052718037
 20
6.389937038094512
 42
0.2534601348473171
 10
-66.70143978138091
 20
6.148583124691601
 42
-0.236706927832647
 10
-66.89209845719389
 20
5.907229211288692
 42
4.499842388788644
  0
LWPOLYLINE
  5
2E0
330
18
100
AcDbEntity
  8
ADP1DETAIL
100
AcDbPolyline
 90
       10
 70
     0
 43
0.0
 10
-66.95565134913154
 20
4.344780192943531
 42
0.0217179432485874
 10
-67.32425812236998
 20
4.230454655015837
 42
-0.3959854308021871
 10
-67.61660142528322
 20
4.357483030491053
 42
-0.2062575084947524
 10
-67.61660142528322
 20
4.776676669559268
 42
0.3234221035089655
 10
-67.64202258205829
 20
4.891002207486963
 42
-0.2196975662286754
 10
-67.0954677113944
 20
5.576955435053131
 42
-0.1901464346126449
 10
-66.00235797006661
 20
5.513441247315522
 42
-0.2276799382834349
 10
-65.82440987264115
 20
5.297493009007652
 42
0.3243810633466293
 10
-65.65917235360325
 20
5.157761795984916
 42
-0.6651779702838496
 10
-66.07862144039181
 20
4.293968842753445
 42
-36.22310189848906
  0
LWPOLYLINE
  5
2EC
330
18
100
AcDbEntity
  8
ADP1DETAIL
100
AcDbPolyline
 90
        6
 70
     0
 43
0.0
 10
-65.65917235360325
 20
5.145058958437394
 10
-65.77356755909104
 20
5.094247608247307
 42
-0.0210114944181414
 10
-65.82440987264115
 20
4.700459644274138
 42
0.2203759534156488
 10
-65.97693681329156
 20
4.497214243513793
 42
-0.1525030404797849
 10
-66.09133201877934
 20
4.293968842753445
 42
-0.2129483178840573
 10
-66.2692801162048
 20
4.039912091803014
 42
-0.0086231264681856
  0
LWPOLYLINE
  5
2F4
330
18
100
AcDbEntity
  8
ADP1DETAIL
100
AcDbPolyline
 90
        5
 70
     0
 43
0.0
 10
-66.24385895942975
 20
4.065317766898056
 10
-65.98964739167908
 20
4.611539781441488
 42
0.1759666283844928
 10
-65.96422623490403
 20
5.335601521650218
 42
0.3972680401528263
 10
-66.34554358653
 20
5.411818546935348
 42
-0.4779129744254409
 10
-67.0954677113944
 20
5.576955435053131
 42
-1.61579003287852
  0
LWPOLYLINE
  5
2FB
330
18
100
AcDbEntity
  8
ADP1DETAIL
100
AcDbPolyline
 90
        2
 70
     0
 43
0.0
 10
-66.18030606749207
 20
5.653172460338259
 42
-0.3755628715927053
 10
-65.73543582392844
 20
5.475332734672957
 42
0.6122967981813331
  0
LWPOLYLINE
  5
2FF
330
18
100
AcDbEntity
  8
ADP1DETAIL
100
AcDbPolyline
 90
        2
 70
     0
 43
0.0
 10
-68.01062935529673
 20
5.437224222030392
 42
0.4585050228473213
 10
-67.62931200367074
 20
4.878299369939441
 42
0.0562018362681418
  0
ARC
  5
303
330
18
100
AcDbEntity
  8
ADP1DETAIL
100
AcDbCircle
 10
-67.03024093121051
 20
4.872581360359289
 30
0.0
 40
0.5188017931068571
100
AcDbArc
 50
169.4894693065591
 51
276.8501424771874
  0
ARC
  5
304
330
18
100
AcDbEntity
  8
ADP1DETAIL
100
AcDbCircle
 10
-67.48869269580655
 20
5.451764853769338
 30
0.0
 40
0.1501523298131475
100
AcDbArc
 50
200.5263559437046
 51
289.4666032599672
  0
ARC
  5
305
330
18
100
AcDbEntity
  8
ADP1DETAIL
100
AcDbCircle
 10
-67.59840746428487
 20
5.3969750450751
 30
0.0
 40
0.1937852113168574
100
AcDbArc
 50
215.3741597720273
 51
283.5366952288749
  0
ARC
  5
306
330
18
100
AcDbEntity
  8
ADP1DETAIL
100
AcDbCircle
 10
-66.22776352927513
 20
4.555417321047707
 30
0.0
 40
0.6770858551488521
100
AcDbArc
 50
150.2886178799926
 51
207.4634080092204
  0
ARC
  5
307
330
18
100
AcDbEntity
  8
ADP1DETAIL
100
AcDbCircle
 10
-67.22051106550695
 20
5.944571397487848
 30
0.0
 40
0.3883005746126595
100
AcDbArc
 50
238.0584904415496
 51
288.7855668766174
  0
ARC
  5
308
330
18
100
AcDbEntity
  8
ADP1DETAIL
100
AcDbCircle
 10
-67.27959316426332
 20
5.083506875027834
 30
0.0
 40
0.6713200767945633
100
AcDbArc
 50
56.06311410540566
 51
129.3861921991986
  0
LWPOLYLINE
  5
309
330
18
100
AcDbEntity
  8
ADP1DETAIL
100
AcDbPolyline
 90
        8
 70
     0
 43
0.0
 10
-66.61246573266817
 20
5.640469622790737
 42
0.7306804933312233
 10
-66.63788688944324
 20
5.856417861098606
 42
0.1097069670524707
 10
-67.0192042410692
 20
5.907229211288692
 42
-0.3505502109636294
 10
-67.13359944655699
 20
6.262908662619295
 42
0.2912812501565896
 10
-67.34967927914505
 20
5.856417861098606
 42
-0.1448473774719762
 10
-67.69286489560842
 20
5.881823536193648
 42
-0.3304958511340522
 10
-67.85810241464634
 20
6.402639875642034
 42
0.1789549914534197
 10
-67.98520819852166
 20
6.072366099406472
 42
1.01330502790933
  0
ARC
  5
313
330
18
100
AcDbEntity
  8
ADP1DETAIL
100
AcDbCircle
 10
-67.38992738044347
 20
5.636451120741511
 30
0.0
 40
0.202456079128747
100
AcDbArc
 50
227.1448296923935
 51
300.8444239516592
  0
ARC
  5
314
330
18
100
AcDbEntity
  8
ADP1DETAIL
100
AcDbCircle
 10
-68.2985692710068
 20
4.861974330313241
 30
0.0
 40
1.007365650538023
100
AcDbArc
 50
74.14421779953125
 51
88.80448884012757
  0
LWPOLYLINE
  5
315
330
18
100
AcDbEntity
  8
ADP1DETAIL
100
AcDbPolyline
 90
        3
 70
     0
 43
0.0
 10
-67.97249762013414
 20
5.767497998265953
 42
0.15926310729886
 10
-67.80726010109621
 20
5.678578135433303
 42
-0.1215471393022006
 10
-67.97249762013414
 20
5.526144084863043
 42
3.890273778245533
  0
ARC
  5
31A
330
18
100
AcDbEntity
  8
ADP1DETAIL
100
AcDbCircle
 10
-66.48532280407495
 20
5.754813744394983
 30
0.0
 40
0.0898368698722796
100
AcDbArc
 50
278.1098615937704
 51
8.116832226490412
  0
ARC
  5
31B
330
18
100
AcDbEntity
  8
ADP1DETAIL
100
AcDbCircle
 10
-66.50688993755544
 20
5.78054001145329
 30
0.0
 40
0.2136641260701137
100
AcDbArc
 50
319.0376135173401
 51
6.73730178064407
  0
LWPOLYLINE
  5
31C
330
18
100
AcDbEntity
  8
ADP1DETAIL
100
AcDbPolyline
 90
        6
 70
     0
 43
0.0
 10
-65.74814640231598
 20
5.19587030862748
 42
0.3201388943306198
 10
-65.16345979648948
 20
5.42452138448287
 42
-0.1230328898655684
 10
-65.73543582392844
 20
5.488035572220478
 42
0.2361040652426618
 10
-65.40496078585261
 20
5.843715023551084
 42
0.7720509225799497
 10
-65.45580309940274
 20
5.9707433990263
 42
-0.1337113623295234
 10
-65.93880507812897
 20
5.653172460338259
 42
6.280814645809672
  0
LWPOLYLINE
  5
324
330
18
100
AcDbEntity
  8
ADP1DETAIL
100
AcDbPolyline
 90
        4
 70
     0
 43
0.0
 10
-63.40939997901006
 20
4.382888705586097
 42
0.1803555916308714
 10
-63.16789898964696
 20
4.205048979920794
 42
-0.1678392262000804
 10
-62.78658163802099
 20
3.938289391422841
 42
-0.2113448031523095
 10
-62.74844990285838
 20
3.760449665757537
 42
1.229736549836968
  0
LINE
  5
32A
330
18
100
AcDbEntity
  8
ADP1DETAIL
100
AcDbLine
 10
-63.49837402772279
 20
3.811261015947625
 30
0.0
 11
-63.20603072480955
 21
4.192346142373272
 31
0.0
  0
LINE
  5
32B
330
18
100
AcDbEntity
  8
ADP1DETAIL
100
AcDbLine
 10
-63.29500477352228
 20
3.760449665757537
 30
0.0
 11
-63.06621436254669
 21
4.154237629730708
 31
0.0
  0
LINE
  5
32C
330
18
100
AcDbEntity
  8
ADP1DETAIL
100
AcDbLine
 10
-63.11705667609682
 20
3.747746828210015
 30
0.0
 11
-62.95181915705891
 21
4.078020604445578
 31
0.0
  0
LINE
  5
32D
330
18
100
AcDbEntity
  8
ADP1DETAIL
100
AcDbLine
 10
-62.9136874218963
 20
3.747746828210015
 30
0.0
 11
-62.88826626512125
 21
3.900180878780276
 31
0.0
  0
LWPOLYLINE
  5
32E
330
18
100
AcDbEntity
  8
ADP1DETAIL
100
AcDbPolyline
 90
       10
 70
     0
 43
0.0
 10
-60.88762122692367
 20
6.491559738474684
 42
-0.2052084220008897
 10
-60.68425197272315
 20
6.6185881139499
 10
-59.18440372299433
 20
6.6185881139499
 10
-59.18440372299433
 20
6.516965413569728
 42
0.1485619695814019
 10
-59.46403644752004
 20
6.440748388284598
 42
0.1926549380537679
 10
-59.5657210746203
 20
6.301017175261861
 42
-0.3675087413928003
 10
-59.75637975043329
 20
6.123177449596559
 42
-0.2249786047044274
 10
-60.36648751303484
 20
6.161285962239123
 42
-0.2572766910185908
 10
-60.5825673456229
 20
6.504262576022206
 42
0.0453635107724017
 10
-60.69696255111068
 20
6.37723420054699
 42
1.997382873079424
  0
ARC
  5
33A
330
18
100
AcDbEntity
  8
ADP1DETAIL
100
AcDbCircle
 10
-59.33383040387679
 20
7.039921310609162
 30
0.0
 40
0.662499913204665
100
AcDbArc
 50
230.3712590236099
 51
254.1404261699105
  0
LWPOLYLINE
  5
33B
330
18
100
AcDbEntity
  8
ADP1DETAIL
100
AcDbPolyline
 90
       10
 70
     0
 43
0.0
 10
-58.76495463620577
 20
4.687756806726616
 10
-59.13356140944421
 20
4.446402893323705
 42
0.2438681440898954
 10
-59.32422008525719
 20
4.649648294084052
 42
0.0746719605616356
 10
-59.65469512333303
 20
4.71316248182166
 42
-0.4218169026207563
 10
-60.12498652367173
 20
5.081544770699785
 42
-0.3192502175422709
 10
-59.54029991784524
 20
5.729389485623389
 42
-0.3936315079321492
 10
-58.89206042008109
 20
5.34830435919774
 42
0.0902240042988487
 10
-58.86663926330603
 20
4.891002207486963
 42
0.1631140219717263
 10
-58.80308637136836
 20
4.789379507106788
 42
-0.2877275271674468
 10
-58.76495463620577
 20
4.675053969179094
 42
-0.2877275271674468
  0
LWPOLYLINE
  5
347
330
18
100
AcDbEntity
  8
ADP1DETAIL
100
AcDbPolyline
 90
        4
 70
     0
 43
0.0
 10
-59.03187678234395
 20
5.068841933152263
 42
0.2524449473026705
 10
-59.40048355558239
 20
5.132356120889872
 42
-0.2308713312774111
 10
-59.97245958302134
 20
5.132356120889872
 42
-0.4658317804644213
 10
-60.036012474959
 20
5.386412871840304
 42
-0.4658317804644213
  0
LWPOLYLINE
  5
34D
330
18
100
AcDbEntity
  8
ADP1DETAIL
100
AcDbPolyline
 90
        3
 70
     0
 43
0.0
 10
-59.98517016140887
 20
5.145058958437394
 42
0.4535602135677914
 10
-59.6419845449455
 20
5.005327745414657
 42
-0.0943331119707022
 10
-59.01916620395642
 20
4.954516395224569
 42
0.1355777674464044
  0
LWPOLYLINE
  5
352
330
18
100
AcDbEntity
  8
ADP1DETAIL
100
AcDbPolyline
 90
        3
 70
     0
 43
0.0
 10
-59.54029991784524
 20
5.716686648075867
 42
0.6402136301735599
 10
-59.55301049623277
 20
6.021554749216386
 42
0.1450312392150964
 10
-60.04872305334654
 20
6.072366099406472
 42
10.72694126471343
  0
LWPOLYLINE
  5
357
330
18
100
AcDbEntity
  8
ADP1DETAIL
100
AcDbPolyline
 90
        6
 70
     0
 43
0.0
 10
-60.4681721401351
 20
5.322898684102696
 10
-60.53172503207277
 20
5.297493009007652
 10
-60.5825673456229
 20
5.399115709387826
 42
-0.1569510350034454
 10
-61.40875494081249
 20
5.653172460338259
 42
-0.4636499123296085
 10
-61.45959725436263
 20
6.199394474881689
 42
0.2617260330597677
 10
-62.89589261215378
 20
5.869120698646126
 42
2.585943600289543
  0
LWPOLYLINE
  5
35F
330
18
100
AcDbEntity
  8
ADP1DETAIL
100
AcDbPolyline
 90
        7
 70
     0
 43
0.0
 10
-60.37919809142238
 20
6.161285962239123
 42
-0.0729855691328823
 10
-60.70967312949822
 20
6.389937038094512
 42
0.0091979954475171
 10
-61.014727010799
 20
6.52966825111725
 10
-61.07827990273666
 20
6.605885276402378
 10
-62.31120600632729
 20
6.631290951497422
 10
-62.31120600632729
 20
6.52966825111725
 42
0.0463639965014761
 10
-63.08655128796676
 20
6.148583124691601
 42
3.547698329213901
  0
LWPOLYLINE
  5
368
330
18
100
AcDbEntity
  8
ADP1DETAIL
100
AcDbPolyline
 90
        7
 70
     0
 43
0.0
 10
-62.86284510834618
 20
5.335601521650218
 42
-0.1621790950967157
 10
-62.30357965929475
 20
5.322898684102696
 42
0.1318049326904056
 10
-61.51552379926775
 20
5.119653283342351
 42
0.2060580076088956
 10
-61.71889305346827
 20
4.852893694844397
 42
-0.0063708233006511
 10
-62.02394693476905
 20
4.370185868038575
 42
-0.2211543570889806
 10
-62.60863354059553
 20
4.281266005205925
 42
-0.209998947841356
 10
-62.92639800028384
 20
4.548025593703879
 42
-1.60867819990479
  0
ARC
  5
371
330
18
100
AcDbEntity
  8
ADP1DETAIL
100
AcDbCircle
 10
-62.56558397834062
 20
6.155625004622125
 30
0.0
 40
1.185532236700537
100
AcDbArc
 50
203.7277033532856
 51
225.4895035565303
  0
ARC
  5
372
330
18
100
AcDbEntity
  8
ADP1DETAIL
100
AcDbCircle
 10
-63.24463942301337
 20
5.552243823210231
 30
0.0
 40
0.2624434227467423
100
AcDbArc
 50
256.0933294742632
 51
330.8782810566839
  0
ARC
  5
373
330
18
100
AcDbEntity
  8
ADP1DETAIL
100
AcDbCircle
 10
-62.4649192602023
 20
5.367016750136549
 30
0.0
 40
0.8750384105779216
100
AcDbArc
 50
121.8286780708483
 51
192.1284609647073
  0
ARC
  5
374
330
18
100
AcDbEntity
  8
ADP1DETAIL
100
AcDbCircle
 10
-62.13248211396835
 20
4.614518039265012
 30
0.0
 40
0.8289302671015267
100
AcDbArc
 50
122.9392379742044
 51
163.287455846056
  0
ARC
  5
375
330
18
100
AcDbEntity
  8
ADP1DETAIL
100
AcDbCircle
 10
-61.69187149210598
 20
5.55241971911375
 30
0.0
 40
1.39470892398979
100
AcDbArc
 50
211.9298547857836
 51
241.0426044304714
  0
ARC
  5
376
330
18
100
AcDbEntity
  8
ADP1DETAIL
100
AcDbCircle
 10
-62.81047938262545
 20
3.840167814364418
 30
0.0
 40
0.2783788963144682
100
AcDbArc
 50
53.97783880206738
 51
108.9708678375917
  0
LWPOLYLINE
  5
377
330
18
100
AcDbEntity
  8
ADP1DETAIL
100
AcDbPolyline
 90
        7
 70
     0
 43
0.0
 10
-61.93497288605632
 20
4.941813557677049
 42
-0.104325871929453
 10
-62.36713255123242
 20
4.878299369939441
 42
0.186688928132322
 10
-63.01537204899656
 20
4.72586531936918
 42
-0.1924735010091237
 10
-63.35855766545994
 20
4.675053969179094
 42
0.2551304141427436
 10
-63.28229419513474
 20
4.420997218228661
 42
-0.0611432274635723
 10
-62.9136874218963
 20
4.535322756156357
 42
-0.252190374798305
 10
-63.01537204899656
 20
4.72586531936918
 42
-0.9961395275735604
  0
LINE
  5
380
330
18
100
AcDbEntity
  8
ADP1DETAIL
100
AcDbLine
 10
-63.10434609770929
 20
4.243157492563359
 30
0.0
 11
-62.69760758930826
 21
4.255860330110881
 31
0.0
  0
ARC
  5
381
330
18
100
AcDbEntity
  8
ADP1DETAIL
100
AcDbCircle
 10
-63.02588350492539
 20
4.466690504760597
 30
0.0
 40
0.8872522194200202
100
AcDbArc
 50
126.1453340425789
 51
149.544745242308
  0
LINE
  5
382
330
18
100
AcDbEntity
  8
ADP1DETAIL
100
AcDbLine
 10
-63.68903270353578
 20
3.976397904065405
 30
0.0
 11
-63.35855766545994
 21
4.255860330110881
 31
0.0
  0
LINE
  5
383
330
18
100
AcDbEntity
  8
ADP1DETAIL
100
AcDbLine
 10
-63.21874130319708
 20
4.344780192943531
 30
0.0
 11
-62.88826626512125
 21
4.433700055776185
 31
0.0
  0
ARC
  5
384
330
18
100
AcDbEntity
  8
ADP1DETAIL
100
AcDbCircle
 10
-61.97659635008499
 20
4.460897355623412
 30
0.0
 40
0.9058902505724077
100
AcDbArc
 50
116.4322110475799
 51
151.6545219670184
  0
ARC
  5
385
330
18
100
AcDbEntity
  8
ADP1DETAIL
100
AcDbCircle
 10
-61.79542737069478
 20
4.306114170004445
 30
0.0
 40
0.9666635675210388
100
AcDbArc
 50
114.8652199285268
 51
140.8509196874044
  0
ARC
  5
386
330
18
100
AcDbEntity
  8
ADP1DETAIL
100
AcDbCircle
 10
-61.00136445320435
 20
3.702396428959046
 30
0.0
 40
1.753740539993606
100
AcDbArc
 50
124.6520396600613
 51
137.3315695533201
  0
ARC
  5
387
330
18
100
AcDbEntity
  8
ADP1DETAIL
100
AcDbCircle
 10
-61.99139621430738
 20
5.040761886686581
 30
0.0
 40
0.6505600909624736
100
AcDbArc
 50
194.4613668604332
 51
252.3003269202623
  0
ARC
  5
388
330
18
100
AcDbEntity
  8
ADP1DETAIL
100
AcDbCircle
 10
-62.08491708256751
 20
4.888599856683526
 30
0.0
 40
0.2697016609340462
100
AcDbArc
 50
182.1887814296702
 51
258.5747416719823
  0
ARC
  5
389
330
18
100
AcDbEntity
  8
ADP1DETAIL
100
AcDbCircle
 10
-61.06476257548435
 20
1.622145171359299
 30
0.0
 40
4.733825524470645
100
AcDbArc
 50
113.660569420106
 51
117.239028375981
  0
ARC
  5
38A
330
18
100
AcDbEntity
  8
ADP1DETAIL
100
AcDbCircle
 10
-62.59661942566856
 20
5.919932048836214
 30
0.0
 40
0.5861964514467068
100
AcDbArc
 50
162.3393294589123
 51
184.9726228744126
  0
ARC
  5
38B
330
18
100
AcDbEntity
  8
ADP1DETAIL
100
AcDbCircle
 10
-63.11727335361791
 20
5.945360953526941
 30
0.0
 40
0.2819996739509812
100
AcDbArc
 50
172.2382372254635
 51
234.184224566457
  0
ARC
  5
38C
330
18
100
AcDbEntity
  8
ADP1DETAIL
100
AcDbCircle
 10
-63.14106726604725
 20
6.01769214356489
 30
0.0
 40
0.3272930807576403
100
AcDbArc
 50
246.8796101224128
 51
302.641897747263
  0
ARC
  5
38D
330
18
100
AcDbEntity
  8
ADP1DETAIL
100
AcDbCircle
 10
-63.71223225080765
 20
6.806202417471116
 30
0.0
 40
1.390988150231768
100
AcDbArc
 50
286.9066122472941
 51
300.0649982836528
  0
ARC
  5
38E
330
18
100
AcDbEntity
  8
ADP1DETAIL
100
AcDbCircle
 10
-62.86684980603502
 20
5.998557230748065
 30
0.0
 40
0.6997143685406372
100
AcDbArc
 50
192.7850149399018
 51
225.3538336678867
  0
LWPOLYLINE
  5
38F
330
18
100
AcDbEntity
  8
ADP1DETAIL
100
AcDbPolyline
 90
        7
 70
     0
 43
0.0
 10
-59.75637975043329
 20
5.653172460338259
 42
0.2771286816422275
 10
-59.7182480152707
 20
5.792903673360997
 42
0.5869921733119693
 10
-59.76909032882083
 20
5.919932048836214
 42
-0.0666076681993824
 10
-60.17582883722186
 20
5.919932048836214
 42
-0.0559665792483151
 10
-60.37919809142238
 20
5.9707433990263
 42
-0.0180201745470456
 10
-60.27751346432212
 20
5.716686648075867
 42
0.4087530120703161
 10
-60.06143363173407
 20
5.373710034292782
 42
0.1167975975951986
  0
LWPOLYLINE
  5
398
330
18
100
AcDbEntity
  8
ADP1DETAIL
100
AcDbPolyline
 90
        8
 70
     0
 43
0.0
 10
-60.12498652367173
 20
5.145058958437394
 42
-0.3181026486492036
 10
-60.4681721401351
 20
5.208573146175002
 42
0.1231784017616232
 10
-60.5444356104603
 20
5.843715023551084
 42
0.2877965608988716
 10
-61.23080684338704
 20
6.37723420054699
 42
0.0179583371038769
 10
-61.62483477340055
 20
6.402639875642034
 42
0.6463162385135322
 10
-61.5231501463003
 20
6.37723420054699
 42
-0.1436648077796172
 10
-61.21809626499952
 20
6.186691637334167
 42
-0.1466832193296273
 10
-60.82406833498601
 20
6.224800149976731
 42
0.0977464210057657
  0
ARC
  5
3A2
330
18
100
AcDbEntity
  8
ADP1DETAIL
100
AcDbCircle
 10
-60.19532659634792
 20
5.299314546311666
 30
0.0
 40
0.0960025145025172
100
AcDbArc
 50
188.7017845821549
 51
317.1123743578007
  0
ARC
  5
3A3
330
18
100
AcDbEntity
  8
ADP1DETAIL
100
AcDbCircle
 10
-60.99011471483025
 20
4.84023107285934
 30
0.0
 40
1.121409391653802
100
AcDbArc
 50
70.07710128125996
 51
103.0598102114557
  0
ARC
  5
3A4
330
18
100
AcDbEntity
  8
ADP1DETAIL
100
AcDbCircle
 10
-60.57949520123219
 20
4.525811097723334
 30
0.0
 40
1.292534188157905
100
AcDbArc
 50
89.57274112174564
 51
106.124439274075
  0
ARC
  5
3A5
330
18
100
AcDbEntity
  8
ADP1DETAIL
100
AcDbCircle
 10
-61.16214217198641
 20
4.979178205558209
 30
0.0
 40
0.7882537517462743
100
AcDbArc
 50
42.6704479558166
 51
75.43283238795637
  0
ARC
  5
3A6
330
18
100
AcDbEntity
  8
ADP1DETAIL
100
AcDbCircle
 10
-60.69297573636704
 20
5.996149074121341
 30
0.0
 40
0.6746935582143883
100
AcDbArc
 50
170.244268325347
 51
204.4693530273629
  0
ARC
  5
3A7
330
18
100
AcDbEntity
  8
ADP1DETAIL
100
AcDbCircle
 10
-60.94338251622335
 20
4.947822099835867
 30
0.0
 40
1.15401379781394
100
AcDbArc
 50
77.02374786910427
 51
109.7050824788366
  0
ARC
  5
3A8
330
18
100
AcDbEntity
  8
ADP1DETAIL
100
AcDbCircle
 10
-60.87314303002947
 20
5.761146579492192
 30
0.0
 40
0.31210096907845
100
AcDbArc
 50
169.446431842334
 51
210.5814782555121
  0
ARC
  5
3A9
330
18
100
AcDbEntity
  8
ADP1DETAIL
100
AcDbCircle
 10
-60.71631009946937
 20
5.735747098956
 30
0.0
 40
0.2730694854339326
100
AcDbArc
 50
178.6685173138759
 51
215.5565673881401
  0
ARC
  5
3AA
330
18
100
AcDbEntity
  8
ADP1DETAIL
100
AcDbCircle
 10
-60.82619048360029
 20
6.271953099644219
 30
0.0
 40
0.54745971442399
100
AcDbArc
 50
198.5518561932236
 51
255.4328323879563
  0
ARC
  5
3AB
330
18
100
AcDbEntity
  8
ADP1DETAIL
100
AcDbCircle
 10
-56.57392756093544
 20
10.41975638809834
 30
0.0
 40
5.212222639840969
100
AcDbArc
 50
229.1205361563244
 51
233.5938979347732
  0
ARC
  5
3AC
330
18
100
AcDbEntity
  8
ADP1DETAIL
100
AcDbCircle
 10
-58.94599227745056
 20
7.448207097384827
 30
0.0
 40
1.583777620799545
100
AcDbArc
 50
218.3212484846858
 51
235.955752094261
  0
ARC
  5
3AD
330
18
100
AcDbEntity
  8
ADP1DETAIL
100
AcDbCircle
 10
-58.65576359325564
 20
6.959350151070319
 30
0.0
 40
1.764587590047295
100
AcDbArc
 50
192.3983795049842
 51
209.7000372465431
  0
LWPOLYLINE
  5
3AE
330
18
100
AcDbEntity
  8
ADP1DETAIL
100
AcDbPolyline
 90
        4
 70
     0
 43
0.0
 10
-60.27751346432212
 20
5.729389485623389
 42
0.2091492384974035
 10
-60.13769710205926
 20
5.615063947695695
 42
-0.5573722027245455
 10
-60.08685478850913
 20
5.500738409768
 42
-0.2600723038074207
 10
-60.1885394156094
 20
5.449927059577914
 42
-0.2600723038074207
  0
ARC
  5
3B4
330
18
100
AcDbEntity
  8
ADP1DETAIL
100
AcDbCircle
 10
-60.1796723349198
 20
5.578895006188835
 30
0.0
 40
0.2015285468641812
100
AcDbArc
 50
344.8258308913942
 51
54.07615305810338
  0
ARC
  5
3B5
330
18
100
AcDbEntity
  8
ADP1DETAIL
100
AcDbCircle
 10
-60.01937728890152
 20
5.691280972980827
 30
0.0
 40
0.1289413079938578
100
AcDbArc
 50
342.8095215953802
 51
62.45499766368761
  0
ARC
  5
3B6
330
18
100
AcDbEntity
  8
ADP1DETAIL
100
AcDbCircle
 10
-59.06742286685114
 20
5.919932048836214
 30
0.0
 40
0.5008821190401046
100
AcDbArc
 50
174.1776870981195
 51
199.2500895513434
  0
LWPOLYLINE
  5
3B7
330
18
100
AcDbEntity
  8
ADP1DETAIL
100
AcDbPolyline
 90
        4
 70
     0
 43
0.0
 10
-58.82850752814343
 20
4.63694545653653
 42
-0.2650982494843048
 10
-59.01916620395642
 20
4.865596532391919
 42
0.0333166234999472
 10
-59.03187678234395
 20
5.36100719674526
 42
0.1669364482275898
 10
-59.14627198783175
 20
5.615063947695695
 42
-2.310616476075709
  0
LINE
  5
3BD
330
18
100
AcDbEntity
  8
ADP1DETAIL
100
AcDbLine
 10
-59.39361382477529
 20
5.024639352775656
 30
0.0
 11
-59.36546419023788
 21
5.066865324704608
 31
0.0
  0
LINE
  5
3BE
330
18
100
AcDbEntity
  8
ADP1DETAIL
100
AcDbLine
 10
-59.36546419023788
 20
5.066865324704608
 30
0.0
 11
-59.39361382477529
 21
5.080940648680924
 31
0.0
  0
TEXT
  5
3CC
330
18
100
AcDbEntity
  8
ADPDIM
100
AcDbText
 10
-86.05702077489693
 20
-4.765961255436363
 30
0.0
 40
0.375
  1
J U L I U S  B L U M  &  C O . ,  I N C .      ( 8 0 0 )  5 2 6 - 6 2 9 3        W W W . J U L I U S B L U M . C O M        P A R T  N o .  5 7 4
 41
1.25
  7
ARIAL_WIDE
 72
     1
 11
-66.75289816234576
 21
-4.390961255436363
 31
0.0
100
AcDbText
 73
     3
  0
ENDSEC
  0
SECTION
  2
OBJECTS
  0
DICTIONARY
  5
C
330
0
100
AcDbDictionary
  3
ACAD_GROUP
350
D
  3
ACAD_LAYOUT
350
3C5
  3
ACAD_MLINESTYLE
350
E
  3
ACAD_PLOTSETTINGS
350
3C6
  3
ACAD_PLOTSTYLENAME
350
3C3
  3
ACDBHEADERROUNDTRIPXREC
350
514
  3
ACDBVARIABLEDICTIONARY
350
426
  0
DICTIONARY
  5
420
330
18
100
AcDbDictionary
280
     1
  3
ACAD_LAYOUTSELFREF
360
535
  0
DICTIONARY
  5
41E
330
15
100
AcDbDictionary
280
     1
  3
ACAD_LAYOUTSELFREF
360
534
  0
DICTIONARY
  5
D
102
{ACAD_REACTORS
330
C
102
}
330
C
100
AcDbDictionary
  0
DICTIONARY
  5
3C5
102
{ACAD_REACTORS
330
C
102
}
330
C
100
AcDbDictionary
  0
DICTIONARY
  5
E
102
{ACAD_REACTORS
330
C
102
}
330
C
100
AcDbDictionary
  3
STANDARD
350
1B
  0
DICTIONARY
  5
3C6
102
{ACAD_REACTORS
330
C
102
}
330
C
100
AcDbDictionary
  0
ACDBDICTIONARYWDFLT
  5
3C3
102
{ACAD_REACTORS
330
C
102
}
330
C
100
AcDbDictionary
281
     1
  3
Normal
350
3C4
100
AcDbDictionaryWithDefault
340
3C4
  0
DICTIONARY
  5
514
102
{ACAD_REACTORS
330
C
102
}
330
C
100
AcDbDictionary
  3
CEPSNTYPE
350
51E
  3
FINGERPRINTGUID
350
51F
  3
HYPERLINKBASE
350
517
  3
INSUNITS
350
51D
  3
LAYOUTDICT
350
519
  3
LWETCUNION
350
51C
  3
PLOTSETDICT
350
51A
  3
PLOTSTYLNAMDICT
350
51B
  3
PSVPSCALE
350
521
  3
PUCSBASE
350
524
  3
PUCSORGBACK
350
52A
  3
PUCSORGBOTTOM
350
526
  3
PUCSORGFRONT
350
529
  3
PUCSORGLEFT
350
527
  3
PUCSORGRIGHT
350
528
  3
PUCSORGTOP
350
525
  3
PUCSORTHOREF
350
522
  3
PUCSORTHOVIEW
350
523
  3
STYLESHEET
350
518
  3
TSTACKALIGN
350
515
  3
TSTACKSIZE
350
516
  3
UCSBASE
350
52D
  3
UCSORGBACK
350
533
  3
UCSORGBOTTOM
350
52F
  3
UCSORGFRONT
350
532
  3
UCSORGLEFT
350
530
  3
UCSORGRIGHT
350
531
  3
UCSORGTOP
350
52E
  3
UCSORTHOREF
350
52B
  3
UCSORTHOVIEW
350
52C
  3
VERSIONGUID
350
520
  0
DICTIONARY
  5
426
102
{ACAD_REACTORS
330
C
102
}
330
C
100
AcDbDictionary
  3
DIMASSOC
350
427
  0
XRECORD
  5
535
102
{ACAD_REACTORS
330
420
102
}
330
420
100
AcDbXrecord
340
18
  0
XRECORD
  5
534
102
{ACAD_REACTORS
330
41E
102
}
330
41E
100
AcDbXrecord
340
15
  0
MLINESTYLE
  5
1B
102
{ACAD_REACTORS
330
E
102
}
330
E
100
AcDbMlineStyle
  2
STANDARD
 70
     0
  3

 62
     0
 51
90.0
 52
90.0
 71
     2
 49
0.5
 62
   256
  6
BYLAYER
 49
-0.5
 62
   256
  6
BYLAYER
  0
ACDBPLACEHOLDER
  5
3C4
102
{ACAD_REACTORS
330
3C3
102
}
330
3C3
100
AcDbPlaceHolder
280
     0
  0
XRECORD
  5
51E
102
{ACAD_REACTORS
330
514
102
}
330
514
100
AcDbXrecord
 90
        0
  0
XRECORD
  5
51F
102
{ACAD_REACTORS
330
514
102
}
330
514
100
AcDbXrecord
  1
{08467CA8-A741-4DA7-B7BD-98DA70982B47}
  0
XRECORD
  5
517
102
{ACAD_REACTORS
330
514
102
}
330
514
100
AcDbXrecord
  1

  0
XRECORD
  5
51D
102
{ACAD_REACTORS
330
514
102
}
330
514
100
AcDbXrecord
 90
        0
  0
XRECORD
  5
519
102
{ACAD_REACTORS
330
514
102
}
330
514
100
AcDbXrecord
340
3C5
  0
XRECORD
  5
51C
102
{ACAD_REACTORS
330
514
102
}
330
514
100
AcDbXrecord
 90
    14877
  0
XRECORD
  5
51A
102
{ACAD_REACTORS
330
514
102
}
330
514
100
AcDbXrecord
340
3C6
  0
XRECORD
  5
51B
102
{ACAD_REACTORS
330
514
102
}
330
514
100
AcDbXrecord
340
3C3
  0
XRECORD
  5
521
102
{ACAD_REACTORS
330
514
102
}
330
514
100
AcDbXrecord
 40
0.0
  0
XRECORD
  5
524
102
{ACAD_REACTORS
330
514
102
}
330
514
100
AcDbXrecord
340
0
  0
XRECORD
  5
52A
102
{ACAD_REACTORS
330
514
102
}
330
514
100
AcDbXrecord
 10
0.0
 20
0.0
 30
0.0
  0
XRECORD
  5
526
102
{ACAD_REACTORS
330
514
102
}
330
514
100
AcDbXrecord
 10
0.0
 20
0.0
 30
0.0
  0
XRECORD
  5
529
102
{ACAD_REACTORS
330
514
102
}
330
514
100
AcDbXrecord
 10
0.0
 20
0.0
 30
0.0
  0
XRECORD
  5
527
102
{ACAD_REACTORS
330
514
102
}
330
514
100
AcDbXrecord
 10
0.0
 20
0.0
 30
0.0
  0
XRECORD
  5
528
102
{ACAD_REACTORS
330
514
102
}
330
514
100
AcDbXrecord
 10
0.0
 20
0.0
 30
0.0
  0
XRECORD
  5
525
102
{ACAD_REACTORS
330
514
102
}
330
514
100
AcDbXrecord
 10
0.0
 20
0.0
 30
0.0
  0
XRECORD
  5
522
102
{ACAD_REACTORS
330
514
102
}
330
514
100
AcDbXrecord
340
0
  0
XRECORD
  5
523
102
{ACAD_REACTORS
330
514
102
}
330
514
100
AcDbXrecord
 70
     0
  0
XRECORD
  5
518
102
{ACAD_REACTORS
330
514
102
}
330
514
100
AcDbXrecord
  1

  0
XRECORD
  5
515
102
{ACAD_REACTORS
330
514
102
}
330
514
100
AcDbXrecord
 90
        1
  0
XRECORD
  5
516
102
{ACAD_REACTORS
330
514
102
}
330
514
100
AcDbXrecord
 90
       70
  0
XRECORD
  5
52D
102
{ACAD_REACTORS
330
514
102
}
330
514
100
AcDbXrecord
340
0
  0
XRECORD
  5
533
102
{ACAD_REACTORS
330
514
102
}
330
514
100
AcDbXrecord
 10
0.0
 20
0.0
 30
0.0
  0
XRECORD
  5
52F
102
{ACAD_REACTORS
330
514
102
}
330
514
100
AcDbXrecord
 10
0.0
 20
0.0
 30
0.0
  0
XRECORD
  5
532
102
{ACAD_REACTORS
330
514
102
}
330
514
100
AcDbXrecord
 10
0.0
 20
0.0
 30
0.0
  0
XRECORD
  5
530
102
{ACAD_REACTORS
330
514
102
}
330
514
100
AcDbXrecord
 10
0.0
 20
0.0
 30
0.0
  0
XRECORD
  5
531
102
{ACAD_REACTORS
330
514
102
}
330
514
100
AcDbXrecord
 10
0.0
 20
0.0
 30
0.0
  0
XRECORD
  5
52E
102
{ACAD_REACTORS
330
514
102
}
330
514
100
AcDbXrecord
 10
0.0
 20
0.0
 30
0.0
  0
XRECORD
  5
52B
102
{ACAD_REACTORS
330
514
102
}
330
514
100
AcDbXrecord
340
0
  0
XRECORD
  5
52C
102
{ACAD_REACTORS
330
514
102
}
330
514
100
AcDbXrecord
 70
     0
  0
XRECORD
  5
520
102
{ACAD_REACTORS
330
514
102
}
330
514
100
AcDbXrecord
  1
{4F230F28-3CA3-4D40-B8CB-1BEE97C28501}
  0
DICTIONARYVAR
  5
427
102
{ACAD_REACTORS
330
426
102
}
330
426
100
DictionaryVariables
280
     0
  1
1
  0
ENDSEC
  0
EOF
