  0
SECTION
  2
HEADER
  9
$ACADVER
  1
AC1015
  9
$ACADMAINTVER
 70
    20
  9
$DWGCODEPAGE
  3
ANSI_1252
  9
$INSBASE
 10
71.32942884583744
 20
-73.64078858389709
 30
0.0
  9
$EXTMIN
 10
62.01704184555263
 20
-75.1231005308844
 30
0.0
  9
$EXTMAX
 10
87.75587199562085
 20
-66.51578858389709
 30
0.0
  9
$LIMMIN
 10
0.0
 20
0.0
  9
$LIMMAX
 10
36.0
 20
36.0
  9
$ORTHOMODE
 70
     1
  9
$REGENMODE
 70
     1
  9
$FILLMODE
 70
     1
  9
$QTEXTMODE
 70
     0
  9
$MIRRTEXT
 70
     1
  9
$LTSCALE
 40
1.0
  9
$ATTMODE
 70
     1
  9
$TEXTSIZE
 40
0.2
  9
$TRACEWID
 40
0.05
  9
$TEXTSTYLE
  7
STANDARD
  9
$CLAYER
  8
ADPDIM
  9
$CELTYPE
  6
BYLAYER
  9
$CECOLOR
 62
   256
  9
$CELTSCALE
 40
1.0
  9
$DISPSILH
 70
     0
  9
$DIMSCALE
 40
1.0
  9
$DIMASZ
 40
0.125
  9
$DIMEXO
 40
0.0625
  9
$DIMDLI
 40
0.38
  9
$DIMRND
 40
0.0
  9
$DIMDLE
 40
0.0
  9
$DIMEXE
 40
0.18
  9
$DIMTP
 40
0.0
  9
$DIMTM
 40
0.0
  9
$DIMTXT
 40
0.125
  9
$DIMCEN
 40
0.1875
  9
$DIMTSZ
 40
0.125
  9
$DIMTOL
 70
     0
  9
$DIMLIM
 70
     0
  9
$DIMTIH
 70
     0
  9
$DIMTOH
 70
     0
  9
$DIMSE1
 70
     0
  9
$DIMSE2
 70
     0
  9
$DIMTAD
 70
     0
  9
$DIMZIN
 70
     3
  9
$DIMBLK
  1

  9
$DIMASO
 70
     1
  9
$DIMSHO
 70
     1
  9
$DIMPOST
  1

  9
$DIMAPOST
  1

  9
$DIMALT
 70
     0
  9
$DIMALTD
 70
     1
  9
$DIMALTF
 40
25.4
  9
$DIMLFAC
 40
1.0
  9
$DIMTOFL
 70
     0
  9
$DIMTVP
 40
0.0
  9
$DIMTIX
 70
     0
  9
$DIMSOXD
 70
     0
  9
$DIMSAH
 70
     0
  9
$DIMBLK1
  1

  9
$DIMBLK2
  1

  9
$DIMSTYLE
  2
STANDARD
  9
$DIMCLRD
 70
     0
  9
$DIMCLRE
 70
     0
  9
$DIMCLRT
 70
     0
  9
$DIMTFAC
 40
1.0
  9
$DIMGAP
 40
0.125
  9
$DIMJUST
 70
     0
  9
$DIMSD1
 70
     0
  9
$DIMSD2
 70
     0
  9
$DIMTOLJ
 70
     1
  9
$DIMTZIN
 70
     0
  9
$DIMALTZ
 70
     0
  9
$DIMALTTZ
 70
     0
  9
$DIMUPT
 70
     0
  9
$DIMDEC
 70
     4
  9
$DIMTDEC
 70
     4
  9
$DIMALTU
 70
     2
  9
$DIMALTTD
 70
     2
  9
$DIMTXSTY
  7
STANDARD
  9
$DIMAUNIT
 70
     0
  9
$DIMADEC
 70
     0
  9
$DIMALTRND
 40
0.0
  9
$DIMAZIN
 70
     0
  9
$DIMDSEP
 70
    46
  9
$DIMATFIT
 70
     3
  9
$DIMFRAC
 70
     0
  9
$DIMLDRBLK
  1

  9
$DIMLUNIT
 70
     2
  9
$DIMLWD
 70
    -2
  9
$DIMLWE
 70
    -2
  9
$DIMTMOVE
 70
     0
  9
$LUNITS
 70
     5
  9
$LUPREC
 70
     4
  9
$SKETCHINC
 40
0.1
  9
$FILLETRAD
 40
0.062
  9
$AUNITS
 70
     0
  9
$AUPREC
 70
     0
  9
$MENU
  1
acad
  9
$ELEVATION
 40
0.0
  9
$PELEVATION
 40
0.0
  9
$THICKNESS
 40
0.0
  9
$LIMCHECK
 70
     0
  9
$CHAMFERA
 40
0.0
  9
$CHAMFERB
 40
0.0
  9
$CHAMFERC
 40
0.0
  9
$CHAMFERD
 40
0.0
  9
$SKPOLY
 70
     0
  9
$TDCREATE
 40
2450408.688103010
  9
$TDUCREATE
 40
2450408.854769676
  9
$TDUPDATE
 40
2453954.928757430
  9
$TDUUPDATE
 40
2453955.095424097
  9
$TDINDWG
 40
0.0068238889
  9
$TDUSRTIMER
 40
0.0068238889
  9
$USRTIMER
 70
     1
  9
$ANGBASE
 50
0.0
  9
$ANGDIR
 70
     0
  9
$PDMODE
 70
     0
  9
$PDSIZE
 40
0.0
  9
$PLINEWID
 40
0.0
  9
$SPLFRAME
 70
     0
  9
$SPLINETYPE
 70
     6
  9
$SPLINESEGS
 70
     8
  9
$HANDSEED
  5
482
  9
$SURFTAB1
 70
     6
  9
$SURFTAB2
 70
     6
  9
$SURFTYPE
 70
     6
  9
$SURFU
 70
     6
  9
$SURFV
 70
     6
  9
$UCSBASE
  2

  9
$UCSNAME
  2

  9
$UCSORG
 10
0.0
 20
0.0
 30
0.0
  9
$UCSXDIR
 10
1.0
 20
0.0
 30
0.0
  9
$UCSYDIR
 10
0.0
 20
1.0
 30
0.0
  9
$UCSORTHOREF
  2

  9
$UCSORTHOVIEW
 70
     0
  9
$UCSORGTOP
 10
0.0
 20
0.0
 30
0.0
  9
$UCSORGBOTTOM
 10
0.0
 20
0.0
 30
0.0
  9
$UCSORGLEFT
 10
0.0
 20
0.0
 30
0.0
  9
$UCSORGRIGHT
 10
0.0
 20
0.0
 30
0.0
  9
$UCSORGFRONT
 10
0.0
 20
0.0
 30
0.0
  9
$UCSORGBACK
 10
0.0
 20
0.0
 30
0.0
  9
$PUCSBASE
  2

  9
$PUCSNAME
  2

  9
$PUCSORG
 10
0.0
 20
0.0
 30
0.0
  9
$PUCSXDIR
 10
1.0
 20
0.0
 30
0.0
  9
$PUCSYDIR
 10
0.0
 20
1.0
 30
0.0
  9
$PUCSORTHOREF
  2

  9
$PUCSORTHOVIEW
 70
     0
  9
$PUCSORGTOP
 10
0.0
 20
0.0
 30
0.0
  9
$PUCSORGBOTTOM
 10
0.0
 20
0.0
 30
0.0
  9
$PUCSORGLEFT
 10
0.0
 20
0.0
 30
0.0
  9
$PUCSORGRIGHT
 10
0.0
 20
0.0
 30
0.0
  9
$PUCSORGFRONT
 10
0.0
 20
0.0
 30
0.0
  9
$PUCSORGBACK
 10
0.0
 20
0.0
 30
0.0
  9
$USERI1
 70
     0
  9
$USERI2
 70
     0
  9
$USERI3
 70
     0
  9
$USERI4
 70
     0
  9
$USERI5
 70
     0
  9
$USERR1
 40
0.0
  9
$USERR2
 40
0.0
  9
$USERR3
 40
0.0
  9
$USERR4
 40
0.0
  9
$USERR5
 40
0.0
  9
$WORLDVIEW
 70
     1
  9
$SHADEDGE
 70
     3
  9
$SHADEDIF
 70
    70
  9
$TILEMODE
 70
     1
  9
$MAXACTVP
 70
    15
  9
$PINSBASE
 10
0.0
 20
0.0
 30
0.0
  9
$PLIMCHECK
 70
     0
  9
$PEXTMIN
 10
1.000000000000000E+20
 20
1.000000000000000E+20
 30
1.000000000000000E+20
  9
$PEXTMAX
 10
-1.000000000000000E+20
 20
-1.000000000000000E+20
 30
-1.000000000000000E+20
  9
$PLIMMIN
 10
0.0
 20
0.0
  9
$PLIMMAX
 10
12.0
 20
9.0
  9
$UNITMODE
 70
     0
  9
$VISRETAIN
 70
     0
  9
$PLINEGEN
 70
     0
  9
$PSLTSCALE
 70
     1
  9
$TREEDEPTH
 70
  3020
  9
$CMLSTYLE
  2
STANDARD
  9
$CMLJUST
 70
     0
  9
$CMLSCALE
 40
1.0
  9
$PROXYGRAPHICS
 70
     1
  9
$MEASUREMENT
 70
     0
  9
$CELWEIGHT
370
    -1
  9
$ENDCAPS
280
     0
  9
$JOINSTYLE
280
     0
  9
$LWDISPLAY
290
     0
  9
$INSUNITS
 70
     0
  9
$HYPERLINKBASE
  1

  9
$STYLESHEET
  1

  9
$XEDIT
290
     1
  9
$CEPSNTYPE
380
     0
  9
$PSTYLEMODE
290
     1
  9
$FINGERPRINTGUID
  2
{E552221D-4FD4-4DC9-83CC-34242557E232}
  9
$VERSIONGUID
  2
{B2E1E45A-01AF-409D-8B19-C77A0B3292E9}
  9
$EXTNAMES
290
     1
  9
$PSVPSCALE
 40
0.0
  9
$OLESTARTUP
290
     0
  0
ENDSEC
  0
SECTION
  2
CLASSES
  0
CLASS
  1
ACDBDICTIONARYWDFLT
  2
AcDbDictionaryWithDefault
  3
ObjectDBX Classes
 90
        0
280
     0
281
     0
  0
CLASS
  1
ACDBPLACEHOLDER
  2
AcDbPlaceHolder
  3
ObjectDBX Classes
 90
        0
280
     0
281
     0
  0
CLASS
  1
LAYOUT
  2
AcDbLayout
  3
ObjectDBX Classes
 90
        0
280
     0
281
     0
  0
CLASS
  1
DICTIONARYVAR
  2
AcDbDictionaryVar
  3
ObjectDBX Classes
 90
        0
280
     0
281
     0
  0
CLASS
  1
MATERIAL
  2
AcDbMaterial
  3
ObjectDBX Classes
 90
     1024
280
     0
281
     0
  0
CLASS
  1
VISUALSTYLE
  2
AcDbVisualStyle
  3
ObjectDBX Classes
 90
     4095
280
     0
281
     0
  0
CLASS
  1
TABLESTYLE
  2
AcDbTableStyle
  3
ObjectDBX Classes
 90
     4095
280
     0
281
     0
  0
ENDSEC
  0
SECTION
  2
TABLES
  0
TABLE
  2
VPORT
  5
8
330
0
100
AcDbSymbolTable
 70
     1
  0
VPORT
  5
3B3
330
8
100
AcDbSymbolTableRecord
100
AcDbViewportTableRecord
  2
*Active
 70
     0
 10
0.0
 20
0.0
 11
1.0
 21
1.0
 12
74.45744687351728
 22
-71.0660414212181
 13
0.0
 23
0.0
 14
0.5740882589684922
 24
0.5740882589684922
 15
0.5
 25
0.5
 16
0.0
 26
0.0
 36
1.0
 17
0.0
 27
0.0
 37
0.0
 40
13.01607167802028
 41
1.774011299435028
 42
50.0
 43
0.0
 44
0.0
 50
0.0
 51
0.0
 71
     0
 72
   100
 73
     1
 74
     0
 75
     0
 76
     0
 77
     0
 78
     0
281
     0
 65
     1
110
0.0
120
0.0
130
0.0
111
1.0
121
0.0
131
0.0
112
0.0
122
1.0
132
0.0
 79
     0
146
0.0
  0
ENDTAB
  0
TABLE
  2
LTYPE
  5
5
330
0
100
AcDbSymbolTable
 70
     1
  0
LTYPE
  5
12
330
5
100
AcDbSymbolTableRecord
100
AcDbLinetypeTableRecord
  2
BYBLOCK
 70
     0
  3

 72
    65
 73
     0
 40
0.0
  0
LTYPE
  5
13
330
5
100
AcDbSymbolTableRecord
100
AcDbLinetypeTableRecord
  2
BYLAYER
 70
     0
  3

 72
    65
 73
     0
 40
0.0
  0
LTYPE
  5
14
330
5
100
AcDbSymbolTableRecord
100
AcDbLinetypeTableRecord
  2
CONTINUOUS
 70
     0
  3
Solid line
 72
    65
 73
     0
 40
0.0
  0
ENDTAB
  0
TABLE
  2
LAYER
  5
2
330
0
100
AcDbSymbolTable
 70
     5
  0
LAYER
  5
F
330
2
100
AcDbSymbolTableRecord
100
AcDbLayerTableRecord
  2
0
 70
     0
 62
     7
  6
CONTINUOUS
370
    -3
390
293
  0
LAYER
  5
C1
330
2
100
AcDbSymbolTableRecord
100
AcDbLayerTableRecord
  2
ADP1DETAIL
 70
     0
 62
     7
  6
CONTINUOUS
370
    -3
390
293
  0
LAYER
  5
C3
330
2
100
AcDbSymbolTableRecord
100
AcDbLayerTableRecord
  2
DEFPOINTS
 70
     0
 62
     7
  6
CONTINUOUS
290
     0
370
    -3
390
293
  0
LAYER
  5
C4
330
2
100
AcDbSymbolTableRecord
100
AcDbLayerTableRecord
  2
ADPDIM
 70
     0
 62
     3
  6
CONTINUOUS
370
    -3
390
293
  0
LAYER
  5
C6
330
2
100
AcDbSymbolTableRecord
100
AcDbLayerTableRecord
  2
LAYER-1
 70
     0
 62
     7
  6
CONTINUOUS
370
    -3
390
293
  0
ENDTAB
  0
TABLE
  2
STYLE
  5
3
330
0
100
AcDbSymbolTable
 70
     2
  0
STYLE
  5
10
330
3
100
AcDbSymbolTableRecord
100
AcDbTextStyleTableRecord
  2
STANDARD
 70
     0
 40
0.0
 41
1.0
 50
0.0
 71
     0
 42
0.2
  3
txt
  4

  0
STYLE
  5
29A
330
3
100
AcDbSymbolTableRecord
100
AcDbTextStyleTableRecord
  2
ARIAL_WIDE
 70
     0
 40
0.0
 41
1.25
 50
0.0
 71
     0
 42
0.2
  3
ARIAL.TTF
  4

1001
ACAD
1000
Arial
1071
       34
  0
ENDTAB
  0
TABLE
  2
VIEW
  5
6
330
0
100
AcDbSymbolTable
 70
     0
  0
ENDTAB
  0
TABLE
  2
UCS
  5
7
330
0
100
AcDbSymbolTable
 70
     0
  0
ENDTAB
  0
TABLE
  2
APPID
  5
9
330
0
100
AcDbSymbolTable
 70
     2
  0
APPID
  5
11
330
9
100
AcDbSymbolTableRecord
100
AcDbRegAppTableRecord
  2
ACAD
 70
     0
  0
APPID
  5
454
330
9
100
AcDbSymbolTableRecord
100
AcDbRegAppTableRecord
  2
DCO15
 70
     0
  0
ENDTAB
  0
TABLE
  2
DIMSTYLE
  5
A
330
0
100
AcDbSymbolTable
 70
     1
100
AcDbDimStyleTable
 71
     1
340
28E
  0
DIMSTYLE
105
28E
102
{ACAD_REACTORS
330
3FA
330
408
102
}
330
A
100
AcDbSymbolTableRecord
100
AcDbDimStyleTableRecord
  2
STANDARD
 70
     0
340
10
  0
ENDTAB
  0
TABLE
  2
BLOCK_RECORD
  5
1
330
0
100
AcDbSymbolTable
 70
     5
  0
BLOCK_RECORD
  5
18
102
{ACAD_XDICTIONARY
360
2EF
102
}
330
1
100
AcDbSymbolTableRecord
100
AcDbBlockTableRecord
  2
*MODEL_SPACE
340
296
  0
BLOCK_RECORD
  5
15
102
{ACAD_XDICTIONARY
360
2ED
102
}
330
1
100
AcDbSymbolTableRecord
100
AcDbBlockTableRecord
  2
*PAPER_SPACE
340
297
  0
BLOCK_RECORD
  5
5A
330
1
100
AcDbSymbolTableRecord
100
AcDbBlockTableRecord
  2
573
340
0
102
{BLKREFS
331
28C
102
}
  0
BLOCK_RECORD
  5
BC
330
1
100
AcDbSymbolTableRecord
100
AcDbBlockTableRecord
  2
*D1
340
0
  0
BLOCK_RECORD
  5
BD
330
1
100
AcDbSymbolTableRecord
100
AcDbBlockTableRecord
  2
*D2
340
0
  0
BLOCK_RECORD
  5
3FB
330
1
100
AcDbSymbolTableRecord
100
AcDbBlockTableRecord
  2
*D3
340
0
  0
BLOCK_RECORD
  5
409
330
1
100
AcDbSymbolTableRecord
100
AcDbBlockTableRecord
  2
*D4
340
0
  0
ENDTAB
  0
ENDSEC
  0
SECTION
  2
BLOCKS
  0
BLOCK
  5
C9
330
18
100
AcDbEntity
  8
0
100
AcDbBlockBegin
  2
*MODEL_SPACE
 70
     0
 10
0.0
 20
0.0
 30
0.0
  3
*MODEL_SPACE
  1

  0
ENDBLK
  5
CA
330
18
100
AcDbEntity
  8
0
100
AcDbBlockEnd
  0
BLOCK
  5
C7
330
15
100
AcDbEntity
 67
     1
  8
0
100
AcDbBlockBegin
  2
*PAPER_SPACE
 70
     0
 10
0.0
 20
0.0
 30
0.0
  3
*PAPER_SPACE
  1

  0
ENDBLK
  5
C8
330
15
100
AcDbEntity
 67
     1
  8
0
100
AcDbBlockEnd
  0
BLOCK
  5
CC
330
5A
100
AcDbEntity
  8
0
100
AcDbBlockBegin
  2
573
 70
     0
 10
0.0
 20
0.0
 30
0.0
  3
573
  1

  0
LINE
  5
CD
330
5A
100
AcDbEntity
  8
LAYER-1
100
AcDbLine
 10
5.715060643101647
 20
2.467359374175809
 30
0.0
 11
6.023620255287887
 21
2.614864554153711
 31
0.0
  0
LINE
  5
CE
330
5A
100
AcDbEntity
  8
LAYER-1
100
AcDbLine
 10
5.741891913726537
 20
2.333263756014081
 30
0.0
 11
5.983373349350551
 21
2.440540250543464
 31
0.0
  0
LINE
  5
CF
330
5A
100
AcDbEntity
  8
LAYER-1
100
AcDbLine
 10
5.862632631538544
 20
1.099584068926176
 30
0.0
 11
6.34559550278657
 21
0.9520788889482746
 31
0.0
  0
LINE
  5
D0
330
5A
100
AcDbEntity
  8
LAYER-1
100
AcDbLine
 10
5.943126443413215
 20
0.8448023944188916
 30
0.0
 11
6.359011138099016
 21
0.7643450235218543
 31
0.0
  0
LINE
  5
D1
330
5A
100
AcDbEntity
  8
LAYER-1
100
AcDbLine
 10
5.862632631538544
 20
0.4022868544851864
 30
0.0
 11
5.983373349350551
 21
0.6034302817277797
 31
0.0
  0
LWPOLYLINE
  5
D2
330
5A
100
AcDbEntity
  8
LAYER-1
100
AcDbPolyline
 90
        4
 70
     0
 43
0.0
 10
5.741891913726537
 20
1.16663187800704
 42
0.2052943016434603
 10
6.385842408723906
 20
0.2413721126911119
 42
-0.1901923814718676
 10
5.849216996226099
 20
1.233679687087904
 10
6.399258044036352
 20
1.032536259845311
  0
LINE
  5
D8
330
5A
100
AcDbEntity
  8
LAYER-1
100
AcDbLine
 10
5.943126443413215
 20
4.679937073844335
 30
0.0
 11
5.996788984662996
 21
5.082223928329522
 31
0.0
  0
LWPOLYLINE
  5
D9
330
5A
100
AcDbEntity
  8
LAYER-1
100
AcDbPolyline
 90
        3
 70
     0
 43
0.0
 10
5.92971080810077
 20
5.149271737410386
 42
-0.1480111643302729
 10
6.479751855911023
 20
4.492203208417915
 42
0.1375160780604522
 10
6.063867161225221
 20
5.189500422858905
 42
-111.2880930865997
  0
LWPOLYLINE
  5
DE
330
5A
100
AcDbEntity
  8
LAYER-1
100
AcDbPolyline
 90
       16
 70
     0
 43
0.0
 10
6.291932961536789
 20
4.384926713888532
 42
-0.2608740142637191
 10
5.92971080810077
 20
2.038253396058277
 42
-0.5579703732748488
 10
5.808970090288763
 20
2.05166295787445
 42
-0.0989307569006905
 10
5.755307549038983
 20
2.266215946933217
 42
0.1223356594357528
 10
6.104114067162557
 20
2.360082879646427
 42
0.4027952107344236
 10
6.157776608412338
 20
2.534407183256674
 42
0.0816999981550429
 10
6.063867161225221
 20
3.003741846822725
 42
0.2386594250746698
 10
5.90287953747588
 20
3.151247026800627
 42
-0.200818097809405
 10
5.661398101851866
 20
3.593762566734332
 42
-0.1462585218594964
 10
5.393085395602962
 20
3.1646565886168
 42
0.2699733764429156
 10
5.165019595291394
 20
2.480768935991982
 42
0.4561477571118442
 10
5.621151195914531
 20
2.225987261484698
 42
0.0643811772169689
 10
5.728476278414092
 20
1.917567339712721
 42
-0.4141589269721674
 10
5.446747936852744
 20
1.67619522702161
 42
-0.1337521812880966
 10
4.494237829669136
 20
1.716423912470128
 42
-0.2094996111516274
 10
4.132015676233115
 20
2.306444632381735
 42
-1.147973208706022
  0
LWPOLYLINE
  5
F0
330
5A
100
AcDbEntity
  8
LAYER-1
100
AcDbPolyline
 90
       17
 70
     0
 43
0.0
 10
6.519998761848357
 20
3.030560970455071
 42
-0.1238986838782975
 10
5.916295172788324
 20
1.622556979756918
 42
0.1663649949696614
 10
5.862632631538544
 20
1.461642237962843
 42
-0.2071579759601811
 10
6.305348596849235
 20
1.354365743433461
 42
-0.2435958853643891
 10
6.506583126535913
 20
0.8850310798674103
 42
0.0364304600647011
 10
6.506583126535913
 20
0.4559251017498779
 42
0.1788560768309361
 10
6.640739479660364
 20
0.1609147417940746
 42
-0.9040553194780615
 10
6.600492573723029
 20
0.0
 42
-0.1185300378795077
 10
6.332179867474125
 20
0.107276494529383
 42
0.1346468778136365
 10
6.037035890600331
 20
0.2145529890587661
 42
-0.2425675291879127
 10
5.393085395602962
 20
0.6034302817277797
 42
-0.5184725366058193
 10
5.674813737164312
 20
1.26049881072025
 42
-0.1462898974761285
 10
5.755307549038983
 20
1.609147417940745
 42
-0.3543783434343092
 10
4.09176877029578
 20
1.729833474286301
 42
-0.1219613759089909
 10
3.944196781858883
 20
1.95779602516124
 42
0.6232707514518069
 10
3.836871699359321
 20
1.971205586977413
 42
0.4550834985706361
 10
3.649052804985088
 20
2.091891643322969
 42
7.019528258266599
  0
ARC
  5
103
330
5A
100
AcDbEntity
  8
LAYER-1
100
AcDbCircle
 10
2.0390097275718
 20
2.801839060619721
 30
0.0
 40
4.859311569084769
100
AcDbArc
 50
30.52506896833046
 51
37.59087882897725
  0
LWPOLYLINE
  5
104
330
5A
100
AcDbEntity
  8
LAYER-1
100
AcDbPolyline
 90
       42
 70
     0
 43
0.0
 10
5.554073019352305
 20
6.10135062635866
 42
0.0723782051142802
 10
6.010204619975441
 20
6.275674929968908
 42
0.1623183448644715
 10
5.688229372476756
 20
5.618606400976437
 42
-0.2121266526140196
 10
5.460163572165188
 20
5.672244648241129
 42
-0.5766594658425089
 10
5.473579207477634
 20
5.779521142770512
 42
0.2261637894778853
 10
5.554073019352305
 20
6.114760188174834
 42
0.262108162605629
 10
5.258929042478511
 20
6.449999233579156
 42
0.0558683363905851
 10
4.789381806542929
 20
6.557275728108539
 42
-0.177053199451123
 10
4.521069100294026
 20
6.691371346270267
 42
-0.047782829042954
 10
4.601562912168697
 20
6.3293131772336
 42
-0.0617140856823061
 10
4.601562912168697
 20
6.114760188174834
 42
0.2523168692839724
 10
4.789381806542929
 20
5.63201596279261
 42
0.3228478840593527
 10
5.285760313103401
 20
5.591787277344091
 42
0.1956286338448494
 10
5.621151195914531
 20
5.457691659182363
 42
-0.1220582075885708
 10
5.540657384039859
 20
5.176090861042732
 42
0.1080551229529779
 10
5.245513407166066
 20
5.25654823193977
 42
0.316241408475574
 10
4.883291253730046
 20
5.02858568106483
 42
0.0758520427279842
 10
4.816213077167819
 20
4.760394444741373
 42
-0.2524362249939227
 10
4.601562912168697
 20
4.438564961153224
 42
0.0550649402617446
 10
5.23209777185362
 20
4.264240657542976
 42
0.3388788793857444
 10
5.580904289977195
 20
4.451974522969396
 42
0.2389234956959055
 10
5.661398101851866
 20
4.988356995616312
 42
-0.1614293908996988
 10
5.661398101851866
 20
5.109043051961868
 42
0.0563143142870928
 10
5.715060643101647
 20
5.363824726469152
 42
0.062261238893923
 10
5.889463902163434
 20
5.16268129922656
 42
0.3803280067119125
 10
5.782138819663873
 20
4.881080501086929
 42
0.3940308722282726
 10
6.130945337787448
 20
4.411745837520878
 42
-0.0710370312522851
 10
6.426089314661242
 20
4.371517152072359
 42
-0.137940016430157
 10
6.600492573723029
 20
4.264240657542976
 42
-0.0554100697981194
 10
6.613908209035474
 20
4.519022332050261
 42
-0.0009541791622338
 10
6.640739479660364
 20
4.679937073844335
 42
0.2986207511944378
 10
6.613908209035474
 20
5.055404804697176
 42
0.2849827665209266
 10
6.050451525912777
 20
5.269957793755942
 42
-0.4744100023350623
 10
5.969957714038105
 20
5.337005602836807
 42
-0.2521716933026796
 10
5.835801360913653
 20
5.564968153711745
 42
-0.1662365440026356
 10
5.916295172788324
 20
5.833159390035203
 42
-0.277069998767635
 10
6.748064562159926
 20
6.382951424498291
 10
6.748064562159926
 20
6.865695649880515
 10
6.385842408723906
 20
6.865695649880515
 42
0.1525449761301511
 10
6.171192243724783
 20
6.798647840799651
 42
-0.0662665512719429
 10
5.621151195914531
 20
6.517047042660021
 42
-0.0527440660898605
 10
5.285760313103401
 20
6.436589671762983
 42
-1.538772502931939
  0
LINE
  5
130
330
5A
100
AcDbEntity
  8
LAYER-1
100
AcDbLine
 10
5.097941418729169
 20
4.358107590256186
 30
0.0
 11
5.138188324666504
 21
4.492203208417915
 31
0.0
  0
LINE
  5
131
330
5A
100
AcDbEntity
  8
LAYER-1
100
AcDbLine
 10
5.339422854353182
 20
4.478793646601742
 30
0.0
 11
5.366254124978072
 21
4.679937073844335
 31
0.0
  0
LWPOLYLINE
  5
132
330
5A
100
AcDbEntity
  8
LAYER-1
100
AcDbPolyline
 90
        4
 70
     0
 43
0.0
 10
5.513826113414969
 20
5.109043051961868
 42
-0.1068026440466709
 10
4.869875618417601
 20
4.451974522969396
 42
0.2071108662812163
 10
5.607735560602085
 20
5.015176119248658
 42
-0.3028897278177805
 10
5.634566831226976
 20
4.867670939270756
 42
1.522141138292447
  0
LWPOLYLINE
  5
138
330
5A
100
AcDbEntity
  8
LAYER-1
100
AcDbPolyline
 90
        9
 70
     0
 43
0.0
 10
1.381810437181853
 20
2.93669403774186
 42
0.1953468751949692
 10
1.837942037804989
 20
4.961537871983966
 42
-0.1159474362199163
 10
1.851357673117434
 20
5.16268129922656
 42
-0.162919647236358
 10
2.052592202804112
 20
5.44428209736619
 42
0.2217510417717594
 10
2.6428801565517
 20
5.404053411917671
 42
0.4115307743284033
 10
2.817283415613487
 20
5.792930704586685
 42
-0.2557224752725535
 10
2.991686674675275
 20
6.020893255461624
 42
0.1444094637648778
 10
2.267242367803235
 20
6.262265368152736
 42
0.2604640491650919
 10
1.797695131867654
 20
6.020893255461624
 42
1.864843755204292
  0
LWPOLYLINE
  5
143
330
5A
100
AcDbEntity
  8
LAYER-1
100
AcDbPolyline
 90
        6
 70
     0
 43
0.0
 10
4.06493749967089
 20
4.639708388395817
 42
-0.512369271151195
 10
4.400328382482019
 20
4.183783286645939
 42
-0.2484349174844462
 10
4.118600040920671
 20
3.674219937631369
 42
0.1194455129954793
 10
3.649052804985088
 20
3.043970532271243
 42
-0.2420548619881777
 10
4.279587664670012
 20
3.473076510388776
 42
0.2532043901651517
 10
4.628394182793587
 20
4.076506792116556
 42
1.316592340991591
  0
LWPOLYLINE
  5
14B
330
5A
100
AcDbEntity
  8
LAYER-1
100
AcDbPolyline
 90
       14
 70
     0
 43
0.0
 10
3.072180486549946
 20
2.681912363234576
 42
-0.104646811811791
 10
3.36732446342374
 20
2.56122630688902
 42
0.3075263678787907
 10
3.917365511233992
 20
2.56122630688902
 42
0.1306289162560731
 10
4.266172029357568
 20
2.963513161374206
 42
0.089039329941419
 10
4.749134900605594
 20
3.54012431946964
 42
0.1978555450682519
 10
4.84304434779271
 20
4.264240657542976
 42
0.0682946209909929
 10
4.614978547481142
 20
4.411745837520878
 42
-0.2059437786247989
 10
4.50765346498158
 20
4.532431893866434
 42
0.3318365083001576
 10
3.501480816548192
 20
4.760394444741373
 42
0.2680734102020738
 10
2.97827103936283
 20
4.572660579314953
 42
0.2504008769106908
 10
2.575801979989474
 20
4.009458983035691
 42
0.1231191349148373
 10
2.294073638428125
 20
3.647400813999023
 42
0.4708331246627477
 10
2.468476897489912
 20
3.298752206778528
 42
0.6125031864507971
 10
3.099011757174836
 20
2.681912363234576
 42
-0.1637942147827914
  0
LWPOLYLINE
  5
15B
330
5A
100
AcDbEntity
  8
LAYER-1
100
AcDbPolyline
 90
       24
 70
     0
 43
0.0
 10
1.11349773093295
 20
2.950103599558033
 42
0.1670386495430238
 10
1.690370049368092
 20
4.599479702947299
 42
0.0913628336935003
 10
1.623291872805866
 20
4.974947433800139
 42
0.2359723815185714
 10
1.462304249056524
 20
5.015176119248658
 42
0.6180118855314549
 10
1.448888613744079
 20
4.961537871983966
 42
-0.1175848876485817
 10
1.314732260619627
 20
4.478793646601742
 42
-0.2861848519896541
 10
0.6171192243724784
 20
4.519022332050261
 42
-0.0397428434964623
 10
0.1341563531244518
 20
4.921309186535447
 42
0.0967076838734108
 10
0.5634566831226976
 20
5.055404804697176
 42
-0.2502303249335212
 10
1.153744636870285
 20
5.296776917388288
 42
-0.2029293116230811
 10
1.422057343119189
 20
5.149271737410386
 42
-0.0710359613503402
 10
1.609876237493421
 20
5.16268129922656
 42
0.0801425393661054
 10
1.247654084057401
 20
5.699063771873475
 42
-0.2452731706140984
 10
0.6841974009347043
 20
5.524739468263227
 42
-0.4120929909088485
 10
0.2548970709364585
 20
6.14157931180718
 42
0.1311010213853661
 10
0.2012345296866777
 20
6.637733099005576
 42
0.2116642096230422
 10
0.0804938118746711
 20
6.758419155351132
 42
-1.100731728508452
 10
0.1073250824995615
 20
6.812057402615824
 42
0.0898943111469302
 10
0.2414814356240132
 20
6.758419155351132
 42
0.1315247662961227
 10
0.6841974009347043
 20
6.785238278983478
 42
-0.0642813686923141
 10
1.301316625307182
 20
6.597504413557057
 42
-0.053744848481001
 10
1.515966790306305
 20
6.302494053601254
 42
-0.4486802397673055
 10
1.368394801869408
 20
5.859978513667549
 10
1.435472978431634
 20
5.779521142770512
 42
-1.000445496182015
  0
LWPOLYLINE
  5
175
330
5A
100
AcDbEntity
  8
LAYER-1
100
AcDbPolyline
 90
        4
 70
     0
 43
0.0
 10
0.6037035890600332
 20
4.505612770234088
 42
0.2083311368546961
 10
0.5768723184351428
 20
2.319854194197908
 42
-0.0838557489867244
 10
0.6305348596849236
 20
2.091891643322969
 42
-0.0686994210785431
 10
0.9927570131209433
 20
2.775779295947786
 42
-0.5120780099801001
  0
LWPOLYLINE
  5
17B
330
5A
100
AcDbEntity
  8
LAYER-1
100
AcDbPolyline
 90
        6
 70
     0
 43
0.0
 10
0.442715965310691
 20
0.0
 10
0.0
 20
0.0
 10
0.0
 20
0.2816007981396305
 42
-0.0523525988354264
 10
0.3085596121862392
 20
1.354365743433461
 42
0.0249956963745635
 10
0.295143976873794
 20
2.024843834242104
 42
-0.2247532060056166
 10
0.295143976873794
 20
4.7469848829252
 42
-0.6329820491123731
  0
LINE
  5
183
330
5A
100
AcDbEntity
  8
LAYER-1
100
AcDbLine
 10
2.079423473429002
 20
1.220270125271732
 30
0.0
 11
2.347736179677906
 21
1.300727496168769
 31
0.0
  0
LINE
  5
184
330
5A
100
AcDbEntity
  8
LAYER-1
100
AcDbLine
 10
2.186748555928564
 20
1.153222316190867
 30
0.0
 11
2.629464521239255
 21
1.139812754374694
 31
0.0
  0
LINE
  5
185
330
5A
100
AcDbEntity
  8
LAYER-1
100
AcDbLine
 10
2.146501649991228
 20
0.6168398435439526
 30
0.0
 11
2.240411097178344
 21
0.8850310798674103
 31
0.0
  0
LWPOLYLINE
  5
186
330
5A
100
AcDbEntity
  8
LAYER-1
100
AcDbPolyline
 90
        2
 70
     0
 43
0.0
 10
1.91843584967966
 20
1.206860563455559
 42
-0.2576074766189307
 10
2.522139438739694
 20
0.4693346635660509
 42
0.8330112525074044
  0
LWPOLYLINE
  5
18A
330
5A
100
AcDbEntity
  8
LAYER-1
100
AcDbPolyline
 90
       27
 70
     0
 43
0.0
 10
2.575801979989474
 20
0.1206860563455559
 42
0.1186653417113234
 10
2.803867780301042
 20
0.6168398435439526
 42
0.3265659083802186
 10
2.548970709364584
 20
1.408003990698152
 42
0.1624433244883384
 10
2.294073638428125
 20
1.488461361595189
 42
0.0135072445888362
 10
1.958682755616996
 20
1.327546619801115
 42
-0.2559833258828241
 10
1.744032590617873
 20
1.461642237962843
 42
-0.0156167679768977
 10
2.133086014678783
 20
1.649376103389264
 42
0.3471006771372926
 10
2.66971142717659
 20
1.408003990698152
 42
0.3188426059123419
 10
3.139258663112172
 20
1.971205586977413
 42
-0.1225236605843095
 10
3.39415573404863
 20
2.440540250543464
 42
0.1058968049423306
 10
2.750205239051262
 20
2.574635868705193
 42
0.1511590813227992
 10
2.240411097178344
 20
2.413721126911118
 42
0.1133974168069417
 10
2.025760932179222
 20
1.77006215973482
 42
0.0259484467829179
 10
1.717201319992983
 20
1.635966541573091
 42
-0.9980202377661228
 10
1.690370049368092
 20
1.689604788837782
 42
-0.37005126828255
 10
1.770863861242763
 20
1.917567339712721
 42
0.3510611892003052
 10
1.945267120304551
 20
2.507588059624328
 42
0.3029700155690144
 10
0.9525101071836077
 20
2.923284475925687
 42
-0.0691661745974469
 10
1.126913366245395
 20
2.333263756014081
 42
-0.0747850208885336
 10
1.126913366245395
 20
2.105301205139142
 42
0.5445727575661249
 10
1.354979166556963
 20
1.904157777896548
 42
-0.2311669549505602
 10
1.50255115499386
 20
1.877338654264203
 42
0.1605989185552782
 10
1.515966790306305
 20
1.622556979756918
 42
0.1341623955119167
 10
0.6305348596849236
 20
0.9654884507644474
 42
-0.141405876746333
 10
0.7512755774969302
 20
1.568918732492227
 42
0.0901457365433419
 10
0.9122632012462723
 20
2.091891643322969
 42
-0.1377002546990329
 10
1.073250824995614
 20
2.480768935991982
 42
-0.4859052859501501
  0
LWPOLYLINE
  5
1A7
330
5A
100
AcDbEntity
  8
LAYER-1
100
AcDbPolyline
 90
        9
 70
     0
 43
0.0
 10
0.442715965310691
 20
0.0
 10
0.442715965310691
 20
0.1340956181617288
 42
-0.285100119500125
 10
1.006172648433388
 20
1.005717136212965
 42
-0.02938029330517
 10
1.596460602180976
 20
1.367775305249633
 42
0.16940086946164
 10
1.730616955305428
 20
1.247089248904077
 42
0.0068497153173314
 10
1.52938242561875
 20
0.9923075743967931
 42
0.4231342645617393
 10
1.784279496555209
 20
0.5229729108307425
 42
0.0798574610889473
 10
2.159917285303674
 20
0.4156964163013594
 42
-0.12826610365529
 10
2.589217615301919
 20
0.1206860563455559
 42
0.0344520470739475
  0
LWPOLYLINE
  5
1B2
330
5A
100
AcDbEntity
  8
LAYER-1
100
AcDbPolyline
 90
        2
 70
     0
 43
0.0
 10
5.419916666227853
 20
0.6034302817277797
 42
-0.356804504159344
 10
0.9927570131209433
 20
0.9788980125806203
 42
-2.467587037415173
  0
ARC
  5
1B6
330
5A
100
AcDbEntity
  8
LAYER-1
100
AcDbCircle
 10
1.47766436175655
 20
1.979926366283111
 30
0.0
 40
0.7151019100954141
100
AcDbArc
 50
202.7825209993645
 51
236.8541415932783
  0
ARC
  5
1B7
330
5A
100
AcDbEntity
  8
LAYER-1
100
AcDbCircle
 10
1.434098344721943
 20
1.721356235094186
 30
0.0
 40
0.8469558553418385
100
AcDbArc
 50
205.6775087209402
 51
223.3637634374247
  0
LINE
  5
1B8
330
5A
100
AcDbEntity
  8
LAYER-1
100
AcDbLine
 10
1.972098390929441
 20
0.7643450235218543
 30
0.0
 11
2.052592202804112
 21
1.059355383477657
 31
0.0
  0
LINE
  5
1B9
330
5A
100
AcDbEntity
  8
LAYER-1
100
AcDbLine
 10
1.797695131867654
 20
0.8313928326027186
 30
0.0
 11
1.91843584967966
 21
1.139812754374694
 31
0.0
  0
ARC
  5
1BA
330
5A
100
AcDbEntity
  8
LAYER-1
100
AcDbCircle
 10
3.601169046804742
 20
3.387007835486949
 30
0.0
 40
3.159246002603538
100
AcDbArc
 50
223.6368125294204
 51
229.662243583768
  0
LINE
  5
1BB
330
5A
100
AcDbEntity
  8
LAYER-1
100
AcDbLine
 10
1.247654084057401
 20
2.467359374175809
 30
0.0
 11
1.542798060931195
 21
2.346673317830254
 31
0.0
  0
LINE
  5
1BC
330
5A
100
AcDbEntity
  8
LAYER-1
100
AcDbLine
 10
1.180575907495176
 20
2.588045430521365
 30
0.0
 11
1.515966790306305
 21
2.480768935991982
 31
0.0
  0
LINE
  5
1BD
330
5A
100
AcDbEntity
  8
LAYER-1
100
AcDbLine
 10
1.314732260619627
 20
2.74896017231544
 30
0.0
 11
1.274485354682292
 21
2.896465352293342
 31
0.0
  0
LWPOLYLINE
  5
1BE
330
5A
100
AcDbEntity
  8
LAYER-1
100
AcDbPolyline
 90
        3
 70
     0
 43
0.0
 10
1.623291872805866
 20
2.024843834242104
 42
0.4386070535155174
 10
1.14032900155784
 20
2.802598419580132
 42
-0.3305289864809664
 10
1.583044966868531
 20
2.024843834242104
 42
1.128921906473644
  0
LINE
  5
1C3
330
5A
100
AcDbEntity
  8
LAYER-1
100
AcDbLine
 10
1.650123143430757
 20
2.373492441462599
 30
0.0
 11
1.797695131867654
 21
2.614864554153711
 31
0.0
  0
LINE
  5
1C4
330
5A
100
AcDbEntity
  8
LAYER-1
100
AcDbLine
 10
1.703785684680537
 20
2.172349014220006
 30
0.0
 11
1.931851484992106
 21
2.386902003278772
 31
0.0
  0
LINE
  5
1C5
330
5A
100
AcDbEntity
  8
LAYER-1
100
AcDbLine
 10
1.650123143430757
 20
1.984615148793586
 30
0.0
 11
1.931851484992106
 21
2.172349014220006
 31
0.0
  0
LINE
  5
1C6
330
5A
100
AcDbEntity
  8
LAYER-1
100
AcDbLine
 10
1.368394801869408
 20
2.158939452403833
 30
0.0
 11
1.583044966868531
 21
2.038253396058277
 31
0.0
  0
LINE
  5
1C7
330
5A
100
AcDbEntity
  8
LAYER-1
100
AcDbLine
 10
1.301316625307182
 20
2.319854194197908
 30
0.0
 11
1.556213696243641
 21
2.172349014220006
 31
0.0
  0
LINE
  5
1C8
330
5A
100
AcDbEntity
  8
LAYER-1
100
AcDbLine
 10
2.226995461865899
 20
1.77006215973482
 30
0.0
 11
2.226995461865899
 21
2.185758576036179
 31
0.0
  0
LINE
  5
1C9
330
5A
100
AcDbEntity
  8
LAYER-1
100
AcDbLine
 10
1.489135519681415
 20
2.601454992337538
 30
0.0
 11
1.489135519681415
 21
2.829417543212477
 31
0.0
  0
LINE
  5
1CA
330
5A
100
AcDbEntity
  8
LAYER-1
100
AcDbLine
 10
2.267242367803235
 20
1.689604788837782
 30
0.0
 11
2.6428801565517
 21
1.568918732492227
 31
0.0
  0
ARC
  5
1CB
330
5A
100
AcDbEntity
  8
LAYER-1
100
AcDbCircle
 10
3.437778701592817
 20
3.102528982480324
 30
0.0
 40
2.760425298146566
100
AcDbArc
 50
255.5767777670262
 51
326.5840935304259
  0
LINE
  5
1CC
330
5A
100
AcDbEntity
  8
LAYER-1
100
AcDbLine
 10
2.468476897489912
 20
0.7911641471542001
 30
0.0
 11
2.736789603738816
 21
0.7375258998895086
 31
0.0
  0
LINE
  5
1CD
330
5A
100
AcDbEntity
  8
LAYER-1
100
AcDbLine
 10
2.535555074052139
 20
0.5900207199116068
 30
0.0
 11
2.723373968426371
 21
0.5497920344630883
 31
0.0
  0
LINE
  5
1CE
330
5A
100
AcDbEntity
  8
LAYER-1
100
AcDbLine
 10
2.414814356240132
 20
0.4559251017498779
 30
0.0
 11
2.428229991552577
 21
0.6168398435439526
 31
0.0
  0
LINE
  5
1CF
330
5A
100
AcDbEntity
  8
LAYER-1
100
AcDbLine
 10
2.28065800311568
 20
0.5363824726469153
 30
0.0
 11
2.334320544365461
 21
0.7375258998895086
 31
0.0
  0
LINE
  5
1D0
330
5A
100
AcDbEntity
  8
LAYER-1
100
AcDbLine
 10
2.334320544365461
 20
0.9386693271321016
 30
0.0
 11
2.696542697801481
 21
0.8984406416835831
 31
0.0
  0
LINE
  5
1D1
330
5A
100
AcDbEntity
  8
LAYER-1
100
AcDbLine
 10
5.580904289977195
 20
0.7911641471542001
 30
0.0
 11
5.782138819663873
 21
1.005717136212965
 31
0.0
  0
LINE
  5
1D2
330
5A
100
AcDbEntity
  8
LAYER-1
100
AcDbLine
 10
5.393085395602962
 20
0.8582119562350644
 30
0.0
 11
5.741891913726537
 21
1.112993630742349
 31
0.0
  0
LINE
  5
1D3
330
5A
100
AcDbEntity
  8
LAYER-1
100
AcDbLine
 10
5.688229372476756
 20
0.5900207199116068
 30
0.0
 11
5.849216996226099
 21
0.8582119562350644
 31
0.0
  0
LWPOLYLINE
  5
1D4
330
5A
100
AcDbEntity
  8
LAYER-1
100
AcDbPolyline
 90
        6
 70
     0
 43
0.0
 10
3.434402639985966
 20
3.54012431946964
 42
0.0073556774546647
 10
3.501480816548192
 20
3.929001612138654
 42
0.0782088537558632
 10
3.501480816548192
 20
4.210602410278284
 42
-0.2073884129030274
 10
3.796624793421985
 20
4.250831095726804
 42
0.2869063676662392
 10
3.863702969984212
 20
4.076506792116556
 42
-0.2813243487887095
 10
4.105184405608225
 20
3.687629499447542
 42
0.9928020145759031
  0
LINE
  5
1DC
330
5A
100
AcDbEntity
  8
LAYER-1
100
AcDbLine
 10
4.078353134983335
 20
2.199168137852352
 30
0.0
 11
4.105184405608225
 21
2.091891643322969
 31
0.0
  0
LINE
  5
1DD
330
5A
100
AcDbEntity
  8
LAYER-1
100
AcDbLine
 10
4.011274958421109
 20
2.105301205139142
 30
0.0
 11
4.105184405608225
 21
2.038253396058277
 31
0.0
  0
LWPOLYLINE
  5
1DE
330
5A
100
AcDbEntity
  8
LAYER-1
100
AcDbPolyline
 90
       13
 70
     0
 43
0.0
 10
3.259999380924178
 20
2.279625508749389
 10
3.300246286861514
 20
2.212577699668525
 42
-0.2911905490176218
 10
3.42098700467352
 20
2.319854194197908
 42
0.1296945380807288
 10
3.635637169672643
 20
1.783471721550993
 42
-0.1480093751639627
 10
3.823456064046876
 20
2.494178497808155
 42
-0.0622542454273214
 10
4.09176877029578
 20
2.252806385117044
 42
0.3028897278177788
 10
4.199093852795342
 20
2.588045430521365
 42
-0.2756613070675072
 10
4.494237829669136
 20
2.467359374175809
 42
0.2175980935407373
 10
4.306418935294903
 20
2.869646228660996
 42
-0.0987642497982793
 10
4.923538159667382
 20
2.869646228660996
 42
0.3012408411759813
 10
4.50765346498158
 20
3.057380094087416
 42
0.1158541585038542
 10
4.856459983105155
 20
3.35239045404322
 42
0.9380101375693577
 10
4.682056724043368
 20
3.499895634021121
 42
2.349447032147609
  0
ARC
  5
1ED
330
5A
100
AcDbEntity
  8
LAYER-1
100
AcDbCircle
 10
3.415526747602755
 20
3.318676644709078
 30
0.0
 40
0.5047424390982993
100
AcDbArc
 50
177.6945436250049
 51
275.1955607284862
  0
LWPOLYLINE
  5
1EE
330
5A
100
AcDbEntity
  8
LAYER-1
100
AcDbPolyline
 90
        3
 70
     0
 43
0.0
 10
2.240411097178344
 20
1.729833474286301
 42
0.0454608794038107
 10
2.66971142717659
 20
2.105301205139142
 42
-0.1650433324838738
 10
3.233168110299288
 20
2.400311565094945
 42
-0.0777509026387647
  0
LINE
  5
1F3
330
5A
100
AcDbEntity
  8
LAYER-1
100
AcDbLine
 10
2.401398720927687
 20
1.890748216080376
 30
0.0
 11
2.374567450302796
 21
2.386902003278772
 31
0.0
  0
LINE
  5
1F4
330
5A
100
AcDbEntity
  8
LAYER-1
100
AcDbLine
 10
2.575801979989474
 20
2.024843834242104
 30
0.0
 11
2.562386344677029
 21
2.494178497808155
 31
0.0
  0
LINE
  5
1F5
330
5A
100
AcDbEntity
  8
LAYER-1
100
AcDbLine
 10
2.736789603738816
 20
2.158939452403833
 30
0.0
 11
2.830699050925932
 21
2.507588059624328
 31
0.0
  0
LINE
  5
1F6
330
5A
100
AcDbEntity
  8
LAYER-1
100
AcDbLine
 10
2.951439768737939
 20
2.319854194197908
 30
0.0
 11
2.964855404050384
 21
2.467359374175809
 31
0.0
  0
LINE
  5
1F7
330
5A
100
AcDbEntity
  8
LAYER-1
100
AcDbLine
 10
2.575801979989474
 20
1.984615148793586
 30
0.0
 11
2.964855404050384
 21
1.904157777896548
 31
0.0
  0
LINE
  5
1F8
330
5A
100
AcDbEntity
  8
LAYER-1
100
AcDbLine
 10
2.455061262177467
 20
1.823700406999511
 30
0.0
 11
2.763620874363707
 21
1.716423912470128
 31
0.0
  0
LINE
  5
1F9
330
5A
100
AcDbEntity
  8
LAYER-1
100
AcDbLine
 10
2.750205239051262
 20
2.158939452403833
 30
0.0
 11
3.00510230998772
 21
2.065072519690623
 31
0.0
  0
LINE
  5
1FA
330
5A
100
AcDbEntity
  8
LAYER-1
100
AcDbLine
 10
2.951439768737939
 20
2.306444632381735
 30
0.0
 11
3.166089933737062
 21
2.266215946933217
 31
0.0
  0
ARC
  5
1FB
330
5A
100
AcDbEntity
  8
LAYER-1
100
AcDbCircle
 10
3.190628592009379
 20
2.375585621425978
 30
0.0
 40
0.3111788780105304
100
AcDbArc
 50
109.7265111151957
 51
140.2331536108336
  0
LINE
  5
1FC
330
5A
100
AcDbEntity
  8
LAYER-1
100
AcDbLine
 10
3.877118605296656
 20
2.078482081506796
 30
0.0
 11
4.06493749967089
 21
1.930976901528894
 31
0.0
  0
LINE
  5
1FD
330
5A
100
AcDbEntity
  8
LAYER-1
100
AcDbLine
 10
3.850287334671767
 20
2.158939452403833
 30
0.0
 11
3.984443687796218
 21
2.091891643322969
 31
0.0
  0
ARC
  5
1FE
330
5A
100
AcDbEntity
  8
LAYER-1
100
AcDbCircle
 10
3.476078425021174
 20
2.652754090209948
 30
0.0
 40
0.163927400380671
100
AcDbArc
 50
35.93607416955779
 51
95.19556072848628
  0
LWPOLYLINE
  5
1FF
330
5A
100
AcDbEntity
  8
LAYER-1
100
AcDbPolyline
 90
        3
 70
     0
 43
0.0
 10
3.018517945300165
 20
4.317878904807668
 42
0.4606618259506753
 10
3.099011757174836
 20
3.714448623079888
 42
-0.1846346635256273
 10
3.568558993110417
 20
3.392619139491738
 42
0.5244424010548916
  0
LWPOLYLINE
  5
204
330
5A
100
AcDbEntity
  8
LAYER-1
100
AcDbPolyline
 90
        3
 70
     0
 43
0.0
 10
2.589217615301919
 20
4.009458983035691
 42
0.4389435549588046
 10
3.085596121862391
 20
3.432847824940257
 42
-0.1902214813067791
 10
3.488065181235747
 20
3.25852352133001
 42
0.4138011670882057
  0
ARC
  5
209
330
5A
100
AcDbEntity
  8
LAYER-1
100
AcDbCircle
 10
2.864065083744793
 20
3.587091197620511
 30
0.0
 40
0.3291272679077303
100
AcDbArc
 50
183.5095952610694
 51
236.6500726705247
  0
LWPOLYLINE
  5
20A
330
5A
100
AcDbEntity
  8
LAYER-1
100
AcDbPolyline
 90
        3
 70
     0
 43
0.0
 10
3.514896451860637
 20
3.929001612138654
 42
0.1212144928237354
 10
3.716130981547315
 20
3.701039061263715
 42
-0.3077648745992905
 10
3.78320915810954
 20
3.526714757653467
 42
1.260936453812558
  0
LINE
  5
20F
330
5A
100
AcDbEntity
  8
LAYER-1
100
AcDbLine
 10
5.634566831226976
 20
3.017151408638898
 30
0.0
 11
5.513826113414969
 21
3.204885274065318
 31
0.0
  0
LINE
  5
210
330
5A
100
AcDbEntity
  8
LAYER-1
100
AcDbLine
 10
5.661398101851866
 20
3.043970532271243
 30
0.0
 11
5.808970090288763
 21
3.137837464984454
 31
0.0
  0
LWPOLYLINE
  5
211
330
5A
100
AcDbEntity
  8
LAYER-1
100
AcDbPolyline
 90
        3
 70
     0
 43
0.0
 10
5.741891913726537
 20
2.252806385117044
 42
-0.0259681140861655
 10
5.661398101851866
 20
3.298752206778528
 42
-0.0776886455873988
 10
5.59431992528964
 20
2.212577699668525
 42
1.244160594803526
  0
LINE
  5
216
330
5A
100
AcDbEntity
  8
LAYER-1
100
AcDbLine
 10
4.199093852795342
 20
2.413721126911118
 30
0.0
 11
4.239340758732677
 21
1.998024710609758
 31
0.0
  0
ARC
  5
217
330
5A
100
AcDbEntity
  8
LAYER-1
100
AcDbCircle
 10
5.740756233762844
 20
3.267102593486844
 30
0.0
 40
0.954769550747272
100
AcDbArc
 50
243.3558368605901
 51
262.8035879098218
  0
ARC
  5
218
330
5A
100
AcDbEntity
  8
LAYER-1
100
AcDbCircle
 10
5.629311857627356
 20
2.865358620872815
 30
0.0
 40
0.3846255847759881
100
AcDbArc
 50
201.8609799081968
 51
270.7828318982098
  0
LINE
  5
219
330
5A
100
AcDbEntity
  8
LAYER-1
100
AcDbLine
 10
5.634566831226976
 20
2.74896017231544
 30
0.0
 11
5.393085395602962
 21
2.963513161374206
 31
0.0
  0
LINE
  5
21A
330
5A
100
AcDbEntity
  8
LAYER-1
100
AcDbLine
 10
5.715060643101647
 20
2.722141048683095
 30
0.0
 11
5.969957714038105
 21
2.909874914109515
 31
0.0
  0
LINE
  5
21B
330
5A
100
AcDbEntity
  8
LAYER-1
100
AcDbLine
 10
4.4539909237318
 20
3.1646565886168
 30
0.0
 11
4.628394182793587
 21
3.1646565886168
 31
0.0
  0
LINE
  5
21C
330
5A
100
AcDbEntity
  8
LAYER-1
100
AcDbLine
 10
4.668641088730923
 20
3.379209577675565
 30
0.0
 11
4.789381806542929
 21
3.365800015859393
 31
0.0
  0
LINE
  5
21D
330
5A
100
AcDbEntity
  8
LAYER-1
100
AcDbLine
 10
4.588147276856251
 20
3.298752206778528
 30
0.0
 11
4.735719265293148
 21
3.285342644962355
 31
0.0
  0
LINE
  5
21E
330
5A
100
AcDbEntity
  8
LAYER-1
100
AcDbLine
 10
2.012345296866776
 20
5.578377715527919
 30
0.0
 11
2.28065800311568
 21
5.524739468263227
 31
0.0
  0
LINE
  5
21F
330
5A
100
AcDbEntity
  8
LAYER-1
100
AcDbLine
 10
2.159917285303674
 20
5.699063771873475
 30
0.0
 11
2.481892532802358
 21
5.672244648241129
 31
0.0
  0
LINE
  5
220
330
5A
100
AcDbEntity
  8
LAYER-1
100
AcDbLine
 10
2.173332920616119
 20
5.873388075483722
 30
0.0
 11
2.267242367803235
 21
6.154988873623352
 31
0.0
  0
ARC
  5
221
330
5A
100
AcDbEntity
  8
LAYER-1
100
AcDbCircle
 10
2.669160830282852
 20
5.213631230851651
 30
0.0
 40
0.7347667431663912
100
AcDbArc
 50
81.55753307193396
 51
149.0251779347884
  0
LWPOLYLINE
  5
222
330
5A
100
AcDbEntity
  8
LAYER-1
100
AcDbPolyline
 90
        6
 70
     0
 43
0.0
 10
4.869875618417601
 20
6.543866166292366
 42
0.2081703235662759
 10
2.092839108741447
 20
6.610913975373231
 42
-0.1684569040910864
 10
1.583044966868531
 20
6.584094851740885
 42
0.0978814760829086
 10
-0.0134156353124452
 20
6.865695649880515
 10
0.0
 20
6.436589671762983
 10
0.2280658003115681
 20
6.436589671762983
  0
LINE
  5
22A
330
5A
100
AcDbEntity
  8
LAYER-1
100
AcDbLine
 10
0.3488065181235747
 20
6.369541862682119
 30
0.0
 11
0.5902879537475881
 21
6.369541862682119
 31
0.0
  0
ARC
  5
22B
330
5A
100
AcDbEntity
  8
LAYER-1
100
AcDbCircle
 10
0.6131147198651462
 20
5.912733480002139
 30
0.0
 40
1.06497262613294
100
AcDbArc
 50
255.6299769211491
 51
313.1575692055102
  0
ARC
  5
22C
330
5A
100
AcDbEntity
  8
LAYER-1
100
AcDbCircle
 10
-4.210566409233389
 20
0.488156107981401
 30
0.0
 40
7.639452273464733
100
AcDbArc
 50
44.39956525570964
 51
53.60795347442639
  0
LINE
  5
22D
330
5A
100
AcDbEntity
  8
LAYER-1
100
AcDbLine
 10
2.039176567491667
 20
5.81974982821903
 30
0.0
 11
2.066007838116557
 21
6.087941064542488
 31
0.0
  0
ARC
  5
22E
330
5A
100
AcDbEntity
  8
LAYER-1
100
AcDbCircle
 10
1.987071894247074
 20
5.853099650784496
 30
0.0
 40
0.2443317229084361
100
AcDbArc
 50
140.8123346766209
 51
253.68527572189
  0
ARC
  5
22F
330
5A
100
AcDbEntity
  8
LAYER-1
100
AcDbCircle
 10
5.713967661235283
 20
-0.4868265391551522
 30
0.0
 40
7.595235838966854
100
AcDbArc
 50
121.0390555597007
 51
124.4077960923609
  0
LINE
  5
230
330
5A
100
AcDbEntity
  8
LAYER-1
100
AcDbLine
 10
1.261069719369847
 20
4.612889264763471
 30
0.0
 11
1.341563531244518
 21
4.974947433800139
 31
0.0
  0
ARC
  5
231
330
5A
100
AcDbEntity
  8
LAYER-1
100
AcDbCircle
 10
1.782401152280495
 20
4.906874979005853
 30
0.0
 40
0.8628694215201575
100
AcDbArc
 50
122.8193910357246
 51
152.1338675159209
  0
LINE
  5
232
330
5A
100
AcDbEntity
  8
LAYER-1
100
AcDbLine
 10
1.14032900155784
 20
5.25654823193977
 30
0.0
 11
1.287900989994737
 21
5.135862175594214
 31
0.0
  0
LINE
  5
233
330
5A
100
AcDbEntity
  8
LAYER-1
100
AcDbLine
 10
0.9927570131209433
 20
5.189500422858905
 30
0.0
 11
1.220822813432511
 21
5.055404804697176
 31
0.0
  0
ARC
  5
234
330
5A
100
AcDbEntity
  8
LAYER-1
100
AcDbCircle
 10
37.25017984420502
 20
-15.57979865247829
 30
0.0
 40
42.21263763294908
100
AcDbArc
 50
150.0238046925391
 51
150.7982401949338
  0
LINE
  5
235
330
5A
100
AcDbEntity
  8
LAYER-1
100
AcDbLine
 10
1.046419554370724
 20
4.974947433800139
 30
0.0
 11
0.8183537540591562
 21
5.12245261377804
 31
0.0
  0
LINE
  5
236
330
5A
100
AcDbEntity
  8
LAYER-1
100
AcDbLine
 10
0.8317693893716013
 20
4.894490062903102
 30
0.0
 11
0.6976130362471494
 21
5.02858568106483
 31
0.0
  0
LINE
  5
237
330
5A
100
AcDbEntity
  8
LAYER-1
100
AcDbLine
 10
0.6305348596849236
 20
4.586070141131125
 30
0.0
 11
0.8317693893716013
 21
4.894490062903102
 31
0.0
  0
LINE
  5
238
330
5A
100
AcDbEntity
  8
LAYER-1
100
AcDbLine
 10
0.4963785065604717
 20
4.693346635660509
 30
0.0
 11
0.6573661303098139
 21
4.854261377454583
 31
0.0
  0
LINE
  5
239
330
5A
100
AcDbEntity
  8
LAYER-1
100
AcDbLine
 10
0.6573661303098139
 20
4.854261377454583
 30
0.0
 11
0.5366254124978073
 21
4.974947433800139
 31
0.0
  0
LINE
  5
23A
330
5A
100
AcDbEntity
  8
LAYER-1
100
AcDbLine
 10
1.033003919058278
 20
4.626298826579644
 30
0.0
 11
1.207407178120066
 21
4.988356995616312
 31
0.0
  0
LINE
  5
23B
330
5A
100
AcDbEntity
  8
LAYER-1
100
AcDbLine
 10
0.8317693893716013
 20
4.653117950211989
 30
0.0
 11
0.9793413778084982
 21
4.894490062903102
 31
0.0
  0
LINE
  5
23C
330
5A
100
AcDbEntity
  8
LAYER-1
100
AcDbLine
 10
1.207407178120066
 20
5.81974982821903
 30
0.0
 11
0.7915224834342657
 21
5.766111580954339
 31
0.0
  0
ARC
  5
23D
330
5A
100
AcDbEntity
  8
LAYER-1
100
AcDbCircle
 10
2.468136858686895
 20
4.947915689658823
 30
0.0
 40
0.8671777381548137
100
AcDbArc
 50
129.3381943882249
 51
148.2642394175701
  0
ARC
  5
23E
330
5A
100
AcDbEntity
  8
LAYER-1
100
AcDbCircle
 10
0.0571498801066607
 20
4.379664120433045
 30
0.0
 40
1.955139909462956
100
AcDbArc
 50
31.13713399620588
 51
45.72424092680517
  0
LINE
  5
23F
330
5A
100
AcDbEntity
  8
LAYER-1
100
AcDbLine
 10
1.972098390929441
 20
5.699063771873475
 30
0.0
 11
1.905020214367215
 21
5.886797637299895
 31
0.0
  0
LINE
  5
240
330
5A
100
AcDbEntity
  8
LAYER-1
100
AcDbLine
 10
0.8451850246840464
 20
6.651142660821749
 30
0.0
 11
0.9390944718711626
 21
6.222036682704217
 31
0.0
  0
LINE
  5
241
330
5A
100
AcDbEntity
  8
LAYER-1
100
AcDbLine
 10
0.6841974009347043
 20
6.637733099005576
 30
0.0
 11
0.7110286715595946
 21
6.3293131772336
 31
0.0
  0
LINE
  5
242
330
5A
100
AcDbEntity
  8
LAYER-1
100
AcDbLine
 10
0.5634566831226976
 20
6.449999233579156
 30
0.0
 11
0.5500410478102525
 21
6.677961784454095
 31
0.0
  0
LINE
  5
243
330
5A
100
AcDbEntity
  8
LAYER-1
100
AcDbLine
 10
1.086666460308059
 20
5.953845446380759
 30
0.0
 11
0.6573661303098139
 21
5.900207199116068
 31
0.0
  0
LINE
  5
244
330
5A
100
AcDbEntity
  8
LAYER-1
100
AcDbLine
 10
0.5366254124978073
 20
6.168398435439526
 30
0.0
 11
0.8183537540591562
 21
6.195217559071871
 31
0.0
  0
LINE
  5
245
330
5A
100
AcDbEntity
  8
LAYER-1
100
AcDbLine
 10
1.11349773093295
 20
6.154988873623352
 30
0.0
 11
1.100082095620504
 21
6.543866166292366
 31
0.0
  0
LINE
  5
246
330
5A
100
AcDbEntity
  8
LAYER-1
100
AcDbLine
 10
1.328147895932072
 20
5.967255008196932
 30
0.0
 11
1.328147895932072
 21
6.342722739049773
 31
0.0
  0
LINE
  5
247
330
5A
100
AcDbEntity
  8
LAYER-1
100
AcDbLine
 10
1.435472978431634
 20
6.409770548130637
 30
0.0
 11
1.596460602180976
 21
6.396360986314464
 31
0.0
  0
LINE
  5
248
330
5A
100
AcDbEntity
  8
LAYER-1
100
AcDbLine
 10
1.596460602180976
 20
6.396360986314464
 30
0.0
 11
1.52938242561875
 21
6.302494053601254
 31
0.0
  0
LWPOLYLINE
  5
249
330
5A
100
AcDbEntity
  8
LAYER-1
100
AcDbPolyline
 90
        2
 70
     0
 43
0.0
 10
4.588147276856251
 20
6.262265368152736
 42
0.2016262882789473
 10
2.307489273740571
 20
6.262265368152736
 42
4.959670728136956
  0
ARC
  5
24D
330
5A
100
AcDbEntity
  8
LAYER-1
100
AcDbCircle
 10
3.264268544171001
 20
3.600785108663008
 30
0.0
 40
1.013082673433634
100
AcDbArc
 50
80.33210474355485
 51
106.3977754759277
  0
LINE
  5
24E
330
5A
100
AcDbEntity
  8
LAYER-1
100
AcDbLine
 10
2.387983085615242
 20
5.859978513667549
 30
0.0
 11
2.683127062489035
 21
5.72588289550582
 31
0.0
  0
ARC
  5
24F
330
5A
100
AcDbEntity
  8
LAYER-1
100
AcDbCircle
 10
3.551743908058743
 20
4.552473338130477
 30
0.0
 40
0.211160890324347
100
AcDbArc
 50
100.0495296818204
 51
159.5360941784103
  0
LINE
  5
250
330
5A
100
AcDbEntity
  8
LAYER-1
100
AcDbLine
 10
2.495308168114803
 20
5.967255008196932
 30
0.0
 11
2.709958333113926
 21
6.087941064542488
 31
0.0
  0
LINE
  5
251
330
5A
100
AcDbEntity
  8
LAYER-1
100
AcDbLine
 10
2.374567450302796
 20
5.980664570013105
 30
0.0
 11
2.495308168114803
 21
6.114760188174834
 31
0.0
  0
ARC
  5
252
330
5A
100
AcDbEntity
  8
LAYER-1
100
AcDbCircle
 10
6.400987262143592
 20
5.93034687347436
 30
0.0
 40
1.065418997004646
100
AcDbArc
 50
161.0874779796927
 51
190.3303445610664
  0
LWPOLYLINE
  5
253
330
5A
100
AcDbEntity
  8
LAYER-1
100
AcDbPolyline
 90
        3
 70
     0
 43
0.0
 10
5.339422854353182
 20
5.752702019138166
 42
0.2898687348665463
 10
4.735719265293148
 20
6.463408795395329
 42
-0.2122246580615831
 10
5.23209777185362
 20
5.645425524608783
 42
0.8802684355987711
  0
LINE
  5
258
330
5A
100
AcDbEntity
  8
LAYER-1
100
AcDbLine
 10
5.004031971542052
 20
4.881080501086929
 30
0.0
 11
5.366254124978072
 21
4.93471874835162
 31
0.0
  0
LINE
  5
259
330
5A
100
AcDbEntity
  8
LAYER-1
100
AcDbLine
 10
4.963785065604716
 20
4.760394444741373
 30
0.0
 11
5.218682136541175
 21
4.760394444741373
 31
0.0
  0
LINE
  5
25A
330
5A
100
AcDbEntity
  8
LAYER-1
100
AcDbLine
 10
4.84304434779271
 20
4.612889264763471
 30
0.0
 11
5.071110148104279
 21
4.612889264763471
 31
0.0
  0
ARC
  5
25B
330
5A
100
AcDbEntity
  8
LAYER-1
100
AcDbCircle
 10
5.198558683572508
 20
3.679138706264059
 30
0.0
 40
1.980253141315499
100
AcDbArc
 50
88.64130519736686
 51
96.80885201349783
  0
ARC
  5
25C
330
5A
100
AcDbEntity
  8
LAYER-1
100
AcDbCircle
 10
4.910122524354936
 20
7.064625725109963
 30
0.0
 40
1.273462880100796
100
AcDbArc
 50
266.9806141013739
 51
282.1631045883454
  0
LINE
  5
25D
330
5A
100
AcDbEntity
  8
LAYER-1
100
AcDbLine
 10
5.513826113414969
 20
4.599479702947299
 30
0.0
 11
5.500410478102524
 21
4.854261377454583
 31
0.0
  0
LINE
  5
25E
330
5A
100
AcDbEntity
  8
LAYER-1
100
AcDbLine
 10
5.15160395997895
 20
5.068814366513349
 30
0.0
 11
5.446747936852744
 21
5.095633490145694
 31
0.0
  0
ARC
  5
25F
330
5A
100
AcDbEntity
  8
LAYER-1
100
AcDbCircle
 10
4.599463829081943
 20
4.71450398452097
 30
0.0
 40
1.32681366545698
100
AcDbArc
 50
66.04438994225022
 51
84.10569168292587
  0
ARC
  5
260
330
5A
100
AcDbEntity
  8
LAYER-1
100
AcDbCircle
 10
9.323320051214505
 20
17.85720871049108
 30
0.0
 40
12.42979988773826
100
AcDbArc
 50
247.8745356178035
 51
249.401825278857
  0
ARC
  5
261
330
5A
100
AcDbEntity
  8
LAYER-1
100
AcDbCircle
 10
4.799042473328021
 20
6.43467488791377
 30
0.0
 40
0.0988593630715929
100
AcDbArc
 50
328.4526866198961
 51
44.23339330590644
  0
ARC
  5
262
330
5A
100
AcDbEntity
  8
LAYER-1
100
AcDbCircle
 10
-1.403116077255593
 20
8.226911971141872
 30
0.0
 40
6.929040338457154
100
AcDbArc
 50
342.1358413124907
 51
344.4513860391989
  0
ARC
  5
263
330
5A
100
AcDbEntity
  8
LAYER-1
100
AcDbCircle
 10
5.546928008949334
 20
6.315903615417426
 30
0.0
 40
0.4908846716851196
100
AcDbArc
 50
165.7676803268231
 51
184.7007410392395
  0
ARC
  5
264
330
5A
100
AcDbEntity
  8
LAYER-1
100
AcDbCircle
 10
6.021283114044416
 20
6.510670304822876
 30
0.0
 40
0.6482742107772715
100
AcDbArc
 50
225.5726851346716
 51
247.0711266717345
  0
LWPOLYLINE
  5
265
330
5A
100
AcDbEntity
  8
LAYER-1
100
AcDbPolyline
 90
        2
 70
     0
 43
0.0
 10
6.613908209035474
 20
4.411745837520878
 42
-0.2232414835514367
 10
6.157776608412338
 20
1.448232676146671
 42
1.877521875721132
  0
LINE
  5
269
330
5A
100
AcDbEntity
  8
LAYER-1
100
AcDbLine
 10
6.224854784974564
 20
0.4022868544851864
 30
0.0
 11
6.452920585286132
 21
0.3754677308528406
 31
0.0
  0
LINE
  5
26A
330
5A
100
AcDbEntity
  8
LAYER-1
100
AcDbLine
 10
6.050451525912777
 20
0.6436589671762984
 30
0.0
 11
6.251686055599455
 21
0.5900207199116068
 31
0.0
  0
LINE
  5
26B
330
5A
100
AcDbEntity
  8
LAYER-1
100
AcDbLine
 10
6.037035890600331
 20
0.4022868544851864
 30
0.0
 11
6.077282796537667
 21
0.4693346635660509
 31
0.0
  0
LINE
  5
26C
330
5A
100
AcDbEntity
  8
LAYER-1
100
AcDbLine
 10
6.157776608412338
 20
0.2816007981396305
 30
0.0
 11
6.157776608412338
 21
0.4022868544851864
 31
0.0
  0
LINE
  5
26D
330
5A
100
AcDbEntity
  8
LAYER-1
100
AcDbLine
 10
6.399258044036352
 20
4.773804006557545
 30
0.0
 11
6.640739479660364
 21
4.720165759292854
 31
0.0
  0
ARC
  5
26E
330
5A
100
AcDbEntity
  8
LAYER-1
100
AcDbCircle
 10
6.151083971059817
 20
3.894612038383116
 30
0.0
 40
1.062889915764311
100
AcDbArc
 50
68.140598583843
 51
82.38504392879612
  0
LINE
  5
26F
330
5A
100
AcDbEntity
  8
LAYER-1
100
AcDbLine
 10
6.171192243724783
 20
4.545841455682607
 30
0.0
 11
6.157776608412338
 21
4.93471874835162
 31
0.0
  0
LINE
  5
270
330
5A
100
AcDbEntity
  8
LAYER-1
100
AcDbLine
 10
6.34559550278657
 20
4.505612770234088
 30
0.0
 11
6.332179867474125
 21
4.760394444741373
 31
0.0
  0
ARC
  5
271
330
5A
100
AcDbEntity
  8
LAYER-1
100
AcDbCircle
 10
6.257236724819623
 20
4.780421998696342
 30
0.0
 40
0.3694631155414095
100
AcDbArc
 50
62.80492283583527
 51
112.2182226156011
  0
ENDBLK
  5
272
330
5A
100
AcDbEntity
  8
0
100
AcDbBlockEnd
  0
BLOCK
  5
273
330
BC
100
AcDbEntity
  8
0
100
AcDbBlockBegin
  2
*D1
 70
     1
 10
0.0
 20
0.0
 30
0.0
  3
*D1
  1

  0
LINE
  5
274
330
BC
100
AcDbEntity
  8
0
  6
ByBlock
 62
     0
100
AcDbLine
 10
71.32942884583744
 20
-73.64078858389709
 30
0.0
 11
70.58058966794773
 21
-73.64078858389709
 31
0.0
  0
LINE
  5
275
330
BC
100
AcDbEntity
  8
0
  6
ByBlock
 62
     0
100
AcDbLine
 10
71.31838178925203
 20
-66.75465200068865
 30
0.0
 11
70.58058966794773
 21
-66.75465200068865
 31
0.0
  0
LINE
  5
276
330
BC
100
AcDbEntity
  8
0
  6
ByBlock
 62
     0
100
AcDbLine
 10
70.76058966794774
 20
-73.64078858389709
 30
0.0
 11
70.76058966794774
 21
-70.61438695895954
 31
0.0
  0
LINE
  5
277
330
BC
100
AcDbEntity
  8
0
  6
ByBlock
 62
     0
100
AcDbLine
 10
70.76058966794774
 20
-66.75465200068865
 30
0.0
 11
70.76058966794774
 21
-69.7810536256262
 31
0.0
  0
LINE
  5
278
330
BC
100
AcDbEntity
  8
0
  6
ByBlock
 62
     0
100
AcDbLine
 10
70.88558966794774
 20
-73.76578858389709
 30
0.0
 11
70.63558966794774
 21
-73.51578858389709
 31
0.0
  0
LINE
  5
279
330
BC
100
AcDbEntity
  8
0
  6
ByBlock
 62
     0
100
AcDbLine
 10
70.88558966794774
 20
-66.87965200068865
 30
0.0
 11
70.63558966794774
 21
-66.62965200068865
 31
0.0
  0
TEXT
  5
27A
330
BC
100
AcDbEntity
  8
0
  6
ByBlock
 62
     0
100
AcDbText
 10
70.82308966794774
 20
-70.48938695895954
 30
0.0
 40
0.125
  1
6 7/8
 50
90.0
 72
     1
 11
70.76058966794774
 21
-70.19772029229287
 31
0.0
100
AcDbText
 73
     2
  0
POINT
  5
27B
330
BC
100
AcDbEntity
  8
DEFPOINTS
  6
ByBlock
 62
     0
100
AcDbPoint
 10
71.39192884583744
 20
-73.64078858389709
 30
0.0
  0
POINT
  5
27C
330
BC
100
AcDbEntity
  8
DEFPOINTS
  6
ByBlock
 62
     0
100
AcDbPoint
 10
71.38088178925203
 20
-66.75465200068865
 30
0.0
  0
POINT
  5
27D
330
BC
100
AcDbEntity
  8
DEFPOINTS
  6
ByBlock
 62
     0
100
AcDbPoint
 10
70.76058966794774
 20
-66.75465200068865
 30
0.0
  0
ENDBLK
  5
27E
330
BC
100
AcDbEntity
  8
0
100
AcDbBlockEnd
  0
BLOCK
  5
27F
330
BD
100
AcDbEntity
  8
0
100
AcDbBlockBegin
  2
*D2
 70
     1
 10
0.0
 20
0.0
 30
0.0
  3
*D2
  1

  0
LINE
  5
280
330
BD
100
AcDbEntity
  8
0
  6
ByBlock
 62
     0
100
AcDbLine
 10
71.39192884583744
 20
-73.70328858389709
 30
0.0
 11
71.39192884583744
 21
-74.29198100524253
 31
0.0
  0
LINE
  5
281
330
BD
100
AcDbEntity
  8
0
  6
ByBlock
 62
     0
100
AcDbLine
 10
78.26692884583744
 20
-73.70328858389709
 30
0.0
 11
78.26692884583744
 21
-74.29198100524253
 31
0.0
  0
LINE
  5
282
330
BD
100
AcDbEntity
  8
0
  6
ByBlock
 62
     0
100
AcDbLine
 10
71.39192884583744
 20
-74.11198100524252
 30
0.0
 11
74.41276217917077
 21
-74.11198100524252
 31
0.0
  0
LINE
  5
283
330
BD
100
AcDbEntity
  8
0
  6
ByBlock
 62
     0
100
AcDbLine
 10
78.26692884583744
 20
-74.11198100524252
 30
0.0
 11
75.24609551250411
 21
-74.11198100524252
 31
0.0
  0
LINE
  5
284
330
BD
100
AcDbEntity
  8
0
  6
ByBlock
 62
     0
100
AcDbLine
 10
71.26692884583744
 20
-74.23698100524252
 30
0.0
 11
71.51692884583744
 21
-73.98698100524253
 31
0.0
  0
LINE
  5
285
330
BD
100
AcDbEntity
  8
0
  6
ByBlock
 62
     0
100
AcDbLine
 10
78.14192884583744
 20
-74.23698100524252
 30
0.0
 11
78.39192884583744
 21
-73.98698100524253
 31
0.0
  0
TEXT
  5
286
330
BD
100
AcDbEntity
  8
0
  6
ByBlock
 62
     0
100
AcDbText
 10
74.53776217917077
 20
-74.17448100524253
 30
0.0
 40
0.125
  1
6 7/8
 72
     1
 11
74.82942884583744
 21
-74.11198100524252
 31
0.0
100
AcDbText
 73
     2
  0
POINT
  5
287
330
BD
100
AcDbEntity
  8
DEFPOINTS
  6
ByBlock
 62
     0
100
AcDbPoint
 10
71.39192884583744
 20
-73.64078858389709
 30
0.0
  0
POINT
  5
288
330
BD
100
AcDbEntity
  8
DEFPOINTS
  6
ByBlock
 62
     0
100
AcDbPoint
 10
78.26692884583744
 20
-73.64078858389709
 30
0.0
  0
POINT
  5
289
330
BD
100
AcDbEntity
  8
DEFPOINTS
  6
ByBlock
 62
     0
100
AcDbPoint
 10
78.26692884583744
 20
-74.11198100524252
 30
0.0
  0
ENDBLK
  5
28A
330
BD
100
AcDbEntity
  8
0
100
AcDbBlockEnd
  0
BLOCK
  5
406
330
3FB
100
AcDbEntity
  8
0
 62
     3
100
AcDbBlockBegin
  2
*D3
 70
     1
 10
0.0
 20
0.0
 30
0.0
  3
*D3
  1

  0
LINE
  5
43E
330
3FB
100
AcDbEntity
  8
ADPDIM
 62
     0
370
    -2
100
AcDbLine
 10
71.39192884583744
 20
-73.70328858389709
 30
0.0
 11
71.39192884583744
 21
-74.33810711144558
 31
0.0
  0
LINE
  5
43F
330
3FB
100
AcDbEntity
  8
ADPDIM
 62
     0
370
    -2
100
AcDbLine
 10
78.39192884583744
 20
-73.70328858389709
 30
0.0
 11
78.39192884583744
 21
-74.33810711144558
 31
0.0
  0
LINE
  5
440
330
3FB
100
AcDbEntity
  8
ADPDIM
 62
     0
370
    -2
100
AcDbLine
 10
71.39192884583744
 20
-74.15810711144557
 30
0.0
 11
74.68359551250411
 21
-74.15810711144557
 31
0.0
  0
LINE
  5
441
330
3FB
100
AcDbEntity
  8
ADPDIM
 62
     0
370
    -2
100
AcDbLine
 10
78.39192884583744
 20
-74.15810711144557
 30
0.0
 11
75.10026217917077
 21
-74.15810711144557
 31
0.0
  0
LINE
  5
442
330
3FB
100
AcDbEntity
  8
ADPDIM
 62
     0
370
    -2
100
AcDbLine
 10
78.26692884583744
 20
-74.28310711144558
 30
0.0
 11
78.51692884583744
 21
-74.03310711144557
 31
0.0
  0
LINE
  5
443
330
3FB
100
AcDbEntity
  8
ADPDIM
 62
     0
370
    -2
100
AcDbLine
 10
71.26692884583744
 20
-74.28310711144558
 30
0.0
 11
71.51692884583744
 21
-74.03310711144557
 31
0.0
  0
MTEXT
  5
444
330
3FB
100
AcDbEntity
  8
ADPDIM
 62
     0
100
AcDbMText
 10
74.89192884583744
 20
-74.15810711144557
 30
0.0
 40
0.25
 41
0.0
 71
     5
 72
     1
  1
\A1;7
 73
     1
 44
1.0
1001
ACAD
1000
MTEXTBEGIN
1070
    73
1070
     1
1070
    44
1040
1.0
1070
    74
1070
     0
1000
MTEXTEND
  0
POINT
  5
445
330
3FB
100
AcDbEntity
  8
DEFPOINTS
 62
     0
100
AcDbPoint
 10
71.39192884583744
 20
-73.64078858389709
 30
0.0
  0
POINT
  5
446
330
3FB
100
AcDbEntity
  8
DEFPOINTS
 62
     0
100
AcDbPoint
 10
78.39192884583744
 20
-73.64078858389709
 30
0.0
  0
POINT
  5
447
330
3FB
100
AcDbEntity
  8
DEFPOINTS
 62
     0
100
AcDbPoint
 10
78.39192884583744
 20
-74.15810711144557
 30
0.0
  0
ENDBLK
  5
407
330
3FB
100
AcDbEntity
  8
0
 62
     3
100
AcDbBlockEnd
  0
BLOCK
  5
414
330
409
100
AcDbEntity
  8
0
 62
     3
100
AcDbBlockBegin
  2
*D4
 70
     1
 10
0.0
 20
0.0
 30
0.0
  3
*D4
  1

  0
LINE
  5
448
330
409
100
AcDbEntity
  8
ADPDIM
 62
     0
370
    -2
100
AcDbLine
 10
71.32942884583744
 20
-73.64078858389709
 30
0.0
 11
70.71555636053897
 21
-73.64078858389709
 31
0.0
  0
LINE
  5
449
330
409
100
AcDbEntity
  8
ADPDIM
 62
     0
370
    -2
100
AcDbLine
 10
71.32942884583744
 20
-66.64078858389709
 30
0.0
 11
70.71555636053897
 21
-66.64078858389709
 31
0.0
  0
LINE
  5
44A
330
409
100
AcDbEntity
  8
ADPDIM
 62
     0
370
    -2
100
AcDbLine
 10
70.89555636053898
 20
-73.64078858389709
 30
0.0
 11
70.89555636053898
 21
-70.34912191723042
 31
0.0
  0
LINE
  5
44B
330
409
100
AcDbEntity
  8
ADPDIM
 62
     0
370
    -2
100
AcDbLine
 10
70.89555636053898
 20
-66.64078858389709
 30
0.0
 11
70.89555636053898
 21
-69.93245525056376
 31
0.0
  0
LINE
  5
44C
330
409
100
AcDbEntity
  8
ADPDIM
 62
     0
370
    -2
100
AcDbLine
 10
71.02055636053897
 20
-66.76578858389709
 30
0.0
 11
70.77055636053898
 21
-66.51578858389709
 31
0.0
  0
LINE
  5
44D
330
409
100
AcDbEntity
  8
ADPDIM
 62
     0
370
    -2
100
AcDbLine
 10
71.02055636053897
 20
-73.76578858389709
 30
0.0
 11
70.77055636053898
 21
-73.51578858389709
 31
0.0
  0
MTEXT
  5
44E
330
409
100
AcDbEntity
  8
ADPDIM
 62
     0
100
AcDbMText
 10
70.89555636053899
 20
-70.14078858389708
 30
0.0
 40
0.25
 41
0.0
 71
     5
 72
     1
  1
\A1;7
 11
0.0000000000000001
 21
1.0
 31
0.0
 73
     1
 44
1.0
1001
ACAD
1000
MTEXTBEGIN
1070
    73
1070
     1
1070
    44
1040
1.0
1070
    74
1070
     0
1000
MTEXTEND
  0
POINT
  5
44F
330
409
100
AcDbEntity
  8
DEFPOINTS
 62
     0
100
AcDbPoint
 10
71.39192884583744
 20
-73.64078858389709
 30
0.0
  0
POINT
  5
450
330
409
100
AcDbEntity
  8
DEFPOINTS
 62
     0
100
AcDbPoint
 10
71.39192884583744
 20
-66.64078858389709
 30
0.0
  0
POINT
  5
451
330
409
100
AcDbEntity
  8
DEFPOINTS
 62
     0
100
AcDbPoint
 10
70.89555636053898
 20
-66.64078858389709
 30
0.0
  0
ENDBLK
  5
415
330
409
100
AcDbEntity
  8
0
 62
     3
100
AcDbBlockEnd
  0
ENDSEC
  0
SECTION
  2
ENTITIES
  0
INSERT
  5
28C
330
18
100
AcDbEntity
  8
ADP1DETAIL
100
AcDbBlockReference
  2
573
 10
71.39192884583744
 20
-73.64078858389709
 30
0.0
 41
1.019538880177587
 42
1.019538880177587
 43
1.019538880177587
  0
TEXT
  5
29B
330
18
100
AcDbEntity
  8
ADPDIM
100
AcDbText
 10
62.01704184555263
 20
-75.04908961683256
 30
0.0
 40
0.25
  1
J U L I U S  B L U M  &  C O . ,  I N C .      ( 8 0 0 )  5 2 6 - 6 2 9 3        W W W . J U L I U S B L U M . C O M        P A R T  N o .  5 7 3
 41
1.25
  7
ARIAL_WIDE
 72
     1
 11
74.88645692058674
 21
-74.79908961683256
 31
0.0
100
AcDbText
 73
     3
  0
DIMENSION
  5
3FA
330
18
100
AcDbEntity
  8
ADPDIM
 62
     3
100
AcDbDimension
  2
*D3
 10
78.39192884583744
 20
-74.15810711144557
 30
0.0
 11
74.89192884583744
 21
-74.15810711144557
 31
0.0
 70
    32
 71
     5
 42
7.0
  3
STANDARD
100
AcDbAlignedDimension
 13
71.39192884583744
 23
-73.64078858389709
 33
0.0
 14
78.39192884583744
 24
-73.64078858389709
 34
0.0
100
AcDbRotatedDimension
1001
ACAD
1000
DSTYLE
1002
{
1070
   276
1070
     2
1070
   277
1070
     5
1070
    41
1040
0.125
1070
    73
1070
     0
1070
    74
1070
     0
1070
    78
1070
     3
1070
   140
1040
0.25
1070
   141
1040
0.1875
1070
   142
1040
0.125
1070
   147
1040
0.125
1070
   171
1070
     1
1002
}
  0
DIMENSION
  5
408
330
18
100
AcDbEntity
  8
ADPDIM
 62
     3
100
AcDbDimension
  2
*D4
 10
70.89555636053898
 20
-66.64078858389709
 30
0.0
 11
70.89555636053899
 21
-70.14078858389708
 31
0.0
 70
    32
 71
     5
 42
7.0
  3
STANDARD
100
AcDbAlignedDimension
 13
71.39192884583744
 23
-73.64078858389709
 33
0.0
 14
71.39192884583744
 24
-66.64078858389709
 34
0.0
 50
90.0
100
AcDbRotatedDimension
1001
ACAD
1000
DSTYLE
1002
{
1070
   276
1070
     2
1070
   277
1070
     5
1070
    41
1040
0.125
1070
    73
1070
     0
1070
    74
1070
     0
1070
    78
1070
     3
1070
   140
1040
0.25
1070
   141
1040
0.1875
1070
   142
1040
0.125
1070
   147
1040
0.125
1070
   171
1070
     1
1002
}
  0
ENDSEC
  0
SECTION
  2
OBJECTS
  0
DICTIONARY
  5
C
330
0
100
AcDbDictionary
281
     1
  3
ACAD_COLOR
350
3F4
  3
ACAD_GROUP
350
D
  3
ACAD_LAYOUT
350
294
  3
ACAD_MATERIAL
350
3DF
  3
ACAD_MLINESTYLE
350
E
  3
ACAD_PLOTSETTINGS
350
295
  3
ACAD_PLOTSTYLENAME
350
292
  3
ACAD_TABLESTYLE
350
3F5
  3
ACAD_VISUALSTYLE
350
3E3
  3
AcDbVariableDictionary
350
2F5
  3
ASE_INDEX_DICTIONARY
350
453
  3
DWGPROPS
350
475
  0
DICTIONARY
  5
2EF
330
18
100
AcDbDictionary
280
     1
281
     1
  3
ACAD_LAYOUTSELFREF
360
3D9
  0
DICTIONARY
  5
2ED
330
15
100
AcDbDictionary
280
     1
281
     1
  3
ACAD_LAYOUTSELFREF
360
3D8
  0
DICTIONARY
  5
3F4
102
{ACAD_REACTORS
330
C
102
}
330
C
100
AcDbDictionary
281
     1
  0
DICTIONARY
  5
D
102
{ACAD_REACTORS
330
C
102
}
330
C
100
AcDbDictionary
281
     1
  0
DICTIONARY
  5
294
102
{ACAD_REACTORS
330
C
102
}
330
C
100
AcDbDictionary
281
     1
  3
Layout1
350
297
  3
Model
350
296
  0
DICTIONARY
  5
3DF
102
{ACAD_REACTORS
330
C
102
}
330
C
100
AcDbDictionary
281
     1
  3
ByBlock
350
3E1
  3
ByLayer
350
3E0
  3
Global
350
3E2
  0
DICTIONARY
  5
E
102
{ACAD_REACTORS
330
C
102
}
330
C
100
AcDbDictionary
281
     1
  3
STANDARD
350
1B
  0
DICTIONARY
  5
295
102
{ACAD_REACTORS
330
C
102
}
330
C
100
AcDbDictionary
281
     1
  0
ACDBDICTIONARYWDFLT
  5
292
102
{ACAD_REACTORS
330
C
102
}
330
C
100
AcDbDictionary
281
     1
  3
Normal
350
293
100
AcDbDictionaryWithDefault
340
293
  0
DICTIONARY
  5
3F5
102
{ACAD_REACTORS
330
C
102
}
330
C
100
AcDbDictionary
281
     1
  3
Standard
350
3F6
  0
DICTIONARY
  5
3E3
102
{ACAD_REACTORS
330
C
102
}
330
C
100
AcDbDictionary
281
     1
  3
2dWireframe
350
3E9
  3
3D Hidden
350
3EB
  3
3dWireframe
350
3EA
  3
Basic
350
3E8
  3
Brighten
350
3EF
  3
ColorChange
350
3F3
  3
Conceptual
350
3EC
  3
Dim
350
3EE
  3
Facepattern
350
3F2
  3
Flat
350
3E4
  3
FlatWithEdges
350
3E5
  3
Gouraud
350
3E6
  3
GouraudWithEdges
350
3E7
  3
Linepattern
350
3F1
  3
Realistic
350
3ED
  3
Thicken
350
3F0
  0
DICTIONARY
  5
2F5
102
{ACAD_REACTORS
330
C
102
}
330
C
100
AcDbDictionary
281
     1
  3
CTABLESTYLE
350
472
  3
DIMASSOC
350
2F6
  3
INDEXCTL
350
474
  3
SORTENTS
350
473
  0
DICTIONARY
  5
453
102
{ACAD_REACTORS
330
C
102
}
330
C
100
AcDbDictionary
281
     1
  3
ASEBlockHierarchyIndexRecord
350
455
1001
DCO15
1040
1568308340.642
  0
XRECORD
  5
475
102
{ACAD_REACTORS
330
C
102
}
330
C
100
AcDbXrecord
280
     1
  1
DWGPROPS COOKIE
  2

  3

  4

  6

  7

  8
Yu Hu
  9

300
=
301
=
302
=
303
=
304
=
305
=
306
=
307
=
308
=
309
=
 40
0.0068234259259259
 41
2450408.68810301
 42
2453954.92875743
  1

 90
        0
  0
XRECORD
  5
3D9
102
{ACAD_REACTORS
330
2EF
102
}
330
2EF
100
AcDbXrecord
280
     1
340
18
  0
XRECORD
  5
3D8
102
{ACAD_REACTORS
330
2ED
102
}
330
2ED
100
AcDbXrecord
280
     1
340
15
  0
LAYOUT
  5
297
102
{ACAD_XDICTIONARY
360
478
102
}
102
{ACAD_REACTORS
330
294
102
}
330
294
100
AcDbPlotSettings
  1

  2
Fax
  4

  6

 40
0.0
 41
0.0
 42
0.0
 43
0.0
 44
0.0
 45
0.0
 46
0.0
 47
0.0
 48
0.0
 49
0.0
140
0.0
141
0.0
142
1.0
143
1.0
 70
   688
 72
     0
 73
     0
 74
     5
  7
Default R14 pen assignments.ctb
 75
    16
147
1.0
148
0.0
149
0.0
100
AcDbLayout
  1
Layout1
 70
     1
 71
     1
 10
0.0
 20
0.0
 11
12.0
 21
9.0
 12
0.0
 22
0.0
 32
0.0
 14
1.000000000000000E+20
 24
1.000000000000000E+20
 34
1.000000000000000E+20
 15
-1.000000000000000E+20
 25
-1.000000000000000E+20
 35
-1.000000000000000E+20
146
0.0
 13
0.0
 23
0.0
 33
0.0
 16
1.0
 26
0.0
 36
0.0
 17
0.0
 27
1.0
 37
0.0
 76
     0
330
15
  0
LAYOUT
  5
296
102
{ACAD_XDICTIONARY
360
476
102
}
102
{ACAD_REACTORS
330
294
102
}
330
294
100
AcDbPlotSettings
  1

  2
Fax
  4

  6

 40
0.0
 41
0.0
 42
0.0
 43
0.0
 44
0.0
 45
0.0
 46
0.0
 47
0.0
 48
0.0
 49
0.0
140
0.0
141
0.0
142
1.0
143
1.0
 70
  1712
 72
     0
 73
     0
 74
     0
  7
Default R14 pen assignments.ctb
 75
     0
147
1.0
148
0.0
149
0.0
100
AcDbLayout
  1
Model
 70
     1
 71
     0
 10
0.0
 20
0.0
 11
12.0
 21
9.0
 12
0.0
 22
0.0
 32
0.0
 14
0.0
 24
0.0
 34
0.0
 15
0.0
 25
0.0
 35
0.0
146
0.0
 13
0.0
 23
0.0
 33
0.0
 16
1.0
 26
0.0
 36
0.0
 17
0.0
 27
1.0
 37
0.0
 76
     0
330
18
331
3B3
  0
MATERIAL
  5
3E1
102
{ACAD_XDICTIONARY
360
47C
102
}
102
{ACAD_REACTORS
330
3DF
102
}
330
3DF
100
AcDbMaterial
  1
ByBlock
  0
MATERIAL
  5
3E0
102
{ACAD_XDICTIONARY
360
47A
102
}
102
{ACAD_REACTORS
330
3DF
102
}
330
3DF
100
AcDbMaterial
  1
ByLayer
  0
MATERIAL
  5
3E2
102
{ACAD_XDICTIONARY
360
47E
102
}
102
{ACAD_REACTORS
330
3DF
102
}
330
3DF
100
AcDbMaterial
  1
Global
  0
MLINESTYLE
  5
1B
102
{ACAD_REACTORS
330
E
102
}
330
E
100
AcDbMlineStyle
  2
STANDARD
 70
     0
  3

 62
     0
 51
90.0
 52
90.0
 71
     2
 49
0.5
 62
   256
  6
BYLAYER
 49
-0.5
 62
   256
  6
BYLAYER
  0
ACDBPLACEHOLDER
  5
293
102
{ACAD_REACTORS
330
292
102
}
330
292
  0
TABLESTYLE
  5
3F6
102
{ACAD_XDICTIONARY
360
480
102
}
102
{ACAD_REACTORS
330
3F5
102
}
330
3F5
100
AcDbTableStyle
  3
Standard
 70
     0
 71
     0
 40
0.06
 41
0.06
280
     0
281
     0
  7
STANDARD
140
0.18
170
     2
 62
     0
 63
     7
283
     0
274
    -2
284
     1
 64
     0
275
    -2
285
     1
 65
     0
276
    -2
286
     1
 66
     0
277
    -2
287
     1
 67
     0
278
    -2
288
     1
 68
     0
279
    -2
289
     1
 69
     0
  7
STANDARD
140
0.25
170
     5
 62
     0
 63
     7
283
     0
274
    -2
284
     1
 64
     0
275
    -2
285
     1
 65
     0
276
    -2
286
     1
 66
     0
277
    -2
287
     1
 67
     0
278
    -2
288
     1
 68
     0
279
    -2
289
     1
 69
     0
  7
STANDARD
140
0.18
170
     5
 62
     0
 63
     7
283
     0
274
    -2
284
     1
 64
     0
275
    -2
285
     1
 65
     0
276
    -2
286
     1
 66
     0
277
    -2
287
     1
 67
     0
278
    -2
288
     1
 68
     0
279
    -2
289
     1
 69
     0
  0
VISUALSTYLE
  5
3E9
102
{ACAD_REACTORS
330
3E3
102
}
330
3E3
100
AcDbVisualStyle
  2
2dWireframe
 70
     4
 71
     0
 72
     2
 73
     0
 90
        0
 40
-0.6
 41
-30.0
 62
     5
 63
     7
 74
     1
 91
        4
 64
     7
 65
   257
 75
     1
175
     1
 42
1.0
 92
        0
 66
   257
 43
1.0
 76
     1
 77
     6
 78
     2
 67
     7
 79
     5
170
     0
171
     0
290
     0
174
     0
 93
        1
 44
0.0
173
     0
291
     0
 45
0.0
1001
ACAD
1000
AcDbSavedByObjectVersion
1070
     0
  0
VISUALSTYLE
  5
3EB
102
{ACAD_REACTORS
330
3E3
102
}
330
3E3
100
AcDbVisualStyle
  2
3D Hidden
 70
     6
 71
     1
 72
     2
 73
     2
 90
        0
 40
-0.6
 41
-30.0
 62
     5
 63
     7
 74
     2
 91
        2
 64
     7
 65
   257
 75
     2
175
     1
 42
40.0
 92
        0
 66
   257
 43
1.0
 76
     1
 77
     6
 78
     2
 67
     7
 79
     3
170
     0
171
     0
290
     0
174
     0
 93
        1
 44
0.0
173
     0
291
     0
 45
0.0
1001
ACAD
1000
AcDbSavedByObjectVersion
1070
     0
  0
VISUALSTYLE
  5
3EA
102
{ACAD_REACTORS
330
3E3
102
}
330
3E3
100
AcDbVisualStyle
  2
3dWireframe
 70
     5
 71
     0
 72
     2
 73
     0
 90
        0
 40
-0.6
 41
-30.0
 62
     5
 63
     7
 74
     1
 91
        4
 64
     7
 65
   257
 75
     1
175
     1
 42
1.0
 92
        0
 66
   257
 43
1.0
 76
     1
 77
     6
 78
     2
 67
     7
 79
     5
170
     0
171
     0
290
     0
174
     0
 93
        1
 44
0.0
173
     0
291
     0
 45
0.0
1001
ACAD
1000
AcDbSavedByObjectVersion
1070
     0
  0
VISUALSTYLE
  5
3E8
102
{ACAD_REACTORS
330
3E3
102
}
330
3E3
100
AcDbVisualStyle
  2
Basic
 70
     7
 71
     1
 72
     0
 73
     1
 90
        0
 40
-0.6
 41
-30.0
 62
     5
 63
     7
 74
     0
 91
        4
 64
     7
 65
   257
 75
     1
175
     1
 42
1.0
 92
        8
 66
     7
 43
1.0
 76
     1
 77
     6
 78
     2
 67
     7
 79
     5
170
     0
171
     0
290
     0
174
     0
 93
        1
 44
0.0
173
     0
291
     1
 45
0.0
1001
ACAD
1000
AcDbSavedByObjectVersion
1070
     0
  0
VISUALSTYLE
  5
3EF
102
{ACAD_REACTORS
330
3E3
102
}
330
3E3
100
AcDbVisualStyle
  2
Brighten
 70
    12
 71
     2
 72
     2
 73
     0
 90
        0
 40
-0.6
 41
-30.0
 62
     5
 63
     7
 74
     1
 91
        4
 64
     7
 65
   257
 75
     1
175
     1
 42
1.0
 92
        8
 66
     7
 43
1.0
 76
     1
 77
     6
 78
     2
 67
     7
 79
     5
170
     0
171
     0
290
     0
174
     0
 93
        1
 44
50.0
173
     0
291
     1
 45
0.0
1001
ACAD
1000
AcDbSavedByObjectVersion
1070
     0
  0
VISUALSTYLE
  5
3F3
102
{ACAD_REACTORS
330
3E3
102
}
330
3E3
100
AcDbVisualStyle
  2
ColorChange
 70
    16
 71
     2
 72
     2
 73
     3
 90
        0
 40
-0.6
 41
-30.0
 62
     5
 63
     8
 74
     1
 91
        4
 64
     7
 65
   257
 75
     1
175
     1
 42
1.0
 92
        8
 66
     8
 43
1.0
 76
     1
 77
     6
 78
     2
 67
     7
 79
     5
170
     0
171
     0
290
     0
174
     0
 93
        1
 44
0.0
173
     0
291
     1
 45
0.0
1001
ACAD
1000
AcDbSavedByObjectVersion
1070
     0
  0
VISUALSTYLE
  5
3EC
102
{ACAD_REACTORS
330
3E3
102
}
330
3E3
100
AcDbVisualStyle
  2
Conceptual
 70
     9
 71
     3
 72
     2
 73
     0
 90
        0
 40
-0.6
 41
-30.0
 62
     5
 63
     7
 74
     2
 91
        2
 64
     7
 65
   257
 75
     1
175
     1
 42
40.0
 92
        8
 66
     7
 43
1.0
 76
     1
 77
     6
 78
     2
 67
     7
 79
     3
170
     0
171
     0
290
     0
174
     0
 93
        1
 44
0.0
173
     0
291
     0
 45
0.0
1001
ACAD
1000
AcDbSavedByObjectVersion
1070
     0
  0
VISUALSTYLE
  5
3EE
102
{ACAD_REACTORS
330
3E3
102
}
330
3E3
100
AcDbVisualStyle
  2
Dim
 70
    11
 71
     2
 72
     2
 73
     0
 90
        0
 40
-0.6
 41
-30.0
 62
     5
 63
     7
 74
     1
 91
        4
 64
     7
 65
   257
 75
     1
175
     1
 42
1.0
 92
        8
 66
     7
 43
1.0
 76
     1
 77
     6
 78
     2
 67
     7
 79
     5
170
     0
171
     0
290
     0
174
     0
 93
        1
 44
-50.0
173
     0
291
     1
 45
0.0
1001
ACAD
1000
AcDbSavedByObjectVersion
1070
     0
  0
VISUALSTYLE
  5
3F2
102
{ACAD_REACTORS
330
3E3
102
}
330
3E3
100
AcDbVisualStyle
  2
Facepattern
 70
    15
 71
     2
 72
     2
 73
     0
 90
        0
 40
-0.6
 41
-30.0
 62
     5
 63
     7
 74
     1
 91
        4
 64
     7
 65
   257
 75
     1
175
     1
 42
1.0
 92
        8
 66
     7
 43
1.0
 76
     1
 77
     6
 78
     2
 67
     7
 79
     5
170
     0
171
     0
290
     0
174
     0
 93
        1
 44
0.0
173
     0
291
     1
 45
0.0
1001
ACAD
1000
AcDbSavedByObjectVersion
1070
     0
  0
VISUALSTYLE
  5
3E4
102
{ACAD_REACTORS
330
3E3
102
}
330
3E3
100
AcDbVisualStyle
  2
Flat
 70
     0
 71
     2
 72
     1
 73
     1
 90
        2
 40
-0.6
 41
30.0
 62
     5
 63
     7
 74
     0
 91
        4
 64
     7
 65
   257
 75
     1
175
     1
 42
1.0
 92
        8
 66
     7
 43
1.0
 76
     1
 77
     6
 78
     2
 67
     7
 79
     5
170
     0
171
     0
290
     0
174
     0
 93
       13
 44
0.0
173
     0
291
     1
 45
0.0
1001
ACAD
1000
AcDbSavedByObjectVersion
1070
     0
  0
VISUALSTYLE
  5
3E5
102
{ACAD_REACTORS
330
3E3
102
}
330
3E3
100
AcDbVisualStyle
  2
FlatWithEdges
 70
     1
 71
     2
 72
     1
 73
     1
 90
        2
 40
-0.6
 41
30.0
 62
     5
 63
     7
 74
     1
 91
        4
 64
     7
 65
   257
 75
     1
175
     1
 42
1.0
 92
        0
 66
   257
 43
1.0
 76
     1
 77
     6
 78
     2
 67
     7
 79
     5
170
     0
171
     0
290
     0
174
     0
 93
       13
 44
0.0
173
     0
291
     1
 45
0.0
1001
ACAD
1000
AcDbSavedByObjectVersion
1070
     0
  0
VISUALSTYLE
  5
3E6
102
{ACAD_REACTORS
330
3E3
102
}
330
3E3
100
AcDbVisualStyle
  2
Gouraud
 70
     2
 71
     2
 72
     2
 73
     1
 90
        2
 40
-0.6
 41
30.0
 62
     5
 63
     7
 74
     0
 91
        4
 64
     7
 65
   257
 75
     1
175
     1
 42
1.0
 92
        0
 66
     7
 43
1.0
 76
     1
 77
     6
 78
     2
 67
     7
 79
     5
170
     0
171
     0
290
     0
174
     0
 93
       13
 44
0.0
173
     0
291
     1
 45
0.0
1001
ACAD
1000
AcDbSavedByObjectVersion
1070
     0
  0
VISUALSTYLE
  5
3E7
102
{ACAD_REACTORS
330
3E3
102
}
330
3E3
100
AcDbVisualStyle
  2
GouraudWithEdges
 70
     3
 71
     2
 72
     2
 73
     1
 90
        2
 40
-0.6
 41
30.0
 62
     5
 63
     7
 74
     1
 91
        4
 64
     7
 65
   257
 75
     1
175
     1
 42
1.0
 92
        0
 66
   257
 43
1.0
 76
     1
 77
     6
 78
     2
 67
     7
 79
     5
170
     0
171
     0
290
     0
174
     0
 93
       13
 44
0.0
173
     0
291
     1
 45
0.0
1001
ACAD
1000
AcDbSavedByObjectVersion
1070
     0
  0
VISUALSTYLE
  5
3F1
102
{ACAD_REACTORS
330
3E3
102
}
330
3E3
100
AcDbVisualStyle
  2
Linepattern
 70
    14
 71
     2
 72
     2
 73
     0
 90
        0
 40
-0.6
 41
-30.0
 62
     5
 63
     7
 74
     1
 91
        4
 64
     7
 65
   257
 75
     7
175
     7
 42
1.0
 92
        8
 66
     7
 43
1.0
 76
     1
 77
     6
 78
     2
 67
     7
 79
     5
170
     0
171
     0
290
     0
174
     0
 93
        1
 44
0.0
173
     0
291
     1
 45
0.0
1001
ACAD
1000
AcDbSavedByObjectVersion
1070
     0
  0
VISUALSTYLE
  5
3ED
102
{ACAD_REACTORS
330
3E3
102
}
330
3E3
100
AcDbVisualStyle
  2
Realistic
 70
     8
 71
     2
 72
     2
 73
     0
 90
        0
 40
-0.6
 41
-30.0
 62
     5
 63
     7
 74
     1
 91
        0
 64
     7
 65
   257
 75
     1
175
     1
 42
1.0
 92
        8
 66
     8
 43
1.0
 76
     1
 77
     6
 78
     2
 67
     7
 79
     5
170
     0
171
     0
290
     0
174
     0
 93
       13
 44
0.0
173
     0
291
     0
 45
0.0
1001
ACAD
1000
AcDbSavedByObjectVersion
1070
     0
  0
VISUALSTYLE
  5
3F0
102
{ACAD_REACTORS
330
3E3
102
}
330
3E3
100
AcDbVisualStyle
  2
Thicken
 70
    13
 71
     2
 72
     2
 73
     0
 90
        0
 40
-0.6
 41
-30.0
 62
     5
 63
     7
 74
     1
 91
        4
 64
     7
 65
   257
 75
     1
175
     1
 42
1.0
 92
       12
 66
     7
 43
1.0
 76
     1
 77
     6
 78
     2
 67
     7
 79
     5
170
     0
171
     0
290
     0
174
     0
 93
        1
 44
0.0
173
     0
291
     1
 45
0.0
1001
ACAD
1000
AcDbSavedByObjectVersion
1070
     0
  0
DICTIONARYVAR
  5
472
102
{ACAD_REACTORS
330
2F5
102
}
330
2F5
100
DictionaryVariables
280
     0
  1
STANDARD
  0
DICTIONARYVAR
  5
2F6
102
{ACAD_REACTORS
330
2F5
102
}
330
2F5
100
DictionaryVariables
280
     0
  1
1
  0
DICTIONARYVAR
  5
474
102
{ACAD_REACTORS
330
2F5
102
}
330
2F5
100
DictionaryVariables
280
     0
  1
0
  0
DICTIONARYVAR
  5
473
102
{ACAD_REACTORS
330
2F5
102
}
330
2F5
100
DictionaryVariables
280
     0
  1
127
  0
XRECORD
  5
455
102
{ACAD_REACTORS
330
453
102
}
330
453
100
AcDbXrecord
280
     1
330
28C
  0
DICTIONARY
  5
478
330
297
100
AcDbDictionary
280
     1
281
     1
  3
ACAD_XREC_ROUNDTRIP
360
479
  0
DICTIONARY
  5
476
330
296
100
AcDbDictionary
280
     1
281
     1
  3
ACAD_XREC_ROUNDTRIP
360
477
  0
DICTIONARY
  5
47C
330
3E1
100
AcDbDictionary
280
     1
281
     1
  3
ACAD_XREC_ROUNDTRIP
360
47D
  0
DICTIONARY
  5
47A
330
3E0
100
AcDbDictionary
280
     1
281
     1
  3
ACAD_XREC_ROUNDTRIP
360
47B
  0
DICTIONARY
  5
47E
330
3E2
100
AcDbDictionary
280
     1
281
     1
  3
ACAD_XREC_ROUNDTRIP
360
47F
  0
DICTIONARY
  5
480
330
3F6
100
AcDbDictionary
280
     1
281
     1
  3
ACAD_XREC_ROUNDTRIP
360
481
  0
XRECORD
  5
479
102
{ACAD_REACTORS
330
478
102
}
330
478
100
AcDbXrecord
280
     1
102
SHADEPLOT
 70
     0
102
SHADEPLOTRESLEVEL
 70
     2
102
SHADEPLOTCUSTOMDPI
 70
   300
  0
XRECORD
  5
477
102
{ACAD_REACTORS
330
476
102
}
330
476
100
AcDbXrecord
280
     1
102
SHADEPLOT
 70
     0
102
SHADEPLOTRESLEVEL
 70
     2
102
SHADEPLOTCUSTOMDPI
 70
   300
  0
XRECORD
  5
47D
102
{ACAD_REACTORS
330
47C
102
}
330
47C
100
AcDbXrecord
280
     1
102
MATERIAL
148
0.0
149
0.0
149
0.0
 93
        0
 94
       63
282
     0
 72
     1
 77
     1
171
     1
175
     1
179
     1
273
     0
  0
XRECORD
  5
47B
102
{ACAD_REACTORS
330
47A
102
}
330
47A
100
AcDbXrecord
280
     1
102
MATERIAL
148
0.0
149
0.0
149
0.0
 93
        0
 94
       63
282
     0
 72
     1
 77
     1
171
     1
175
     1
179
     1
273
     0
  0
XRECORD
  5
47F
102
{ACAD_REACTORS
330
47E
102
}
330
47E
100
AcDbXrecord
280
     1
102
MATERIAL
148
0.0
149
0.0
149
0.0
 93
        0
 94
       63
282
     0
 72
     1
 77
     1
171
     1
175
     1
179
     1
273
     0
  0
XRECORD
  5
481
102
{ACAD_REACTORS
330
480
102
}
330
480
100
AcDbXrecord
280
     1
102
ACAD_ROUNDTRIP_PRE2007_TABLESTYLE
 90
      512
 91
        0
  1

 92
      512
 93
        0
  2

 94
      512
 95
        0
  3

  0
ENDSEC
  0
EOF
