  0
SECTION
  2
HEADER
  9
$ACADVER
  1
AC1014
  9
$ACADMAINTVER
 70
     9
  9
$DWGCODEPAGE
  3
ANSI_1252
  9
$INSBASE
 10
-0.2324826375280669
 20
-1.591562710651511
 30
0.0
  9
$EXTMIN
 10
-5.570711662084683
 20
-5.531752051855236
 30
0.0
  9
$EXTMAX
 10
7.480746387028549
 20
0.1366138868568126
 30
0.0
  9
$LIMMIN
 10
0.0
 20
0.0
  9
$LIMMAX
 10
36.0
 20
36.0
  9
$ORTHOMODE
 70
     1
  9
$REGENMODE
 70
     1
  9
$FILLMODE
 70
     1
  9
$QTEXTMODE
 70
     0
  9
$MIRRTEXT
 70
     1
  9
$DRAGMODE
 70
     0
  9
$LTSCALE
 40
1.0
  9
$OSMODE
 70
    37
  9
$ATTMODE
 70
     1
  9
$TEXTSIZE
 40
0.2
  9
$TRACEWID
 40
0.05
  9
$TEXTSTYLE
  7
STANDARD
  9
$CLAYER
  8
ADPDIM
  9
$CELTYPE
  6
BYLAYER
  9
$CECOLOR
 62
   256
  9
$CELTSCALE
 40
1.0
  9
$DELOBJ
 70
     1
  9
$DISPSILH
 70
     0
  9
$DIMSCALE
 40
1.0
  9
$DIMASZ
 40
0.125
  9
$DIMEXO
 40
0.0625
  9
$DIMDLI
 40
0.38
  9
$DIMRND
 40
0.0
  9
$DIMDLE
 40
0.0
  9
$DIMEXE
 40
0.18
  9
$DIMTP
 40
0.0
  9
$DIMTM
 40
0.0
  9
$DIMTXT
 40
0.125
  9
$DIMCEN
 40
0.1875
  9
$DIMTSZ
 40
0.125
  9
$DIMTOL
 70
     0
  9
$DIMLIM
 70
     0
  9
$DIMTIH
 70
     0
  9
$DIMTOH
 70
     0
  9
$DIMSE1
 70
     0
  9
$DIMSE2
 70
     0
  9
$DIMTAD
 70
     0
  9
$DIMZIN
 70
     3
  9
$DIMBLK
  1

  9
$DIMASO
 70
     1
  9
$DIMSHO
 70
     1
  9
$DIMPOST
  1

  9
$DIMAPOST
  1

  9
$DIMALT
 70
     0
  9
$DIMALTD
 70
     1
  9
$DIMALTF
 40
25.4
  9
$DIMLFAC
 40
1.0
  9
$DIMTOFL
 70
     0
  9
$DIMTVP
 40
0.0
  9
$DIMTIX
 70
     0
  9
$DIMSOXD
 70
     0
  9
$DIMSAH
 70
     0
  9
$DIMBLK1
  1

  9
$DIMBLK2
  1

  9
$DIMSTYLE
  2
STANDARD
  9
$DIMCLRD
 70
     0
  9
$DIMCLRE
 70
     0
  9
$DIMCLRT
 70
     0
  9
$DIMTFAC
 40
1.0
  9
$DIMGAP
 40
0.125
  9
$DIMJUST
 70
     0
  9
$DIMSD1
 70
     0
  9
$DIMSD2
 70
     0
  9
$DIMTOLJ
 70
     1
  9
$DIMTZIN
 70
     0
  9
$DIMALTZ
 70
     0
  9
$DIMALTTZ
 70
     0
  9
$DIMFIT
 70
     3
  9
$DIMUPT
 70
     0
  9
$DIMUNIT
 70
     2
  9
$DIMDEC
 70
     4
  9
$DIMTDEC
 70
     4
  9
$DIMALTU
 70
     2
  9
$DIMALTTD
 70
     2
  9
$DIMTXSTY
  7
STANDARD
  9
$DIMAUNIT
 70
     0
  9
$LUNITS
 70
     5
  9
$LUPREC
 70
     4
  9
$SKETCHINC
 40
0.1
  9
$FILLETRAD
 40
0.125
  9
$AUNITS
 70
     0
  9
$AUPREC
 70
     0
  9
$MENU
  1
acad
  9
$ELEVATION
 40
0.0
  9
$PELEVATION
 40
0.0
  9
$THICKNESS
 40
0.0
  9
$LIMCHECK
 70
     0
  9
$BLIPMODE
 70
     0
  9
$CHAMFERA
 40
0.0
  9
$CHAMFERB
 40
0.0
  9
$CHAMFERC
 40
0.0
  9
$CHAMFERD
 40
0.0
  9
$SKPOLY
 70
     0
  9
$TDCREATE
 40
2450254.599724340
  9
$TDUPDATE
 40
2452297.091981516
  9
$TDINDWG
 40
0.0165111111
  9
$TDUSRTIMER
 40
0.0165111111
  9
$USRTIMER
 70
     1
  9
$ANGBASE
 50
0.0
  9
$ANGDIR
 70
     0
  9
$PDMODE
 70
     0
  9
$PDSIZE
 40
0.0
  9
$PLINEWID
 40
0.0
  9
$COORDS
 70
     2
  9
$SPLFRAME
 70
     0
  9
$SPLINETYPE
 70
     6
  9
$SPLINESEGS
 70
     8
  9
$ATTDIA
 70
     0
  9
$ATTREQ
 70
     1
  9
$HANDLING
 70
 22529
  9
$HANDSEED
  5
23C
  9
$SURFTAB1
 70
     6
  9
$SURFTAB2
 70
     6
  9
$SURFTYPE
 70
     6
  9
$SURFU
 70
     6
  9
$SURFV
 70
     6
  9
$UCSNAME
  2

  9
$UCSORG
 10
0.0
 20
0.0
 30
0.0
  9
$UCSXDIR
 10
1.0
 20
0.0
 30
0.0
  9
$UCSYDIR
 10
0.0
 20
1.0
 30
0.0
  9
$PUCSNAME
  2

  9
$PUCSORG
 10
0.0
 20
0.0
 30
0.0
  9
$PUCSXDIR
 10
1.0
 20
0.0
 30
0.0
  9
$PUCSYDIR
 10
0.0
 20
1.0
 30
0.0
  9
$USERI1
 70
     0
  9
$USERI2
 70
     0
  9
$USERI3
 70
     0
  9
$USERI4
 70
     0
  9
$USERI5
 70
     0
  9
$USERR1
 40
0.0
  9
$USERR2
 40
0.0
  9
$USERR3
 40
0.0
  9
$USERR4
 40
0.0
  9
$USERR5
 40
0.0
  9
$WORLDVIEW
 70
     1
  9
$SHADEDGE
 70
     3
  9
$SHADEDIF
 70
    70
  9
$TILEMODE
 70
     1
  9
$MAXACTVP
 70
    15
  9
$PINSBASE
 10
0.1093764901161195
 20
0.0
 30
0.0
  9
$PLIMCHECK
 70
     0
  9
$PEXTMIN
 10
1.000000000000000E+20
 20
1.000000000000000E+20
 30
1.000000000000000E+20
  9
$PEXTMAX
 10
-1.000000000000000E+20
 20
-1.000000000000000E+20
 30
-1.000000000000000E+20
  9
$PLIMMIN
 10
0.0
 20
0.0
  9
$PLIMMAX
 10
12.0
 20
9.0
  9
$UNITMODE
 70
     0
  9
$VISRETAIN
 70
     0
  9
$PLINEGEN
 70
     0
  9
$PSLTSCALE
 70
     1
  9
$TREEDEPTH
 70
  3020
  9
$PICKSTYLE
 70
     1
  9
$CMLSTYLE
  2
STANDARD
  9
$CMLJUST
 70
     0
  9
$CMLSCALE
 40
1.0
  9
$PROXYGRAPHICS
 70
     1
  9
$MEASUREMENT
 70
     0
  0
ENDSEC
  0
SECTION
  2
CLASSES
  0
CLASS
  1
ACDBDICTIONARYWDFLT
  2
AcDbDictionaryWithDefault
  3
AutoCAD 2000
 90
        0
280
     0
281
     0
  0
CLASS
  1
ACDBPLACEHOLDER
  2
AcDbPlaceHolder
  3
AutoCAD 2000
 90
        0
280
     0
281
     0
  0
CLASS
  1
LAYOUT
  2
AcDbLayout
  3
AutoCAD 2000
 90
        0
280
     0
281
     0
  0
CLASS
  1
DICTIONARYVAR
  2
AcDbDictionaryVar
  3
AutoCAD 2000
 90
        0
280
     0
281
     0
  0
CLASS
  1
LONG_TRANSACTION
  2
AcDbLongTransaction
  3
AutoCAD 2000
 90
        0
280
     0
281
     0
  0
CLASS
  1
LWPOLYLINE
  2
AcDbPolyline
  3
AutoCAD 2000
 90
        0
280
     0
281
     1
  0
CLASS
  1
HATCH
  2
AcDbHatch
  3
AutoCAD 2000
 90
        0
280
     0
281
     1
  0
CLASS
  1
XRECORD
  2
AcDbXrecord
  3
AutoCAD 2000
 90
        0
280
     0
281
     0
  0
CLASS
  1
LONG_TRANSACTION
  2
AcDbLongTransaction
  3
AutoCAD 2000
 90
        0
280
     0
281
     0
  0
CLASS
  1
LWPOLYLINE
  2
AcDbPolyline
  3
AutoCAD 2000
 90
        0
280
     0
281
     1
  0
CLASS
  1
HATCH
  2
AcDbHatch
  3
AutoCAD 2000
 90
        0
280
     0
281
     1
  0
CLASS
  1
XRECORD
  2
AcDbXrecord
  3
AutoCAD 2000
 90
        0
280
     0
281
     0
  0
CLASS
  1
LONG_TRANSACTION
  2
AcDbLongTransaction
  3
AutoCAD 2000
 90
        0
280
     0
281
     0
  0
CLASS
  1
LWPOLYLINE
  2
AcDbPolyline
  3
AutoCAD 2000
 90
        0
280
     0
281
     1
  0
CLASS
  1
HATCH
  2
AcDbHatch
  3
AutoCAD 2000
 90
        0
280
     0
281
     1
  0
CLASS
  1
XRECORD
  2
AcDbXrecord
  3
AutoCAD 2000
 90
        0
280
     0
281
     0
  0
CLASS
  1
LONG_TRANSACTION
  2
AcDbLongTransaction
  3
AutoCAD 2000
 90
        0
280
     0
281
     0
  0
CLASS
  1
LWPOLYLINE
  2
AcDbPolyline
  3
AutoCAD 2000
 90
        0
280
     0
281
     1
  0
CLASS
  1
HATCH
  2
AcDbHatch
  3
AutoCAD 2000
 90
        0
280
     0
281
     1
  0
CLASS
  1
XRECORD
  2
AcDbXrecord
  3
AutoCAD 2000
 90
        0
280
     0
281
     0
  0
CLASS
  1
LONG_TRANSACTION
  2
AcDbLongTransaction
  3
AutoCAD 2000
 90
        0
280
     0
281
     0
  0
CLASS
  1
LWPOLYLINE
  2
AcDbPolyline
  3
AutoCAD 2000
 90
        0
280
     0
281
     1
  0
CLASS
  1
HATCH
  2
AcDbHatch
  3
AutoCAD 2000
 90
        0
280
     0
281
     1
  0
CLASS
  1
XRECORD
  2
AcDbXrecord
  3
AutoCAD 2000
 90
        0
280
     0
281
     0
  0
ENDSEC
  0
SECTION
  2
TABLES
  0
TABLE
  2
VPORT
  5
8
330
0
100
AcDbSymbolTable
 70
     2
  0
VPORT
  5
219
330
8
100
AcDbSymbolTableRecord
100
AcDbViewportTableRecord
  2
*ACTIVE
 70
     0
 10
0.0
 20
0.0
 11
1.0
 21
1.0
 12
0.9646951992332795
 22
-2.698916791020689
 13
0.0
 23
0.0
 14
0.5740882589684922
 24
0.5740882589684922
 15
0.5
 25
0.5
 16
0.0
 26
0.0
 36
1.0
 17
0.0
 27
0.0
 37
0.0
 40
8.365690321423059
 41
1.570528967254408
 42
50.0
 43
0.0
 44
0.0
 50
0.0
 51
0.0
 71
     0
 72
   100
 73
     1
 74
     0
 75
     0
 76
     0
 77
     0
 78
     0
  0
ENDTAB
  0
TABLE
  2
LTYPE
  5
5
330
0
100
AcDbSymbolTable
 70
     2
  0
LTYPE
  5
12
330
5
100
AcDbSymbolTableRecord
100
AcDbLinetypeTableRecord
  2
BYBLOCK
 70
     0
  3

 72
    65
 73
     0
 40
0.0
  0
LTYPE
  5
13
330
5
100
AcDbSymbolTableRecord
100
AcDbLinetypeTableRecord
  2
BYLAYER
 70
     0
  3

 72
    65
 73
     0
 40
0.0
  0
LTYPE
  5
14
330
5
100
AcDbSymbolTableRecord
100
AcDbLinetypeTableRecord
  2
CONTINUOUS
 70
     0
  3
Solid line
 72
    65
 73
     0
 40
0.0
  0
LTYPE
  5
66
330
5
100
AcDbSymbolTableRecord
100
AcDbLinetypeTableRecord
  2
HIDDEN2
 70
     0
  3
_ _ _ _ _ _ _ _ _ _ _ _ _ _ _ _ _ _ _ _ _ _ _ _
 72
    65
 73
     2
 40
0.1875
 49
0.125
 74
     0
 49
-0.0625
 74
     0
  0
ENDTAB
  0
TABLE
  2
LAYER
  5
2
330
0
100
AcDbSymbolTable
 70
     5
  0
LAYER
  5
F
330
2
100
AcDbSymbolTableRecord
100
AcDbLayerTableRecord
  2
0
 70
     0
 62
     7
  6
CONTINUOUS
  0
LAYER
  5
67
330
2
100
AcDbSymbolTableRecord
100
AcDbLayerTableRecord
  2
ADP2DETAIL
 70
     0
 62
     5
  6
CONTINUOUS
  0
LAYER
  5
68
330
2
100
AcDbSymbolTableRecord
100
AcDbLayerTableRecord
  2
ADPDIM
 70
     0
 62
     3
  6
CONTINUOUS
  0
LAYER
  5
6A
330
2
100
AcDbSymbolTableRecord
100
AcDbLayerTableRecord
  2
ADP1DETAIL
 70
     0
 62
     7
  6
CONTINUOUS
  0
LAYER
  5
6C
330
2
100
AcDbSymbolTableRecord
100
AcDbLayerTableRecord
  2
DEFPOINTS
 70
     0
 62
     7
  6
CONTINUOUS
  0
ENDTAB
  0
TABLE
  2
STYLE
  5
3
330
0
100
AcDbSymbolTable
 70
     2
  0
STYLE
  5
10
330
3
100
AcDbSymbolTableRecord
100
AcDbTextStyleTableRecord
  2
STANDARD
 70
     0
 40
0.0
 41
1.0
 50
0.0
 71
     0
 42
0.2
  3
txt
  4

  0
STYLE
  5
D5
330
3
100
AcDbSymbolTableRecord
100
AcDbTextStyleTableRecord
  2
ARIAL_WIDE
 70
     0
 40
0.0
 41
1.25
 50
0.0
 71
     0
 42
0.2
  3
ARIAL.TTF
  4

1001
ACAD
1000
Arial
1071
       34
  0
ENDTAB
  0
TABLE
  2
VIEW
  5
6
330
0
100
AcDbSymbolTable
 70
     0
  0
ENDTAB
  0
TABLE
  2
UCS
  5
7
330
0
100
AcDbSymbolTable
 70
     0
  0
ENDTAB
  0
TABLE
  2
APPID
  5
9
330
0
100
AcDbSymbolTable
 70
     1
  0
APPID
  5
11
330
9
100
AcDbSymbolTableRecord
100
AcDbRegAppTableRecord
  2
ACAD
 70
     0
  0
ENDTAB
  0
TABLE
  2
DIMSTYLE
  5
A
330
0
100
AcDbSymbolTable
 70
     1
  0
DIMSTYLE
105
C9
330
A
100
AcDbSymbolTableRecord
100
AcDbDimStyleTableRecord
  2
STANDARD
 70
     0
  3

  4

  5

  6

  7

 40
1.0
 41
0.18
 42
0.0625
 43
0.38
 44
0.18
 45
0.0
 46
0.0
 47
0.0
 48
0.0
140
0.18
141
0.09
142
0.0
143
25.4
144
1.0
145
0.0
146
1.0
147
0.09
 71
     0
 72
     0
 73
     1
 74
     1
 75
     0
 76
     0
 77
     0
 78
     0
170
     0
171
     2
172
     0
173
     0
174
     0
175
     0
176
     0
177
     0
178
     0
270
     2
271
     4
272
     4
273
     2
274
     2
340
10
275
     0
280
     0
281
     0
282
     0
283
     1
284
     0
285
     0
286
     0
287
     3
288
     0
  0
ENDTAB
  0
TABLE
  2
BLOCK_RECORD
  5
1
330
0
100
AcDbSymbolTable
 70
     2
  0
BLOCK_RECORD
  5
18
102
{ACAD_XDICTIONARY
360
12A
102
}
330
1
100
AcDbSymbolTableRecord
100
AcDbBlockTableRecord
  2
*MODEL_SPACE
  0
BLOCK_RECORD
  5
15
102
{ACAD_XDICTIONARY
360
128
102
}
330
1
100
AcDbSymbolTableRecord
100
AcDbBlockTableRecord
  2
*PAPER_SPACE
  0
BLOCK_RECORD
  5
51
330
1
100
AcDbSymbolTableRecord
100
AcDbBlockTableRecord
  2
*D0
  0
BLOCK_RECORD
  5
52
330
1
100
AcDbSymbolTableRecord
100
AcDbBlockTableRecord
  2
*D1
  0
ENDTAB
  0
ENDSEC
  0
SECTION
  2
BLOCKS
  0
BLOCK
  5
6F
330
18
100
AcDbEntity
  8
0
100
AcDbBlockBegin
  2
*MODEL_SPACE
 70
     0
 10
0.0
 20
0.0
 30
0.0
  3
*MODEL_SPACE
  1

  0
ENDBLK
  5
70
330
18
100
AcDbEntity
  8
0
100
AcDbBlockEnd
  0
BLOCK
  5
6D
330
15
100
AcDbEntity
 67
     1
  8
0
100
AcDbBlockBegin
  2
*PAPER_SPACE
 70
     0
 10
0.0
 20
0.0
 30
0.0
  3
*PAPER_SPACE
  1

  0
ENDBLK
  5
6E
330
15
100
AcDbEntity
 67
     1
  8
0
100
AcDbBlockEnd
  0
BLOCK
  5
72
330
51
100
AcDbEntity
  8
0
100
AcDbBlockBegin
  2
*D0
 70
     1
 10
0.0
 20
0.0
 30
0.0
  3
*D0
  1

  0
LINE
  5
73
330
51
100
AcDbEntity
  8
0
  6
BYBLOCK
 62
     0
100
AcDbLine
 10
-0.2324826375280669
 20
-1.654062710651511
 30
0.0
 11
-0.2324826375280669
 21
-2.070088888618182
 31
0.0
  0
LINE
  5
74
330
51
100
AcDbEntity
  8
0
  6
BYBLOCK
 62
     0
100
AcDbLine
 10
2.142517362471933
 20
-1.654062710651511
 30
0.0
 11
2.142517362471933
 21
-2.070088888618182
 31
0.0
  0
LINE
  5
75
330
51
100
AcDbEntity
  8
0
  6
BYBLOCK
 62
     0
100
AcDbLine
 10
-0.2324826375280669
 20
-1.890088888618182
 30
0.0
 11
0.5383506958052667
 21
-1.890088888618182
 31
0.0
  0
LINE
  5
76
330
51
100
AcDbEntity
  8
0
  6
BYBLOCK
 62
     0
100
AcDbLine
 10
2.142517362471933
 20
-1.890088888618182
 30
0.0
 11
1.3716840291386
 21
-1.890088888618182
 31
0.0
  0
LINE
  5
77
330
51
100
AcDbEntity
  8
0
  6
BYBLOCK
 62
     0
100
AcDbLine
 10
-0.3574826375280669
 20
-2.015088888618182
 30
0.0
 11
-0.1074826375280669
 21
-1.765088888618182
 31
0.0
  0
LINE
  5
78
330
51
100
AcDbEntity
  8
0
  6
BYBLOCK
 62
     0
100
AcDbLine
 10
2.017517362471933
 20
-2.015088888618182
 30
0.0
 11
2.267517362471933
 21
-1.765088888618182
 31
0.0
  0
TEXT
  5
79
330
51
100
AcDbEntity
  8
0
  6
BYBLOCK
 62
     0
100
AcDbText
 10
0.6633506958052667
 20
-1.952588888618182
 30
0.0
 40
0.125
  1
2 3/8
 72
     1
 11
0.9550173624719333
 21
-1.890088888618182
 31
0.0
100
AcDbText
 73
     2
  0
POINT
  5
7A
330
51
100
AcDbEntity
  8
DEFPOINTS
  6
BYBLOCK
 62
     0
100
AcDbPoint
 10
-0.2324826375280669
 20
-1.591562710651511
 30
0.0
  0
POINT
  5
7B
330
51
100
AcDbEntity
  8
DEFPOINTS
  6
BYBLOCK
 62
     0
100
AcDbPoint
 10
2.142517362471933
 20
-1.591562710651511
 30
0.0
  0
POINT
  5
7C
330
51
100
AcDbEntity
  8
DEFPOINTS
  6
BYBLOCK
 62
     0
100
AcDbPoint
 10
2.142517362471933
 20
-1.890088888618182
 30
0.0
  0
ENDBLK
  5
7D
330
51
100
AcDbEntity
  8
0
100
AcDbBlockEnd
  0
BLOCK
  5
7E
330
52
100
AcDbEntity
  8
0
100
AcDbBlockBegin
  2
*D1
 70
     1
 10
0.0
 20
0.0
 30
0.0
  3
*D1
  1

  0
LINE
  5
7F
330
52
100
AcDbEntity
  8
0
  6
BYBLOCK
 62
     0
100
AcDbLine
 10
-0.2949826375280668
 20
-1.591562710651511
 30
0.0
 11
-0.7705973561504434
 21
-1.591562710651511
 31
0.0
  0
LINE
  5
80
330
52
100
AcDbEntity
  8
0
  6
BYBLOCK
 62
     0
100
AcDbLine
 10
0.8925173618987848
 20
0.0116138868568125
 30
0.0
 11
-0.7705973561504431
 21
0.0116138868568126
 31
0.0
  0
LINE
  5
81
330
52
100
AcDbEntity
  8
0
  6
BYBLOCK
 62
     0
100
AcDbLine
 10
-0.5905973561504433
 20
-1.591562710651511
 30
0.0
 11
-0.5905973561504433
 21
-1.185807745230682
 31
0.0
  0
LINE
  5
82
330
52
100
AcDbEntity
  8
0
  6
BYBLOCK
 62
     0
100
AcDbLine
 10
-0.5905973561504432
 20
0.0116138868568126
 30
0.0
 11
-0.5905973561504432
 21
-0.3941410785640161
 31
0.0
  0
LINE
  5
83
330
52
100
AcDbEntity
  8
0
  6
BYBLOCK
 62
     0
100
AcDbLine
 10
-0.4655973561504433
 20
-1.716562710651511
 30
0.0
 11
-0.7155973561504433
 21
-1.466562710651511
 31
0.0
  0
LINE
  5
84
330
52
100
AcDbEntity
  8
0
  6
BYBLOCK
 62
     0
100
AcDbLine
 10
-0.4655973561504432
 20
-0.1133861131431874
 30
0.0
 11
-0.7155973561504432
 21
0.1366138868568126
 31
0.0
  0
TEXT
  5
85
330
52
100
AcDbEntity
  8
0
  6
BYBLOCK
 62
     0
100
AcDbText
 10
-0.5280973561504432
 20
-1.060807745230682
 30
0.0
 40
0.125
  1
1 5/8
 50
90.0
 72
     1
 11
-0.5905973561504432
 21
-0.7899744118973496
 31
0.0
100
AcDbText
 73
     2
  0
POINT
  5
86
330
52
100
AcDbEntity
  8
DEFPOINTS
  6
BYBLOCK
 62
     0
100
AcDbPoint
 10
-0.2324826375280669
 20
-1.591562710651511
 30
0.0
  0
POINT
  5
87
330
52
100
AcDbEntity
  8
DEFPOINTS
  6
BYBLOCK
 62
     0
100
AcDbPoint
 10
0.9550173618987848
 20
0.0116138868568125
 30
0.0
  0
POINT
  5
88
330
52
100
AcDbEntity
  8
DEFPOINTS
  6
BYBLOCK
 62
     0
100
AcDbPoint
 10
-0.5905973561504432
 20
0.0116138868568126
 30
0.0
  0
ENDBLK
  5
89
330
52
100
AcDbEntity
  8
0
100
AcDbBlockEnd
  0
ENDSEC
  0
SECTION
  2
ENTITIES
  0
LWPOLYLINE
  5
8A
330
18
100
AcDbEntity
  8
ADP2DETAIL
  6
HIDDEN2
100
AcDbPolyline
 90
        8
 70
     1
 43
0.0
 10
0.0800173624719332
 20
-4.15406271065151
 10
0.0800173624719332
 20
-2.904062710651511
 42
-0.4142135623730951
 10
0.3300173624719331
 20
-2.654062710651511
 10
1.580017362471933
 20
-2.65406271065151
 42
-0.4142135623730951
 10
1.830017362471933
 20
-2.90406271065151
 10
1.830017362471934
 20
-4.15406271065151
 42
-0.4142135623730951
 10
1.580017362471934
 20
-4.40406271065151
 10
0.3300173624719331
 20
-4.40406271065151
 42
-0.4142135623730951
  0
LWPOLYLINE
  5
94
330
18
100
AcDbEntity
  8
ADP1DETAIL
100
AcDbPolyline
 90
        8
 70
     1
 43
0.0
 10
-0.2324826375280669
 20
-4.59156271065151
 10
-0.2324826375280669
 20
-2.466562710651511
 42
-0.4142135623730951
 10
-0.1074826375280669
 20
-2.341562710651511
 10
2.017517362471933
 20
-2.341562710651511
 42
-0.4142135623730951
 10
2.142517362471933
 20
-2.466562710651511
 10
2.142517362471933
 20
-4.59156271065151
 42
-0.4142135623730951
 10
2.017517362471933
 20
-4.716562710651511
 10
-0.1074826375280669
 20
-4.716562710651511
 42
-0.4142135623730951
  0
LWPOLYLINE
  5
9E
330
18
100
AcDbEntity
  8
ADP1DETAIL
100
AcDbPolyline
 90
        8
 70
     1
 43
0.0
 10
-0.1387326375280669
 20
-4.49781271065151
 10
-0.1387326375280669
 20
-2.560312710651511
 42
-0.4142135623730951
 10
-0.0137326375280669
 20
-2.435312710651511
 10
1.923767362471933
 20
-2.43531271065151
 42
-0.4142135623730951
 10
2.048767362471933
 20
-2.56031271065151
 10
2.048767362471933
 20
-4.49781271065151
 42
-0.4142135623730951
 10
1.923767362471933
 20
-4.622812710651511
 10
-0.0137326375280669
 20
-4.622812710651511
 42
-0.4142135623730951
  0
LWPOLYLINE
  5
A8
330
18
100
AcDbEntity
  8
ADP2DETAIL
  6
HIDDEN2
100
AcDbPolyline
 90
        8
 70
     1
 43
0.0
 10
-0.1074826375280669
 20
-4.34156271065151
 10
-0.1074826375280669
 20
-2.716562710651511
 42
-0.4142135623730951
 10
0.1425173624719331
 20
-2.466562710651511
 10
1.767517362471933
 20
-2.466562710651511
 42
-0.4142135623730951
 10
2.017517362471933
 20
-2.716562710651511
 10
2.017517362471933
 20
-4.34156271065151
 42
-0.4142135623730951
 10
1.767517362471933
 20
-4.59156271065151
 10
0.1425173624719331
 20
-4.59156271065151
 42
-0.4142135623730951
  0
LINE
  5
B2
330
18
100
AcDbEntity
  8
ADP1DETAIL
100
AcDbLine
 10
-0.1021209851763856
 20
-2.471924363003193
 30
0.0
 11
2.012155710120251
 21
-4.586201058299829
 31
0.0
  0
LINE
  5
B3
330
18
100
AcDbEntity
  8
ADP1DETAIL
100
AcDbLine
 10
2.012155710120251
 20
-2.471924363003192
 30
0.0
 11
-0.1021209851763856
 21
-4.586201058299829
 31
0.0
  0
DIMENSION
  5
B4
330
18
100
AcDbEntity
  8
ADPDIM
100
AcDbDimension
  2
*D1
 10
-0.5905973561504432
 20
0.0116138868568126
 30
0.0
 11
-0.5905973561504432
 21
-0.7899744118973496
 31
0.0
100
AcDbAlignedDimension
 13
-0.2324826375280669
 23
-1.591562710651511
 33
0.0
 14
0.9550173618987848
 24
0.0116138868568125
 34
0.0
 50
90.0
100
AcDbRotatedDimension
  0
LINE
  5
B5
330
18
100
AcDbEntity
  8
ADP2DETAIL
  6
HIDDEN2
100
AcDbLine
 10
0.8894452181501616
 20
-0.1537891512105212
 30
0.0
 11
0.072127241604798
 21
-0.6397123492160955
 31
0.0
  0
LINE
  5
B6
330
18
100
AcDbEntity
  8
ADP1DETAIL
100
AcDbLine
 10
0.8894452181591582
 20
-0.0069657487133021
 30
0.0
 11
-0.1387326375280669
 21
-0.6228127106515107
 31
0.0
  0
LINE
  5
B7
330
18
100
AcDbEntity
  8
ADP1DETAIL
100
AcDbLine
 10
-0.2324826375280669
 20
-0.7165627106515107
 30
0.0
 11
2.142517362471933
 21
-0.7165627106515107
 31
0.0
  0
LINE
  5
B8
330
18
100
AcDbEntity
  8
ADP1DETAIL
100
AcDbLine
 10
2.142517362471933
 20
-1.591562710651511
 30
0.0
 11
-0.2324826375280669
 21
-1.591562710651511
 31
0.0
  0
LINE
  5
B9
330
18
100
AcDbEntity
  8
ADP1DETAIL
100
AcDbLine
 10
-0.1387326375280669
 20
-0.6228127106515107
 30
0.0
 11
2.048767362471932
 21
-0.6228127106515107
 31
0.0
  0
DIMENSION
  5
BA
330
18
100
AcDbEntity
  8
ADPDIM
100
AcDbDimension
  2
*D0
 10
2.142517362471933
 20
-1.890088888618182
 30
0.0
 11
0.9550173624719333
 21
-1.890088888618182
 31
0.0
100
AcDbAlignedDimension
 13
-0.2324826375280669
 23
-1.591562710651511
 33
0.0
 14
2.142517362471933
 24
-1.591562710651511
 34
0.0
100
AcDbRotatedDimension
  0
LINE
  5
BB
330
18
100
AcDbEntity
  8
ADP2DETAIL
  6
HIDDEN2
100
AcDbLine
 10
-0.1074826375280669
 20
-1.591562710651511
 30
0.0
 11
-0.1074826375280669
 21
-0.8415627106515106
 31
0.0
  0
LINE
  5
BC
330
18
100
AcDbEntity
  8
ADP1DETAIL
100
AcDbLine
 10
-0.2324826375280669
 20
-1.591562710651511
 30
0.0
 11
-0.2324826375280669
 21
-0.7165627106515107
 31
0.0
  0
LINE
  5
BD
330
18
100
AcDbEntity
  8
ADP2DETAIL
  6
HIDDEN2
100
AcDbLine
 10
-0.1074826375280669
 20
-0.8415627106515106
 30
0.0
 11
0.072127241604798
 21
-0.8415627106515106
 31
0.0
  0
LINE
  5
BE
330
18
100
AcDbEntity
  8
ADP1DETAIL
100
AcDbLine
 10
-0.1387326375280669
 20
-0.7165627106515107
 30
0.0
 11
-0.1387326375280669
 21
-0.6228127106515107
 31
0.0
  0
LINE
  5
BF
330
18
100
AcDbEntity
  8
ADP2DETAIL
  6
HIDDEN2
100
AcDbLine
 10
0.072127241604798
 20
-0.6397123492160955
 30
0.0
 11
0.072127241604798
 21
-0.8415627106515106
 31
0.0
  0
LINE
  5
C0
330
18
100
AcDbEntity
  8
ADP2DETAIL
  6
HIDDEN2
100
AcDbLine
 10
2.017517362471934
 20
-0.8415627106515106
 30
0.0
 11
2.017517362471933
 21
-1.591562710651511
 31
0.0
  0
LINE
  5
C1
330
18
100
AcDbEntity
  8
ADP1DETAIL
100
AcDbLine
 10
2.048767362471933
 20
-0.6228127106515107
 30
0.0
 11
1.020589505638411
 21
-0.0069657487133021
 31
0.0
  0
LINE
  5
C2
330
18
100
AcDbEntity
  8
ADP2DETAIL
  6
HIDDEN2
100
AcDbLine
 10
1.837831209401942
 20
-0.6396653521776213
 30
0.0
 11
1.020589505629415
 21
-0.1537891511994349
 31
0.0
  0
ARC
  5
C3
330
18
100
AcDbEntity
  8
ADP1DETAIL
100
AcDbCircle
 10
0.9550173618987848
 20
-0.1133861131431875
 30
0.0
 40
0.125
100
AcDbArc
 50
58.36021844476447
 51
121.6397815552354
  0
ARC
  5
C4
330
18
100
AcDbEntity
  8
ADP2DETAIL
  6
HIDDEN2
100
AcDbCircle
 10
0.9550173618987841
 20
-0.2602095156348643
 30
0.0
 40
0.125
100
AcDbArc
 50
58.36021844960769
 51
121.6397815600787
  0
LINE
  5
C5
330
18
100
AcDbEntity
  8
ADP1DETAIL
100
AcDbLine
 10
2.048767362471933
 20
-0.6228127106515107
 30
0.0
 11
2.048767362471932
 21
-0.7165627106515107
 31
0.0
  0
LINE
  5
C6
330
18
100
AcDbEntity
  8
ADP2DETAIL
  6
HIDDEN2
100
AcDbLine
 10
1.837831209401942
 20
-0.6396653521776195
 30
0.0
 11
1.837831209401941
 21
-0.8415627106515106
 31
0.0
  0
LINE
  5
C7
330
18
100
AcDbEntity
  8
ADP2DETAIL
  6
HIDDEN2
100
AcDbLine
 10
1.837831209401941
 20
-0.8415627106515106
 30
0.0
 11
2.017517362471933
 21
-0.8415627106515106
 31
0.0
  0
LINE
  5
C8
330
18
100
AcDbEntity
  8
ADP1DETAIL
100
AcDbLine
 10
2.142517362471933
 20
-0.7165627106515107
 30
0.0
 11
2.142517362471933
 21
-1.591562710651511
 31
0.0
  0
TEXT
  5
D6
330
18
100
AcDbEntity
  8
ADPDIM
100
AcDbText
 10
-5.570711662084683
 20
-5.494746594829315
 30
0.0
 40
0.125
  1
J U L I U S  B L U M  &  C O . ,  I N C .      ( 8 0 0 )  5 2 6 - 6 2 9 3        W W W . J U L I U S B L U M . C O M        P A R T  N o .  5 7 2 0
 41
1.25
  7
ARIAL_WIDE
 72
     1
 11
0.9550173624719333
 21
-5.369746594829315
 31
0.0
100
AcDbText
 73
     3
  0
ENDSEC
  0
SECTION
  2
OBJECTS
  0
DICTIONARY
  5
C
330
0
100
AcDbDictionary
  3
ACAD_GROUP
350
D
  3
ACAD_LAYOUT
350
CF
  3
ACAD_MLINESTYLE
350
E
  3
ACAD_PLOTSETTINGS
350
D0
  3
ACAD_PLOTSTYLENAME
350
CD
  3
ACDBHEADERROUNDTRIPXREC
350
21A
  3
ACDBVARIABLEDICTIONARY
350
130
  0
DICTIONARY
  5
12A
330
18
100
AcDbDictionary
280
     1
  3
ACAD_LAYOUTSELFREF
360
23B
  0
DICTIONARY
  5
128
330
15
100
AcDbDictionary
280
     1
  3
ACAD_LAYOUTSELFREF
360
23A
  0
DICTIONARY
  5
D
102
{ACAD_REACTORS
330
C
102
}
330
C
100
AcDbDictionary
  0
DICTIONARY
  5
CF
102
{ACAD_REACTORS
330
C
102
}
330
C
100
AcDbDictionary
  0
DICTIONARY
  5
E
102
{ACAD_REACTORS
330
C
102
}
330
C
100
AcDbDictionary
  3
STANDARD
350
1B
  0
DICTIONARY
  5
D0
102
{ACAD_REACTORS
330
C
102
}
330
C
100
AcDbDictionary
  0
ACDBDICTIONARYWDFLT
  5
CD
102
{ACAD_REACTORS
330
C
102
}
330
C
100
AcDbDictionary
281
     1
  3
Normal
350
CE
100
AcDbDictionaryWithDefault
340
CE
  0
DICTIONARY
  5
21A
102
{ACAD_REACTORS
330
C
102
}
330
C
100
AcDbDictionary
  3
CEPSNTYPE
350
224
  3
FINGERPRINTGUID
350
225
  3
HYPERLINKBASE
350
21D
  3
INSUNITS
350
223
  3
LAYOUTDICT
350
21F
  3
LWETCUNION
350
222
  3
PLOTSETDICT
350
220
  3
PLOTSTYLNAMDICT
350
221
  3
PSVPSCALE
350
227
  3
PUCSBASE
350
22A
  3
PUCSORGBACK
350
230
  3
PUCSORGBOTTOM
350
22C
  3
PUCSORGFRONT
350
22F
  3
PUCSORGLEFT
350
22D
  3
PUCSORGRIGHT
350
22E
  3
PUCSORGTOP
350
22B
  3
PUCSORTHOREF
350
228
  3
PUCSORTHOVIEW
350
229
  3
STYLESHEET
350
21E
  3
TSTACKALIGN
350
21B
  3
TSTACKSIZE
350
21C
  3
UCSBASE
350
233
  3
UCSORGBACK
350
239
  3
UCSORGBOTTOM
350
235
  3
UCSORGFRONT
350
238
  3
UCSORGLEFT
350
236
  3
UCSORGRIGHT
350
237
  3
UCSORGTOP
350
234
  3
UCSORTHOREF
350
231
  3
UCSORTHOVIEW
350
232
  3
VERSIONGUID
350
226
  0
DICTIONARY
  5
130
102
{ACAD_REACTORS
330
C
102
}
330
C
100
AcDbDictionary
  3
DIMASSOC
350
131
  0
XRECORD
  5
23B
102
{ACAD_REACTORS
330
12A
102
}
330
12A
100
AcDbXrecord
340
18
  0
XRECORD
  5
23A
102
{ACAD_REACTORS
330
128
102
}
330
128
100
AcDbXrecord
340
15
  0
MLINESTYLE
  5
1B
102
{ACAD_REACTORS
330
E
102
}
330
E
100
AcDbMlineStyle
  2
STANDARD
 70
     0
  3

 62
     0
 51
90.0
 52
90.0
 71
     2
 49
0.5
 62
   256
  6
BYLAYER
 49
-0.5
 62
   256
  6
BYLAYER
  0
ACDBPLACEHOLDER
  5
CE
102
{ACAD_REACTORS
330
CD
102
}
330
CD
100
AcDbPlaceHolder
280
     0
  0
XRECORD
  5
224
102
{ACAD_REACTORS
330
21A
102
}
330
21A
100
AcDbXrecord
 90
        0
  0
XRECORD
  5
225
102
{ACAD_REACTORS
330
21A
102
}
330
21A
100
AcDbXrecord
  1
{07102822-D969-4FB5-A07F-85C41306127F}
  0
XRECORD
  5
21D
102
{ACAD_REACTORS
330
21A
102
}
330
21A
100
AcDbXrecord
  1

  0
XRECORD
  5
223
102
{ACAD_REACTORS
330
21A
102
}
330
21A
100
AcDbXrecord
 90
        0
  0
XRECORD
  5
21F
102
{ACAD_REACTORS
330
21A
102
}
330
21A
100
AcDbXrecord
340
CF
  0
XRECORD
  5
222
102
{ACAD_REACTORS
330
21A
102
}
330
21A
100
AcDbXrecord
 90
    14877
  0
XRECORD
  5
220
102
{ACAD_REACTORS
330
21A
102
}
330
21A
100
AcDbXrecord
340
D0
  0
XRECORD
  5
221
102
{ACAD_REACTORS
330
21A
102
}
330
21A
100
AcDbXrecord
340
CD
  0
XRECORD
  5
227
102
{ACAD_REACTORS
330
21A
102
}
330
21A
100
AcDbXrecord
 40
0.0
  0
XRECORD
  5
22A
102
{ACAD_REACTORS
330
21A
102
}
330
21A
100
AcDbXrecord
340
0
  0
XRECORD
  5
230
102
{ACAD_REACTORS
330
21A
102
}
330
21A
100
AcDbXrecord
 10
0.0
 20
0.0
 30
0.0
  0
XRECORD
  5
22C
102
{ACAD_REACTORS
330
21A
102
}
330
21A
100
AcDbXrecord
 10
0.0
 20
0.0
 30
0.0
  0
XRECORD
  5
22F
102
{ACAD_REACTORS
330
21A
102
}
330
21A
100
AcDbXrecord
 10
0.0
 20
0.0
 30
0.0
  0
XRECORD
  5
22D
102
{ACAD_REACTORS
330
21A
102
}
330
21A
100
AcDbXrecord
 10
0.0
 20
0.0
 30
0.0
  0
XRECORD
  5
22E
102
{ACAD_REACTORS
330
21A
102
}
330
21A
100
AcDbXrecord
 10
0.0
 20
0.0
 30
0.0
  0
XRECORD
  5
22B
102
{ACAD_REACTORS
330
21A
102
}
330
21A
100
AcDbXrecord
 10
0.0
 20
0.0
 30
0.0
  0
XRECORD
  5
228
102
{ACAD_REACTORS
330
21A
102
}
330
21A
100
AcDbXrecord
340
0
  0
XRECORD
  5
229
102
{ACAD_REACTORS
330
21A
102
}
330
21A
100
AcDbXrecord
 70
     0
  0
XRECORD
  5
21E
102
{ACAD_REACTORS
330
21A
102
}
330
21A
100
AcDbXrecord
  1

  0
XRECORD
  5
21B
102
{ACAD_REACTORS
330
21A
102
}
330
21A
100
AcDbXrecord
 90
        1
  0
XRECORD
  5
21C
102
{ACAD_REACTORS
330
21A
102
}
330
21A
100
AcDbXrecord
 90
       70
  0
XRECORD
  5
233
102
{ACAD_REACTORS
330
21A
102
}
330
21A
100
AcDbXrecord
340
0
  0
XRECORD
  5
239
102
{ACAD_REACTORS
330
21A
102
}
330
21A
100
AcDbXrecord
 10
0.0
 20
0.0
 30
0.0
  0
XRECORD
  5
235
102
{ACAD_REACTORS
330
21A
102
}
330
21A
100
AcDbXrecord
 10
0.0
 20
0.0
 30
0.0
  0
XRECORD
  5
238
102
{ACAD_REACTORS
330
21A
102
}
330
21A
100
AcDbXrecord
 10
0.0
 20
0.0
 30
0.0
  0
XRECORD
  5
236
102
{ACAD_REACTORS
330
21A
102
}
330
21A
100
AcDbXrecord
 10
0.0
 20
0.0
 30
0.0
  0
XRECORD
  5
237
102
{ACAD_REACTORS
330
21A
102
}
330
21A
100
AcDbXrecord
 10
0.0
 20
0.0
 30
0.0
  0
XRECORD
  5
234
102
{ACAD_REACTORS
330
21A
102
}
330
21A
100
AcDbXrecord
 10
0.0
 20
0.0
 30
0.0
  0
XRECORD
  5
231
102
{ACAD_REACTORS
330
21A
102
}
330
21A
100
AcDbXrecord
340
0
  0
XRECORD
  5
232
102
{ACAD_REACTORS
330
21A
102
}
330
21A
100
AcDbXrecord
 70
     0
  0
XRECORD
  5
226
102
{ACAD_REACTORS
330
21A
102
}
330
21A
100
AcDbXrecord
  1
{861C4526-5BBB-40C6-B260-0C166991E85B}
  0
DICTIONARYVAR
  5
131
102
{ACAD_REACTORS
330
130
102
}
330
130
100
DictionaryVariables
280
     0
  1
1
  0
ENDSEC
  0
EOF
