  0
SECTION
  2
HEADER
  9
$ACADVER
  1
AC1014
  9
$ACADMAINTVER
 70
     9
  9
$DWGCODEPAGE
  3
ANSI_1252
  9
$INSBASE
 10
36.00678193845655
 20
0.699965979823711
 30
0.0
  9
$EXTMIN
 10
15.78223207931106
 20
-2.312310886050712
 30
0.0
  9
$EXTMAX
 10
67.25989237944749
 20
27.97625345998605
 30
0.0
  9
$LIMMIN
 10
0.0
 20
0.0
  9
$LIMMAX
 10
12.0
 20
9.0
  9
$ORTHOMODE
 70
     1
  9
$REGENMODE
 70
     1
  9
$FILLMODE
 70
     1
  9
$QTEXTMODE
 70
     0
  9
$MIRRTEXT
 70
     1
  9
$DRAGMODE
 70
     0
  9
$LTSCALE
 40
1.0
  9
$OSMODE
 70
    37
  9
$ATTMODE
 70
     1
  9
$TEXTSIZE
 40
0.2
  9
$TRACEWID
 40
0.05
  9
$TEXTSTYLE
  7
STANDARD
  9
$CLAYER
  8
ADPDIM
  9
$CELTYPE
  6
BYLAYER
  9
$CECOLOR
 62
   256
  9
$CELTSCALE
 40
1.0
  9
$DELOBJ
 70
     1
  9
$DISPSILH
 70
     0
  9
$DIMSCALE
 40
1.0
  9
$DIMASZ
 40
0.18
  9
$DIMEXO
 40
0.0625
  9
$DIMDLI
 40
0.38
  9
$DIMRND
 40
0.0
  9
$DIMDLE
 40
0.0
  9
$DIMEXE
 40
0.18
  9
$DIMTP
 40
0.0
  9
$DIMTM
 40
0.0
  9
$DIMTXT
 40
0.18
  9
$DIMCEN
 40
0.09
  9
$DIMTSZ
 40
0.0
  9
$DIMTOL
 70
     0
  9
$DIMLIM
 70
     0
  9
$DIMTIH
 70
     1
  9
$DIMTOH
 70
     1
  9
$DIMSE1
 70
     0
  9
$DIMSE2
 70
     0
  9
$DIMTAD
 70
     0
  9
$DIMZIN
 70
     0
  9
$DIMBLK
  1

  9
$DIMASO
 70
     1
  9
$DIMSHO
 70
     1
  9
$DIMPOST
  1

  9
$DIMAPOST
  1

  9
$DIMALT
 70
     0
  9
$DIMALTD
 70
     2
  9
$DIMALTF
 40
25.4
  9
$DIMLFAC
 40
1.0
  9
$DIMTOFL
 70
     0
  9
$DIMTVP
 40
0.0
  9
$DIMTIX
 70
     0
  9
$DIMSOXD
 70
     0
  9
$DIMSAH
 70
     0
  9
$DIMBLK1
  1

  9
$DIMBLK2
  1

  9
$DIMSTYLE
  2
STANDARD
  9
$DIMCLRD
 70
     0
  9
$DIMCLRE
 70
     0
  9
$DIMCLRT
 70
     0
  9
$DIMTFAC
 40
1.0
  9
$DIMGAP
 40
0.09
  9
$DIMJUST
 70
     0
  9
$DIMSD1
 70
     0
  9
$DIMSD2
 70
     0
  9
$DIMTOLJ
 70
     1
  9
$DIMTZIN
 70
     0
  9
$DIMALTZ
 70
     0
  9
$DIMALTTZ
 70
     0
  9
$DIMFIT
 70
     3
  9
$DIMUPT
 70
     0
  9
$DIMUNIT
 70
     2
  9
$DIMDEC
 70
     4
  9
$DIMTDEC
 70
     4
  9
$DIMALTU
 70
     2
  9
$DIMALTTD
 70
     2
  9
$DIMTXSTY
  7
STANDARD
  9
$DIMAUNIT
 70
     0
  9
$LUNITS
 70
     5
  9
$LUPREC
 70
     3
  9
$SKETCHINC
 40
0.1
  9
$FILLETRAD
 40
0.0
  9
$AUNITS
 70
     0
  9
$AUPREC
 70
     0
  9
$MENU
  1
acad
  9
$ELEVATION
 40
0.0
  9
$PELEVATION
 40
0.0
  9
$THICKNESS
 40
0.0
  9
$LIMCHECK
 70
     0
  9
$BLIPMODE
 70
     0
  9
$CHAMFERA
 40
0.0
  9
$CHAMFERB
 40
0.0
  9
$CHAMFERC
 40
0.0
  9
$CHAMFERD
 40
0.0
  9
$SKPOLY
 70
     0
  9
$TDCREATE
 40
2450175.682427465
  9
$TDUPDATE
 40
2452297.073216678
  9
$TDINDWG
 40
0.0111396181
  9
$TDUSRTIMER
 40
0.0111396181
  9
$USRTIMER
 70
     1
  9
$ANGBASE
 50
0.0
  9
$ANGDIR
 70
     0
  9
$PDMODE
 70
     0
  9
$PDSIZE
 40
0.0
  9
$PLINEWID
 40
0.0
  9
$COORDS
 70
     2
  9
$SPLFRAME
 70
     0
  9
$SPLINETYPE
 70
     6
  9
$SPLINESEGS
 70
     8
  9
$ATTDIA
 70
     0
  9
$ATTREQ
 70
     1
  9
$HANDLING
 70
 22529
  9
$HANDSEED
  5
A21
  9
$SURFTAB1
 70
     6
  9
$SURFTAB2
 70
     6
  9
$SURFTYPE
 70
     6
  9
$SURFU
 70
     6
  9
$SURFV
 70
     6
  9
$UCSNAME
  2

  9
$UCSORG
 10
0.0
 20
0.0
 30
0.0
  9
$UCSXDIR
 10
1.0
 20
0.0
 30
0.0
  9
$UCSYDIR
 10
0.0
 20
1.0
 30
0.0
  9
$PUCSNAME
  2

  9
$PUCSORG
 10
0.0
 20
0.0
 30
0.0
  9
$PUCSXDIR
 10
1.0
 20
0.0
 30
0.0
  9
$PUCSYDIR
 10
0.0
 20
1.0
 30
0.0
  9
$USERI1
 70
     0
  9
$USERI2
 70
     0
  9
$USERI3
 70
     0
  9
$USERI4
 70
     0
  9
$USERI5
 70
     0
  9
$USERR1
 40
0.0
  9
$USERR2
 40
0.0
  9
$USERR3
 40
0.0
  9
$USERR4
 40
0.0
  9
$USERR5
 40
0.0
  9
$WORLDVIEW
 70
     1
  9
$SHADEDGE
 70
     3
  9
$SHADEDIF
 70
    70
  9
$TILEMODE
 70
     1
  9
$MAXACTVP
 70
    15
  9
$PINSBASE
 10
0.1562533378601077
 20
0.0
 30
0.0
  9
$PLIMCHECK
 70
     0
  9
$PEXTMIN
 10
1.000000000000000E+20
 20
1.000000000000000E+20
 30
1.000000000000000E+20
  9
$PEXTMAX
 10
-1.000000000000000E+20
 20
-1.000000000000000E+20
 30
-1.000000000000000E+20
  9
$PLIMMIN
 10
0.0
 20
0.0
  9
$PLIMMAX
 10
12.0
 20
9.0
  9
$UNITMODE
 70
     0
  9
$VISRETAIN
 70
     0
  9
$PLINEGEN
 70
     0
  9
$PSLTSCALE
 70
     1
  9
$TREEDEPTH
 70
  3020
  9
$PICKSTYLE
 70
     1
  9
$CMLSTYLE
  2
STANDARD
  9
$CMLJUST
 70
     0
  9
$CMLSCALE
 40
1.0
  9
$PROXYGRAPHICS
 70
     1
  9
$MEASUREMENT
 70
     0
  0
ENDSEC
  0
SECTION
  2
CLASSES
  0
CLASS
  1
ACDBDICTIONARYWDFLT
  2
AcDbDictionaryWithDefault
  3
AutoCAD 2000
 90
        0
280
     0
281
     0
  0
CLASS
  1
ACDBPLACEHOLDER
  2
AcDbPlaceHolder
  3
AutoCAD 2000
 90
        0
280
     0
281
     0
  0
CLASS
  1
LAYOUT
  2
AcDbLayout
  3
AutoCAD 2000
 90
        0
280
     0
281
     0
  0
CLASS
  1
DICTIONARYVAR
  2
AcDbDictionaryVar
  3
AutoCAD 2000
 90
        0
280
     0
281
     0
  0
CLASS
  1
LONG_TRANSACTION
  2
AcDbLongTransaction
  3
AutoCAD 2000
 90
        0
280
     0
281
     0
  0
CLASS
  1
LWPOLYLINE
  2
AcDbPolyline
  3
AutoCAD 2000
 90
        0
280
     0
281
     1
  0
CLASS
  1
HATCH
  2
AcDbHatch
  3
AutoCAD 2000
 90
        0
280
     0
281
     1
  0
CLASS
  1
XRECORD
  2
AcDbXrecord
  3
AutoCAD 2000
 90
        0
280
     0
281
     0
  0
CLASS
  1
LONG_TRANSACTION
  2
AcDbLongTransaction
  3
AutoCAD 2000
 90
        0
280
     0
281
     0
  0
CLASS
  1
LWPOLYLINE
  2
AcDbPolyline
  3
AutoCAD 2000
 90
        0
280
     0
281
     1
  0
CLASS
  1
HATCH
  2
AcDbHatch
  3
AutoCAD 2000
 90
        0
280
     0
281
     1
  0
CLASS
  1
XRECORD
  2
AcDbXrecord
  3
AutoCAD 2000
 90
        0
280
     0
281
     0
  0
CLASS
  1
LONG_TRANSACTION
  2
AcDbLongTransaction
  3
AutoCAD 2000
 90
        0
280
     0
281
     0
  0
CLASS
  1
LWPOLYLINE
  2
AcDbPolyline
  3
AutoCAD 2000
 90
        0
280
     0
281
     1
  0
CLASS
  1
HATCH
  2
AcDbHatch
  3
AutoCAD 2000
 90
        0
280
     0
281
     1
  0
CLASS
  1
XRECORD
  2
AcDbXrecord
  3
AutoCAD 2000
 90
        0
280
     0
281
     0
  0
CLASS
  1
LONG_TRANSACTION
  2
AcDbLongTransaction
  3
AutoCAD 2000
 90
        0
280
     0
281
     0
  0
CLASS
  1
LWPOLYLINE
  2
AcDbPolyline
  3
AutoCAD 2000
 90
        0
280
     0
281
     1
  0
CLASS
  1
HATCH
  2
AcDbHatch
  3
AutoCAD 2000
 90
        0
280
     0
281
     1
  0
CLASS
  1
XRECORD
  2
AcDbXrecord
  3
AutoCAD 2000
 90
        0
280
     0
281
     0
  0
CLASS
  1
LONG_TRANSACTION
  2
AcDbLongTransaction
  3
AutoCAD 2000
 90
        0
280
     0
281
     0
  0
CLASS
  1
LWPOLYLINE
  2
AcDbPolyline
  3
AutoCAD 2000
 90
        0
280
     0
281
     1
  0
CLASS
  1
HATCH
  2
AcDbHatch
  3
AutoCAD 2000
 90
        0
280
     0
281
     1
  0
CLASS
  1
XRECORD
  2
AcDbXrecord
  3
AutoCAD 2000
 90
        0
280
     0
281
     0
  0
CLASS
  1
LONG_TRANSACTION
  2
AcDbLongTransaction
  3
AutoCAD 2000
 90
        0
280
     0
281
     0
  0
CLASS
  1
LWPOLYLINE
  2
AcDbPolyline
  3
AutoCAD 2000
 90
        0
280
     0
281
     1
  0
CLASS
  1
HATCH
  2
AcDbHatch
  3
AutoCAD 2000
 90
        0
280
     0
281
     1
  0
CLASS
  1
XRECORD
  2
AcDbXrecord
  3
AutoCAD 2000
 90
        0
280
     0
281
     0
  0
ENDSEC
  0
SECTION
  2
TABLES
  0
TABLE
  2
VPORT
  5
8
330
0
100
AcDbSymbolTable
 70
     2
  0
VPORT
  5
9FE
330
8
100
AcDbSymbolTableRecord
100
AcDbViewportTableRecord
  2
*ACTIVE
 70
     0
 10
0.0
 20
0.0
 11
1.0
 21
1.0
 12
41.56242407386797
 22
12.83233511174655
 13
0.0
 23
0.0
 14
1.0
 24
1.0
 15
0.0
 25
0.0
 16
0.0
 26
0.0
 36
1.0
 17
0.0
 27
0.0
 37
0.0
 40
32.9933324829853
 41
1.570528967254408
 42
50.0
 43
0.0
 44
0.0
 50
0.0
 51
0.0
 71
     0
 72
   100
 73
     1
 74
     0
 75
     0
 76
     0
 77
     0
 78
     0
  0
ENDTAB
  0
TABLE
  2
LTYPE
  5
5
330
0
100
AcDbSymbolTable
 70
     1
  0
LTYPE
  5
12
330
5
100
AcDbSymbolTableRecord
100
AcDbLinetypeTableRecord
  2
BYBLOCK
 70
     0
  3

 72
    65
 73
     0
 40
0.0
  0
LTYPE
  5
13
330
5
100
AcDbSymbolTableRecord
100
AcDbLinetypeTableRecord
  2
BYLAYER
 70
     0
  3

 72
    65
 73
     0
 40
0.0
  0
LTYPE
  5
14
330
5
100
AcDbSymbolTableRecord
100
AcDbLinetypeTableRecord
  2
CONTINUOUS
 70
     0
  3
Solid line
 72
    65
 73
     0
 40
0.0
  0
ENDTAB
  0
TABLE
  2
LAYER
  5
2
330
0
100
AcDbSymbolTable
 70
     4
  0
LAYER
  5
F
330
2
100
AcDbSymbolTableRecord
100
AcDbLayerTableRecord
  2
0
 70
     0
 62
     7
  6
CONTINUOUS
  0
LAYER
  5
25
330
2
100
AcDbSymbolTableRecord
100
AcDbLayerTableRecord
  2
DEFPOINTS
 70
     0
 62
     7
  6
CONTINUOUS
  0
LAYER
  5
26
330
2
100
AcDbSymbolTableRecord
100
AcDbLayerTableRecord
  2
ADP1DETAIL
 70
     0
 62
     7
  6
CONTINUOUS
  0
LAYER
  5
29
330
2
100
AcDbSymbolTableRecord
100
AcDbLayerTableRecord
  2
ADPDIM
 70
     0
 62
     3
  6
CONTINUOUS
  0
ENDTAB
  0
TABLE
  2
STYLE
  5
3
330
0
100
AcDbSymbolTable
 70
     2
  0
STYLE
  5
10
330
3
100
AcDbSymbolTableRecord
100
AcDbTextStyleTableRecord
  2
STANDARD
 70
     0
 40
0.0
 41
1.0
 50
0.0
 71
     0
 42
0.2
  3
txt
  4

  0
STYLE
  5
8B6
330
3
100
AcDbSymbolTableRecord
100
AcDbTextStyleTableRecord
  2
ARIAL_WIDE
 70
     0
 40
0.0
 41
1.25
 50
0.0
 71
     0
 42
0.2
  3
ARIAL.TTF
  4

1001
ACAD
1000
Arial
1071
       34
  0
ENDTAB
  0
TABLE
  2
VIEW
  5
6
330
0
100
AcDbSymbolTable
 70
     0
  0
ENDTAB
  0
TABLE
  2
UCS
  5
7
330
0
100
AcDbSymbolTable
 70
     0
  0
ENDTAB
  0
TABLE
  2
APPID
  5
9
330
0
100
AcDbSymbolTable
 70
     1
  0
APPID
  5
11
330
9
100
AcDbSymbolTableRecord
100
AcDbRegAppTableRecord
  2
ACAD
 70
     0
  0
ENDTAB
  0
TABLE
  2
DIMSTYLE
  5
A
330
0
100
AcDbSymbolTable
 70
     1
  0
DIMSTYLE
105
8AA
330
A
100
AcDbSymbolTableRecord
100
AcDbDimStyleTableRecord
  2
STANDARD
 70
     0
  3

  4

  5

  6

  7

 40
1.0
 41
0.18
 42
0.0625
 43
0.38
 44
0.18
 45
0.0
 46
0.0
 47
0.0
 48
0.0
140
0.18
141
0.09
142
0.0
143
25.4
144
1.0
145
0.0
146
1.0
147
0.09
 71
     0
 72
     0
 73
     1
 74
     1
 75
     0
 76
     0
 77
     0
 78
     0
170
     0
171
     2
172
     0
173
     0
174
     0
175
     0
176
     0
177
     0
178
     0
270
     2
271
     4
272
     4
273
     2
274
     2
340
10
275
     0
280
     0
281
     0
282
     0
283
     1
284
     0
285
     0
286
     0
287
     3
288
     0
  0
ENDTAB
  0
TABLE
  2
BLOCK_RECORD
  5
1
330
0
100
AcDbSymbolTable
 70
     3
  0
BLOCK_RECORD
  5
18
102
{ACAD_XDICTIONARY
360
90B
102
}
330
1
100
AcDbSymbolTableRecord
100
AcDbBlockTableRecord
  2
*MODEL_SPACE
  0
BLOCK_RECORD
  5
15
102
{ACAD_XDICTIONARY
360
909
102
}
330
1
100
AcDbSymbolTableRecord
100
AcDbBlockTableRecord
  2
*PAPER_SPACE
  0
BLOCK_RECORD
  5
1C
330
1
100
AcDbSymbolTableRecord
100
AcDbBlockTableRecord
  2
571
  0
BLOCK_RECORD
  5
21
330
1
100
AcDbSymbolTableRecord
100
AcDbBlockTableRecord
  2
*D1
  0
BLOCK_RECORD
  5
22
330
1
100
AcDbSymbolTableRecord
100
AcDbBlockTableRecord
  2
*D2
  0
ENDTAB
  0
ENDSEC
  0
SECTION
  2
BLOCKS
  0
BLOCK
  5
2D
330
18
100
AcDbEntity
  8
0
100
AcDbBlockBegin
  2
*MODEL_SPACE
 70
     0
 10
0.0
 20
0.0
 30
0.0
  3
*MODEL_SPACE
  1

  0
ENDBLK
  5
2E
330
18
100
AcDbEntity
  8
0
100
AcDbBlockEnd
  0
BLOCK
  5
2B
330
15
100
AcDbEntity
 67
     1
  8
0
100
AcDbBlockBegin
  2
*PAPER_SPACE
 70
     0
 10
0.0
 20
0.0
 30
0.0
  3
*PAPER_SPACE
  1

  0
ENDBLK
  5
2C
330
15
100
AcDbEntity
 67
     1
  8
0
100
AcDbBlockEnd
  0
BLOCK
  5
2F
330
1C
100
AcDbEntity
  8
0
100
AcDbBlockBegin
  2
571
 70
     0
 10
0.0
 20
0.0
 30
0.0
  3
571
  1

  0
LINE
  5
30
330
1C
100
AcDbEntity
  8
0
100
AcDbLine
 10
6.893576591254568
 20
8.751115472893442
 30
0.0
 11
6.831935036882307
 21
8.525293899437965
 31
0.0
  0
LINE
  5
31
330
1C
100
AcDbEntity
  8
0
100
AcDbLine
 10
6.667557610291949
 20
8.935878486894504
 30
0.0
 11
6.585368974600281
 21
8.62794009665648
 31
0.0
  0
LWPOLYLINE
  5
32
330
1C
100
AcDbEntity
  8
0
100
AcDbPolyline
 90
        8
 70
     0
 43
0.0
 10
4.23475558601979
 20
5.151689402015602
 42
0.1481395436181633
 10
1.719988078794456
 20
5.293510281291843
 42
0.3131349219751661
 10
-0.0227183145512559
 20
3.041578782159902
 42
0.2509111110908825
 10
1.02290558333853
 20
0.3253314737901806
 42
0.2957250383091068
 10
3.997124292499506
 20
0.5574893282172714
 42
0.2852004039286097
 10
4.275957383505415
 20
2.554047157364331
 42
0.0224827642876865
 10
3.741527408440179
 20
2.948715620312346
 42
0.1995393948584142
 10
3.509166576621538
 20
2.995147151044324
 42
10.13611178940403
  0
LWPOLYLINE
  5
3C
330
1C
100
AcDbEntity
  8
0
100
AcDbPolyline
 90
        4
 70
     0
 43
0.0
 10
8.232665125064061
 20
5.560664140025044
 42
0.0356323736676954
 10
7.854314379159579
 20
5.525668135718934
 42
0.1734131843401081
 10
5.600414217695213
 20
4.713115494648716
 42
0.027059183058402
 10
5.441010330534096
 20
4.47778240685306
 42
-0.083633642944282
  0
LWPOLYLINE
  5
42
330
1C
100
AcDbEntity
  8
0
100
AcDbPolyline
 90
        2
 70
     0
 43
0.0
 10
6.837706753850078
 20
4.328986753821619
 42
0.0371992901455822
 10
6.831926688216373
 20
4.945273449459416
 42
0.0555105501760882
  0
LWPOLYLINE
  5
46
330
1C
100
AcDbEntity
  8
0
100
AcDbPolyline
 90
        9
 70
     0
 43
0.0
 10
4.442108270516506
 20
3.600698214130254
 42
0.0314428412540279
 10
4.740679047142699
 20
2.60047878847991
 42
-0.03187866750805
 10
4.996275931202026
 20
1.741494616677714
 42
-0.0185502166997188
 10
5.089220294870662
 20
1.253962991882143
 42
0.0021476562391798
 10
5.205400710779983
 20
0.0003104575155335
 10
5.80953899727317
 20
0.0003104575155335
 42
-0.0628031940683967
 10
5.925719413182491
 20
1.277178807439932
 42
-0.0569985187073409
 10
6.320732765391824
 20
2.57726297292212
 42
0.0480130778487429
 10
6.639721189884025
 20
3.305180986804544
 42
0.0555105501760882
  0
LWPOLYLINE
  5
51
330
1C
100
AcDbEntity
  8
0
100
AcDbPolyline
 90
       11
 70
     0
 43
0.0
 10
4.438609903896105
 20
3.784483976556753
 42
0.1583559295918786
 10
4.066832603927458
 20
3.993426115809655
 42
-0.1232099843366411
 10
4.090068656168143
 20
4.179152339121167
 42
0.2615645214837275
 10
4.066832603927458
 20
4.341662947642091
 42
0.1551547984433953
 10
3.578874888049489
 20
4.504173455779414
 42
-0.0515431510002576
 10
3.021208860743569
 20
4.573820802069182
 42
-0.2771911671735302
 10
3.090917017465623
 20
4.388094478374069
 42
0.2001613548373157
 10
3.207097433374944
 20
3.714836630266985
 42
0.201829761561855
 10
3.671819097012228
 20
3.459462960282106
 42
0.527479333867991
 10
3.973888240258822
 20
3.85413132284652
 42
-0.0737627505869182
 10
4.442108270516506
 20
3.600698214130254
 42
0.3687339421122031
  0
LWPOLYLINE
  5
5E
330
1C
100
AcDbEntity
  8
0
100
AcDbPolyline
 90
        3
 70
     0
 43
0.0
 10
4.288183112757965
 20
7.091188421089986
 42
0.0690782466278695
 10
4.229485124318149
 20
5.595315482008701
 42
0.0535008442352806
 10
4.392483519955804
 20
3.830036308108883
 42
-0.03187866750805
  0
LWPOLYLINE
  5
63
330
1C
100
AcDbEntity
  8
0
100
AcDbPolyline
 90
        3
 70
     0
 43
0.0
 10
6.329213779225475
 20
4.666939474265464
 42
-0.0630568509703622
 10
6.088371933573181
 20
3.296952452144782
 42
0.244621956172124
 10
4.693341214509151
 20
4.977841800906289
 42
0.1625465959964369
  0
LWPOLYLINE
  5
68
330
1C
100
AcDbEntity
  8
0
100
AcDbPolyline
 90
        6
 70
     0
 43
0.0
 10
4.258141422443455
 20
4.771853903944151
 42
0.0656565527444825
 10
3.625346992530859
 20
4.945273449459407
 42
0.4442382138892317
 10
0.4187672968453434
 20
3.413031329166527
 42
0.464216372299833
 10
2.115001585709685
 20
0.3021156582323915
 42
0.2526672633585103
 10
4.090068656168143
 20
1.253962991882143
 42
0.546064684219804
 10
3.462694472140168
 20
2.57726297292212
 42
-15.54880569570609
  0
LWPOLYLINE
  5
70
330
1C
100
AcDbEntity
  8
0
100
AcDbPolyline
 90
        4
 70
     0
 43
0.0
 10
5.55323539675795
 20
3.530608275074929
 42
0.1481982148431717
 10
5.437761542598625
 20
1.741494616677714
 42
0.1073364041766744
 10
5.553941958507946
 20
3.529110306571873
 42
0.1272232332715934
 10
4.750736376536342
 20
4.49540155185192
 42
0.4442382138892317
  0
LWPOLYLINE
  5
76
330
1C
100
AcDbEntity
  8
0
100
AcDbPolyline
 90
        2
 70
     0
 43
0.0
 10
6.823993397971957
 20
5.370422552292442
 42
0.0423474702778362
 10
6.6471146502524
 20
6.72794734786311
 42
0.0541130060173871
  0
LWPOLYLINE
  5
7A
330
1C
100
AcDbEntity
  8
0
100
AcDbPolyline
 90
        2
 70
     0
 43
0.0
 10
6.280138696312997
 20
5.714797169144377
 42
-0.0243439809974323
 10
6.330174524977992
 20
5.178296029387578
 42
0.2723770357488004
  0
LWPOLYLINE
  5
7E
330
1C
100
AcDbEntity
  8
0
100
AcDbPolyline
 90
        7
 70
     0
 43
0.0
 10
7.714897911009573
 20
2.60047878847991
 42
0.4505834437635949
 10
7.203703988185022
 20
2.043299817394572
 42
0.3274110252608781
 10
8.272563938315494
 20
0.5342736130430823
 42
0.4191150609756301
 10
10.41028368387053
 20
1.57898410854039
 42
0.3129114034356641
 10
9.666728929227346
 20
4.759547125764294
 42
0.2609672549066922
 10
6.251024608669769
 20
4.62025233280116
 42
0.0605017487106312
 10
5.794319227107208
 20
4.031314283498496
 42
0.1073364041766744
  0
LWPOLYLINE
  5
87
330
1C
100
AcDbEntity
  8
0
100
AcDbPolyline
 90
        3
 70
     0
 43
0.0
 10
5.231105508509686
 20
4.04230636432864
 42
0.0840285960012827
 10
5.065984242629977
 20
3.180873474739437
 42
-0.083633642944282
 10
4.66384638994381
 20
5.761990974420045
 42
-0.2071531141162634
  0
LWPOLYLINE
  5
8C
330
1C
100
AcDbEntity
  8
0
100
AcDbPolyline
 90
        2
 70
     0
 43
0.0
 10
5.208719217885668
 20
8.217336134807176
 42
-0.0350616349727321
 10
5.422016431235566
 20
8.50505374545323
 42
-0.2306721880449919
  0
LWPOLYLINE
  5
90
330
1C
100
AcDbEntity
  8
0
100
AcDbPolyline
 90
        7
 70
     0
 43
0.0
 10
5.838178890312707
 20
8.893673787671129
 42
-0.0335855591396264
 10
6.126589867569117
 20
9.079540997316836
 42
-0.2306721880449919
 10
9.263461251826683
 20
9.427777829149274
 42
-0.2703682156044608
 10
10.33232120195715
 20
7.849104178124417
 42
-0.3182497038597322
 10
9.379641667736004
 20
6.061488488230258
 42
-0.2880153086754074
 10
8.078421040492788
 20
6.084704303788047
 42
-0.4488548037543708
 10
8.124893144974157
 20
6.897256844474664
 42
-0.4488548037543708
  0
LWPOLYLINE
  5
99
330
1C
100
AcDbEntity
  8
0
100
AcDbPolyline
 90
       12
 70
     0
 43
0.0
 10
7.254930151386334
 20
7.731742401192944
 42
-0.0180281662759605
 10
7.319884404094343
 20
7.824031165582852
 42
-0.0137470687009386
 10
6.831926688216374
 20
7.870462796698431
 42
0.4421098812294367
 10
6.134844192760448
 20
7.61508912671355
 42
0.3602691961575045
 10
5.995427569904546
 20
7.173989133033559
 10
5.693358581363849
 20
7.034694340070424
 10
5.693358581363849
 20
7.336499641170882
 42
0.5382825502784617
 10
5.948955465423176
 20
7.707952288561108
 42
0.2929367299979178
 10
5.368053385876571
 20
8.172267997415287
 42
-0.1209349007665693
 10
5.042748190389293
 20
8.311562790378422
 42
0.1232100540815531
 10
4.949803826720656
 20
7.61508912671355
 42
0.4405274457131013
 10
5.460997749545208
 20
7.243636479323326
 42
-0.101100721603782
  0
LWPOLYLINE
  5
A7
330
1C
100
AcDbEntity
  8
0
100
AcDbPolyline
 90
        7
 70
     0
 43
0.0
 10
6.227788401723187
 20
6.732889139353566
 42
0.2843469334075592
 10
5.925719413182491
 20
6.640025977506009
 42
0.1784343194384535
 10
5.80953899727317
 20
6.825752301201122
 42
0.2727461641239044
 10
6.088371933573181
 20
6.941831178222868
 42
0.55823631204466
 10
6.576329804157047
 20
6.709673323795777
 42
0.2769586859290615
 10
7.017815415553647
 20
7.104341786743791
 42
-0.0673262901000949
 10
7.133758437321832
 20
7.507701501467422
 42
-0.0137470687009386
  0
LWPOLYLINE
  5
B0
330
1C
100
AcDbEntity
  8
0
100
AcDbPolyline
 90
        2
 70
     0
 43
0.0
 10
4.996275931202026
 20
8.961604822927716
 42
0.0597218689072845
 10
4.459220901436992
 20
7.782324819503653
 42
0.0922037128439303
  0
LWPOLYLINE
  5
B4
330
1C
100
AcDbEntity
  8
0
100
AcDbPolyline
 90
        9
 70
     0
 43
0.0
 10
5.670122374417267
 20
6.361436491963341
 42
0.2653631243753293
 10
5.321581126689304
 20
6.454299653810897
 42
-0.2362529353909452
 10
5.368053385876571
 20
6.616810161948221
 42
-0.2358832901731663
 10
5.693358581363849
 20
6.547162815658453
 42
0.1926449732439927
 10
5.553941958507946
 20
6.315004961231363
 42
0.3533415208342748
 10
5.80953899727317
 20
5.850689151993581
 42
-0.2385342495317644
 10
6.483385440488412
 20
5.525668135718934
 42
0.2832527953643417
 10
6.669274013119786
 20
6.245357614941595
 42
0.2153148999477486
 10
6.397836645446693
 20
6.658825648656789
 42
0.2843469334075592
  0
LWPOLYLINE
  5
BF
330
1C
100
AcDbEntity
  8
0
100
AcDbPolyline
 90
       11
 70
     0
 43
0.0
 10
4.973039878961341
 20
6.407868123078919
 42
0.6019986469002104
 10
4.647734683474062
 20
6.222141799383806
 42
0.1401727149905159
 10
4.554790319805427
 20
5.664962828298468
 42
0.265679821730499
 10
4.763915099383384
 20
6.059631291246483
 42
-0.1359750454142573
 10
5.158928606298614
 20
6.500731284926475
 42
-0.2914539095635118
 10
5.158928606298614
 20
6.338220676405551
 42
-0.3027898540883648
 10
4.926567774479972
 20
6.10606282197846
 42
0.2593240750124274
 10
5.042748190389293
 20
5.641747113124279
 42
0.3203806402367828
 10
5.437761542598625
 20
5.316725996466032
 42
-0.1428570427832547
 10
5.600414217695213
 20
5.154215488328708
 42
0.1044799541830697
 10
5.931969657432896
 20
5.843930420172108
 42
-0.8196253756233357
  0
LWPOLYLINE
  5
CC
330
1C
100
AcDbEntity
  8
0
100
AcDbPolyline
 90
        2
 70
     0
 43
0.0
 10
4.694133897409979
 20
6.361345327417376
 42
-0.0172491742138714
 10
4.760761334230692
 20
6.899614065551791
 42
-0.2071531141162634
  0
LWPOLYLINE
  5
D0
330
1C
100
AcDbEntity
  8
0
100
AcDbPolyline
 90
        8
 70
     0
 43
0.0
 10
5.065984242629977
 20
7.61508912671355
 42
0.2286307395112034
 10
4.647734683474062
 20
7.800815450408664
 42
0.1245999167662352
 10
4.25272133126473
 20
7.707952288561108
 42
-0.2975417220343827
 10
4.020360499446089
 20
7.731168003735296
 42
0.1366468786437522
 10
4.229485124318149
 20
7.313283825613093
 42
0.6498644779805051
 10
4.926567774479972
 20
6.988262809338445
 10
5.065984242629977
 20
6.756104954911355
 10
4.647734683474062
 20
6.523947000100664
  0
LWPOLYLINE
  5
DA
330
1C
100
AcDbEntity
  8
0
100
AcDbPolyline
 90
        5
 70
     0
 43
0.0
 10
5.460997749545208
 20
7.243636479323326
 10
5.414525490357941
 20
6.941831178222868
 10
5.228636763020668
 20
6.8721838319331
 10
5.065984242629977
 20
7.104341786743791
 42
0.043050591039254
 10
5.089329355801155
 20
7.344455833835841
 42
0.2286307395112034
  0
LWPOLYLINE
  5
E1
330
1C
100
AcDbEntity
  8
0
100
AcDbPolyline
 90
        4
 70
     0
 43
0.0
 10
6.319504567696083
 20
7.842082510383418
 42
0.044790344774612
 10
5.693358581363849
 20
9.147331146622828
 42
0.0541130060173871
 10
4.763915099383384
 20
10.3211213999463
 42
-0.2349854869098433
 10
4.322429487986784
 20
11.57477393431291
 42
-0.8839892267721163
  0
LWPOLYLINE
  5
E7
330
1C
100
AcDbEntity
  8
0
100
AcDbPolyline
 90
        8
 70
     0
 43
0.0
 10
4.39492939515536
 20
9.26103992159058
 10
4.243891492177962
 20
9.126901277116102
 42
0.2266948938760602
 10
3.825641933022048
 20
9.312627600811214
 42
0.5276904859201544
 10
3.616517308149988
 20
8.987606484152967
 42
-0.2606089377383843
 10
3.384156321625449
 20
8.476859144183208
 42
0.0223582185648272
 10
3.918586296690684
 20
8.383995982335653
 42
0.8472487949012855
 10
4.336835855846599
 20
9.010822299710758
 42
-0.0239957180010598
 10
4.683959458668936
 20
9.10046334968749
  0
LWPOLYLINE
  5
F1
330
1C
100
AcDbEntity
  8
0
100
AcDbPolyline
 90
        8
 70
     0
 43
0.0
 10
6.44910346731577
 20
9.26103992159058
 10
6.600141370293169
 20
9.126901277116102
 42
-0.2266948938760602
 10
7.018390929449084
 20
9.312627600811214
 42
-0.5276904859201544
 10
7.227515554321143
 20
8.987606484152967
 42
0.2606089377383843
 10
7.459876540845683
 20
8.476859144183208
 42
-0.0223582185648272
 10
6.925446565780447
 20
8.383995982335653
 42
-0.8472487949012855
 10
6.507197006624532
 20
9.010822299710758
 42
0.0239957180010598
 10
6.160073403802195
 20
9.10046334968749
  0
LWPOLYLINE
  5
FB
330
1C
100
AcDbEntity
  8
0
100
AcDbPolyline
 90
        6
 70
     0
 43
0.0
 10
7.668425651822306
 20
2.855852458464789
 42
0.4458734356229858
 10
6.878398792697744
 20
1.787926147409692
 42
0.3009132906313887
 10
7.459300872244349
 20
0.6503524900648277
 42
0.2772576726287148
 10
9.713201188414613
 20
0.2556841275004134
 42
0.3349351340582084
 10
10.87500534750782
 20
3.552326122129662
 42
0.2575875491255617
 10
9.109062901921426
 20
5.432066496570889
 42
0.1734131843401081
  0
LWPOLYLINE
  5
103
330
1C
100
AcDbEntity
  8
0
100
AcDbPolyline
 90
        4
 70
     0
 43
0.0
 10
1.07573936348374
 20
13.08865576008747
 42
-0.0649723956437
 10
0.2096425172673861
 20
14.59839823511802
 42
-0.1241864933623838
 10
0.2240488851272004
 20
18.97225272648844
 42
-0.0803048068186763
 10
1.199276184675597
 20
20.79194923436537
 42
0.1220531690517936
  0
LWPOLYLINE
  5
109
330
1C
100
AcDbEntity
  8
0
100
AcDbPolyline
 90
       10
 70
     0
 43
0.0
 10
2.411138727966829
 20
12.17378544456457
 42
0.108402080828874
 10
2.417070574250382
 20
12.35296717638829
 42
0.4551957604067893
 10
1.673515974313086
 20
12.9797934937634
 42
0.336052121613252
 10
0.4187672968453434
 20
11.86543565197632
 42
0.2989916313421163
 10
1.162322051488536
 20
10.44927250908879
 42
0.0872826527373483
 10
2.602959301587654
 20
10.17068302354612
 42
-0.096632707588693
 10
4.926567774479972
 20
9.474209359881252
 42
0.0929010840781105
 10
3.323277849284265
 20
10.89037250276878
 42
-0.0470614153452936
 10
1.975584962853782
 20
12.1208093219612
 42
-0.0396565441348637
 10
1.235512874254367
 20
12.88687586520212
 42
-0.1241864933623838
  0
LWPOLYLINE
  5
115
330
1C
100
AcDbEntity
  8
0
100
AcDbPolyline
 90
       15
 70
     0
 43
0.0
 10
2.771313130221666
 20
13.37422382275151
 42
0.0763389837553986
 10
3.128559437566122
 20
12.4346867547988
 42
0.0302198899695007
 10
3.988294608118636
 20
11.11138677375882
 10
3.988294608118636
 20
11.73821309113393
 42
-0.3819201127225389
 10
3.802405880781363
 20
11.62213411372858
 42
0.7753746701404446
 10
3.825641933022048
 20
11.83107625298148
 42
-0.4628251557204942
 10
3.872114192209314
 20
12.36503940850903
 42
-0.5996846900029622
 10
3.918586296690684
 20
12.92221827921077
 42
0.0979765473557239
 10
4.45301627175592
 20
13.293670926601
 42
-0.4828025887085829
 10
4.940973987633888
 20
13.20080776475344
 42
-0.5210284859321314
 10
4.778321467243198
 20
12.57398144737833
 42
-0.4399849862284831
 10
4.569196687665241
 20
12.06323410740857
 42
0.0384341372647191
 10
4.615668946852507
 20
11.90072359927125
 42
-0.5354430549387659
 10
4.40654416727455
 20
11.69178146001835
 42
0.2771089408112999
 10
4.313599803605914
 20
11.52927095188102
 42
0.9790912514360714
  0
LWPOLYLINE
  5
126
330
1C
100
AcDbEntity
  8
0
100
AcDbPolyline
 90
        3
 70
     0
 43
0.0
 10
5.846578037393104
 20
15.86940167947495
 42
0.4727638873746497
 10
3.012379021656801
 20
15.47595497905957
 42
0.1274252615502044
 10
2.705464328349268
 20
13.84392642611684
 42
0.0302198899695007
  0
LWPOLYLINE
  5
12B
330
1C
100
AcDbEntity
  8
0
100
AcDbPolyline
 90
        3
 70
     0
 43
0.0
 10
2.771313130221666
 20
13.37422382275151
 10
2.919434657988165
 20
13.78120245101297
 42
0.5534624391261921
 10
3.546808996722037
 20
13.85084979730273
 42
-0.0458146037275713
  0
LWPOLYLINE
  5
130
330
1C
100
AcDbEntity
  8
0
100
AcDbPolyline
 90
        4
 70
     0
 43
0.0
 10
3.173149115952386
 20
14.58728790417437
 42
0.0015431911447514
 10
3.151795489806807
 20
14.59375509208318
 42
0.8654455250381996
 10
2.849726501266111
 20
13.94371295915029
 10
2.705464328349268
 20
13.84392642611684
  0
LWPOLYLINE
  5
136
330
1C
100
AcDbEntity
  8
0
100
AcDbPolyline
 90
        2
 70
     0
 43
0.0
 10
1.704455983664959
 20
12.98382940891508
 42
0.033875405701422
 10
3.128559437566121
 20
11.45590911124011
 42
-0.1331744895164515
  0
LWPOLYLINE
  5
13A
330
1C
100
AcDbEntity
  8
0
100
AcDbPolyline
 90
        3
 70
     0
 43
0.0
 10
0.3443272308396015
 20
15.86242651822407
 42
0.0499005569929589
 10
0.6887705487644844
 20
14.38759879849774
 42
0.0226195779224711
 10
1.494424772532302
 20
13.24807479404463
 42
-0.1331744895164515
  0
LWPOLYLINE
  5
13F
330
1C
100
AcDbEntity
  8
0
100
AcDbPolyline
 90
       16
 70
     0
 43
0.0
 10
2.395467445097843
 20
11.68597556422621
 42
-0.1013320647779853
 10
2.13823763795037
 20
11.56363035087586
 42
0.0785218892233706
 10
2.18470974243174
 20
11.35468831200656
 42
-0.8322232042876052
 10
1.812932442463092
 20
11.12253035719587
 42
-0.43259234367821
 10
1.464391194735129
 20
10.75107781018925
 42
-0.1621432320910161
 10
1.18555810372922
 20
10.70464617907367
 42
0.288126592706802
 10
1.02290558333853
 20
10.6349988327839
 42
-0.1913004110011659
 10
0.8834889604826273
 20
10.54213567093635
 42
-0.4141615590301086
 10
0.7440724923326217
 20
10.70464617907367
 42
0.4600220040092239
 10
0.8602529082419426
 20
10.8439409720368
 42
-0.006854153524542
 10
0.9764333241512634
 20
11.40111984273854
 42
-0.4043281733013265
 10
1.417918935547862
 20
11.61006198199144
 42
-0.4661732231836842
 10
1.510863299216499
 20
11.86543565197632
 42
-0.0784007079416742
 10
1.719988078794456
 20
11.81900402086075
 42
0.3495511249540333
 10
2.161473690191055
 20
11.88865146753411
 42
0.0145731418927221
 10
2.183826528010732
 20
11.89838394023395
 42
0.4551957604067893
  0
LWPOLYLINE
  5
151
330
1C
100
AcDbEntity
  8
0
100
AcDbPolyline
 90
       10
 70
     0
 43
0.0
 10
3.30004179704358
 20
7.315141022596868
 42
-0.0826164589562069
 10
3.13738927665289
 20
6.01505695749828
 42
-0.2942484095098203
 10
1.882640599185146
 20
5.457877986412942
 42
-0.3937914858465397
 10
0.0934621013580651
 20
7.825888462950228
 42
-0.310907754293518
 10
1.789696390222407
 20
9.984956800234611
 42
-0.1802465002682826
 10
0.5349477127546645
 20
10.58856730205192
 42
-0.3095295797221114
 10
0.3722951923639739
 20
12.56190931564119
 42
-0.3602989503207463
 10
2.068529326522419
 20
13.16551981745851
 42
-0.1215743748398299
 10
2.74237576973766
 20
12.42261452267806
 42
-0.0516253025828632
 10
2.602959301587655
 20
11.93508299826609
 42
-0.2195963040113847
  0
LWPOLYLINE
  5
15D
330
1C
100
AcDbEntity
  8
0
100
AcDbPolyline
 90
       13
 70
     0
 43
0.0
 10
3.048090397395577
 20
11.5318432777362
 10
2.570893410260202
 20
13.0615129717903
 10
1.966755278472912
 20
13.7115551047232
 10
1.827338810322906
 20
13.73477092028099
 42
-0.20532801280242
 10
1.641450082985634
 20
13.47939725029611
 42
-0.5462087281248102
 10
1.316144887498356
 20
13.64190775843343
 42
-0.0090095268729762
 10
0.8514232238610722
 20
14.17587081357738
 42
0.2276368181341127
 10
1.246436576070404
 20
14.31516560654051
 42
-0.1699967599433811
 10
1.804102603376324
 20
14.29194979098272
 42
-0.1288792939981718
 10
1.920283019285646
 20
13.87406561286052
 10
2.222352162532239
 20
13.75798663545518
 10
2.222352162532239
 20
13.89728142841831
 42
-0.1220545466726205
 10
1.641450082985634
 20
14.82591294651028
 42
-1.379171833253179
  0
LWPOLYLINE
  5
16C
330
1C
100
AcDbEntity
  8
0
100
AcDbPolyline
 90
        4
 70
     0
 43
0.0
 10
9.783133257768092
 20
13.10822634243019
 42
0.0640556223750478
 10
10.63439034520374
 20
14.59839823511802
 42
0.1241864933623838
 10
10.61998397734393
 20
18.97225272648844
 42
0.0803048068186763
 10
9.644756677795536
 20
20.79194923436537
 42
-0.012296919170518
  0
LWPOLYLINE
  5
172
330
1C
100
AcDbEntity
  8
0
100
AcDbPolyline
 90
       10
 70
     0
 43
0.0
 10
8.432894134504303
 20
12.17378544456457
 42
-0.108402080828874
 10
8.426962288220751
 20
12.35296717638829
 42
-0.4551957604067893
 10
9.170516888158045
 20
12.9797934937634
 42
-0.336052121613252
 10
10.42526556562579
 20
11.86543565197632
 42
-0.2989916313421163
 10
9.681710810982597
 20
10.44927250908879
 42
-0.0872826527373483
 10
8.241073560883478
 20
10.17068302354612
 42
0.096632707588693
 10
5.91746508799116
 20
9.474209359881252
 42
-0.0929010840781105
 10
7.520755013186867
 20
10.89037250276878
 42
0.0470614153452936
 10
8.868447899617351
 20
12.1208093219612
 42
0.0395155223326002
 10
9.606111386237483
 20
12.8839524840191
 42
0.1241864933623838
  0
LWPOLYLINE
  5
17E
330
1C
100
AcDbEntity
  8
0
100
AcDbPolyline
 90
        3
 70
     0
 43
0.0
 10
5.358736245847663
 20
13.6862826368046
 42
-0.139634488793983
 10
4.894501883152519
 20
13.85084979730273
 42
0.1814831314398466
 10
4.824793571724567
 20
14.19908662913517
 42
-1.800048377722808
  0
LWPOLYLINE
  5
183
330
1C
100
AcDbEntity
  8
0
100
AcDbPolyline
 90
        3
 70
     0
 43
0.0
 10
4.313599803605914
 20
13.87406561286052
 42
0.203414351119392
 10
4.685377103574562
 20
13.7115551047232
 42
0.1318364235485918
 10
5.156013598055461
 20
13.45625490668946
 42
-0.0496086317874608
  0
LWPOLYLINE
  5
188
330
1C
100
AcDbEntity
  8
0
100
AcDbPolyline
 90
        3
 70
     0
 43
0.0
 10
6.403872688089413
 20
13.87406561286052
 42
-0.203414351119392
 10
6.032095388120765
 20
13.7115551047232
 42
-0.0939304534997852
 10
5.708597394103841
 20
13.50334240000384
 42
0.0496086317874608
  0
LWPOLYLINE
  5
18D
330
1C
100
AcDbEntity
  8
0
100
AcDbPolyline
 90
        3
 70
     0
 43
0.0
 10
5.538741716102371
 20
13.71622966059473
 42
0.0881337369796441
 10
5.822970608542807
 20
13.85084979730273
 42
-0.1814831314398466
 10
5.89267891997076
 20
14.19908662913517
 42
1.800048377722808
  0
LWPOLYLINE
  5
192
330
1C
100
AcDbEntity
  8
0
100
AcDbPolyline
 90
        2
 70
     0
 43
0.0
 10
5.218832476755518
 20
13.68833928916541
 42
0.0389672696908494
 10
5.358736245847664
 20
13.6862826368046
 42
-0.1814831314398466
  0
LWPOLYLINE
  5
196
330
1C
100
AcDbEntity
  8
0
100
AcDbPolyline
 90
        2
 70
     0
 43
0.0
 10
5.529899748713116
 20
14.97350743272462
 42
0.0045039561851407
 10
5.520901465296215
 20
14.9884234546476
 42
0.5586848747807464
  0
LWPOLYLINE
  5
19A
330
1C
100
AcDbEntity
  8
0
100
AcDbPolyline
 90
        3
 70
     0
 43
0.0
 10
5.89267891997076
 20
14.17587081357738
 42
0.201278847332856
 10
5.660318088152117
 20
14.57053927652539
 42
0.0437588134488755
 10
5.630130952440505
 20
14.73674669330928
 42
0.5586848747807464
  0
LWPOLYLINE
  5
19F
330
1C
100
AcDbEntity
  8
0
100
AcDbPolyline
 90
        3
 70
     0
 43
0.0
 10
5.633808955658189
 20
14.93014356070014
 42
0.1491122372367669
 10
5.846206660783493
 20
14.94199182353202
 42
0.0442075346597616
 10
6.171511856270771
 20
14.68661815354714
 42
-3.368344065460616
  0
LWPOLYLINE
  5
1A4
330
1C
100
AcDbEntity
  8
0
100
AcDbPolyline
 90
       18
 70
     0
 43
0.0
 10
5.358736245847663
 20
14.4167987213021
 42
0.0132362087387196
 10
5.381484997146208
 20
14.40802876838807
 42
0.0991042323457732
 10
5.335012892664839
 20
13.9204971435925
 42
-0.2910644279334642
 10
5.915914972211444
 20
14.17587081357738
 42
0.2611521217023686
 10
6.357400583608043
 20
14.05979193655563
 42
0.8671883428774725
 10
6.589761415426686
 20
13.89728142841831
 42
-0.0586723860132122
 10
6.543289156239419
 20
13.34010245733297
 42
0.3582051006643051
 10
6.891830558673278
 20
14.01336030544006
 42
-0.0516248036425096
 10
7.0080109745826
 20
13.59547612731785
 42
0.4144694824083896
 10
7.263607858641926
 20
14.19908662913517
 42
0.4860096589778337
 10
7.495968690460569
 20
14.75626560022051
 42
0.2551896290324089
 10
7.356552222310562
 20
15.33666028648003
 42
0.5571858897735856
 10
6.938302663154648
 20
15.82419181089201
 42
0.3059998082131925
 10
6.61299746766737
 20
16.10278129643467
 42
0.1379343321193016
 10
6.334164531367359
 20
15.84740762644979
 42
0.3253093497695716
 10
5.567373724483481
 20
15.68489711831247
 42
0.1909966343295306
 10
5.358248944905524
 20
15.24379712463248
 42
0.0028643707747361
 10
5.358736245847663
 20
15.23964842509244
 42
0.0442075346597616
  0
LWPOLYLINE
  5
1B8
330
1C
100
AcDbEntity
  8
0
100
AcDbPolyline
 90
        2
 70
     0
 43
0.0
 10
5.358248944905524
 20
15.26701294019026
 42
0.0005383655467364
 10
5.357334123879147
 20
15.26662976747536
 42
0.0991042323457732
  0
LWPOLYLINE
  5
1BC
330
1C
100
AcDbEntity
  8
0
100
AcDbPolyline
 90
        2
 70
     0
 43
0.0
 10
4.624634936309329
 20
15.90465465550149
 42
-0.0783191716318657
 10
5.028483563855937
 20
16.30779092158374
 42
-0.2856843891184981
  0
LWPOLYLINE
  5
1C0
330
1C
100
AcDbEntity
  8
0
100
AcDbPolyline
 90
        3
 70
     0
 43
0.0
 10
5.359040941131627
 20
16.19339753151721
 42
0.0135445459618433
 10
5.243043130880482
 20
16.14921282716665
 42
-0.015951026048567
 10
4.894501883152519
 20
15.84740762644979
 42
2.81907213112067
  0
LWPOLYLINE
  5
1C5
330
1C
100
AcDbEntity
  8
0
100
AcDbPolyline
 90
        3
 70
     0
 43
0.0
 10
8.153497577844085
 20
14.62234220383049
 42
0.1686380922564975
 10
7.450471187863478
 20
15.89383915718177
 42
0.1950199663451108
 10
5.776196989451644
 20
16.29678397081828
 42
-0.015951026048567
  0
LWPOLYLINE
  5
1CA
330
1C
100
AcDbEntity
  8
0
100
AcDbPolyline
 90
        4
 70
     0
 43
0.0
 10
5.366139496440901
 20
16.50189862361312
 42
-0.1425823665794761
 10
6.381611237733007
 20
16.63674445196222
 42
-0.2856843891184981
 10
8.426386774325314
 20
15.26701294019026
 42
-0.03242901890871
 10
8.501619587357817
 20
14.61816621521452
 42
2.041087012521101
  0
ARC
  5
1D0
330
1C
100
AcDbEntity
  8
0
100
AcDbCircle
 10
6.400578279755409
 20
14.99451546838618
 30
0.0
 40
0.239082974807203
100
AcDbArc
 50
265.2154643450139
 51
9.713754994909155
  0
ARC
  5
1D1
330
1C
100
AcDbEntity
  8
0
100
AcDbCircle
 10
6.178872075621593
 20
15.09762307307488
 30
0.0
 40
0.389665822969801
100
AcDbArc
 50
305.2692421433389
 51
354.1742702603618
  0
ARC
  5
1D2
330
1C
100
AcDbEntity
  8
0
100
AcDbCircle
 10
6.926679678768794
 20
15.02349742800399
 30
0.0
 40
0.1837919231380014
100
AcDbArc
 50
235.3271248847976
 51
325.2649784064648
  0
ARC
  5
1D3
330
1C
100
AcDbEntity
  8
0
100
AcDbCircle
 10
5.947028152063978
 20
13.32843795457423
 30
0.0
 40
1.042688179851034
100
AcDbArc
 50
48.62466038749583
 51
95.54881677539272
  0
LWPOLYLINE
  5
1D4
330
1C
100
AcDbEntity
  8
0
100
AcDbPolyline
 90
        3
 70
     0
 43
0.0
 10
7.286843910882611
 20
14.19908662913517
 42
0.1054602632148222
 10
6.845358299486012
 20
14.19908662913517
 42
-0.1669563849493031
 10
6.310928324420777
 20
14.05979193655563
 42
0.0379642985581646
  0
ARC
  5
1D9
330
1C
100
AcDbEntity
  8
0
100
AcDbCircle
 10
6.49758779479526
 20
15.08128661649515
 30
0.0
 40
0.6645782928007944
100
AcDbArc
 50
294.7338788013252
 51
24.7839257102653
  0
LWPOLYLINE
  5
1DA
330
1C
100
AcDbEntity
  8
0
100
AcDbPolyline
 90
        9
 70
     0
 43
0.0
 10
5.683554140392802
 20
15.49917079461736
 42
0.2900721961579995
 10
5.985623128933498
 20
15.15093396278492
 42
-0.2507745464862859
 10
6.473580999517364
 20
14.45446029912005
 42
0.4258129215341214
 10
6.636233519908055
 20
14.89556029280004
 42
-0.103699427041341
 10
6.566525363186
 20
15.17414977834271
 42
-0.0905175478816395
 10
6.61299746766737
 20
15.49917079461736
 42
-0.1897424393082817
 10
6.357400583608043
 20
15.59203395646491
 42
-0.3133845650835232
 10
6.10180354484282
 20
15.31344447092225
 42
0.3317811138816815
 10
5.962387076692814
 20
15.15093396278492
 42
-0.9338817498465017
  0
LWPOLYLINE
  5
1E5
330
1C
100
AcDbEntity
  8
0
100
AcDbPolyline
 90
       16
 70
     0
 43
0.0
 10
8.44856541737329
 20
11.68597556422621
 42
0.1013320647779856
 10
8.705795224520763
 20
11.56363035087586
 42
-0.0785218892233706
 10
8.659323120039394
 20
11.35468831200656
 42
0.8322232042876052
 10
9.031100420008041
 20
11.12253035719587
 42
0.43259234367821
 10
9.379641667736004
 20
10.75107781018925
 42
0.1621432320910161
 10
9.658474758741911
 20
10.70464617907367
 42
-0.288126592706802
 10
9.821127279132603
 20
10.6349988327839
 42
0.1913004110011659
 10
9.960543901988506
 20
10.54213567093635
 42
0.4141615590301086
 10
10.09996037013851
 20
10.70464617907367
 42
-0.4600220040092239
 10
9.983779954229191
 20
10.8439409720368
 42
0.006854153524542
 10
9.86759953831987
 20
11.40111984273854
 42
0.4043281733013265
 10
9.426113926923271
 20
11.61006198199144
 42
0.4661732231836842
 10
9.333169563254633
 20
11.86543565197632
 42
0.0784007079416742
 10
9.124044783676676
 20
11.81900402086075
 42
-0.3495511249540333
 10
8.682559172280077
 20
11.88865146753411
 42
-0.0145731418927216
 10
8.660206334460401
 20
11.89838394023395
 42
-0.4551957604067893
  0
LWPOLYLINE
  5
1F7
330
1C
100
AcDbEntity
  8
0
100
AcDbPolyline
 90
       10
 70
     0
 43
0.0
 10
7.543991065427551
 20
7.315141022596868
 42
0.0826164589562069
 10
7.706643585818242
 20
6.01505695749828
 42
0.2942484095098203
 10
8.961392263285986
 20
5.457877986412942
 42
0.3937914858465397
 10
10.75057076111306
 20
7.825888462950228
 42
0.310907754293518
 10
9.054336472248726
 20
9.984956800234611
 42
0.1802465002682826
 10
10.30908514971647
 20
10.58856730205192
 42
0.3095295797221114
 10
10.47173767010715
 20
12.56190931564119
 42
0.3602989503207463
 10
8.775503535948713
 20
13.16551981745851
 42
0.1215743748398299
 10
8.101657092733473
 20
12.42261452267806
 42
0.0516253025828634
 10
8.241073560883476
 20
11.93508299826609
 42
0.2195963040113847
  0
LWPOLYLINE
  5
203
330
1C
100
AcDbEntity
  8
0
100
AcDbPolyline
 90
        3
 70
     0
 43
0.0
 10
9.139576878806172
 20
12.98382940891508
 42
-0.033875405701422
 10
7.715473424905009
 20
11.45590911124011
 42
0.0495677661324749
 10
6.768328776648
 20
10.9027761400476
 42
-0.5200386834410781
  0
LWPOLYLINE
  5
208
330
1C
100
AcDbEntity
  8
0
100
AcDbPolyline
 90
        3
 70
     0
 43
0.0
 10
10.49970563163153
 20
15.86242651822407
 42
-0.0499005569929591
 10
10.15526231370665
 20
14.38759879849774
 42
-0.0226195779224711
 10
9.349608089938827
 20
13.24807479404463
 42
0.0495677661324749
  0
LWPOLYLINE
  5
20D
330
1C
100
AcDbEntity
  8
0
100
AcDbPolyline
 90
        3
 70
     0
 43
0.0
 10
7.422065302271438
 20
12.13494379469044
 42
0.0340183302116195
 10
8.031373267410085
 20
13.43296561918053
 42
0.0396338422490639
 10
8.133770615573409
 20
13.76830815917976
 42
0.2586496218045879
  0
LWPOLYLINE
  5
212
330
1C
100
AcDbEntity
  8
0
100
AcDbPolyline
 90
        2
 70
     0
 43
0.0
 10
8.473163829612815
 20
13.77101595584398
 42
-0.0991196029701277
 10
7.859339710592903
 20
11.88946173517069
 42
2.041087012521101
  0
LWPOLYLINE
  5
216
330
1C
100
AcDbEntity
  8
0
100
AcDbPolyline
 90
        2
 70
     0
 43
0.0
 10
7.55243936396204
 20
11.41005469285849
 42
-0.008437001079218
 10
7.450471187863478
 20
11.27389728189615
 42
2.041087012521101
  0
LWPOLYLINE
  5
21A
330
1C
100
AcDbEntity
  8
0
100
AcDbPolyline
 90
        2
 70
     0
 43
0.0
 10
6.770231316750437
 20
11.10592082202795
 42
0.0094228145839244
 10
6.99590760369429
 20
11.43327760013729
 42
0.3133933815466506
  0
LWPOLYLINE
  5
21E
330
1C
100
AcDbEntity
  8
0
100
AcDbPolyline
 90
       43
 70
     0
 43
0.0
 10
6.384268765124974
 20
10.59732279872203
 42
0.1244776682163135
 10
6.497791653642329
 20
11.48283942114905
 10
6.358375185492323
 20
11.43640779003347
 42
-0.2001614214044935
 10
6.242194769583002
 20
10.80958157304196
 42
-0.1142781164190199
 10
5.428931858217755
 20
10.80958157304196
 42
-0.1623944093186104
 10
5.661292690036397
 20
11.50605523670684
 42
-0.4667639281467791
 10
6.335139133251638
 20
11.5757025829966
 42
0.23588325518156
 10
6.474555601401644
 20
11.62213411372858
 42
0.0525201617259678
 10
6.265430821823686
 20
12.15609726925613
 42
0.1967980576012448
 10
5.893653521855038
 20
12.17931308481392
 42
-0.382392123862979
 10
5.940125626336408
 20
11.69178146001835
 42
-0.0905920269834381
 10
5.545112274127076
 20
11.32032891301172
 42
0.0771557211263499
 10
5.080390610489792
 20
11.13460258931661
 42
0.2134296851407353
 10
5.103626662730476
 20
11.45962360559126
 42
-0.3460496252145715
 10
5.335987494549119
 20
12.20252879998811
 42
-0.2799420561616745
 10
5.754237053705033
 20
12.2257446155459
 42
-0.5489825162389906
 10
5.916889574095724
 20
12.36503940850903
 42
-0.1958699606106477
 10
5.731001001464348
 20
12.52754991664636
 42
0.0327237198803101
 10
5.359223546789803
 20
12.57398144737833
 42
-0.3370797177864397
 10
5.126862714971161
 20
13.38653408844855
 42
-0.1036666990769038
 10
5.475403962699124
 20
13.9204971435925
 42
0.0929995053356158
 10
5.61482043084913
 20
13.57226031176006
 42
-0.0553802148803559
 10
5.986597885523675
 20
13.24723929548542
 42
-0.3366711645178506
 10
5.940125626336408
 20
12.6436287936681
 42
0.5798825396888692
 10
6.381611237733007
 20
12.52754991664636
 42
-0.3963739716118216
 10
6.335139133251638
 20
13.10794460290588
 42
-0.2415429673375505
 10
6.985749524226195
 20
13.17759194919565
 42
0.0613721916256402
 10
7.543415551532115
 20
13.03829725661612
 42
0.1098341835406763
 10
7.357526824194843
 20
12.66684460922589
 42
-0.0453575102248831
 10
7.008985576466879
 20
12.34182359295124
 42
-0.5922347402174823
 10
6.56749996507028
 20
12.36503940850903
 42
0.4803624881912092
 10
6.242194769583002
 20
12.24896043110369
 42
-0.2779395420524034
 10
6.61397206955165
 20
11.71499727557614
 10
6.823096849129607
 20
11.83107625298148
 42
-0.8686268008029077
 10
7.055457680948249
 20
12.20252879998811
 42
-0.1399575065758233
 10
7.566651603772799
 20
12.06323410740857
 42
-0.0331004553002926
 10
7.799012435591442
 20
11.90072359927125
 42
-0.0237767334095653
 10
8.0081372151694
 20
11.85429206853927
 42
-0.1596152718254578
 10
7.566651603772799
 20
11.41319207485928
 42
-0.1326385622364982
 10
6.985749524226195
 20
11.43640779003347
 42
-0.4517196946158597
 10
6.892805160557558
 20
11.64534992928637
 10
6.706916433220285
 20
11.62213411372858
 42
-0.065798801628037
 10
6.768328776648
 20
10.9027761400476
 42
1.121039685151205
  0
LWPOLYLINE
  5
24B
330
1C
100
AcDbEntity
  8
0
100
AcDbPolyline
 90
        2
 70
     0
 43
0.0
 10
6.384268765124974
 20
10.59732279872203
 42
0.0608137551510294
 10
5.484809315681328
 20
9.598645974672585
 42
-0.5200386834410781
  0
LINE
  5
24F
330
1C
100
AcDbEntity
  8
0
100
AcDbLine
 10
6.444211842017503
 20
16.81888813389082
 30
0.0
 11
6.444211842017503
 21
16.63813359254654
 31
0.0
  0
LINE
  5
250
330
1C
100
AcDbEntity
  8
0
100
AcDbLine
 10
5.96177832998732
 20
16.75863658652369
 30
0.0
 11
5.96177832998732
 21
16.65821740808321
 31
0.0
  0
LWPOLYLINE
  5
251
330
1C
100
AcDbEntity
  8
0
100
AcDbPolyline
 90
       12
 70
     0
 43
0.0
 10
1.995822022352943
 20
18.12349296641563
 42
-0.0206411059607445
 10
1.966755278472912
 20
18.15041379934855
 10
1.664686135226319
 20
18.12719798379076
 10
1.73439444665427
 20
18.01111910676901
 42
-0.334138470266956
 10
2.361768630682245
 20
18.0343348219432
 42
-0.16528209606988
 10
2.385004837628827
 20
17.33786115827833
 42
-0.0711292235885814
 10
2.408240889869512
 20
17.01284014200369
 42
0.2314178779975863
 10
1.966755278472912
 20
17.17535065014101
 42
-0.9101370233724853
 10
1.618214030744949
 20
17.8253927830739
 42
0.4087456584956185
 10
1.269672783016986
 20
17.98790329121122
 42
0.2036827609138555
 10
0.4331736647051577
 20
17.03605595756147
 42
-0.0918910139544731
 10
0.3169932487958366
 20
15.75918760763707
 42
1.319826843861342
  0
LWPOLYLINE
  5
25F
330
1C
100
AcDbEntity
  8
0
100
AcDbPolyline
 90
       15
 70
     0
 43
0.0
 10
0.3119264582112549
 20
17.53796249937422
 42
-0.1726341418952307
 10
1.292908835257671
 20
18.19684533008053
 10
1.362616991979725
 20
18.49865063118098
 42
-0.6080435092303943
 10
0.9676036397703931
 20
18.80045583189785
 42
-0.0563788382807784
 10
0.8281871716203871
 20
19.7290874503734
 42
-0.1378614894106724
 10
1.083784055679714
 20
19.61300847296806
 42
0.0901343725904705
 10
1.269672783016986
 20
19.49692949556272
 42
-0.6239907307622171
 10
1.571741771557682
 20
18.61472960858633
 10
1.548505719316997
 20
18.26649277675389
 10
1.711158239707688
 20
18.31292430748588
 42
-0.4773230246031339
 10
2.73354608535679
 20
19.17190847928807
 42
0.0962565944061748
 10
2.989142969416116
 20
19.17190847928807
 42
-0.0000001831282794
 10
2.826490294319528
 20
18.84688746301342
 10
2.780018189838159
 20
18.40578746933343
 42
-0.3276546514634528
 10
2.369611915450394
 20
18.01287485889382
  0
LWPOLYLINE
  5
270
330
1C
100
AcDbEntity
  8
0
100
AcDbPolyline
 90
       12
 70
     0
 43
0.0
 10
8.84821084011819
 20
18.12349296641563
 42
0.020641105960744
 10
8.877277583998219
 20
18.15041379934855
 10
9.179346727244814
 20
18.12719798379076
 10
9.109638415816862
 20
18.01111910676901
 42
0.334138470266956
 10
8.482264231788887
 20
18.0343348219432
 42
0.16528209606988
 10
8.459028024842305
 20
17.33786115827833
 42
0.0711292235885814
 10
8.435791972601622
 20
17.01284014200369
 42
-0.2314178779975863
 10
8.877277583998219
 20
17.17535065014101
 42
0.9101370233724853
 10
9.225818831726183
 20
17.8253927830739
 42
-0.4087456584956185
 10
9.574360079454146
 20
17.98790329121122
 42
-0.2036827609138555
 10
10.41085919776597
 20
17.03605595756147
 42
0.0918910139544731
 10
10.52703961367529
 20
15.75918760763707
 42
-1.319826843861342
  0
LWPOLYLINE
  5
27E
330
1C
100
AcDbEntity
  8
0
100
AcDbPolyline
 90
       15
 70
     0
 43
0.0
 10
10.53210640425987
 20
17.53796249937422
 42
0.1726341418952307
 10
9.551124027213463
 20
18.19684533008053
 10
9.481415870491408
 20
18.49865063118098
 42
0.6080435092303943
 10
9.876429222700741
 20
18.80045583189785
 42
0.0563788382807784
 10
10.01584569085074
 20
19.7290874503734
 42
0.1378614894106724
 10
9.76024880679142
 20
19.61300847296806
 42
-0.0901343725904705
 10
9.574360079454146
 20
19.49692949556272
 42
0.6239907307622171
 10
9.27229109091345
 20
18.61472960858633
 10
9.295527143154135
 20
18.26649277675389
 10
9.132874622763445
 20
18.31292430748588
 42
0.4773230246031339
 10
8.110486777114344
 20
19.17190847928807
 42
-0.0962565944061748
 10
7.854889893055015
 20
19.17190847928807
 42
0.0000001831282794
 10
8.017542568151604
 20
18.84688746301342
 10
8.064014672632973
 20
18.40578746933343
 42
0.327654651463452
 10
8.474420947020737
 20
18.01287485889382
  0
LWPOLYLINE
  5
28F
330
1C
100
AcDbEntity
  8
0
100
AcDbPolyline
 90
        4
 70
     0
 43
0.0
 10
6.576905318052483
 20
18.98618215559296
 42
0.3902164686927558
 10
6.112183499709303
 20
19.35763480298318
 42
-0.0848807567025952
 10
5.87982266789066
 20
19.38085061854097
 42
-0.0106659534698374
 10
5.857834805946833
 20
19.38741851868278
 42
0.3412175482906481
  0
LWPOLYLINE
  5
295
330
1C
100
AcDbEntity
  8
0
100
AcDbPolyline
 90
       13
 70
     0
 43
0.0
 10
7.064863033930453
 20
19.19512429484586
 42
-0.1663414041090891
 10
7.645765113477057
 20
19.19512429484586
 42
0.3026287163749473
 10
7.273987813508409
 20
19.00939797115075
 42
0.0928802473061662
 10
7.576056956755004
 20
18.8933189937454
 42
-0.3333312710933856
 10
7.506348645327052
 20
18.82367164745563
 42
0.0907198998353334
 10
7.599293008995688
 20
18.38257165377564
 42
0.1731120784238242
 10
7.111335138411821
 20
18.59151379302854
 42
0.1098660931486242
 10
7.157807397599088
 20
18.12719798379076
 42
-0.5161020845754459
 10
6.71632178620249
 20
18.26649277675389
 42
0.268011066367942
 10
6.739557838443174
 20
18.01111910676901
 42
-0.3984326976453932
 10
6.344544486233842
 20
18.38257165377564
 42
-0.5519852601786015
 10
5.670697888312703
 20
18.22006114563832
 42
-0.173227063532272
 10
5.422016431235566
 20
18.19269334643689
 42
-0.3409173807505383
  0
LWPOLYLINE
  5
2A4
330
1C
100
AcDbEntity
  8
0
100
AcDbPolyline
 90
        3
 70
     0
 43
0.0
 10
5.693934095259285
 20
17.05927177311926
 42
0.3069528329046063
 10
6.948682618021131
 20
17.38429278939391
 42
0.3085430237235875
 10
7.034011522938119
 20
18.07375088861366
 42
0.3601649498811771
  0
LWPOLYLINE
  5
2A9
330
1C
100
AcDbEntity
  8
0
100
AcDbPolyline
 90
        3
 70
     0
 43
0.0
 10
4.526901791233897
 20
18.31942148662745
 42
0.0259219109350452
 10
4.601838092888129
 20
18.08076645305878
 42
0.1666830500208177
 10
5.422016431235565
 20
17.18125036895334
 42
0.3069528329046063
  0
LWPOLYLINE
  5
2AE
330
1C
100
AcDbEntity
  8
0
100
AcDbPolyline
 90
        3
 70
     0
 43
0.0
 10
5.422016431235564
 20
16.84875759349585
 42
0.2562010840485521
 10
7.111335138411821
 20
17.15213493496682
 42
0.3280372210965259
 10
7.459876540845683
 20
18.4754348156232
 42
0.6800211850212042
  0
LWPOLYLINE
  5
2B3
330
1C
100
AcDbEntity
  8
0
100
AcDbPolyline
 90
        3
 70
     0
 43
0.0
 10
4.229064532143856
 20
18.03084601808726
 42
0.0903146143676236
 10
4.67154640431608
 20
17.33786115827833
 42
0.0682812593312249
 10
5.044229434211695
 20
17.02718464908045
 42
0.3280372210965259
  0
LWPOLYLINE
  5
2B8
330
1C
100
AcDbEntity
  8
0
100
AcDbPolyline
 90
        4
 70
     0
 43
0.0
 10
6.614968330327275
 20
18.03084601808726
 42
-0.0903146143676236
 10
6.17248645815505
 20
17.33786115827833
 42
-0.3966797908237227
 10
3.732697724059309
 20
17.15213493496682
 42
-0.3280372210965259
 10
3.384156321625449
 20
18.4754348156232
 42
-0.6800211850212042
  0
LWPOLYLINE
  5
2BE
330
1C
100
AcDbEntity
  8
0
100
AcDbPolyline
 90
        3
 70
     0
 43
0.0
 10
1.316144887498356
 20
20.51842427588583
 42
-0.2575517569835238
 10
5.452167910458439
 20
20.98273998474002
 42
-0.135410696586241
 10
6.384531155446127
 20
20.19525296061251
 42
-0.3966797908237227
  0
LWPOLYLINE
  5
2C3
330
1C
100
AcDbEntity
  8
0
100
AcDbPolyline
 90
        5
 70
     0
 43
0.0
 10
6.317131071237232
 20
18.31942148662744
 42
-0.0259219109350449
 10
6.242194769583002
 20
18.08076645305878
 42
-0.207828191171951
 10
5.150098767211846
 20
17.05927177311926
 42
-0.3069528329046063
 10
3.89535024445
 20
17.38429278939391
 42
-0.3085430237235875
 10
3.810021339533013
 20
18.07375088861366
 42
-0.3601649498811771
  0
LWPOLYLINE
  5
2CA
330
1C
100
AcDbEntity
  8
0
100
AcDbPolyline
 90
        4
 70
     0
 43
0.0
 10
0.9422458781342232
 20
19.69794856214169
 42
-0.1620097736008461
 10
2.965906917175431
 20
20.86666110771827
 42
-0.2358835443272781
 10
5.731001001464348
 20
20.3791294829227
 42
-0.0548806109036502
 10
5.985977296675087
 20
20.14279556261063
 42
-0.1451699555860085
  0
LWPOLYLINE
  5
2D0
330
1C
100
AcDbEntity
  8
0
100
AcDbPolyline
 90
        3
 70
     0
 43
0.0
 10
5.422016431235565
 20
20.5811378630829
 42
0.0294044643109541
 10
5.113031861006783
 20
20.3791294829227
 42
0.0548806109036501
 10
4.858055565796045
 20
20.14279556261063
 42
0.1451699555860085
  0
LWPOLYLINE
  5
2D5
330
1C
100
AcDbEntity
  8
0
100
AcDbPolyline
 90
        2
 70
     0
 43
0.0
 10
5.027269828515276
 20
20.7720120079639
 42
0.0888776164342198
 10
4.459501707025004
 20
20.19525296061251
 42
0.3966797908237227
  0
LWPOLYLINE
  5
2D9
330
1C
100
AcDbEntity
  8
0
100
AcDbPolyline
 90
        9
 70
     0
 43
0.0
 10
5.422016431235565
 20
19.81130450779146
 42
0.0056006889332976
 10
5.508045367922012
 20
19.89159795851073
 42
-0.4316776751091929
 10
5.71717014749997
 20
20.12375581293782
 42
0.027099001002606
 10
6.019239290746564
 20
20.14697162849561
 42
0.0007735323271855
 10
6.367780538474526
 20
20.19340315922759
 42
-0.4148058704972025
 10
6.762793890683859
 20
19.89159795851073
 42
-0.6440924872076951
 10
7.111335138411821
 20
19.21834011040365
 42
-0.2362522320605402
 10
7.064863033930453
 20
18.98618215559296
 42
-0.6370983319757519
 10
6.71632178620249
 20
18.59151379302854
 42
0.1445547102743596
  0
LWPOLYLINE
  5
2E4
330
1C
100
AcDbEntity
  8
0
100
AcDbPolyline
 90
        7
 70
     0
 43
0.0
 10
3.988294608118636
 20
17.05927177311926
 42
-0.2276366214956687
 10
3.593281101203406
 20
16.91997698015613
 42
-0.2770754223246641
 10
3.384156321625449
 20
16.64138749461346
 42
-0.2434821630486811
 10
2.780018189838159
 20
16.80389810313438
 42
0.0060209849460597
 10
2.408240889869512
 20
17.01284014200369
 42
-0.1429213951879422
 10
3.128559437566122
 20
17.47715595124147
 42
-0.2594736532103272
 10
3.417755923686349
 20
17.54947867847413
 42
0.2497820627612261
  0
LWPOLYLINE
  5
2ED
330
1C
100
AcDbEntity
  8
0
100
AcDbPolyline
 90
        2
 70
     0
 43
0.0
 10
3.802405880781363
 20
17.1985664656988
 10
3.811511330769549
 20
17.19174334697035
 42
-0.2276366214956687
  0
LWPOLYLINE
  5
2F1
330
1C
100
AcDbEntity
  8
0
100
AcDbPolyline
 90
        7
 70
     0
 43
0.0
 10
6.855738254352496
 20
17.05927177311926
 42
0.2276366214956687
 10
7.250751761267725
 20
16.91997698015613
 42
0.2770754223246641
 10
7.459876540845683
 20
16.64138749461346
 42
0.2434821630486811
 10
8.064014672632973
 20
16.80389810313438
 42
-0.0060209849460597
 10
8.435791972601622
 20
17.01284014200369
 42
0.1429213951879422
 10
7.715473424905009
 20
17.47715595124147
 42
0.259473653210327
 10
7.426276938784782
 20
17.54947867847413
 42
-0.2497820627612261
  0
LWPOLYLINE
  5
2FA
330
1C
100
AcDbEntity
  8
0
100
AcDbPolyline
 90
        2
 70
     0
 43
0.0
 10
7.041626981689768
 20
17.1985664656988
 10
7.032521531701584
 20
17.19174334697035
 42
0.2276366214956687
  0
LWPOLYLINE
  5
2FE
330
1C
100
AcDbEntity
  8
0
100
AcDbPolyline
 90
        3
 70
     0
 43
0.0
 10
9.990023778105468
 20
19.59476968464153
 42
-0.0254993984794324
 10
10.24820667737528
 20
19.01404111418558
 42
-0.0495236456971527
 10
10.53210640425987
 20
17.53796249937422
 42
-0.0620259026609766
  0
LWPOLYLINE
  5
303
330
1C
100
AcDbEntity
  8
0
100
AcDbPolyline
 90
        3
 70
     0
 43
0.0
 10
9.90178698433691
 20
19.69794856214169
 42
0.162009773600846
 10
7.878125945295701
 20
20.86666110771827
 42
0.1689089011794218
 10
5.816763033955855
 20
20.7720120079639
 42
0.1800077269049403
  0
LWPOLYLINE
  5
308
330
1C
100
AcDbEntity
  8
0
100
AcDbPolyline
 90
        3
 70
     0
 43
0.0
 10
0.8540090843656678
 20
19.59476968464154
 42
0.0254993984794326
 10
0.5958261850958482
 20
19.01404111418558
 42
0.0495236456971527
 10
0.3119264582112549
 20
17.53796249937422
 42
0.0620259026609766
  0
LWPOLYLINE
  5
30D
330
1C
100
AcDbEntity
  8
0
100
AcDbPolyline
 90
        2
 70
     0
 43
0.0
 10
6.745732884087332
 20
21.30723274512884
 42
0.0755921528934559
 10
5.391864952012702
 20
20.98273998474002
 42
0.5101762495428228
  0
LWPOLYLINE
  5
311
330
1C
100
AcDbEntity
  8
0
100
AcDbPolyline
 90
        2
 70
     0
 43
0.0
 10
9.527887974972777
 20
20.51842427588583
 42
0.138575314647441
 10
7.319522175738228
 20
21.30095548449649
 42
0.5101762495428228
  0
LWPOLYLINE
  5
315
330
1C
100
AcDbEntity
  8
0
100
AcDbPolyline
 90
        3
 70
     0
 43
0.0
 10
2.776765601469389
 20
21.8393730655275
 42
-0.0150252371181625
 10
2.570893410260202
 20
21.68385679143973
 42
0.0579361374600815
 10
1.547164473458689
 20
20.67103855860053
 42
0.1557754614380862
  0
LWPOLYLINE
  5
31A
330
1C
100
AcDbEntity
  8
0
100
AcDbPolyline
 90
        3
 70
     0
 43
0.0
 10
8.067267261001745
 20
21.8393730655275
 42
0.0150252371181625
 10
8.273139452210932
 20
21.68385679143973
 42
-0.0579361374600816
 10
9.296868389012445
 20
20.67103855860053
 42
-0.1557754614380862
  0
LWPOLYLINE
  5
31F
330
1C
100
AcDbEntity
  8
0
100
AcDbPolyline
 90
        2
 70
     0
 43
0.0
 10
4.500941807006325
 20
21.25350192742971
 42
0.0683457968877197
 10
5.208738487627507
 20
21.57611729550239
 42
-0.5002623161978516
  0
LWPOLYLINE
  5
323
330
1C
100
AcDbEntity
  8
0
100
AcDbPolyline
 90
        2
 70
     0
 43
0.0
 10
5.428931858217755
 20
21.42755447277116
 42
-0.1144267966721622
 10
4.987159693929743
 20
21.14470847699347
 42
-5.616357434881644
  0
LWPOLYLINE
  5
327
330
1C
100
AcDbEntity
  8
0
100
AcDbPolyline
 90
       44
 70
     0
 43
0.0
 10
6.210606001447633
 20
21.22968205431312
 42
-0.2690698322628199
 10
5.01068229906184
 20
22.54191231455823
 10
5.335987494549119
 20
22.82050180010091
 42
0.2497819241736473
 10
5.893653521855038
 20
22.82050180010091
 42
0.0000000438458967
 10
6.195722665101632
 20
23.12230700081776
 42
-0.1504933266093741
 10
6.288667028770269
 20
23.60983852522973
 42
0.0713662612212981
 10
5.638056637795711
 20
23.60983852522973
 42
0.6869628569255384
 10
5.335987494549119
 20
23.00622802341242
 10
5.033918351302525
 20
22.82050180010091
 42
-0.1084509618786416
 10
5.150098767211846
 20
23.51697536338217
 42
0.2954546400337288
 10
5.498640014939809
 20
24.12058596558309
 42
-0.2771916945644886
 10
5.638056637795711
 20
23.56340699449775
 42
0.1645182499552454
 10
5.916889574095724
 20
24.05093851890973
 42
-0.4090857916824772
 10
6.265430821823686
 20
23.63305434078752
 42
0.6501036904383541
 10
6.474555601401644
 20
23.93485964188798
 42
0.0207346797150874
 10
6.335139133251638
 20
24.14380168075728
 42
0.3770246918349553
 10
6.776624744648237
 20
24.79384381369018
 42
0.1635168854104147
 10
6.869569108316873
 20
25.5831806392026
 42
0.351120919305701
 10
6.474555601401644
 20
25.90820165547725
 42
0.6438695646647506
 10
4.662141051333877
 20
26.16357532546214
 42
0.1470350994969281
 10
3.941822348931369
 20
25.8153384936297
 42
0.1404734396171392
 10
3.872114192209314
 20
25.07243319884925
 42
0.2133469377175641
 10
4.081238971787272
 20
24.77062799813239
 42
-0.2195970145060224
 10
4.499488376237289
 20
24.49203851258972
 10
4.499488376237289
 20
23.95807535706217
 42
0.0272589391792732
 10
4.708613155815247
 20
24.23666484260484
 42
-0.9981844299420799
 10
4.84802977867115
 20
24.14380168075728
 42
0.0711292235885805
 10
4.871265830911834
 20
23.79556484892485
 10
4.708613155815247
 20
22.82050180010091
 10
4.638904999093193
 20
22.89014914639067
 42
0.3154481092677115
 10
4.476252323996605
 20
23.37768067080264
 42
0.1112295100670749
 10
3.872114192209314
 20
23.49375964820799
 42
-0.0515451860488206
 10
3.430628580812716
 20
23.58662281005555
 42
0.0489049531522391
 10
3.755933776299994
 20
22.75085435342754
 42
0.4595339065402598
 10
4.522724583183872
 20
22.72763863825335
 10
4.778321467243198
 20
22.68120700713777
 42
0.2771915336208195
 10
4.917737935393204
 20
22.10081232087824
 10
4.778321467243198
 20
21.96151752791511
 42
0.4679665871765873
 10
3.89535024445
 20
22.05438068976266
 42
-0.0381653364360201
 10
3.477100685294085
 20
21.70614385793023
 42
0.0227025677204349
 10
3.825641933022048
 20
21.54363334979291
 42
0.7223592566874433
 10
4.778321467243198
 20
21.68292814275604
 10
5.01068229906184
 20
21.91508599718313
 42
0.2562244885580142
 10
5.905324825680788
 20
21.15823011308628
 42
-0.1264646566719879
  0
LWPOLYLINE
  5
355
330
1C
100
AcDbEntity
  8
0
100
AcDbPolyline
 90
       43
 70
     0
 43
0.0
 10
9.32795504318093
 20
21.17525703746971
 42
-0.0371415268232531
 10
9.341999247635504
 20
22.00794915903069
 10
9.202582779485499
 20
22.03116497458848
 42
-0.5259359288834589
 10
8.900513636238905
 20
21.82222283533557
 42
-0.0311923533001226
 10
7.99430636120502
 20
21.84543865089336
 42
0.0940558084706602
 10
7.761945529386379
 20
21.82222283533557
 42
-0.057094768722005
 10
8.366083815879568
 20
22.611559660848
 42
-0.2273053040497247
 10
9.132874622763445
 20
22.58834384529021
 42
-0.1401724906649531
 10
9.179346727244814
 20
22.28653864457335
 10
9.365235454582085
 20
22.26332282901557
 42
-0.2651965538842556
 10
9.574360079454146
 20
22.72763863825335
 10
9.388471506822771
 20
22.8437175152751
 42
-0.381841913031393
 10
8.83080547951685
 20
23.00622802341242
 42
0.1652099740428713
 10
8.505500284029572
 20
23.93485964188798
 42
-0.7806111572668875
 10
8.621680699938893
 20
24.02772280373554
 42
0.1006558060140064
 10
9.109638415816862
 20
23.93485964188798
 42
-0.6484934515123934
 10
9.527887974972777
 20
23.0294438389702
 10
9.690540650069365
 20
22.93658067712265
 10
9.76024880679142
 20
23.21517016266532
 42
-0.4652435927369127
 10
9.574360079454146
 20
23.81878066448263
 42
0.0110559587018368
 10
9.876429222700741
 20
24.65454902072704
 42
-0.1940952472338334
 10
10.3643870932846
 20
24.09737015002531
 42
-0.3163336824178518
 10
10.31791483409734
 20
23.28481750895508
 42
-0.3739665384611786
 10
9.946137534128691
 20
23.21517016266532
 10
9.806721065978686
 20
22.86693333083288
 10
9.969373586369377
 20
22.86693333083288
 42
-0.3697910044125641
 10
10.31791483409734
 20
23.09909118525998
 42
-0.237736032563568
 10
10.87558086140326
 20
22.72763863825335
 42
-0.2138430612709298
 10
10.43409525000666
 20
22.35618599086313
 42
-0.8541448887661772
 10
9.922901481888008
 20
22.56512813011603
 42
0.2653972998518221
 10
9.644068390882098
 20
22.47226496826847
 42
-0.1081783090510568
 10
9.574360079454146
 20
22.21689129828359
 10
9.713776702310049
 20
22.1936754827258
 42
-0.4356983601046922
 10
10.43409525000666
 20
22.37940180642091
 42
-0.1081738082643771
 10
10.8058727046812
 20
22.00794915903069
 42
0.2051868855793201
 10
10.57351171815666
 20
21.84543865089336
 42
-0.1977594803163489
 10
10.10879005451938
 20
21.54363334979291
 42
-0.4090853217234933
 10
9.76024880679142
 20
21.96151752791511
 10
9.481415870491408
 20
21.91508599718313
 10
9.458179663544825
 20
21.49720181906093
 10
9.690540650069365
 20
21.56684916535069
 42
0.2771917973163021
 10
9.551124027213463
 20
21.1257491716707
 42
-0.4462826705344202
 10
9.620832338641413
 20
20.75429652428048
 42
-0.4934489947839326
  0
LWPOLYLINE
  5
382
330
1C
100
AcDbEntity
  8
0
100
AcDbPolyline
 90
        3
 70
     0
 43
0.0
 10
9.32795504318093
 20
21.17525703746971
 42
0.0284477662209009
 10
8.807569427276167
 20
21.69500037487678
 42
-0.012296919170518
 10
8.623204255849849
 20
21.81731902344306
 42
-0.0036139536932257
  0
LWPOLYLINE
  5
387
330
1C
100
AcDbEntity
  8
0
100
AcDbPolyline
 90
        3
 70
     0
 43
0.0
 10
8.071372342545295
 20
22.27274301211772
 42
-0.1533818478025118
 10
6.786029942924544
 20
24.64340553767359
 42
-0.0036139536932257
 10
6.779693864445565
 20
24.677224527099
 42
-0.5021180534907217
  0
LWPOLYLINE
  5
38C
330
1C
100
AcDbEntity
  8
0
100
AcDbPolyline
 90
        3
 70
     0
 43
0.0
 10
6.550854688909711
 20
24.2497137793676
 42
0.0519253045381302
 10
6.762793890683859
 20
23.61076727429702
 42
0.1153898012904872
 10
7.875942841882502
 20
22.00259023557995
 42
-0.1356084499194815
  0
LWPOLYLINE
  5
391
330
1C
100
AcDbEntity
  8
0
100
AcDbPolyline
 90
        2
 70
     0
 43
0.0
 10
3.699704237416331
 20
22.86578839375699
 42
-0.0661688371122892
 10
2.968090020588629
 20
22.00259023557995
 42
0.1356084499194815
  0
LWPOLYLINE
  5
395
330
1C
100
AcDbEntity
  8
0
100
AcDbPolyline
 90
        2
 70
     0
 43
0.0
 10
2.772660519925837
 20
22.27274301211772
 42
0.0694653149718541
 10
3.537864095737179
 20
23.25360674108047
 42
0.0136692979898814
  0
LWPOLYLINE
  5
399
330
1C
100
AcDbEntity
  8
0
100
AcDbPolyline
 90
        3
 70
     0
 43
0.0
 10
1.516077819290202
 20
21.17525703746971
 42
-0.028447766220901
 10
2.036463435194966
 20
21.69500037487678
 42
0.012296919170518
 10
2.220828606621283
 20
21.81731902344306
 42
0.0136692979898814
  0
LWPOLYLINE
  5
39E
330
1C
100
AcDbEntity
  8
0
100
AcDbPolyline
 90
       43
 70
     0
 43
0.0
 10
1.516077819290202
 20
21.17525703746971
 42
0.0371415268232531
 10
1.502033614835628
 20
22.00794915903069
 10
1.641450082985634
 20
22.03116497458848
 42
0.5259359288834589
 10
1.943519226232227
 20
21.82222283533557
 42
0.0311923533001226
 10
2.849726501266111
 20
21.84543865089336
 42
-0.0940558084706602
 10
3.082087333084753
 20
21.82222283533557
 42
0.057094768722005
 10
2.477949046591565
 20
22.611559660848
 42
0.2273053040497247
 10
1.711158239707688
 20
22.58834384529021
 42
0.1401724906649531
 10
1.664686135226319
 20
22.28653864457335
 10
1.478797407889046
 20
22.26332282901557
 42
0.2651965538842556
 10
1.269672783016986
 20
22.72763863825335
 10
1.455561355648361
 20
22.8437175152751
 42
0.381841913031393
 10
2.013227382954282
 20
23.00622802341242
 42
-0.1652099740428713
 10
2.33853257844156
 20
23.93485964188798
 42
0.7806111572668875
 10
2.222352162532239
 20
24.02772280373554
 42
-0.1006558060140064
 10
1.73439444665427
 20
23.93485964188798
 42
0.6484934515123934
 10
1.316144887498356
 20
23.0294438389702
 10
1.153492212401768
 20
22.93658067712265
 10
1.083784055679714
 20
23.21517016266532
 42
0.4652435927369127
 10
1.269672783016986
 20
23.81878066448263
 42
-0.0110559587018368
 10
0.9676036397703931
 20
24.65454902072704
 42
0.1940952472338334
 10
0.4796457691865271
 20
24.09737015002531
 42
0.3163336824178518
 10
0.5261180283737939
 20
23.28481750895508
 42
0.3739665384611786
 10
0.8978953283424415
 20
23.21517016266532
 10
1.037311796492447
 20
22.86693333083288
 10
0.8746592761017568
 20
22.86693333083288
 42
0.3697910044125641
 10
0.5261180283737939
 20
23.09909118525998
 42
0.237736032563568
 10
-0.0315479989321264
 20
22.72763863825335
 42
0.2138430612709298
 10
0.4099376124644729
 20
22.35618599086313
 42
0.8541448887661772
 10
0.9211313805831263
 20
22.56512813011603
 42
-0.2653972998518221
 10
1.199964471589035
 20
22.47226496826847
 42
0.1081783090510568
 10
1.269672783016986
 20
22.21689129828359
 10
1.130256160161083
 20
22.1936754827258
 42
0.4356983601046922
 10
0.4099376124644729
 20
22.37940180642091
 42
0.1081738082643771
 10
0.0381601577899279
 20
22.00794915903069
 42
-0.2051868855793201
 10
0.2705211443144671
 20
21.84543865089336
 42
0.1977594803163489
 10
0.7352428079517513
 20
21.54363334979291
 42
0.4090853217234933
 10
1.083784055679714
 20
21.96151752791511
 10
1.362616991979725
 20
21.91508599718313
 10
1.385853198926307
 20
21.49720181906093
 10
1.153492212401768
 20
21.56684916535069
 42
-0.2771917973163021
 10
1.292908835257671
 20
21.1257491716707
 42
0.4462826705344202
 10
1.223200523829719
 20
20.75429652428048
 42
0.4934489947839326
  0
LWPOLYLINE
  5
3CB
330
1C
100
AcDbEntity
  8
0
100
AcDbPolyline
 90
       16
 70
     0
 43
0.0
 10
5.428739806701226
 20
21.73025765529585
 42
0.0158325928270456
 10
5.56834832636776
 20
21.84543865089336
 42
-0.5002623161978516
 10
5.475403962699124
 20
22.03116497458848
 42
0.7202408565028997
 10
5.61482043084913
 20
21.96151752791511
 42
0.3029960279897273
 10
5.661292690036397
 20
22.14724385161022
 42
-0.7262277487400489
 10
6.126014353673681
 20
22.54191231455823
 42
-0.5856141553744484
 10
6.474555601401644
 20
22.86693333083288
 42
0.314996612468545
 10
7.008985576466879
 20
23.0294438389702
 42
-0.704661209232345
 10
7.241346408285521
 20
22.79728598454311
 42
0.1168104138247626
 10
6.892805160557558
 20
22.4026175215951
 42
-0.3331582529473572
 10
6.381611237733007
 20
22.17045966716801
 42
-0.6182754771172775
 10
6.242194769583002
 20
21.93830181274092
 42
-0.0710236818089771
 10
5.96336183328299
 20
21.82222283533557
 42
0.2362522320605318
 10
6.009833937764359
 20
21.63649651164046
 42
-0.4803624881912089
 10
5.777473105945718
 20
21.75257548904581
 42
0.020985155032004
 10
5.580744179661336
 20
21.58152540569122
 42
-0.2956282609033328
  0
LWPOLYLINE
  5
3DD
330
1C
100
AcDbEntity
  8
0
100
AcDbPolyline
 90
        3
 70
     0
 43
0.0
 10
3.681161921398671
 20
23.5222944909765
 42
0.0660123785271783
 10
4.058002919546587
 20
24.64340553767359
 42
0.0136692979898814
 10
4.079387641827945
 20
24.77175507623192
 42
0.5021180534907217
  0
LWPOLYLINE
  5
3E2
330
1C
100
AcDbEntity
  8
0
100
AcDbPolyline
 90
        3
 70
     0
 43
0.0
 10
4.355595276992989
 20
24.65235803963393
 42
-0.0834362515218212
 10
4.081238971787272
 20
23.61076727429702
 42
-0.0076216522376017
 10
4.031359199847971
 20
23.48974457153912
 42
0.1356084499194815
  0
LWPOLYLINE
  5
3E7
330
1C
100
AcDbEntity
  8
0
100
AcDbPolyline
 90
        5
 70
     0
 43
0.0
 10
3.980412536688678
 20
25.84944277562984
 42
0.2331522846275612
 10
2.501185253538148
 20
27.34758051353898
 42
0.5021180534907217
 10
0.2472849373678851
 20
25.8153384936297
 42
0.4060814587005163
 10
1.17672841934835
 20
24.84027534442216
 42
0.3945100699854129
 10
1.525269667076313
 20
25.14208064552261
 42
-0.8995997252422721
  0
LWPOLYLINE
  5
3EE
330
1C
100
AcDbEntity
  8
0
100
AcDbPolyline
 90
        6
 70
     0
 43
0.0
 10
1.850574862563591
 20
24.60904613867875
 42
-0.3188203050952371
 10
1.17672841934835
 20
24.53939879238898
 42
0.2046427782656353
 10
0.7584788601924359
 20
24.58583032312096
 42
-0.4939384755322377
 10
0.2705211443144671
 20
26.90740916854267
 42
-0.4594434207454715
 10
3.407392528572031
 20
27.25564600037511
 42
-0.1155628015907399
 10
4.194286303292732
 20
25.99928852965588
 42
-0.1455652062414486
  0
LWPOLYLINE
  5
3F6
330
1C
100
AcDbEntity
  8
0
100
AcDbPolyline
 90
        5
 70
     0
 43
0.0
 10
6.821279915046622
 20
25.7074517321323
 42
-0.2496246742500392
 10
8.342847608932984
 20
27.34758051353898
 42
-0.5021180534907217
 10
10.59674792510324
 20
25.8153384936297
 42
-0.4060814587005163
 10
9.667304443122782
 20
24.84027534442216
 42
-0.3945100699854129
 10
9.31876319539482
 20
25.14208064552261
 42
0.8995997252422721
  0
LWPOLYLINE
  5
3FD
330
1C
100
AcDbEntity
  8
0
100
AcDbPolyline
 90
        6
 70
     0
 43
0.0
 10
8.993457999907542
 20
24.60904613867875
 42
0.3188203050952371
 10
9.667304443122782
 20
24.53939879238898
 42
-0.2046427782656353
 10
10.08555400227869
 20
24.58583032312096
 42
0.4939384755322377
 10
10.57351171815666
 20
26.90740916854267
 42
0.4594434207454715
 10
7.4366403338991
 20
27.25564600037511
 42
0.1251430502201872
 10
6.612234604437185
 20
25.88241011375362
 42
0.1455652062414486
  0
LINE
  5
405
330
1C
100
AcDbEntity
  8
0
100
AcDbLine
 10
7.111335138411821
 20
9.126901277116102
 30
0.0
 11
6.739557838443174
 21
9.010822299710758
 31
0.0
  0
LINE
  5
406
330
1C
100
AcDbEntity
  8
0
100
AcDbLine
 10
7.041626981689768
 20
8.453643328625419
 30
0.0
 11
7.018390929449084
 21
8.66258546787832
 31
0.0
  0
ARC
  5
407
330
1C
100
AcDbEntity
  8
0
100
AcDbCircle
 10
6.918051579107249
 20
7.91724066854804
 30
0.0
 40
0.7049444788611473
100
AcDbArc
 50
338.973483021042
 51
29.83160545736894
  0
ARC
  5
408
330
1C
100
AcDbEntity
  8
0
100
AcDbCircle
 10
7.612003900495676
 20
8.10926197888626
 30
0.0
 40
0.6856946993865368
100
AcDbArc
 50
3.559899004384708
 51
21.51889137587785
  0
ARC
  5
409
330
1C
100
AcDbEntity
  8
0
100
AcDbCircle
 10
10.07329020252073
 20
5.733124782508889
 30
0.0
 40
3.561646863002888
100
AcDbArc
 50
114.8734124397344
 51
121.2299782349009
  0
ARC
  5
40A
330
1C
100
AcDbEntity
  8
0
100
AcDbCircle
 10
8.867259941030321
 20
8.252761137997888
 30
0.0
 40
0.2027708999491435
100
AcDbArc
 50
169.0917616334907
 51
252.8799868102143
  0
ARC
  5
40B
330
1C
100
AcDbEntity
  8
0
100
AcDbCircle
 10
8.287215664912519
 20
8.605795702140811
 30
0.0
 40
1.499018171014323
100
AcDbArc
 50
271.2383388176065
 51
290.3118563026367
  0
LWPOLYLINE
  5
40C
330
1C
100
AcDbEntity
  8
0
100
AcDbPolyline
 90
        4
 70
     0
 43
0.0
 10
8.923749843185488
 20
8.66258546787832
 42
0.2034602155458823
 10
7.901361997536384
 20
8.592938121588554
 42
0.3968085863278925
 10
7.692237372664324
 20
8.012543435329027
 42
0.2095819835340663
 10
8.342847608932984
 20
7.408932933511712
 42
-5.918552637819164
  0
LWPOLYLINE
  5
412
330
1C
100
AcDbEntity
  8
0
100
AcDbPolyline
 90
        6
 70
     0
 43
0.0
 10
8.412555920360937
 20
7.339285486838345
 42
0.6181304098023553
 10
8.668152804420264
 20
7.733953949786359
 42
-0.1531044471070699
 10
8.877277583998219
 20
8.058974966061006
 42
0.5040613476349978
 10
8.644916752179579
 20
8.291132820488096
 42
-0.068282698583411
 10
8.342847608932984
 20
8.105406496792983
 42
0.5171184752862322
 10
7.947834256723651
 20
7.68752231867078
 42
-1.219593234167826
  0
LWPOLYLINE
  5
41A
330
1C
100
AcDbEntity
  8
0
100
AcDbPolyline
 90
        3
 70
     0
 43
0.0
 10
8.621680699938893
 20
7.733953949786359
 42
-0.2640699641984378
 10
8.226667193023663
 20
7.803601296076126
 42
0.2768594005446186
 10
7.947834256723651
 20
7.664306603496592
 42
-0.5485680213937704
  0
LWPOLYLINE
  5
41F
330
1C
100
AcDbEntity
  8
0
100
AcDbPolyline
 90
        3
 70
     0
 43
0.0
 10
8.668152804420264
 20
7.733953949786359
 42
-0.1831243086782695
 10
8.273139452210932
 20
7.71073813422857
 42
0.1338256045105958
 10
8.017542568151604
 20
7.617874972381014
 42
0.1338256045105958
  0
LINE
  5
424
330
1C
100
AcDbEntity
  8
0
100
AcDbLine
 10
7.181043449839774
 20
8.569722306030765
 30
0.0
 11
6.600141370293169
 21
9.057253830442736
 31
0.0
  0
LINE
  5
425
330
1C
100
AcDbEntity
  8
0
100
AcDbLine
 10
7.250751761267725
 20
8.732232814168089
 30
0.0
 11
7.018390929449084
 21
8.7090169986103
 31
0.0
  0
LINE
  5
426
330
1C
100
AcDbEntity
  8
0
100
AcDbLine
 10
7.157807397599088
 20
8.94117495342099
 30
0.0
 11
6.925446565780447
 21
8.871527607131223
 31
0.0
  0
ARC
  5
427
330
1C
100
AcDbEntity
  8
0
100
AcDbCircle
 10
9.10971953201858
 20
8.685801283436111
 30
0.0
 40
0.1160790057474162
100
AcDbArc
 50
269.959961611
 51
36.86986237944789
  0
ARC
  5
428
330
1C
100
AcDbEntity
  8
0
100
AcDbCircle
 10
10.97781039365151
 20
8.813582660614176
 30
0.0
 40
1.592779792433563
100
AcDbArc
 50
190.5011276500125
 51
206.3988046467424
  0
LWPOLYLINE
  5
429
330
1C
100
AcDbEntity
  8
0
100
AcDbPolyline
 90
       22
 70
     0
 43
0.0
 10
8.528736336270258
 20
6.921401308716141
 42
-0.1323595850737493
 10
8.621680699938893
 20
6.596380292441494
 42
-0.5098897882805443
 10
8.528736336270258
 20
6.526732946151727
 10
8.319611556692301
 20
6.758890800578818
 10
8.133722984060925
 20
6.549948661325916
 10
8.064014672632973
 20
6.805322431694396
 42
1.021142693445314
 10
7.808417788573645
 20
6.991048655005909
 42
-0.3755831857200373
 10
7.622529061236373
 20
6.94461712427393
 10
7.552820749808421
 20
7.316069771664156
 10
7.366932177177046
 20
7.19999079425881
 10
7.366932177177046
 20
7.478580279801479
 10
6.995154722502501
 20
7.525011810533457
 42
-0.2882047397837752
 10
7.483112593086367
 20
7.757169765344148
 42
-0.2846865345857
 10
7.785181581627063
 20
8.778664445283666
 42
-0.3834865378059705
 10
8.621680699938893
 20
8.987606484152967
 42
-0.3429237232523641
 10
9.43494361130414
 20
8.500074959740997
 42
-0.0237870102064671
 10
9.690540650069365
 20
8.337564451603673
 42
-0.1534219542841502
 10
9.667304443122782
 20
7.269638140548577
 42
-0.3331584570918475
 10
9.202582779485499
 20
7.083911816853465
 42
-0.3672738100117385
 10
8.505500284029572
 20
6.967832939831719
 42
-0.1479345874911296
 10
7.99430636120502
 20
7.246422324990788
 42
0.0415915286805248
 10
7.4366403338991
 20
7.757169765344148
 42
0.3416183876794638
  0
ARC
  5
441
330
1C
100
AcDbEntity
  8
0
100
AcDbCircle
 10
8.178241864458261
 20
5.253235020148333
 30
0.0
 40
2.086525456420181
100
AcDbArc
 50
61.32797406374359
 51
91.22257675839611
  0
ARC
  5
442
330
1C
100
AcDbEntity
  8
0
100
AcDbCircle
 10
8.535785445802204
 20
7.815258532371142
 30
0.0
 40
0.6119513829117258
100
AcDbArc
 50
334.128156318855
 51
143.9884940265128
  0
ARC
  5
443
330
1C
100
AcDbEntity
  8
0
100
AcDbCircle
 10
8.833859187958482
 20
8.014646978296529
 30
0.0
 40
0.6401324438272984
100
AcDbArc
 50
259.2651196470116
 51
347.2387353408017
  0
ARC
  5
444
330
1C
100
AcDbEntity
  8
0
100
AcDbCircle
 10
9.074784337455835
 20
7.60569851828025
 30
0.0
 40
0.3650646763578833
100
AcDbArc
 50
80.84398860896873
 51
127.2049311448501
  0
ARC
  5
445
330
1C
100
AcDbEntity
  8
0
100
AcDbCircle
 10
9.253964705774464
 20
7.024877583171218
 30
0.0
 40
0.7422362482897259
100
AcDbArc
 50
99.3893302937368
 51
126.9716224045814
  0
LINE
  5
446
330
1C
100
AcDbEntity
  8
0
100
AcDbLine
 10
8.575208595457525
 20
10.43441443130059
 30
0.0
 11
8.466288527220646
 21
10.18048982356106
 31
0.0
  0
ARC
  5
447
330
1C
100
AcDbEntity
  8
0
100
AcDbCircle
 10
8.563752539652051
 20
11.25839188082872
 30
0.0
 40
0.2960877909602316
100
AcDbArc
 50
25.58596111469311
 51
64.46410667429366
  0
ARC
  5
448
330
1C
100
AcDbEntity
  8
0
100
AcDbCircle
 10
9.001582756498484
 20
11.71296999821771
 30
0.0
 40
0.1952041302639424
100
AcDbArc
 50
173.6681042493761
 51
253.7582295733834
  0
ARC
  5
449
330
1C
100
AcDbEntity
  8
0
100
AcDbCircle
 10
8.978537943785228
 20
11.39138151805156
 30
0.0
 40
0.1478211516347548
100
AcDbArc
 50
181.9848236887158
 51
304.9251014468437
  0
LWPOLYLINE
  5
44A
330
1C
100
AcDbEntity
  8
0
100
AcDbPolyline
 90
        5
 70
     0
 43
0.0
 10
8.691389011366846
 20
10.2022564764899
 10
8.575208595457525
 20
10.45763024685838
 10
8.342847608932984
 20
10.31833545389524
 42
-0.3639865594643985
 10
8.064014672632973
 20
10.29511963833745
 42
0.8472491445950307
 10
7.924598204482966
 20
10.06296178391036
 42
0.8472491445950307
  0
LWPOLYLINE
  5
451
330
1C
100
AcDbEntity
  8
0
100
AcDbPolyline
 90
        5
 70
     0
 43
0.0
 10
9.43494361130414
 20
11.31661441866057
 42
0.1713013719442401
 10
9.295527143154135
 20
11.45590911124011
 42
0.2018984382718103
 10
9.016694052148226
 20
11.6880669656672
 42
0.0929191284334027
 10
8.807569427276167
 20
11.71128278122499
 42
-0.5145078126303539
 10
8.691389011366846
 20
11.85057747380452
 42
1.294365717891628
  0
LWPOLYLINE
  5
458
330
1C
100
AcDbEntity
  8
0
100
AcDbPolyline
 90
        7
 70
     0
 43
0.0
 10
9.969373586369377
 20
10.89873014015477
 42
0.2481620048777594
 10
9.481415870491408
 20
10.92194595571256
 42
-0.323074109700595
 10
9.063166311335493
 20
10.96837758682813
 42
0.235883676403221
 10
9.574360079454146
 20
10.829082793865
 42
-0.1621431241698749
 10
9.946137534128691
 20
10.75943544757523
 42
-1.000000000000014
 10
9.99260963861006
 20
10.71300391684326
 42
0.1339894880833975
 10
9.922901481888008
 20
10.57370912388012
 42
-0.8196295141994236
  0
ARC
  5
461
330
1C
100
AcDbEntity
  8
0
100
AcDbCircle
 10
9.655288663266018
 20
10.97971769671856
 30
0.0
 40
0.6242084386840084
100
AcDbArc
 50
108.4075655374595
 51
170.3403864298382
  0
ARC
  5
462
330
1C
100
AcDbEntity
  8
0
100
AcDbCircle
 10
5.810516425871705
 20
19.02381207243119
 30
0.0
 40
0.7068313426196085
100
AcDbArc
 50
74.78629696487797
 51
111.2340314974782
  0
ARC
  5
463
330
1C
100
AcDbEntity
  8
0
100
AcDbCircle
 10
9.963313285395628
 20
19.9380295394345
 30
0.0
 40
3.481288118018981
100
AcDbArc
 50
178.0891941686588
 51
186.8942519916475
  0
ARC
  5
464
330
1C
100
AcDbEntity
  8
0
100
AcDbCircle
 10
7.106921494929649
 20
19.38085061854097
 30
0.0
 40
0.4446006098858685
100
AcDbArc
 50
117.4153694844749
 51
201.4396007959644
  0
ARC
  5
465
330
1C
100
AcDbEntity
  8
0
100
AcDbCircle
 10
5.048237600195888
 20
18.73481332885688
 30
0.0
 40
0.8708884967817144
100
AcDbArc
 50
317.8527486540663
 51
348.9770783097629
  0
ARC
  5
466
330
1C
100
AcDbEntity
  8
0
100
AcDbCircle
 10
6.438087880261028
 20
16.39839175857953
 30
0.0
 40
2.450281939124015
100
AcDbArc
 50
92.18788881030642
 51
103.6541740637992
  0
ARC
  5
467
330
1C
100
AcDbEntity
  8
0
100
AcDbCircle
 10
6.372290518203383
 20
18.83867531880908
 30
0.0
 40
0.4415747917182227
100
AcDbArc
 50
241.0659887088712
 51
339.5476991440261
  0
ARC
  5
468
330
1C
100
AcDbEntity
  8
0
100
AcDbCircle
 10
6.414699080085355
 20
19.21485761690095
 30
0.0
 40
0.4354322664055611
100
AcDbArc
 50
164.0629616856331
 51
237.6792910044567
  0
ARC
  5
469
330
1C
100
AcDbEntity
  8
0
100
AcDbCircle
 10
6.274123650314002
 20
19.23500300326263
 30
0.0
 40
0.3908038202248307
100
AcDbArc
 50
161.7119905276776
 51
263.2757361380579
  0
LINE
  5
46A
330
1C
100
AcDbEntity
  8
0
100
AcDbLine
 10
7.320459917989779
 20
17.08248748829345
 30
0.0
 11
7.483112593086367
 21
17.4075086049517
 31
0.0
  0
LINE
  5
46B
330
1C
100
AcDbEntity
  8
0
100
AcDbLine
 10
7.947834256723651
 20
17.10570330385124
 30
0.0
 11
8.064014672632973
 21
17.1985664656988
 31
0.0
  0
LINE
  5
46C
330
1C
100
AcDbEntity
  8
0
100
AcDbLine
 10
8.040778620392289
 20
16.96640861127171
 30
0.0
 11
7.947834256723651
 21
17.10570330385124
 31
0.0
  0
LINE
  5
46D
330
1C
100
AcDbEntity
  8
0
100
AcDbLine
 10
7.715473424905009
 20
17.15213493496682
 30
0.0
 11
7.947834256723651
 21
17.24499799643077
 31
0.0
  0
LINE
  5
46E
330
1C
100
AcDbEntity
  8
0
100
AcDbLine
 10
7.506348645327052
 20
17.12891911940903
 30
0.0
 11
7.645765113477057
 21
17.36107697383612
 31
0.0
  0
LINE
  5
46F
330
1C
100
AcDbEntity
  8
0
100
AcDbLine
 10
7.924598204482966
 20
16.82711381830857
 30
0.0
 11
7.715473424905009
 21
17.15213493496682
 31
0.0
  0
LINE
  5
470
330
1C
100
AcDbEntity
  8
0
100
AcDbLine
 10
7.552820749808421
 20
16.7806822875766
 30
0.0
 11
7.320459917989779
 21
17.08248748829345
 31
0.0
  0
LINE
  5
471
330
1C
100
AcDbEntity
  8
0
100
AcDbLine
 10
7.692237372664324
 20
16.85032963386636
 30
0.0
 11
7.506348645327052
 21
17.12891911940903
 31
0.0
  0
LINE
  5
472
330
1C
100
AcDbEntity
  8
0
100
AcDbLine
 10
8.20343114078298
 20
19.05582950188272
 30
0.0
 11
8.20343114078298
 21
18.87010327857121
 31
0.0
  0
LINE
  5
473
330
1C
100
AcDbEntity
  8
0
100
AcDbLine
 10
8.412555920360937
 20
19.07904531744051
 30
0.0
 11
8.459028024842305
 21
18.70759277043389
 31
0.0
  0
LINE
  5
474
330
1C
100
AcDbEntity
  8
0
100
AcDbLine
 10
8.575208595457525
 20
18.56829797747075
 30
0.0
 11
8.20343114078298
 21
18.49865063118098
 31
0.0
  0
LINE
  5
475
330
1C
100
AcDbEntity
  8
0
100
AcDbLine
 10
8.459028024842305
 20
18.70759277043389
 30
0.0
 11
8.110486777114344
 21
18.70759277043389
 31
0.0
  0
LINE
  5
476
330
1C
100
AcDbEntity
  8
0
100
AcDbLine
 10
8.714625063607529
 20
18.91653480930319
 30
0.0
 11
8.737861115848215
 21
18.42900328489122
 31
0.0
  0
LINE
  5
477
330
1C
100
AcDbEntity
  8
0
100
AcDbLine
 10
8.993457999907542
 20
18.63794532376052
 30
0.0
 11
8.877277583998219
 21
18.31292430748588
 31
0.0
  0
LINE
  5
478
330
1C
100
AcDbEntity
  8
0
100
AcDbLine
 10
8.877277583998219
 20
18.31292430748588
 30
0.0
 11
8.668152804420264
 21
18.17362961490634
 31
0.0
  0
LINE
  5
479
330
1C
100
AcDbEntity
  8
0
100
AcDbLine
 10
8.668152804420264
 20
17.22178228125659
 30
0.0
 11
8.668152804420264
 21
17.45394013568368
 31
0.0
  0
LINE
  5
47A
330
1C
100
AcDbEntity
  8
0
100
AcDbLine
 10
8.807569427276167
 20
17.29142962754635
 30
0.0
 11
8.807569427276167
 21
17.59323482826321
 31
0.0
  0
LINE
  5
47B
330
1C
100
AcDbEntity
  8
0
100
AcDbLine
 10
9.016694052148226
 20
17.31464544310414
 30
0.0
 11
8.946985895426172
 21
17.75574543678414
 31
0.0
  0
LINE
  5
47C
330
1C
100
AcDbEntity
  8
0
100
AcDbLine
 10
8.946985895426172
 20
17.75574543678414
 30
0.0
 11
8.528736336270258
 21
17.73252962122635
 31
0.0
  0
LINE
  5
47D
330
1C
100
AcDbEntity
  8
0
100
AcDbLine
 10
8.807569427276167
 20
17.59323482826321
 30
0.0
 11
8.551972388510941
 21
17.59323482826321
 31
0.0
  0
LINE
  5
47E
330
1C
100
AcDbEntity
  8
0
100
AcDbLine
 10
8.737861115848215
 20
18.42900328489122
 30
0.0
 11
8.366083815879568
 21
18.28970849192808
 31
0.0
  0
LINE
  5
47F
330
1C
100
AcDbEntity
  8
0
100
AcDbLine
 10
8.59844464769821
 20
19.00939797115075
 30
0.0
 11
8.575208595457525
 21
18.56829797747075
 31
0.0
  0
ARC
  5
480
330
1C
100
AcDbEntity
  8
0
100
AcDbCircle
 10
6.560420940414256
 20
16.29279826317857
 30
0.0
 40
3.071797742904117
100
AcDbArc
 50
41.69722105781341
 51
62.17385049572874
  0
ARC
  5
481
330
1C
100
AcDbEntity
  8
0
100
AcDbCircle
 10
7.727091451025351
 20
15.48940387724656
 30
0.0
 40
1.640544028830121
100
AcDbArc
 50
73.12080667080556
 51
106.8791933291943
  0
LINE
  5
482
330
1C
100
AcDbEntity
  8
0
100
AcDbLine
 10
8.20343114078298
 20
18.87010327857121
 30
0.0
 11
8.040778620392289
 21
18.87010327857121
 31
0.0
  0
LINE
  5
483
330
1C
100
AcDbEntity
  8
0
100
AcDbLine
 10
9.737012754550734
 20
19.28798745669341
 30
0.0
 11
9.690540650069365
 21
19.47371378038853
 31
0.0
  0
ARC
  5
484
330
1C
100
AcDbEntity
  8
0
100
AcDbCircle
 10
7.404393698940292
 20
17.84235458282051
 30
0.0
 40
2.247037708574217
100
AcDbArc
 50
23.93629797186621
 51
34.82197095626763
  0
LINE
  5
485
330
1C
100
AcDbEntity
  8
0
100
AcDbLine
 10
9.179346727244814
 20
17.50037166641566
 30
0.0
 11
9.109638415816862
 21
17.89504012936367
 31
0.0
  0
LINE
  5
486
330
1C
100
AcDbEntity
  8
0
100
AcDbLine
 10
9.876429222700741
 20
19.12547694855609
 30
0.0
 11
9.620832338641413
 21
19.00939797115075
 31
0.0
  0
LINE
  5
487
330
1C
100
AcDbEntity
  8
0
100
AcDbLine
 10
9.82995711821937
 20
18.96296644041877
 30
0.0
 11
9.527887974972777
 21
18.87010327857121
 31
0.0
  0
LINE
  5
488
330
1C
100
AcDbEntity
  8
0
100
AcDbLine
 10
9.737012754550734
 20
18.77724011672365
 30
0.0
 11
9.504651922732092
 21
18.70759277043389
 31
0.0
  0
ARC
  5
489
330
1C
100
AcDbEntity
  8
0
100
AcDbCircle
 10
10.65922780115701
 20
18.50718847187176
 30
0.0
 40
1.205853110850392
100
AcDbArc
 50
131.9464051604745
 51
174.883414571805
  0
LINE
  5
48A
330
1C
100
AcDbEntity
  8
0
100
AcDbLine
 10
9.922901481888008
 20
19.24155582557784
 30
0.0
 11
9.690540650069365
 21
19.17190847928807
 31
0.0
  0
LINE
  5
48B
330
1C
100
AcDbEntity
  8
0
100
AcDbLine
 10
9.644068390882098
 20
19.12547694855609
 30
0.0
 11
9.574360079454146
 21
19.38085061854097
 31
0.0
  0
LINE
  5
48C
330
1C
100
AcDbEntity
  8
0
100
AcDbLine
 10
9.504651922732092
 20
18.91653480930319
 30
0.0
 11
9.388471506822771
 21
19.3112032722512
 31
0.0
  0
ARC
  5
48D
330
1C
100
AcDbEntity
  8
0
100
AcDbCircle
 10
9.701184174900488
 20
16.94860144097471
 30
0.0
 40
1.148123047656218
100
AcDbArc
 50
122.3755763634738
 51
163.8365684889732
  0
LINE
  5
48E
330
1C
100
AcDbEntity
  8
0
100
AcDbLine
 10
9.109638415816862
 20
17.89504012936367
 30
0.0
 11
8.59844464769821
 21
17.98790329121122
 31
0.0
  0
ARC
  5
48F
330
1C
100
AcDbEntity
  8
0
100
AcDbCircle
 10
8.852213922522368
 20
26.27965425267568
 30
0.0
 40
1.071065625451073
100
AcDbArc
 50
175.0261188951125
 51
197.6652846873273
  0
ARC
  5
490
330
1C
100
AcDbEntity
  8
0
100
AcDbCircle
 10
10.25678378501811
 20
25.61800431234749
 30
0.0
 40
1.752244983751862
100
AcDbArc
 50
170.4670606132583
 51
189.5329393867417
  0
ARC
  5
491
330
1C
100
AcDbEntity
  8
0
100
AcDbCircle
 10
8.193126581802511
 20
26.00630275341377
 30
0.0
 40
0.1265933839003548
100
AcDbArc
 50
253.399391545989
 51
357.6286491534285
  0
LWPOLYLINE
  5
492
330
1C
100
AcDbEntity
  8
0
100
AcDbPolyline
 90
        5
 70
     0
 43
0.0
 10
8.807569427276167
 20
25.79212267807191
 42
0.2068251470334838
 10
8.412555920360937
 20
25.93141747103504
 42
-0.3718213040235294
 10
8.319611556692301
 20
26.00106481732481
 42
0.3819207232045432
 10
8.133722984060925
 20
25.88498583991946
 42
-0.1784812211352965
 10
8.249903399970246
 20
25.49031747735505
 42
-0.935190658487571
  0
ARC
  5
499
330
1C
100
AcDbEntity
  8
0
100
AcDbCircle
 10
5.652590434395026
 20
25.74569109714813
 30
0.0
 40
2.949145651099626
100
AcDbArc
 50
352.3093388545179
 51
2.707214985175303
  0
LWPOLYLINE
  5
49A
330
1C
100
AcDbEntity
  8
0
100
AcDbPolyline
 90
        3
 70
     0
 43
0.0
 10
7.576056956755004
 20
25.88498583991946
 42
0.5463776016232279
 10
7.83165384081433
 20
25.49031747735505
 42
-0.2388775282722091
 10
8.691389011366846
 20
25.21172799181238
 42
-2.424724232263576
  0
LWPOLYLINE
  5
49F
330
1C
100
AcDbEntity
  8
0
100
AcDbPolyline
 90
        7
 70
     0
 43
0.0
 10
7.854889893055015
 20
24.65454902072704
 42
0.3149966124685442
 10
8.342847608932984
 20
24.81705952886437
 42
-0.1256120289147678
 10
8.714625063607529
 20
25.11886482996482
 42
0.3230739040008373
 10
8.412555920360937
 20
25.11886482996482
 42
-0.2865837621761182
 10
8.087250724873658
 20
25.00278585255948
 42
-0.2927051489940501
 10
7.901361997536384
 20
25.18851217625459
 42
0.1621745429720687
 10
7.576056956755004
 20
25.30459115365994
 42
0.1621745429720687
  0
LINE
  5
4A8
330
1C
100
AcDbEntity
  8
0
100
AcDbLine
 10
8.459028024842305
 20
22.17045966716801
 30
0.0
 11
8.412555920360937
 21
22.00794915903069
 31
0.0
  0
LINE
  5
4A9
330
1C
100
AcDbEntity
  8
0
100
AcDbLine
 10
8.412555920360937
 20
22.24010701345778
 30
0.0
 11
8.296375504451615
 21
22.33297017530533
 31
0.0
  0
LINE
  5
4AA
330
1C
100
AcDbEntity
  8
0
100
AcDbLine
 10
8.900513636238905
 20
23.51697536338217
 30
0.0
 11
8.784333220329584
 21
23.51697536338217
 31
0.0
  0
LINE
  5
4AB
330
1C
100
AcDbEntity
  8
0
100
AcDbLine
 10
8.7610971680889
 20
22.28653864457335
 30
0.0
 11
8.621680699938893
 21
22.49548068344266
 31
0.0
  0
LINE
  5
4AC
330
1C
100
AcDbEntity
  8
0
100
AcDbLine
 10
9.063166311335493
 20
22.26332282901557
 30
0.0
 11
9.063166311335493
 21
22.47226496826847
 31
0.0
  0
LINE
  5
4AD
330
1C
100
AcDbEntity
  8
0
100
AcDbLine
 10
8.946985895426172
 20
22.24010701345778
 30
0.0
 11
8.714625063607529
 21
22.00794915903069
 31
0.0
  0
LINE
  5
4AE
330
1C
100
AcDbEntity
  8
0
100
AcDbLine
 10
8.923749843185488
 20
22.28653864457335
 30
0.0
 11
8.807569427276167
 21
22.54191231455823
 31
0.0
  0
LINE
  5
4AF
330
1C
100
AcDbEntity
  8
0
100
AcDbLine
 10
8.621680699938893
 20
22.21689129828359
 30
0.0
 11
8.505500284029572
 21
21.93830181274092
 31
0.0
  0
LINE
  5
4B0
330
1C
100
AcDbEntity
  8
0
100
AcDbLine
 10
8.621680699938893
 20
22.30975435974755
 30
0.0
 11
8.528736336270258
 21
22.42583333715289
 31
0.0
  0
LINE
  5
4B1
330
1C
100
AcDbEntity
  8
0
100
AcDbLine
 10
8.946985895426172
 20
23.60983852522973
 30
0.0
 11
8.946985895426172
 21
23.8884280107724
 31
0.0
  0
ARC
  5
4B2
330
1C
100
AcDbEntity
  8
0
100
AcDbCircle
 10
9.206671992880432
 20
26.27965425267568
 30
0.0
 40
0.1652218602179916
100
AcDbArc
 50
343.6785716696737
 51
57.46647914662623
  0
LINE
  5
4B3
330
1C
100
AcDbEntity
  8
0
100
AcDbLine
 10
9.99260963861006
 20
23.79556484892485
 30
0.0
 11
9.853193170460055
 21
23.95807535706217
 31
0.0
  0
LINE
  5
4B4
330
1C
100
AcDbEntity
  8
0
100
AcDbLine
 10
9.99260963861006
 20
24.21344902704705
 30
0.0
 11
9.876429222700741
 21
24.3295280044524
 31
0.0
  0
LINE
  5
4B5
330
1C
100
AcDbEntity
  8
0
100
AcDbLine
 10
10.29467878185665
 20
24.16701749631507
 30
0.0
 11
10.06231795003801
 21
23.91164382633019
 31
0.0
  0
LINE
  5
4B6
330
1C
100
AcDbEntity
  8
0
100
AcDbLine
 10
10.03908189779733
 20
23.95807535706217
 30
0.0
 11
9.82995711821937
 21
24.12058596558309
 31
0.0
  0
LINE
  5
4B7
330
1C
100
AcDbEntity
  8
0
100
AcDbLine
 10
10.15526231370665
 20
24.30631218889461
 30
0.0
 11
10.01584569085074
 21
24.21344902704705
 31
0.0
  0
LINE
  5
4B8
330
1C
100
AcDbEntity
  8
0
100
AcDbLine
 10
9.225818831726183
 20
23.35446485524485
 30
0.0
 11
9.249055038672766
 21
23.72591750263508
 31
0.0
  0
LINE
  5
4B9
330
1C
100
AcDbEntity
  8
0
100
AcDbLine
 10
9.365235454582085
 20
23.21517016266532
 30
0.0
 11
9.365235454582085
 21
23.6794859719031
 31
0.0
  0
LINE
  5
4BA
330
1C
100
AcDbEntity
  8
0
100
AcDbLine
 10
9.946137534128691
 20
23.33124914007066
 30
0.0
 11
9.644068390882098
 21
23.6794859719031
 31
0.0
  0
LINE
  5
4BB
330
1C
100
AcDbEntity
  8
0
100
AcDbLine
 10
9.481415870491408
 20
23.12230700081776
 30
0.0
 11
9.551124027213463
 21
23.30803332451288
 31
0.0
  0
LINE
  5
4BC
330
1C
100
AcDbEntity
  8
0
100
AcDbLine
 10
10.38762314552529
 20
22.77407016898532
 30
0.0
 11
10.50380356143461
 21
22.91336486156486
 31
0.0
  0
LINE
  5
4BD
330
1C
100
AcDbEntity
  8
0
100
AcDbLine
 10
10.34115088633802
 20
23.77234913375066
 30
0.0
 11
10.06231795003801
 21
23.44732801709241
 31
0.0
  0
LINE
  5
4BE
330
1C
100
AcDbEntity
  8
0
100
AcDbLine
 10
10.06231795003801
 20
22.72763863825335
 30
0.0
 11
10.29467878185665
 21
23.00622802341242
 31
0.0
  0
LINE
  5
4BF
330
1C
100
AcDbEntity
  8
0
100
AcDbLine
 10
10.48056750919392
 20
21.82222283533557
 30
0.0
 11
10.29467878185665
 21
22.07759650532045
 31
0.0
  0
LINE
  5
4C0
330
1C
100
AcDbEntity
  8
0
100
AcDbLine
 10
10.31791483409734
 20
21.79900701977778
 30
0.0
 11
10.08555400227869
 21
22.12402813643603
 31
0.0
  0
LINE
  5
4C1
330
1C
100
AcDbEntity
  8
0
100
AcDbLine
 10
10.48056750919392
 20
22.42583333715289
 30
0.0
 11
10.38762314552529
 21
22.63477547640579
 31
0.0
  0
LINE
  5
4C2
330
1C
100
AcDbEntity
  8
0
100
AcDbLine
 10
10.34115088633802
 20
22.42583333715289
 30
0.0
 11
10.20173441818801
 21
22.63477547640579
 31
0.0
  0
LINE
  5
4C3
330
1C
100
AcDbEntity
  8
0
100
AcDbLine
 10
10.52703961367529
 20
22.72763863825335
 30
0.0
 11
10.6664560818253
 21
22.86693333083288
 31
0.0
  0
LINE
  5
4C4
330
1C
100
AcDbEntity
  8
0
100
AcDbLine
 10
10.64322002958461
 20
22.51869649900045
 30
0.0
 11
10.57351171815666
 21
22.63477547640579
 31
0.0
  0
LINE
  5
4C5
330
1C
100
AcDbEntity
  8
0
100
AcDbLine
 10
10.55027566591598
 20
22.21689129828359
 30
0.0
 11
10.3643870932846
 21
22.17045966716801
 31
0.0
  0
ARC
  5
4C6
330
1C
100
AcDbEntity
  8
0
100
AcDbCircle
 10
10.01584576820369
 20
21.07256742962821
 30
0.0
 40
1.113517828974073
100
AcDbArc
 50
57.14265676427379
 51
99.60984636713682
  0
LINE
  5
4C7
330
1C
100
AcDbEntity
  8
0
100
AcDbLine
 10
10.2249704704287
 20
22.35618599086313
 30
0.0
 11
10.01584569085074
 21
22.611559660848
 31
0.0
  0
LINE
  5
4C8
330
1C
100
AcDbEntity
  8
0
100
AcDbLine
 10
10.2249704704287
 20
21.70614385793023
 30
0.0
 11
9.946137534128691
 21
22.12402813643603
 31
0.0
  0
ARC
  5
4C9
330
1C
100
AcDbEntity
  8
0
100
AcDbCircle
 10
10.60836595122359
 20
12.92513604172889
 30
0.0
 40
9.781777820552715
100
AcDbArc
 50
88.70691145451827
 51
94.15478319101415
  0
LINE
  5
4CA
330
1C
100
AcDbEntity
  8
0
100
AcDbLine
 10
10.3643870932846
 20
23.58662281005555
 30
0.0
 11
9.99260963861006
 21
23.30803332451288
 31
0.0
  0
LINE
  5
4CB
330
1C
100
AcDbEntity
  8
0
100
AcDbLine
 10
10.31791483409734
 20
24.02772280373554
 30
0.0
 11
10.10879005451938
 21
23.72591750263508
 31
0.0
  0
ARC
  5
4CC
330
1C
100
AcDbEntity
  8
0
100
AcDbCircle
 10
8.57440873275109
 20
23.99640177092045
 30
0.0
 40
1.472789351624428
100
AcDbArc
 50
332.1349282821328
 51
18.70926290368188
  0
LINE
  5
4CD
330
1C
100
AcDbEntity
  8
0
100
AcDbLine
 10
9.969373586369377
 20
23.60983852522973
 30
0.0
 11
9.783484859032103
 21
23.79556484892485
 31
0.0
  0
LINE
  5
4CE
330
1C
100
AcDbEntity
  8
0
100
AcDbLine
 10
9.086402363576178
 20
23.51697536338217
 30
0.0
 11
9.109638415816862
 21
23.79556484892485
 31
0.0
  0
LWPOLYLINE
  5
4CF
330
1C
100
AcDbEntity
  8
0
100
AcDbPolyline
 90
       25
 70
     0
 43
0.0
 10
8.459028024842305
 20
24.58490167443728
 42
0.1713757072781681
 10
8.180195088542294
 20
24.02772280373554
 42
-0.2165310112492516
 10
8.528736336270258
 20
24.25988065816263
 42
0.3466041361428133
 10
8.784333220329584
 20
24.5384701437053
 42
0.4524187706376741
 10
9.039930259094807
 20
24.16701749631507
 42
-0.149764435151353
 10
9.016694052148226
 20
24.63133330555285
 42
0.2771091378983976
 10
9.202582779485499
 20
25.02600166811727
 10
9.946137534128691
 20
24.9563543218275
 10
9.644068390882098
 20
25.18851217625459
 10
10.10879005451938
 20
25.55996482364482
 10
9.690540650069365
 20
25.60639635437679
 42
0.460894041632467
 10
9.31876319539482
 20
26.46538052617899
 42
0.2751460502719807
 10
9.132874622763445
 20
26.86004898912701
 42
0.450149326650285
 10
8.412555920360937
 20
26.67432266543189
 42
0.4668310117566754
 10
7.83165384081433
 20
26.37251736433143
 42
0.2266950534447003
 10
7.622529061236373
 20
26.27965430286748
 42
0.3684865308256212
 10
7.599293008995688
 20
25.88498583991946
 42
0.5778705661967627
 10
7.576056956755004
 20
25.28137533810215
 42
0.1060245007572082
 10
7.738709477145694
 20
24.51525432814751
 42
0.2431474287736683
 10
8.156959036301609
 20
24.35274382001018
 42
-0.0372531296024876
 10
8.459028024842305
 20
24.58490167443728
 42
-0.6298534852076437
 10
8.668152804420264
 20
24.63133330555285
 42
0.4337730524550231
 10
9.132874622763445
 20
24.84027534442216
 42
0.1713757486294969
 10
9.341999247635504
 20
25.18851217625459
 42
0.1686456227498936
 10
9.667304443122782
 20
25.60639635437679
 42
1.39560219799772
  0
LWPOLYLINE
  5
4EA
330
1C
100
AcDbEntity
  8
0
100
AcDbPolyline
 90
        7
 70
     0
 43
0.0
 10
8.83080547951685
 20
26.34930164915724
 42
-0.3306814759482785
 10
9.225818831726183
 20
25.93141747103504
 42
-0.147745270879522
 10
9.156110675004129
 20
25.53674900808703
 42
-0.1792146855718444
 10
8.83080547951685
 20
25.23494380737017
 42
-0.3734175526866266
 10
8.7610971680889
 20
25.25815952254436
 42
-0.1065985953622314
 10
8.900513636238905
 20
25.88498583991946
 42
0.1884037588188978
 10
8.923749843185488
 20
26.27965430286748
 42
6.32449377707528
  0
ARC
  5
4F3
330
1C
100
AcDbEntity
  8
0
100
AcDbCircle
 10
8.610062596465603
 20
25.81634359083834
 30
0.0
 40
0.8300478922071729
100
AcDbArc
 50
56.91541274198982
 51
102.1195681994435
  0
ARC
  5
4F4
330
1C
100
AcDbEntity
  8
0
100
AcDbCircle
 10
8.842662049906122
 20
21.08292729613849
 30
0.0
 40
1.20529786963395
100
AcDbArc
 50
78.33294965158511
 51
133.202368065581
  0
ARC
  5
4F5
330
1C
100
AcDbEntity
  8
0
100
AcDbCircle
 10
5.087654489071203
 20
19.67657774213243
 30
0.0
 40
5.480328442771194
100
AcDbArc
 50
37.10860823513051
 51
49.84507197514755
  0
LINE
  5
4F6
330
1C
100
AcDbEntity
  8
0
100
AcDbLine
 10
9.109638415816862
 20
22.21689129828359
 30
0.0
 11
8.946985895426172
 21
21.96151752791511
 31
0.0
  0
LINE
  5
4F7
330
1C
100
AcDbEntity
  8
0
100
AcDbLine
 10
9.365235454582085
 20
23.07587547008578
 30
0.0
 11
9.016694052148226
 21
23.052659654528
 31
0.0
  0
LINE
  5
4F8
330
1C
100
AcDbEntity
  8
0
100
AcDbLine
 10
9.27229109091345
 20
23.19195434710753
 30
0.0
 11
8.923749843185488
 21
23.21517016266532
 31
0.0
  0
LINE
  5
4F9
330
1C
100
AcDbEntity
  8
0
100
AcDbLine
 10
9.086402363576178
 20
23.40089648636043
 30
0.0
 11
8.877277583998219
 21
23.37768067080264
 31
0.0
  0
LINE
  5
4FA
330
1C
100
AcDbEntity
  8
0
100
AcDbLine
 10
5.01068229906184
 20
16.76283625581658
 30
0.0
 11
5.01068229906184
 21
16.5485243327659
 31
0.0
  0
LINE
  5
4FB
330
1C
100
AcDbEntity
  8
0
100
AcDbLine
 10
4.505439570966289
 20
16.79030191657402
 30
0.0
 11
4.515832044319941
 21
16.64493510597494
 31
0.0
  0
LINE
  5
4FC
330
1C
100
AcDbEntity
  8
0
100
AcDbLine
 10
2.89619860574748
 20
17.10570330385124
 30
0.0
 11
2.780018189838159
 21
17.1985664656988
 31
0.0
  0
LINE
  5
4FD
330
1C
100
AcDbEntity
  8
0
100
AcDbLine
 10
2.803254242078844
 20
16.96640861127171
 30
0.0
 11
2.89619860574748
 21
17.10570330385124
 31
0.0
  0
LINE
  5
4FE
330
1C
100
AcDbEntity
  8
0
100
AcDbLine
 10
3.128559437566122
 20
17.15213493496682
 30
0.0
 11
2.89619860574748
 21
17.24499799643077
 31
0.0
  0
LINE
  5
4FF
330
1C
100
AcDbEntity
  8
0
100
AcDbLine
 10
2.919434657988165
 20
16.82711381830857
 30
0.0
 11
3.128559437566122
 21
17.15213493496682
 31
0.0
  0
LINE
  5
500
330
1C
100
AcDbEntity
  8
0
100
AcDbLine
 10
3.337684217144079
 20
17.12891911940903
 30
0.0
 11
3.198267748994074
 21
17.36107697383612
 31
0.0
  0
LINE
  5
501
330
1C
100
AcDbEntity
  8
0
100
AcDbLine
 10
3.151795489806807
 20
16.85032963386636
 30
0.0
 11
3.337684217144079
 21
17.12891911940903
 31
0.0
  0
LINE
  5
502
330
1C
100
AcDbEntity
  8
0
100
AcDbLine
 10
3.523572944481352
 20
17.08248748829345
 30
0.0
 11
3.360920269384764
 21
17.4075086049517
 31
0.0
  0
LINE
  5
503
330
1C
100
AcDbEntity
  8
0
100
AcDbLine
 10
3.29121211266271
 20
16.7806822875766
 30
0.0
 11
3.523572944481352
 21
17.08248748829345
 31
0.0
  0
LINE
  5
504
330
1C
100
AcDbEntity
  8
0
100
AcDbLine
 10
2.640601721688153
 20
18.87010327857121
 30
0.0
 11
2.803254242078844
 21
18.87010327857121
 31
0.0
  0
LINE
  5
505
330
1C
100
AcDbEntity
  8
0
100
AcDbLine
 10
2.640601721688153
 20
19.05582950188272
 30
0.0
 11
2.640601721688153
 21
18.87010327857121
 31
0.0
  0
LINE
  5
506
330
1C
100
AcDbEntity
  8
0
100
AcDbLine
 10
2.385004837628827
 20
18.70759277043389
 30
0.0
 11
2.73354608535679
 21
18.70759277043389
 31
0.0
  0
LINE
  5
507
330
1C
100
AcDbEntity
  8
0
100
AcDbLine
 10
2.431476942110196
 20
19.07904531744051
 30
0.0
 11
2.385004837628827
 21
18.70759277043389
 31
0.0
  0
LINE
  5
508
330
1C
100
AcDbEntity
  8
0
100
AcDbLine
 10
2.268824267013608
 20
18.56829797747075
 30
0.0
 11
2.640601721688153
 21
18.49865063118098
 31
0.0
  0
LINE
  5
509
330
1C
100
AcDbEntity
  8
0
100
AcDbLine
 10
2.245588214772924
 20
19.00939797115075
 30
0.0
 11
2.268824267013608
 21
18.56829797747075
 31
0.0
  0
LINE
  5
50A
330
1C
100
AcDbEntity
  8
0
100
AcDbLine
 10
2.106171746622918
 20
18.42900328489122
 30
0.0
 11
2.477949046591565
 21
18.28970849192808
 31
0.0
  0
LINE
  5
50B
330
1C
100
AcDbEntity
  8
0
100
AcDbLine
 10
2.129407798863602
 20
18.91653480930319
 30
0.0
 11
2.106171746622918
 21
18.42900328489122
 31
0.0
  0
LINE
  5
50C
330
1C
100
AcDbEntity
  8
0
100
AcDbLine
 10
1.966755278472912
 20
18.31292430748588
 30
0.0
 11
2.175880058050869
 21
18.17362961490634
 31
0.0
  0
LINE
  5
50D
330
1C
100
AcDbEntity
  8
0
100
AcDbLine
 10
1.850574862563591
 20
18.63794532376052
 30
0.0
 11
1.966755278472912
 21
18.31292430748588
 31
0.0
  0
LINE
  5
50E
330
1C
100
AcDbEntity
  8
0
100
AcDbLine
 10
2.175880058050869
 20
17.22178228125659
 30
0.0
 11
2.175880058050869
 21
17.45394013568368
 31
0.0
  0
LINE
  5
50F
330
1C
100
AcDbEntity
  8
0
100
AcDbLine
 10
2.036463435194966
 20
17.59323482826321
 30
0.0
 11
2.29206047396019
 21
17.59323482826321
 31
0.0
  0
LINE
  5
510
330
1C
100
AcDbEntity
  8
0
100
AcDbLine
 10
2.036463435194966
 20
17.29142962754635
 30
0.0
 11
2.036463435194966
 21
17.59323482826321
 31
0.0
  0
LINE
  5
511
330
1C
100
AcDbEntity
  8
0
100
AcDbLine
 10
1.897046967044961
 20
17.75574543678414
 30
0.0
 11
2.315296526200875
 21
17.73252962122635
 31
0.0
  0
LINE
  5
512
330
1C
100
AcDbEntity
  8
0
100
AcDbLine
 10
1.827338810322906
 20
17.31464544310414
 30
0.0
 11
1.897046967044961
 21
17.75574543678414
 31
0.0
  0
LINE
  5
513
330
1C
100
AcDbEntity
  8
0
100
AcDbLine
 10
1.73439444665427
 20
17.89504012936367
 30
0.0
 11
2.245588214772924
 21
17.98790329121122
 31
0.0
  0
LINE
  5
514
330
1C
100
AcDbEntity
  8
0
100
AcDbLine
 10
1.664686135226319
 20
17.50037166641566
 30
0.0
 11
1.73439444665427
 21
17.89504012936367
 31
0.0
  0
LINE
  5
515
330
1C
100
AcDbEntity
  8
0
100
AcDbLine
 10
1.107020107920398
 20
18.77724011672365
 30
0.0
 11
1.33938093973904
 21
18.70759277043389
 31
0.0
  0
LINE
  5
516
330
1C
100
AcDbEntity
  8
0
100
AcDbLine
 10
1.014075744251762
 20
18.96296644041877
 30
0.0
 11
1.316144887498356
 21
18.87010327857121
 31
0.0
  0
LINE
  5
517
330
1C
100
AcDbEntity
  8
0
100
AcDbLine
 10
0.9676036397703931
 20
19.12547694855609
 30
0.0
 11
1.223200523829719
 21
19.00939797115075
 31
0.0
  0
LINE
  5
518
330
1C
100
AcDbEntity
  8
0
100
AcDbLine
 10
0.9211313805831263
 20
19.24155582557784
 30
0.0
 11
1.153492212401768
 21
19.17190847928807
 31
0.0
  0
LINE
  5
519
330
1C
100
AcDbEntity
  8
0
100
AcDbLine
 10
1.107020107920398
 20
19.28798745669341
 30
0.0
 11
1.153492212401768
 21
19.47371378038853
 31
0.0
  0
LINE
  5
51A
330
1C
100
AcDbEntity
  8
0
100
AcDbLine
 10
1.199964471589035
 20
19.12547694855609
 30
0.0
 11
1.269672783016986
 21
19.38085061854097
 31
0.0
  0
LINE
  5
51B
330
1C
100
AcDbEntity
  8
0
100
AcDbLine
 10
1.33938093973904
 20
18.91653480930319
 30
0.0
 11
1.455561355648361
 21
19.3112032722512
 31
0.0
  0
ARC
  5
51C
330
1C
100
AcDbEntity
  8
0
100
AcDbCircle
 10
3.43963916353084
 20
17.84235458282051
 30
0.0
 40
2.247037708574217
100
AcDbArc
 50
145.1780290437323
 51
156.0637020281337
  0
ARC
  5
51D
330
1C
100
AcDbEntity
  8
0
100
AcDbCircle
 10
1.142848687570644
 20
16.94860144097471
 30
0.0
 40
1.148123047656218
100
AcDbArc
 50
16.16343151102672
 51
57.62442363652615
  0
ARC
  5
51E
330
1C
100
AcDbEntity
  8
0
100
AcDbCircle
 10
0.1848050613141189
 20
18.50718847187176
 30
0.0
 40
1.205853110850392
100
AcDbArc
 50
5.116585428194986
 51
48.05359483952545
  0
ARC
  5
51F
330
1C
100
AcDbEntity
  8
0
100
AcDbCircle
 10
4.283611922056875
 20
16.29279826317857
 30
0.0
 40
3.071797742904117
100
AcDbArc
 50
117.8261495042712
 51
138.3027789421865
  0
ARC
  5
520
330
1C
100
AcDbEntity
  8
0
100
AcDbCircle
 10
3.11694141144578
 20
15.48940387724656
 30
0.0
 40
1.640544028830121
100
AcDbArc
 50
73.12080667080564
 51
106.8791933291944
  0
ARC
  5
521
330
1C
100
AcDbEntity
  8
0
100
AcDbCircle
 10
5.369273698033485
 20
19.286651771019
 30
0.0
 40
0.8363449136770874
100
AcDbArc
 50
239.1955921913551
 51
293.8740003574403
  0
ARC
  5
522
330
1C
100
AcDbEntity
  8
0
100
AcDbCircle
 10
5.033516436599426
 20
19.02381207243119
 30
0.0
 40
0.7068313426196085
100
AcDbArc
 50
68.76596850252176
 51
105.213703035122
  0
ARC
  5
523
330
1C
100
AcDbEntity
  8
0
100
AcDbCircle
 10
5.299952860749723
 20
19.17461351952062
 30
0.0
 40
0.3613499542985725
100
AcDbArc
 50
294.912897769304
 51
72.98434018452553
  0
ARC
  5
524
330
1C
100
AcDbEntity
  8
0
100
AcDbCircle
 10
5.795795262275243
 20
18.73481332885688
 30
0.0
 40
0.8708884967817144
100
AcDbArc
 50
219.605886862226
 51
222.1472513459336
  0
ARC
  5
525
330
1C
100
AcDbEntity
  8
0
100
AcDbCircle
 10
4.56990921215713
 20
19.23500300326263
 30
0.0
 40
0.3908038202248307
100
AcDbArc
 50
276.7242638619421
 51
18.28800947232239
  0
ARC
  5
526
330
1C
100
AcDbEntity
  8
0
100
AcDbCircle
 10
4.429333782385776
 20
19.21485761690095
 30
0.0
 40
0.4354322664055611
100
AcDbArc
 50
302.3207089955432
 51
15.93703831436688
  0
ARC
  5
527
330
1C
100
AcDbEntity
  8
0
100
AcDbCircle
 10
4.405944982210103
 20
16.39839175857953
 30
0.0
 40
2.450281939124015
100
AcDbArc
 50
74.02295254752529
 51
87.81211118969357
  0
LWPOLYLINE
  5
528
330
1C
100
AcDbEntity
  8
0
100
AcDbPolyline
 90
        4
 70
     0
 43
0.0
 10
5.150098767211846
 20
19.47371378038853
 42
-0.6320172331863146
 10
5.335987494549119
 20
19.28798745669341
 42
0.1098349371024043
 10
5.219807078639798
 20
19.03261378670853
 42
-0.4760717664205698
 10
5.033918351302525
 20
18.75402430116587
 42
21.31875939281652
  0
LWPOLYLINE
  5
52E
330
1C
100
AcDbEntity
  8
0
100
AcDbPolyline
 90
        4
 70
     0
 43
0.0
 10
4.267127544418648
 20
18.98618215559296
 42
-0.3902164686927558
 10
4.731849362761828
 20
19.35763480298318
 42
0.0848807567025952
 10
4.964210194580471
 20
19.38085061854097
 42
0.0974873613687813
 10
5.150098767211846
 20
19.47371378038853
 42
-0.3412175482906481
  0
ARC
  5
534
330
1C
100
AcDbEntity
  8
0
100
AcDbCircle
 10
0.8807195770755058
 20
19.9380295394345
 30
0.0
 40
3.481288118018981
100
AcDbArc
 50
353.1057480083524
 51
1.910805831341138
  0
ARC
  5
535
330
1C
100
AcDbEntity
  8
0
100
AcDbCircle
 10
3.737111367541481
 20
19.38085061854097
 30
0.0
 40
0.4446006098858685
100
AcDbArc
 50
338.5603992040355
 51
62.58463051552499
  0
ARC
  5
536
330
1C
100
AcDbEntity
  8
0
100
AcDbCircle
 10
4.471742344267748
 20
18.83867531880908
 30
0.0
 40
0.4415747917182227
100
AcDbArc
 50
200.4523008559738
 51
298.9340112911287
  0
LWPOLYLINE
  5
537
330
1C
100
AcDbEntity
  8
0
100
AcDbPolyline
 90
       22
 70
     0
 43
0.0
 10
3.779169828540679
 20
19.19512429484586
 42
0.1663414041090891
 10
3.198267748994074
 20
19.19512429484586
 42
-0.3026287163749473
 10
3.570045048962721
 20
19.00939797115075
 42
-0.0928802473061662
 10
3.267975905716128
 20
18.8933189937454
 42
0.3333312710933856
 10
3.337684217144079
 20
18.82367164745563
 42
-0.0907198998353334
 10
3.244739853475443
 20
18.38257165377564
 42
-0.1731120784238242
 10
3.732697724059309
 20
18.59151379302854
 42
-0.1098660931486242
 10
3.686225464872042
 20
18.12719798379076
 42
0.5161020845754459
 10
4.127711076268641
 20
18.26649277675389
 42
-0.268011066367942
 10
4.104475024027957
 20
18.01111910676901
 42
0.3984326976453932
 10
4.499488376237289
 20
18.38257165377564
 42
0.5519852601786015
 10
5.173334974158428
 20
18.22006114563832
 42
0.5456931617328431
 10
5.707764794517766
 20
18.54508216191296
 42
0.3409173807505403
 10
5.800709158186402
 20
19.49692949556272
 42
-0.0290411386373751
 10
5.335987494549119
 20
19.89159795851073
 42
0.4316776751091929
 10
5.126862714971161
 20
20.12375581293782
 42
-0.027099001002606
 10
4.824793571724567
 20
20.14697162849561
 42
-0.0007735323271855
 10
4.476252323996605
 20
20.19340315922759
 42
0.4148058704972025
 10
4.081238971787272
 20
19.89159795851073
 42
0.6440924872076951
 10
3.732697724059309
 20
19.21834011040365
 42
0.2362522320605402
 10
3.779169828540679
 20
18.98618215559296
 42
0.6370983319757519
 10
4.127711076268641
 20
18.59151379302854
 42
-0.1445547102743596
  0
ARC
  5
54F
330
1C
100
AcDbEntity
  8
0
100
AcDbCircle
 10
4.770444339631349
 20
13.32843795457423
 30
0.0
 40
1.042688179851034
100
AcDbArc
 50
84.45118322460727
 51
131.3753396125041
  0
ARC
  5
550
330
1C
100
AcDbEntity
  8
0
100
AcDbCircle
 10
3.790792812926532
 20
15.02349742800399
 30
0.0
 40
0.1837919231380014
100
AcDbArc
 50
214.7350215935351
 51
304.6728751152024
  0
ARC
  5
551
330
1C
100
AcDbEntity
  8
0
100
AcDbCircle
 10
4.447088459086325
 20
15.68964254397406
 30
0.0
 40
0.5168880971226005
100
AcDbArc
 50
300.3950994296013
 51
335.5806692589096
  0
ARC
  5
552
330
1C
100
AcDbEntity
  8
0
100
AcDbCircle
 10
72861.04326584686
 20
-48597.91832776096
 30
0.0
 40
87585.93675214699
100
AcDbArc
 50
146.2867509303108
 51
146.2869152469294
  0
ARC
  5
553
330
1C
100
AcDbEntity
  8
0
100
AcDbCircle
 10
4.50348295730789
 20
15.52369886985165
 30
0.0
 40
0.1649488994220188
100
AcDbArc
 50
276.6989214618202
 51
15.87471929731682
  0
ARC
  5
554
330
1C
100
AcDbEntity
  8
0
100
AcDbCircle
 10
4.538600416073734
 20
15.09762307307488
 30
0.0
 40
0.389665822969801
100
AcDbArc
 50
185.8257297396382
 51
234.7307578566609
  0
ARC
  5
555
330
1C
100
AcDbEntity
  8
0
100
AcDbCircle
 10
4.316894211939918
 20
14.99451546838618
 30
0.0
 40
0.239082974807203
100
AcDbArc
 50
170.2862450050908
 51
274.7845356549861
  0
ARC
  5
556
330
1C
100
AcDbEntity
  8
0
100
AcDbCircle
 10
4.219884696900067
 20
15.08128661649515
 30
0.0
 40
0.6645782928007944
100
AcDbArc
 50
155.2160742897347
 51
245.2661211986748
  0
LWPOLYLINE
  5
557
330
1C
100
AcDbEntity
  8
0
100
AcDbPolyline
 90
        3
 70
     0
 43
0.0
 10
4.824793571724567
 20
14.17587081357738
 42
-0.201278847332856
 10
5.05715440354321
 20
14.57053927652539
 42
-0.1154134216885748
 10
5.196571026399112
 20
14.9884234546476
 42
-0.5586848747807464
  0
LWPOLYLINE
  5
55C
330
1C
100
AcDbEntity
  8
0
100
AcDbPolyline
 90
        3
 70
     0
 43
0.0
 10
3.430628580812716
 20
14.19908662913517
 42
-0.1054602632148222
 10
3.872114192209314
 20
14.19908662913517
 42
0.1669563849493031
 10
4.40654416727455
 20
14.05979193655563
 42
-0.0379642985581646
  0
LWPOLYLINE
  5
561
330
1C
100
AcDbEntity
  8
0
100
AcDbPolyline
 90
        9
 70
     0
 43
0.0
 10
5.033918351302525
 20
15.49917079461736
 42
-0.2900721961579995
 10
4.731849362761828
 20
15.15093396278492
 42
0.2507745464862859
 10
4.243891492177962
 20
14.45446029912005
 42
-0.4258129215341214
 10
4.081238971787272
 20
14.89556029280004
 42
0.103699427041341
 10
4.150947128509327
 20
15.17414977834271
 42
0.0905175478816395
 10
4.104475024027957
 20
15.49917079461736
 42
0.1897424393082817
 10
4.360071908087284
 20
15.59203395646491
 42
0.3133845650835232
 10
4.615668946852507
 20
15.31344447092225
 42
-0.3317811138816815
 10
4.755085415002513
 20
15.15093396278492
 42
0.9338817498465017
  0
LWPOLYLINE
  5
56C
330
1C
100
AcDbEntity
  8
0
100
AcDbPolyline
 90
       19
 70
     0
 43
0.0
 10
5.359223546789803
 20
15.26701294019026
 42
-0.685802212284321
 10
5.335987494549119
 20
14.40802876838807
 42
-0.0991042323457732
 10
5.382459599030488
 20
13.9204971435925
 42
0.2910644279334642
 10
4.801557519483883
 20
14.17587081357738
 42
-0.2611521217023686
 10
4.360071908087284
 20
14.05979193655563
 42
-0.8671883428774725
 10
4.127711076268641
 20
13.89728142841831
 42
0.0586723860132122
 10
4.174183335455908
 20
13.34010245733297
 42
-0.3582051006643051
 10
3.825641933022048
 20
14.01336030544006
 42
0.0516248036425096
 10
3.709461517112727
 20
13.59547612731785
 42
-0.4144694824083896
 10
3.4538646330534
 20
14.19908662913517
 42
-0.4860096589778337
 10
3.221503801234758
 20
14.75626560022051
 42
-0.2551896290324089
 10
3.360920269384764
 20
15.33666028648003
 42
-0.5571858897735856
 10
3.779169828540679
 20
15.82419181089201
 42
-0.3059998082131925
 10
4.104475024027957
 20
16.10278129643467
 42
-0.1379343321193016
 10
4.383307960327968
 20
15.84740762644979
 42
-0.3253093497695716
 10
5.150098767211846
 20
15.68489711831247
 42
-0.1909966343295306
 10
5.359223546789803
 20
15.24379712463248
 42
-0.486565956047518
 10
4.871265830911834
 20
14.94199182353202
 42
-0.0442075346597616
 10
4.545960635424556
 20
14.68661815354714
 42
3.368344065460616
  0
ARC
  5
581
330
1C
100
AcDbEntity
  8
0
100
AcDbCircle
 10
1.879955109197752
 20
12.86640310534072
 30
0.0
 40
2.702574739641377
100
AcDbArc
 50
90.62288648961292
 51
103.0508166641975
  0
LWPOLYLINE
  5
582
330
1C
100
AcDbEntity
  8
0
100
AcDbPolyline
 90
        5
 70
     0
 43
0.0
 10
1.130256160161083
 20
16.07956548087688
 42
0.4905469761034611
 10
1.478797407889046
 20
15.70811293387026
 42
-0.5803854808006417
 10
1.641450082985634
 20
15.54560232534933
 42
0.1096998477130462
 10
1.316144887498356
 20
15.66168130275468
 42
-0.7383847753867227
 10
1.107020107920398
 20
15.96348660385514
 42
-0.7383847753867227
  0
LWPOLYLINE
  5
589
330
1C
100
AcDbEntity
  8
0
100
AcDbPolyline
 90
       14
 70
     0
 43
0.0
 10
1.502033614835628
 20
15.26701294019026
 42
-0.1339481066089008
 10
1.664686135226319
 20
15.03485498537957
 42
-0.2390471446312004
 10
1.641450082985634
 20
14.84912876206806
 42
-0.4886722145270527
 10
1.502033614835628
 20
14.82591294651028
 42
0.4144698546974554
 10
1.362616991979725
 20
15.05807080093736
 42
-0.4101096476570362
 10
1.269672783016986
 20
15.47595497905957
 42
-0.9050661713646475
 10
1.037311796492447
 20
15.94027078829735
 42
0.1858291670154376
 10
1.153492212401768
 20
16.54388129011467
 42
-0.2246700013991468
 10
1.455561355648361
 20
16.56709700528885
 42
0.4143509743286672
 10
1.641450082985634
 20
16.24207598901421
 42
-0.3779701186493814
 10
1.850574862563591
 20
15.59203395646491
 42
-0.1941197129947747
 10
2.013227382954282
 20
15.24379712463248
 42
0.9268380581139586
 10
2.036463435194966
 20
14.96520763908981
 42
-0.3025556423950138
 10
1.827338810322906
 20
14.91877610835783
 42
-0.3025556423950138
  0
LINE
  5
599
330
1C
100
AcDbEntity
  8
0
100
AcDbLine
 10
3.29121211266271
 20
14.15265509840319
 30
0.0
 11
3.477100685294085
 21
14.10622346728761
 31
0.0
  0
LINE
  5
59A
330
1C
100
AcDbEntity
  8
0
100
AcDbLine
 10
3.058851280844068
 20
14.05979193655563
 30
0.0
 11
3.314448164903394
 21
13.96692877470808
 31
0.0
  0
LINE
  5
59B
330
1C
100
AcDbEntity
  8
0
100
AcDbLine
 10
3.012379021656801
 20
13.94371295915029
 30
0.0
 11
3.244739853475443
 21
13.85084979730273
 31
0.0
  0
LINE
  5
59C
330
1C
100
AcDbEntity
  8
0
100
AcDbLine
 10
3.267975905716128
 20
14.47767611467784
 30
0.0
 11
3.267975905716128
 21
14.29194979098272
 31
0.0
  0
LINE
  5
59D
330
1C
100
AcDbEntity
  8
0
100
AcDbLine
 10
3.035615073897486
 20
14.47767611467784
 30
0.0
 11
3.058851280844068
 21
14.17587081357738
 31
0.0
  0
LINE
  5
59E
330
1C
100
AcDbEntity
  8
0
100
AcDbLine
 10
2.872962553506795
 20
14.10622346728761
 30
0.0
 11
2.89619860574748
 21
14.43124448356226
 31
0.0
  0
ARC
  5
59F
330
1C
100
AcDbEntity
  8
0
100
AcDbCircle
 10
3.780240509452553
 20
12.85060899755157
 30
0.0
 40
1.468267454429552
100
AcDbArc
 50
107.4189078346776
 51
130.5095860345782
  0
LINE
  5
5A0
330
1C
100
AcDbEntity
  8
0
100
AcDbLine
 10
7.868720747019392
 20
14.40802876838807
 30
0.0
 11
7.72930412416349
 21
14.43124448356226
 31
0.0
  0
LINE
  5
5A1
330
1C
100
AcDbEntity
  8
0
100
AcDbLine
 10
7.845484694778709
 20
14.64018662281516
 30
0.0
 11
7.868720747019392
 21
14.40802876838807
 31
0.0
  0
LINE
  5
5A2
330
1C
100
AcDbEntity
  8
0
100
AcDbLine
 10
8.310206358415992
 20
14.36159713727249
 30
0.0
 11
8.310206358415992
 21
14.03657612099785
 31
0.0
  0
LINE
  5
5A3
330
1C
100
AcDbEntity
  8
0
100
AcDbLine
 10
8.031373267410085
 20
14.29194979098272
 30
0.0
 11
8.031373267410085
 21
14.64018662281516
 31
0.0
  0
LINE
  5
5A4
330
1C
100
AcDbEntity
  8
0
100
AcDbLine
 10
7.72930412416349
 20
14.29194979098272
 30
0.0
 11
8.031373267410085
 21
14.29194979098272
 31
0.0
  0
LINE
  5
5A5
330
1C
100
AcDbEntity
  8
0
100
AcDbLine
 10
7.799012435591442
 20
14.08300775211342
 30
0.0
 11
8.101081578838035
 21
14.08300775211342
 31
0.0
  0
ARC
  5
5A6
330
1C
100
AcDbEntity
  8
0
100
AcDbCircle
 10
7.950047007214737
 20
15.55997001918464
 30
0.0
 40
1.596469130232524
100
AcDbArc
 50
266.2446685320736
 51
280.4823945591649
  0
ARC
  5
5A7
330
1C
100
AcDbEntity
  8
0
100
AcDbCircle
 10
6.56524269224264
 20
13.05744340071118
 30
0.0
 40
1.905186296063203
100
AcDbArc
 50
26.9364711344882
 51
54.94185120281082
  0
ARC
  5
5A8
330
1C
100
AcDbEntity
  8
0
100
AcDbCircle
 10
9.468015819066987
 20
14.0273901665641
 30
0.0
 40
0.2501301921142129
100
AcDbArc
 50
105.2313784080464
 51
155.9217444065372
  0
ARC
  5
5A9
330
1C
100
AcDbEntity
  8
0
100
AcDbCircle
 10
9.355504895271993
 20
13.99002323910542
 30
0.0
 40
0.367092501309864
100
AcDbArc
 50
124.6660871575778
 51
161.5460664164394
  0
ARC
  5
5AA
330
1C
100
AcDbEntity
  8
0
100
AcDbCircle
 10
9.958763991356025
 20
13.35121280058539
 30
0.0
 40
1.34003020597812
100
AcDbArc
 50
138.1350512880061
 51
148.0770412350429
  0
ARC
  5
5AB
330
1C
100
AcDbEntity
  8
0
100
AcDbCircle
 10
9.452701039633689
 20
13.83905890169186
 30
0.0
 40
0.220767956611496
100
AcDbArc
 50
21.64693975874618
 51
91.01911529980485
  0
ARC
  5
5AC
330
1C
100
AcDbEntity
  8
0
100
AcDbCircle
 10
8.578025497145002
 20
12.97935936514588
 30
0.0
 40
1.220950580789676
100
AcDbArc
 50
39.62217739808208
 51
55.88029115130368
  0
ARC
  5
5AD
330
1C
100
AcDbEntity
  8
0
100
AcDbCircle
 10
8.641806405576305
 20
13.35564348089498
 30
0.0
 40
0.7565039400733968
100
AcDbArc
 50
28.06474221151441
 51
57.00605243095821
  0
ARC
  5
5AE
330
1C
100
AcDbEntity
  8
0
100
AcDbCircle
 10
8.790466260372285
 20
13.58738579859527
 30
0.0
 40
0.3334735447017038
100
AcDbArc
 50
30.76961825162802
 51
92.67067044127736
  0
ARC
  5
5AF
330
1C
100
AcDbEntity
  8
0
100
AcDbCircle
 10
9.292745968809198
 20
13.05015258242862
 30
0.0
 40
1.056822399161926
100
AcDbArc
 50
65.70215091210406
 51
122.2727236722156
  0
ARC
  5
5B0
330
1C
100
AcDbEntity
  8
0
100
AcDbCircle
 10
8.669448031668521
 20
15.3233420347668
 30
0.0
 40
0.6940317807334421
100
AcDbArc
 50
351.4852838916937
 51
67.27302127605935
  0
ARC
  5
5B1
330
1C
100
AcDbEntity
  8
0
100
AcDbCircle
 10
8.502139548341826
 20
15.43546649705987
 30
0.0
 40
0.7171092707420771
100
AcDbArc
 50
338.6291574371576
 51
50.23653428922918
  0
ARC
  5
5B2
330
1C
100
AcDbEntity
  8
0
100
AcDbCircle
 10
-209719.8386133285
 20
-461791.6352459549
 30
0.0
 40
507199.9546834343
100
AcDbArc
 50
65.57487484013098
 51
65.5749382632937
  0
LWPOLYLINE
  5
5B3
330
1C
100
AcDbEntity
  8
0
100
AcDbPolyline
 90
        5
 70
     0
 43
0.0
 10
8.72845576286601
 20
14.91877610835783
 42
-0.3432913432656395
 10
8.844636178775331
 20
15.1973654935169
 42
-0.0850541162122444
 10
9.12346926978124
 20
15.05807080093736
 42
-0.506581946471886
 10
9.12346926978124
 20
14.94199182353202
 42
0.3821298213335911
 10
8.914344490203284
 20
14.70983396910493
 42
1.003241444200139
  0
LWPOLYLINE
  5
5BA
330
1C
100
AcDbEntity
  8
0
100
AcDbPolyline
 90
       19
 70
     0
 43
0.0
 10
8.449622826565999
 20
14.5473234609676
 10
8.705219710625325
 20
14.89556029280004
 42
-0.1460045967782301
 10
8.519331137993951
 20
15.1973654935169
 42
-0.6639655688716911
 10
8.72845576286601
 20
15.35987610203782
 42
-0.489421178823474
 10
9.007288853871919
 20
16.0563496653191
 42
0.4191228290301546
 10
9.286121790171931
 20
16.33493915086176
 10
9.518482776696469
 20
16.265291804572
 42
0.1098660931486226
 10
9.472010517509202
 20
15.84740762644979
 42
-0.5309778595953109
 10
9.239649685690562
 20
15.15093396278492
 42
-0.8027041039269931
 10
9.100233217540555
 20
14.73304978466272
 42
0.1933885167533225
 10
8.937580542443967
 20
14.68661815354714
 42
0.2282903466878782
 10
8.56580324247532
 20
14.01336030544006
 42
0.2655926485786019
 10
8.751691969812592
 20
14.19908662913517
 42
-0.3019003896408889
 10
9.425538413027833
 20
14.3383814220983
 42
-0.0307728642142284
 10
9.913496128905801
 20
14.10622346728761
 42
-0.5894080209187261
 10
9.913496128905801
 20
13.85084979730273
 42
0.01884975064602
 10
9.355830101599883
 20
13.61869194287564
 42
-0.4203570525597725
 10
8.681983658384641
 20
13.78120245101297
 42
0.4888216075936503
 10
8.333442410656678
 20
13.57226031176006
 42
1.129451088945593
  0
LWPOLYLINE
  5
5CF
330
1C
100
AcDbEntity
  8
0
100
AcDbPolyline
 90
        6
 70
     0
 43
0.0
 10
8.263734099228726
 20
13.82763398174494
 42
-0.3481092918176389
 10
7.799012435591442
 20
13.85084979730273
 42
-0.1145102387813651
 10
7.659595967441435
 20
14.38481295283028
 42
0.2559206593069593
 10
7.496943292344848
 20
14.66340243837295
 42
-0.1964136155054148
 10
8.356678462897363
 20
14.52410764540982
 42
-0.3969843034869609
 10
8.426386774325314
 20
14.26873397542494
 42
1.665489328680805
  0
LINE
  5
5D7
330
1C
100
AcDbEntity
  8
0
100
AcDbLine
 10
1.269672783016986
 20
14.10622346728761
 30
0.0
 11
1.223200523829719
 21
14.19908662913517
 31
0.0
  0
LINE
  5
5D8
330
1C
100
AcDbEntity
  8
0
100
AcDbLine
 10
1.455561355648361
 20
14.10622346728761
 30
0.0
 11
1.432325303407677
 21
14.29194979098272
 31
0.0
  0
LINE
  5
5D9
330
1C
100
AcDbEntity
  8
0
100
AcDbLine
 10
1.664686135226319
 20
14.03657612099785
 30
0.0
 11
1.548505719316997
 21
14.29194979098272
 31
0.0
  0
LINE
  5
5DA
330
1C
100
AcDbEntity
  8
0
100
AcDbLine
 10
1.804102603376324
 20
13.96692877470808
 30
0.0
 11
1.711158239707688
 21
14.22230244469296
 31
0.0
  0
LINE
  5
5DB
330
1C
100
AcDbEntity
  8
0
100
AcDbLine
 10
1.17672841934835
 20
13.94371295915029
 30
0.0
 11
1.292908835257671
 21
14.01336030544006
 31
0.0
  0
LINE
  5
5DC
330
1C
100
AcDbEntity
  8
0
100
AcDbLine
 10
1.269672783016986
 20
13.85084979730273
 30
0.0
 11
1.478797407889046
 21
14.01336030544006
 31
0.0
  0
LINE
  5
5DD
330
1C
100
AcDbEntity
  8
0
100
AcDbLine
 10
1.385853198926307
 20
13.68833928916541
 30
0.0
 11
1.641450082985634
 21
13.94371295915029
 31
0.0
  0
LINE
  5
5DE
330
1C
100
AcDbEntity
  8
0
100
AcDbLine
 10
1.618214030744949
 20
13.64190775843343
 30
0.0
 11
1.757630498894955
 21
13.89728142841831
 31
0.0
  0
LINE
  5
5DF
330
1C
100
AcDbEntity
  8
0
100
AcDbLine
 10
1.548505719316997
 20
14.05979193655563
 30
0.0
 11
1.827338810322906
 21
13.89728142841831
 31
0.0
  0
LINE
  5
5E0
330
1C
100
AcDbEntity
  8
0
100
AcDbLine
 10
1.037311796492447
 20
14.08300775211342
 30
0.0
 11
1.548505719316997
 21
14.05979193655563
 31
0.0
  0
LINE
  5
5E1
330
1C
100
AcDbEntity
  8
0
100
AcDbLine
 10
7.52017949929143
 20
11.90072359927125
 30
0.0
 11
7.775776383350756
 21
11.73821309113393
 31
0.0
  0
LINE
  5
5E2
330
1C
100
AcDbEntity
  8
0
100
AcDbLine
 10
7.148402044616885
 20
11.97037094556102
 30
0.0
 11
7.380762876435527
 21
12.15609726925613
 31
0.0
  0
LINE
  5
5E3
330
1C
100
AcDbEntity
  8
0
100
AcDbLine
 10
7.287818667472788
 20
11.87750778371346
 30
0.0
 11
7.613123708254168
 21
11.69178146001835
 31
0.0
  0
LINE
  5
5E4
330
1C
100
AcDbEntity
  8
0
100
AcDbLine
 10
7.148402044616885
 20
11.83107625298148
 30
0.0
 11
7.427235135622794
 21
11.59891839855439
 31
0.0
  0
LINE
  5
5E5
330
1C
100
AcDbEntity
  8
0
100
AcDbLine
 10
6.985749524226195
 20
11.7846446218659
 30
0.0
 11
7.287818667472788
 21
11.55248676743881
 31
0.0
  0
LINE
  5
5E6
330
1C
100
AcDbEntity
  8
0
100
AcDbLine
 10
6.916041212798243
 20
11.85429206853927
 30
0.0
 11
7.101929940135516
 21
12.15609726925613
 31
0.0
  0
LINE
  5
5E7
330
1C
100
AcDbEntity
  8
0
100
AcDbLine
 10
5.754237053705033
 20
11.3667604437437
 30
0.0
 11
5.96336183328299
 21
11.38997625930149
 31
0.0
  0
LINE
  5
5E8
330
1C
100
AcDbEntity
  8
0
100
AcDbLine
 10
5.591584378608446
 20
11.29711309745393
 30
0.0
 11
5.847181417373669
 21
11.27389728189615
 31
0.0
  0
LINE
  5
5E9
330
1C
100
AcDbEntity
  8
0
100
AcDbLine
 10
5.545112274127076
 20
11.13460258931661
 30
0.0
 11
5.754237053705033
 21
11.11138677375882
 31
0.0
  0
LINE
  5
5EA
330
1C
100
AcDbEntity
  8
0
100
AcDbLine
 10
5.754237053705033
 20
10.83279728821615
 30
0.0
 11
5.823945210427087
 21
11.08817095820103
 31
0.0
  0
LINE
  5
5EB
330
1C
100
AcDbEntity
  8
0
100
AcDbLine
 10
6.009833937764359
 20
10.92566045006371
 30
0.0
 11
6.056306042245729
 21
11.29711309745393
 31
0.0
  0
LINE
  5
5EC
330
1C
100
AcDbEntity
  8
0
100
AcDbLine
 10
6.149250405914365
 20
11.38997625930149
 30
0.0
 11
6.17248645815505
 21
10.92566045006371
 31
0.0
  0
LINE
  5
5ED
330
1C
100
AcDbEntity
  8
0
100
AcDbLine
 10
5.916889574095724
 20
11.48283942114905
 30
0.0
 11
6.17248645815505
 21
11.48283942114905
 31
0.0
  0
LINE
  5
5EE
330
1C
100
AcDbEntity
  8
0
100
AcDbLine
 10
5.150098767211846
 20
11.48283942114905
 30
0.0
 11
5.266279183121167
 21
11.5757025829966
 31
0.0
  0
LINE
  5
5EF
330
1C
100
AcDbEntity
  8
0
100
AcDbLine
 10
5.196571026399112
 20
11.71499727557614
 30
0.0
 11
5.359223546789803
 21
11.80786043742369
 31
0.0
  0
LINE
  5
5F0
330
1C
100
AcDbEntity
  8
0
100
AcDbLine
 10
5.196571026399112
 20
11.87750778371346
 30
0.0
 11
5.452167910458439
 21
11.97037094556102
 31
0.0
  0
LINE
  5
5F1
330
1C
100
AcDbEntity
  8
0
100
AcDbLine
 10
5.289515390067749
 20
12.04001829185078
 30
0.0
 11
5.591584378608446
 21
12.10966573852415
 31
0.0
  0
LINE
  5
5F2
330
1C
100
AcDbEntity
  8
0
100
AcDbLine
 10
5.335987494549119
 20
11.50605523670684
 30
0.0
 11
5.312751442308433
 21
11.29711309745393
 31
0.0
  0
LINE
  5
5F3
330
1C
100
AcDbEntity
  8
0
100
AcDbLine
 10
5.40569580597707
 20
11.69178146001835
 30
0.0
 11
5.428931858217755
 21
11.48283942114905
 31
0.0
  0
LINE
  5
5F4
330
1C
100
AcDbEntity
  8
0
100
AcDbLine
 10
5.498640014939809
 20
11.85429206853927
 30
0.0
 11
5.545112274127076
 21
11.55248676743881
 31
0.0
  0
LINE
  5
5F5
330
1C
100
AcDbEntity
  8
0
100
AcDbLine
 10
5.638056637795711
 20
11.97037094556102
 30
0.0
 11
5.684528742277081
 21
11.64534992928637
 31
0.0
  0
LINE
  5
5F6
330
1C
100
AcDbEntity
  8
0
100
AcDbLine
 10
5.707764794517766
 20
12.06323410740857
 30
0.0
 11
5.777473105945718
 21
11.73821309113393
 31
0.0
  0
LINE
  5
5F7
330
1C
100
AcDbEntity
  8
0
100
AcDbLine
 10
6.869569108316873
 20
13.10794460290588
 30
0.0
 11
6.869569108316873
 21
12.89900246365298
 31
0.0
  0
LINE
  5
5F8
330
1C
100
AcDbEntity
  8
0
100
AcDbLine
 10
6.730152640166868
 20
13.08472878734809
 30
0.0
 11
6.706916433220285
 21
12.87578674847879
 31
0.0
  0
LINE
  5
5F9
330
1C
100
AcDbEntity
  8
0
100
AcDbLine
 10
6.544263912829595
 20
12.69006042478368
 30
0.0
 11
6.544263912829595
 21
13.03829725661612
 31
0.0
  0
LINE
  5
5FA
330
1C
100
AcDbEntity
  8
0
100
AcDbLine
 10
6.823096849129607
 20
12.82935511736321
 30
0.0
 11
7.194874303804152
 21
12.69006042478368
 31
0.0
  0
LINE
  5
5FB
330
1C
100
AcDbEntity
  8
0
100
AcDbLine
 10
6.683680380979601
 20
12.71327624034147
 30
0.0
 11
7.055457680948249
 21
12.52754991664636
 31
0.0
  0
LINE
  5
5FC
330
1C
100
AcDbEntity
  8
0
100
AcDbLine
 10
6.61397206955165
 20
12.62041307849391
 30
0.0
 11
7.055457680948249
 21
12.41147093924101
 31
0.0
  0
ARC
  5
5FD
330
1C
100
AcDbEntity
  8
0
100
AcDbCircle
 10
5.516112509858837
 20
13.01779740226593
 30
0.0
 40
0.401301008280213
100
AcDbArc
 50
310.6384180164102
 51
2.928142589896652
  0
ARC
  5
5FE
330
1C
100
AcDbEntity
  8
0
100
AcDbCircle
 10
5.394321419010726
 20
13.42137790709767
 30
0.0
 40
0.2232288058426731
100
AcDbArc
 50
297.8602718831901
 51
8.969557459344745
  0
ARC
  5
5FF
330
1C
100
AcDbEntity
  8
0
100
AcDbCircle
 10
4.350448986841112
 20
13.61048508936476
 30
0.0
 40
1.366004700684116
100
AcDbArc
 50
333.0721753183309
 51
347.5884481043639
  0
ARC
  5
600
330
1C
100
AcDbEntity
  8
0
100
AcDbCircle
 10
4.269570227562816
 20
13.36335686993159
 30
0.0
 40
1.542366697853389
100
AcDbArc
 50
338.821519471287
 51
353.0824179439018
  0
ARC
  5
601
330
1C
100
AcDbEntity
  8
0
100
AcDbCircle
 10
5.591584455961394
 20
13.98080971041911
 30
0.0
 40
1.315812876153579
100
AcDbArc
 50
258.7990722117057
 51
273.0367982387972
  0
ARC
  5
602
330
1C
100
AcDbEntity
  8
0
100
AcDbCircle
 10
5.631692063992655
 20
13.79111797823056
 30
0.0
 40
0.9619108339906933
100
AcDbArc
 50
241.5424944896214
 51
268.9949973426932
  0
ARC
  5
603
330
1C
100
AcDbEntity
  8
0
100
AcDbCircle
 10
5.959859787975792
 20
13.87823707803999
 30
0.0
 40
1.051570990413514
100
AcDbArc
 50
225.2706151328438
 51
245.3859311732951
  0
ARC
  5
604
330
1C
100
AcDbEntity
  8
0
100
AcDbCircle
 10
5.550718000562775
 20
13.45918981706123
 30
0.0
 40
0.2856451459802294
100
AcDbArc
 50
185.2675657756261
 51
244.7635601401914
  0
ARC
  5
605
330
1C
100
AcDbEntity
  8
0
100
AcDbCircle
 10
7.102333019838359
 20
13.58883625235518
 30
0.0
 40
1.674242524985732
100
AcDbArc
 50
178.1834873195228
 51
210.6033998829526
  0
ARC
  5
606
330
1C
100
AcDbEntity
  8
0
100
AcDbCircle
 10
6.849879072394949
 20
10.86009384417262
 30
0.0
 40
1.71009161236851
100
AcDbArc
 50
131.9026750769784
 51
165.1936372112487
  0
ARC
  5
607
330
1C
100
AcDbEntity
  8
0
100
AcDbCircle
 10
6.961690485788917
 20
9.887159354475441
 30
0.0
 40
1.710439824938184
100
AcDbArc
 50
113.1711944541033
 51
144.5488624888862
  0
ARC
  5
608
330
1C
100
AcDbEntity
  8
0
100
AcDbCircle
 10
7.34126642610748
 20
11.20536242480719
 30
0.0
 40
0.7437157255195861
100
AcDbArc
 50
64.65766049727527
 51
122.718672482953
  0
ARC
  5
609
330
1C
100
AcDbEntity
  8
0
100
AcDbCircle
 10
7.105222011118223
 20
12.29454782083117
 30
0.0
 40
0.6475847104108944
100
AcDbArc
 50
75.75407670655242
 51
154.4371275521094
  0
LINE
  5
60A
330
1C
100
AcDbEntity
  8
0
100
AcDbLine
 10
4.174183335455908
 20
11.32032891301172
 30
0.0
 11
4.174183335455908
 21
10.85601310377394
 31
0.0
  0
LINE
  5
60B
330
1C
100
AcDbEntity
  8
0
100
AcDbLine
 10
4.197419387696593
 20
11.69178146001835
 30
0.0
 11
4.174183335455908
 21
11.32032891301172
 31
0.0
  0
ARC
  5
60C
330
1C
100
AcDbEntity
  8
0
100
AcDbCircle
 10
3.937757867803139
 20
12.0264533208894
 30
0.0
 40
0.4235910284369495
100
AcDbArc
 50
307.8067776117968
 51
355.5499298962226
  0
ARC
  5
60D
330
1C
100
AcDbEntity
  8
0
100
AcDbCircle
 10
2.30659744529586
 20
11.87750783390526
 30
0.0
 40
1.685698568780676
100
AcDbArc
 50
356.051429248127
 51
10.31377079708257
  0
ARC
  5
60E
330
1C
100
AcDbEntity
  8
0
100
AcDbCircle
 10
4.641421265689782
 20
12.38957031777417
 30
0.0
 40
0.7289444115535863
100
AcDbArc
 50
120.8954836814799
 51
187.4232657982226
  0
ARC
  5
60F
330
1C
100
AcDbEntity
  8
0
100
AcDbCircle
 10
4.457822113187928
 20
12.74693266188817
 30
0.0
 40
0.7385758168062844
100
AcDbArc
 50
211.1357229723279
 51
278.6730819266277
  0
LWPOLYLINE
  5
610
330
1C
100
AcDbEntity
  8
0
100
AcDbPolyline
 90
        4
 70
     0
 43
0.0
 10
4.360071908087284
 20
13.20080776475344
 42
0.300261827554351
 10
4.360071908087284
 20
12.73649195551566
 42
-0.0597692690326285
 10
4.522724583183872
 20
12.41147093924101
 42
-0.2054227891443642
 10
4.45301627175592
 20
12.08644992296636
 42
1.934223558972345
  0
LWPOLYLINE
  5
616
330
1C
100
AcDbEntity
  8
0
100
AcDbPolyline
 90
        2
 70
     0
 43
0.0
 10
4.638904999093193
 20
13.36331827289076
 42
0.069364126924212
 10
4.801557519483883
 20
12.59719726293612
 42
0.7012207768560526
  0
LWPOLYLINE
  5
61A
330
1C
100
AcDbEntity
  8
0
100
AcDbPolyline
 90
        5
 70
     0
 43
0.0
 10
1.711158239707688
 20
15.26701294019026
 10
1.827338810322906
 20
14.89556029280004
 42
0.2403157937233394
 10
2.315296526200875
 20
14.22230244469296
 42
-0.3868480871974436
 10
3.523572944481352
 20
16.38137078197734
 42
-0.3550666956062725
 10
6.288667028770269
 20
15.84740762644979
 42
0.4665868771041165
  0
ARC
  5
621
330
1C
100
AcDbEntity
  8
0
100
AcDbCircle
 10
3.232028961975455
 20
8.10926197888626
 30
0.0
 40
0.6856946993865368
100
AcDbArc
 50
158.4811086241221
 51
176.4401009956152
  0
ARC
  5
622
330
1C
100
AcDbEntity
  8
0
100
AcDbCircle
 10
1.590068156696668
 20
7.024877583171218
 30
0.0
 40
0.7422362482897259
100
AcDbArc
 50
53.02837759541852
 51
80.61066970626319
  0
ARC
  5
623
330
1C
100
AcDbEntity
  8
0
100
AcDbCircle
 10
1.769248525015297
 20
7.60569851828025
 30
0.0
 40
0.3650646763578833
100
AcDbArc
 50
52.79506885514989
 51
99.15601139103127
  0
ARC
  5
624
330
1C
100
AcDbEntity
  8
0
100
AcDbCircle
 10
1.976772921440812
 20
8.252761137997888
 30
0.0
 40
0.2027708999491435
100
AcDbArc
 50
287.1200131897857
 51
10.90823836650931
  0
LWPOLYLINE
  5
625
330
1C
100
AcDbEntity
  8
0
100
AcDbPolyline
 90
        3
 70
     0
 43
0.0
 10
2.175880058050869
 20
7.733953949786359
 42
0.1831243086782695
 10
2.570893410260202
 20
7.71073813422857
 42
-0.1338256045105958
 10
2.826490294319528
 20
7.617874972381014
 42
-0.1338256045105958
  0
LWPOLYLINE
  5
62A
330
1C
100
AcDbEntity
  8
0
100
AcDbPolyline
 90
        3
 70
     0
 43
0.0
 10
2.222352162532239
 20
7.733953949786359
 42
0.2640699641984378
 10
2.617365669447468
 20
7.803601296076126
 42
-0.2768594005446186
 10
2.89619860574748
 20
7.664306603496592
 42
0.5485680213937704
  0
LWPOLYLINE
  5
62F
330
1C
100
AcDbEntity
  8
0
100
AcDbPolyline
 90
        6
 70
     0
 43
0.0
 10
2.431476942110196
 20
7.339285486838345
 42
-0.6181304098023553
 10
2.175880058050869
 20
7.733953949786359
 42
0.1531044471070699
 10
1.966755278472912
 20
8.058974966061006
 42
-0.5040613476349978
 10
2.199116110291554
 20
8.291132820488096
 42
0.068282698583411
 10
2.501185253538148
 20
8.105406496792983
 42
-0.5171184752862322
 10
2.89619860574748
 20
7.68752231867078
 42
1.219593234167826
  0
ARC
  5
637
330
1C
100
AcDbEntity
  8
0
100
AcDbCircle
 10
2.556817197558614
 20
8.605795702140811
 30
0.0
 40
1.499018171014323
100
AcDbArc
 50
249.6881436973632
 51
268.7616611823934
  0
ARC
  5
638
330
1C
100
AcDbEntity
  8
0
100
AcDbCircle
 10
3.925981283363882
 20
7.91724066854804
 30
0.0
 40
0.7049444788611473
100
AcDbArc
 50
150.168394542631
 51
201.026516978958
  0
ARC
  5
639
330
1C
100
AcDbEntity
  8
0
100
AcDbCircle
 10
1.734313330452552
 20
8.685801283436111
 30
0.0
 40
0.1160790057474162
100
AcDbArc
 50
143.1301376205521
 51
270.0400383889999
  0
ARC
  5
63A
330
1C
100
AcDbEntity
  8
0
100
AcDbCircle
 10
0.7707426599504006
 20
5.733124782508889
 30
0.0
 40
3.561646863002888
100
AcDbArc
 50
58.77002176509904
 51
65.12658756026559
  0
ARC
  5
63B
330
1C
100
AcDbEntity
  8
0
100
AcDbCircle
 10
2.010173674512649
 20
8.014646978296529
 30
0.0
 40
0.6401324438272984
100
AcDbArc
 50
192.7612646591982
 51
280.7348803529883
  0
ARC
  5
63C
330
1C
100
AcDbEntity
  8
0
100
AcDbCircle
 10
-0.1337775311803785
 20
8.813582660614176
 30
0.0
 40
1.592779792433563
100
AcDbArc
 50
333.6011953532576
 51
349.4988723499874
  0
ARC
  5
63D
330
1C
100
AcDbEntity
  8
0
100
AcDbCircle
 10
2.308247416668929
 20
7.815258532371142
 30
0.0
 40
0.6119513829117258
100
AcDbArc
 50
36.01150597348713
 51
205.8718436811449
  0
ARC
  5
63E
330
1C
100
AcDbEntity
  8
0
100
AcDbCircle
 10
2.665790998012872
 20
5.253235020148333
 30
0.0
 40
2.086525456420181
100
AcDbArc
 50
88.7774232416039
 51
118.6720259362564
  0
LWPOLYLINE
  5
63F
330
1C
100
AcDbEntity
  8
0
100
AcDbPolyline
 90
        4
 70
     0
 43
0.0
 10
1.920283019285646
 20
8.66258546787832
 42
-0.2034602155458823
 10
2.942670864934747
 20
8.592938121588554
 42
-0.3968085863278925
 10
3.151795489806807
 20
8.012543435329027
 42
-0.2095819835340663
 10
2.501185253538148
 20
7.408932933511712
 42
5.918552637819164
  0
LWPOLYLINE
  5
645
330
1C
100
AcDbEntity
  8
0
100
AcDbPolyline
 90
       22
 70
     0
 43
0.0
 10
2.315296526200875
 20
6.921401308716141
 42
0.1323595850737493
 10
2.222352162532239
 20
6.596380292441494
 42
0.5098897882805443
 10
2.315296526200875
 20
6.526732946151727
 10
2.524421305778832
 20
6.758890800578818
 10
2.710309878410208
 20
6.549948661325916
 10
2.780018189838159
 20
6.805322431694396
 42
-1.021142693445314
 10
3.035615073897486
 20
6.991048655005909
 42
0.3755831857200373
 10
3.221503801234758
 20
6.94461712427393
 10
3.29121211266271
 20
7.316069771664156
 10
3.477100685294085
 20
7.19999079425881
 10
3.477100685294085
 20
7.478580279801479
 10
3.84887813996863
 20
7.525011810533457
 42
0.2882047397837752
 10
3.360920269384764
 20
7.757169765344148
 42
0.2846865345857
 10
3.058851280844068
 20
8.778664445283666
 42
0.3834865378059705
 10
2.222352162532239
 20
8.987606484152967
 42
0.3429237232523641
 10
1.409089251166992
 20
8.500074959740997
 42
0.0237870102064671
 10
1.153492212401768
 20
8.337564451603673
 42
0.1534219542841502
 10
1.17672841934835
 20
7.269638140548577
 42
0.3331584570918475
 10
1.641450082985634
 20
7.083911816853465
 42
0.3672738100117385
 10
2.33853257844156
 20
6.967832939831719
 42
0.1479345874911296
 10
2.849726501266111
 20
7.246422324990788
 42
-0.0415915286805248
 10
3.407392528572031
 20
7.757169765344148
 42
-0.3416183876794638
  0
LINE
  5
65D
330
1C
100
AcDbEntity
  8
0
100
AcDbLine
 10
3.732697724059309
 20
9.126901277116102
 30
0.0
 11
4.104475024027957
 21
9.010822299710758
 31
0.0
  0
LINE
  5
65E
330
1C
100
AcDbEntity
  8
0
100
AcDbLine
 10
3.686225464872042
 20
8.94117495342099
 30
0.0
 11
3.918586296690684
 21
8.871527607131223
 31
0.0
  0
LINE
  5
65F
330
1C
100
AcDbEntity
  8
0
100
AcDbLine
 10
3.593281101203406
 20
8.732232814168089
 30
0.0
 11
3.825641933022048
 21
8.7090169986103
 31
0.0
  0
LINE
  5
660
330
1C
100
AcDbEntity
  8
0
100
AcDbLine
 10
3.802405880781363
 20
8.453643328625419
 30
0.0
 11
3.825641933022048
 21
8.66258546787832
 31
0.0
  0
LINE
  5
661
330
1C
100
AcDbEntity
  8
0
100
AcDbLine
 10
3.965058555877951
 20
8.453643328625419
 30
0.0
 11
4.011530660359321
 21
8.801880160457855
 31
0.0
  0
LINE
  5
662
330
1C
100
AcDbEntity
  8
0
100
AcDbLine
 10
4.174183335455908
 20
8.500074959740997
 30
0.0
 11
4.174183335455908
 21
8.964390768978779
 31
0.0
  0
LINE
  5
663
330
1C
100
AcDbEntity
  8
0
100
AcDbLine
 10
3.662989412631358
 20
8.569722306030765
 30
0.0
 11
4.243891492177962
 21
9.057253830442736
 31
0.0
  0
LINE
  5
664
330
1C
100
AcDbEntity
  8
0
100
AcDbLine
 10
2.268824267013608
 20
10.43441443130059
 30
0.0
 11
2.377744335250487
 21
10.18048982356106
 31
0.0
  0
LWPOLYLINE
  5
665
330
1C
100
AcDbEntity
  8
0
100
AcDbPolyline
 90
        5
 70
     0
 43
0.0
 10
2.152643851104287
 20
10.2022564764899
 10
2.268824267013608
 20
10.45763024685838
 10
2.501185253538148
 20
10.31833545389524
 42
0.3639865594643985
 10
2.780018189838159
 20
10.29511963833745
 42
-0.8472491445950307
 10
2.919434657988165
 20
10.06296178391036
 42
-0.8472491445950307
  0
ARC
  5
66C
330
1C
100
AcDbEntity
  8
0
100
AcDbCircle
 10
1.842450105972649
 20
11.71296999821771
 30
0.0
 40
0.1952041302639424
100
AcDbArc
 50
286.2417704266165
 51
6.331895750623881
  0
ARC
  5
66D
330
1C
100
AcDbEntity
  8
0
100
AcDbCircle
 10
2.280280322819082
 20
11.25839188082872
 30
0.0
 40
0.2960877909602316
100
AcDbArc
 50
115.5358933257063
 51
154.4140388853068
  0
ARC
  5
66E
330
1C
100
AcDbEntity
  8
0
100
AcDbCircle
 10
1.865494918685904
 20
11.39138151805156
 30
0.0
 40
0.1478211516347548
100
AcDbArc
 50
235.0748985531562
 51
358.0151763112841
  0
ARC
  5
66F
330
1C
100
AcDbEntity
  8
0
100
AcDbCircle
 10
1.188744199205115
 20
10.97971769671856
 30
0.0
 40
0.6242084386840084
100
AcDbArc
 50
9.659613570161766
 51
71.59243446254045
  0
LWPOLYLINE
  5
670
330
1C
100
AcDbEntity
  8
0
100
AcDbPolyline
 90
        7
 70
     0
 43
0.0
 10
0.8746592761017568
 20
10.89873014015477
 42
-0.2481620048777594
 10
1.362616991979725
 20
10.92194595571256
 42
0.323074109700595
 10
1.78086655113564
 20
10.96837758682813
 42
-0.235883676403221
 10
1.269672783016986
 20
10.829082793865
 42
0.1621431241698749
 10
0.8978953283424415
 20
10.75943544757523
 42
1.000000000000014
 10
0.8514232238610722
 20
10.71300391684326
 42
-0.1339894880833975
 10
0.9211313805831263
 20
10.57370912388012
 42
0.8196295141994236
  0
LWPOLYLINE
  5
679
330
1C
100
AcDbEntity
  8
0
100
AcDbPolyline
 90
        5
 70
     0
 43
0.0
 10
1.409089251166992
 20
11.31661441866057
 42
-0.1713013719442401
 10
1.548505719316997
 20
11.45590911124011
 42
-0.2018984382718103
 10
1.827338810322906
 20
11.6880669656672
 42
-0.0929191284334027
 10
2.036463435194966
 20
11.71128278122499
 42
0.5145078126303539
 10
2.152643851104287
 20
11.85057747380452
 42
-1.294365717891628
  0
LINE
  5
680
330
1C
100
AcDbEntity
  8
0
100
AcDbLine
 10
0.2937571965551519
 20
22.21689129828359
 30
0.0
 11
0.4796457691865271
 21
22.17045966716801
 31
0.0
  0
LINE
  5
681
330
1C
100
AcDbEntity
  8
0
100
AcDbLine
 10
0.3634653532772061
 20
21.82222283533557
 30
0.0
 11
0.5493540806144786
 21
22.07759650532045
 31
0.0
  0
LINE
  5
682
330
1C
100
AcDbEntity
  8
0
100
AcDbLine
 10
0.5261180283737939
 20
21.79900701977778
 30
0.0
 11
0.7584788601924359
 21
22.12402813643603
 31
0.0
  0
LINE
  5
683
330
1C
100
AcDbEntity
  8
0
100
AcDbLine
 10
0.6190623920424301
 20
21.70614385793023
 30
0.0
 11
0.8978953283424415
 21
22.12402813643603
 31
0.0
  0
LINE
  5
684
330
1C
100
AcDbEntity
  8
0
100
AcDbLine
 10
0.2008128328865157
 20
22.51869649900045
 30
0.0
 11
0.2705211443144671
 21
22.63477547640579
 31
0.0
  0
LINE
  5
685
330
1C
100
AcDbEntity
  8
0
100
AcDbLine
 10
0.3634653532772061
 20
22.42583333715289
 30
0.0
 11
0.4564097169458424
 21
22.63477547640579
 31
0.0
  0
LINE
  5
686
330
1C
100
AcDbEntity
  8
0
100
AcDbLine
 10
0.6190623920424301
 20
22.35618599086313
 30
0.0
 11
0.8281871716203871
 21
22.611559660848
 31
0.0
  0
LINE
  5
687
330
1C
100
AcDbEntity
  8
0
100
AcDbLine
 10
0.5028819761331091
 20
22.42583333715289
 30
0.0
 11
0.6422984442831148
 21
22.63477547640579
 31
0.0
  0
LINE
  5
688
330
1C
100
AcDbEntity
  8
0
100
AcDbLine
 10
0.7817149124331207
 20
22.72763863825335
 30
0.0
 11
0.5493540806144786
 21
23.00622802341242
 31
0.0
  0
LINE
  5
689
330
1C
100
AcDbEntity
  8
0
100
AcDbLine
 10
0.4564097169458424
 20
22.77407016898532
 30
0.0
 11
0.3402293010365214
 21
22.91336486156486
 31
0.0
  0
LINE
  5
68A
330
1C
100
AcDbEntity
  8
0
100
AcDbLine
 10
0.3169932487958366
 20
22.72763863825335
 30
0.0
 11
0.1775767806458309
 21
22.86693333083288
 31
0.0
  0
LINE
  5
68B
330
1C
100
AcDbEntity
  8
0
100
AcDbLine
 10
1.78086655113564
 20
22.26332282901557
 30
0.0
 11
1.78086655113564
 21
22.47226496826847
 31
0.0
  0
LINE
  5
68C
330
1C
100
AcDbEntity
  8
0
100
AcDbLine
 10
1.920283019285646
 20
22.28653864457335
 30
0.0
 11
2.036463435194966
 21
22.54191231455823
 31
0.0
  0
LINE
  5
68D
330
1C
100
AcDbEntity
  8
0
100
AcDbLine
 10
2.082935694382233
 20
22.28653864457335
 30
0.0
 11
2.222352162532239
 21
22.49548068344266
 31
0.0
  0
LINE
  5
68E
330
1C
100
AcDbEntity
  8
0
100
AcDbLine
 10
2.222352162532239
 20
22.30975435974755
 30
0.0
 11
2.315296526200875
 21
22.42583333715289
 31
0.0
  0
LINE
  5
68F
330
1C
100
AcDbEntity
  8
0
100
AcDbLine
 10
2.431476942110196
 20
22.24010701345778
 30
0.0
 11
2.547657358019517
 21
22.33297017530533
 31
0.0
  0
LINE
  5
690
330
1C
100
AcDbEntity
  8
0
100
AcDbLine
 10
2.385004837628827
 20
22.17045966716801
 30
0.0
 11
2.431476942110196
 21
22.00794915903069
 31
0.0
  0
LINE
  5
691
330
1C
100
AcDbEntity
  8
0
100
AcDbLine
 10
2.222352162532239
 20
22.21689129828359
 30
0.0
 11
2.33853257844156
 21
21.93830181274092
 31
0.0
  0
LINE
  5
692
330
1C
100
AcDbEntity
  8
0
100
AcDbLine
 10
1.897046967044961
 20
22.24010701345778
 30
0.0
 11
2.129407798863602
 21
22.00794915903069
 31
0.0
  0
LINE
  5
693
330
1C
100
AcDbEntity
  8
0
100
AcDbLine
 10
1.73439444665427
 20
22.21689129828359
 30
0.0
 11
1.897046967044961
 21
21.96151752791511
 31
0.0
  0
LINE
  5
694
330
1C
100
AcDbEntity
  8
0
100
AcDbLine
 10
0.4796457691865271
 20
23.58662281005555
 30
0.0
 11
0.8514232238610722
 21
23.30803332451288
 31
0.0
  0
LINE
  5
695
330
1C
100
AcDbEntity
  8
0
100
AcDbLine
 10
0.5028819761331091
 20
23.77234913375066
 30
0.0
 11
0.7817149124331207
 21
23.44732801709241
 31
0.0
  0
LINE
  5
696
330
1C
100
AcDbEntity
  8
0
100
AcDbLine
 10
0.5261180283737939
 20
24.02772280373554
 30
0.0
 11
0.7352428079517513
 21
23.72591750263508
 31
0.0
  0
LINE
  5
697
330
1C
100
AcDbEntity
  8
0
100
AcDbLine
 10
0.5493540806144786
 20
24.16701749631507
 30
0.0
 11
0.7817149124331207
 21
23.91164382633019
 31
0.0
  0
LINE
  5
698
330
1C
100
AcDbEntity
  8
0
100
AcDbLine
 10
0.6887705487644844
 20
24.30631218889461
 30
0.0
 11
0.8281871716203871
 21
24.21344902704705
 31
0.0
  0
LINE
  5
699
330
1C
100
AcDbEntity
  8
0
100
AcDbLine
 10
0.8514232238610722
 20
24.21344902704705
 30
0.0
 11
0.9676036397703931
 21
24.3295280044524
 31
0.0
  0
LINE
  5
69A
330
1C
100
AcDbEntity
  8
0
100
AcDbLine
 10
0.8049509646738053
 20
23.95807535706217
 30
0.0
 11
1.014075744251762
 21
24.12058596558309
 31
0.0
  0
LINE
  5
69B
330
1C
100
AcDbEntity
  8
0
100
AcDbLine
 10
0.8514232238610722
 20
23.79556484892485
 30
0.0
 11
0.9908396920110778
 21
23.95807535706217
 31
0.0
  0
LINE
  5
69C
330
1C
100
AcDbEntity
  8
0
100
AcDbLine
 10
0.8746592761017568
 20
23.60983852522973
 30
0.0
 11
1.060548003439029
 21
23.79556484892485
 31
0.0
  0
LINE
  5
69D
330
1C
100
AcDbEntity
  8
0
100
AcDbLine
 10
0.8978953283424415
 20
23.33124914007066
 30
0.0
 11
1.199964471589035
 21
23.6794859719031
 31
0.0
  0
LINE
  5
69E
330
1C
100
AcDbEntity
  8
0
100
AcDbLine
 10
1.362616991979725
 20
23.12230700081776
 30
0.0
 11
1.292908835257671
 21
23.30803332451288
 31
0.0
  0
LINE
  5
69F
330
1C
100
AcDbEntity
  8
0
100
AcDbLine
 10
1.478797407889046
 20
23.21517016266532
 30
0.0
 11
1.478797407889046
 21
23.6794859719031
 31
0.0
  0
LINE
  5
6A0
330
1C
100
AcDbEntity
  8
0
100
AcDbLine
 10
1.618214030744949
 20
23.35446485524485
 30
0.0
 11
1.594977823798367
 21
23.72591750263508
 31
0.0
  0
LINE
  5
6A1
330
1C
100
AcDbEntity
  8
0
100
AcDbLine
 10
1.757630498894955
 20
23.51697536338217
 30
0.0
 11
1.73439444665427
 21
23.79556484892485
 31
0.0
  0
LINE
  5
6A2
330
1C
100
AcDbEntity
  8
0
100
AcDbLine
 10
1.897046967044961
 20
23.60983852522973
 30
0.0
 11
1.897046967044961
 21
23.8884280107724
 31
0.0
  0
LINE
  5
6A3
330
1C
100
AcDbEntity
  8
0
100
AcDbLine
 10
1.943519226232227
 20
23.51697536338217
 30
0.0
 11
2.059699642141548
 21
23.51697536338217
 31
0.0
  0
LINE
  5
6A4
330
1C
100
AcDbEntity
  8
0
100
AcDbLine
 10
1.757630498894955
 20
23.40089648636043
 30
0.0
 11
1.966755278472912
 21
23.37768067080264
 31
0.0
  0
LINE
  5
6A5
330
1C
100
AcDbEntity
  8
0
100
AcDbLine
 10
1.571741771557682
 20
23.19195434710753
 30
0.0
 11
1.920283019285646
 21
23.21517016266532
 31
0.0
  0
LINE
  5
6A6
330
1C
100
AcDbEntity
  8
0
100
AcDbLine
 10
1.478797407889046
 20
23.07587547008578
 30
0.0
 11
1.827338810322906
 21
23.052659654528
 31
0.0
  0
ARC
  5
6A7
330
1C
100
AcDbEntity
  8
0
100
AcDbCircle
 10
0.8281870942674387
 20
21.07256742962821
 30
0.0
 40
1.113517828974073
100
AcDbArc
 50
80.39015363286319
 51
122.8573432357262
  0
ARC
  5
6A8
330
1C
100
AcDbEntity
  8
0
100
AcDbCircle
 10
0.2356669112475427
 20
12.92513604172889
 30
0.0
 40
9.781777820552715
100
AcDbArc
 50
85.84521680898587
 51
91.29308854548176
  0
ARC
  5
6A9
330
1C
100
AcDbEntity
  8
0
100
AcDbCircle
 10
2.269624129720042
 20
23.99640177092045
 30
0.0
 40
1.472789351624428
100
AcDbArc
 50
161.2907370963181
 51
207.8650717178671
  0
ARC
  5
6AA
330
1C
100
AcDbEntity
  8
0
100
AcDbCircle
 10
5.756378373399928
 20
19.67657774213243
 30
0.0
 40
5.480328442771194
100
AcDbArc
 50
130.1549280248524
 51
142.8913917648694
  0
ARC
  5
6AB
330
1C
100
AcDbEntity
  8
0
100
AcDbCircle
 10
2.001370812565011
 20
21.08292729613849
 30
0.0
 40
1.20529786963395
100
AcDbArc
 50
46.79763193441897
 51
101.6670503484149
  0
LWPOLYLINE
  5
6AC
330
1C
100
AcDbEntity
  8
0
100
AcDbPolyline
 90
        7
 70
     0
 43
0.0
 10
6.776624744648237
 20
21.17218080278628
 10
6.706916433220285
 20
21.31147549536581
 42
-0.3335666041166285
 10
6.846333056076189
 20
21.61328079646627
 42
0.0237869483566158
 10
7.101929940135516
 20
21.45077018794535
 42
-0.5928517951688166
 10
7.311054719713473
 20
21.21861233351826
 42
-0.0037562634048944
 10
6.776624744648237
 20
21.17218080278628
 42
0.3672264633102909
 10
6.869569108316873
 20
21.61328079646627
 42
-1.678527359317921
  0
ARC
  5
6B5
330
1C
100
AcDbEntity
  8
0
100
AcDbCircle
 10
6.465995882120852
 20
22.52377544433913
 30
0.0
 40
0.3632530889152799
100
AcDbArc
 50
180.8011263315245
 51
256.5673253690675
  0
LWPOLYLINE
  5
6B6
330
1C
100
AcDbEntity
  8
0
100
AcDbPolyline
 90
        5
 70
     0
 43
0.0
 10
6.706916433220285
 20
22.8437175152751
 42
0.3028638476833129
 10
6.428083496920274
 20
22.47226496826847
 42
-0.4145313849865247
 10
6.381611237733007
 20
22.21689129828359
 42
0.6556015498993555
 10
6.544263912829595
 20
22.33297017530533
 42
-0.2832529960837775
 10
6.730152640166868
 20
22.8437175152751
 42
-0.3479524868910681
  0
LWPOLYLINE
  5
6BD
330
1C
100
AcDbEntity
  8
0
100
AcDbPolyline
 90
        3
 70
     0
 43
0.0
 10
6.195722665101632
 20
22.28653864457335
 42
-0.394915447582049
 10
5.916889574095724
 20
21.9847333434729
 42
0.4905147306834196
 10
5.754237053705033
 20
21.7757913046036
 42
-0.125957174389082
  0
LWPOLYLINE
  5
6C2
330
1C
100
AcDbEntity
  8
0
100
AcDbPolyline
 90
        3
 70
     0
 43
0.0
 10
5.56834832636776
 20
21.82222283533557
 42
0.7499999929407722
 10
5.754237053705033
 20
22.00794915903069
 42
-0.4999999672095942
 10
6.079542249192311
 20
22.42583333715289
 42
-0.4999999672095942
  0
LINE
  5
6C7
330
1C
100
AcDbEntity
  8
0
100
AcDbLine
 10
4.40654416727455
 20
23.07587547008578
 30
0.0
 11
4.383307960327968
 21
23.33124914007066
 31
0.0
  0
LINE
  5
6C8
330
1C
100
AcDbEntity
  8
0
100
AcDbLine
 10
4.197419387696593
 20
23.14552281637555
 30
0.0
 11
4.150947128509327
 21
23.40089648636043
 31
0.0
  0
LINE
  5
6C9
330
1C
100
AcDbEntity
  8
0
100
AcDbLine
 10
3.593281101203406
 20
23.21517016266532
 30
0.0
 11
3.988294608118636
 21
23.23838597822311
 31
0.0
  0
LINE
  5
6CA
330
1C
100
AcDbEntity
  8
0
100
AcDbLine
 10
3.825641933022048
 20
23.0294438389702
 30
0.0
 11
4.197419387696593
 21
23.052659654528
 31
0.0
  0
LINE
  5
6CB
330
1C
100
AcDbEntity
  8
0
100
AcDbLine
 10
3.872114192209314
 20
22.8437175152751
 30
0.0
 11
4.383307960327968
 21
22.98301230823823
 31
0.0
  0
LINE
  5
6CC
330
1C
100
AcDbEntity
  8
0
100
AcDbLine
 10
4.011530660359321
 20
22.72763863825335
 30
0.0
 11
4.476252323996605
 21
22.8437175152751
 31
0.0
  0
LINE
  5
6CD
330
1C
100
AcDbEntity
  8
0
100
AcDbLine
 10
4.197419387696593
 20
21.40433865721337
 30
0.0
 11
4.40654416727455
 21
21.72935967348802
 31
0.0
  0
LINE
  5
6CE
330
1C
100
AcDbEntity
  8
0
100
AcDbLine
 10
4.011530660359321
 20
21.42755447277116
 30
0.0
 11
4.174183335455908
 21
21.65971232719825
 31
0.0
  0
LINE
  5
6CF
330
1C
100
AcDbEntity
  8
0
100
AcDbLine
 10
3.872114192209314
 20
21.54363334979291
 30
0.0
 11
4.011530660359321
 21
21.72935967348802
 31
0.0
  0
LINE
  5
6D0
330
1C
100
AcDbEntity
  8
0
100
AcDbLine
 10
4.011530660359321
 20
21.79900701977778
 30
0.0
 11
3.825641933022048
 21
21.93830181274092
 31
0.0
  0
LINE
  5
6D1
330
1C
100
AcDbEntity
  8
0
100
AcDbLine
 10
4.220655439937278
 20
21.7757913046036
 30
0.0
 11
4.011530660359321
 21
22.03116497458848
 31
0.0
  0
LINE
  5
6D2
330
1C
100
AcDbEntity
  8
0
100
AcDbLine
 10
4.429780219515235
 20
21.84543865089336
 30
0.0
 11
4.127711076268641
 21
22.12402813643603
 31
0.0
  0
LINE
  5
6D3
330
1C
100
AcDbEntity
  8
0
100
AcDbLine
 10
4.662141051333877
 20
21.89187018162534
 30
0.0
 11
4.383307960327968
 21
22.14724385161022
 31
0.0
  0
ARC
  5
6D4
330
1C
100
AcDbEntity
  8
0
100
AcDbCircle
 10
3.36218930469885
 20
22.03073011418415
 30
0.0
 40
1.397997744080728
100
AcDbArc
 50
35.55871914312846
 51
78.54817133140524
  0
ARC
  5
6D5
330
1C
100
AcDbEntity
  8
0
100
AcDbCircle
 10
2.852576792742269
 20
21.86867291632268
 30
0.0
 40
1.724296830150566
100
AcDbArc
 50
342.7694766371268
 51
354.5913756864107
  0
LINE
  5
6D6
330
1C
100
AcDbEntity
  8
0
100
AcDbLine
 10
4.522724583183872
 20
22.8437175152751
 30
0.0
 11
4.522724583183872
 21
23.12230700081776
 31
0.0
  0
LINE
  5
6D7
330
1C
100
AcDbEntity
  8
0
100
AcDbLine
 10
3.802405880781363
 20
21.70614385793023
 30
0.0
 11
4.778321467243198
 21
21.89187018162534
 31
0.0
  0
LINE
  5
6D8
330
1C
100
AcDbEntity
  8
0
100
AcDbLine
 10
5.243043130880482
 20
23.74913331819287
 30
0.0
 11
5.312751442308433
 21
23.91164382633019
 31
0.0
  0
LINE
  5
6D9
330
1C
100
AcDbEntity
  8
0
100
AcDbLine
 10
5.103626662730476
 20
23.72591750263508
 30
0.0
 11
5.126862714971161
 21
23.93485964188798
 31
0.0
  0
LINE
  5
6DA
330
1C
100
AcDbEntity
  8
0
100
AcDbLine
 10
5.033918351302525
 20
23.70270168707729
 30
0.0
 11
5.033918351302525
 21
23.91164382633019
 31
0.0
  0
LINE
  5
6DB
330
1C
100
AcDbEntity
  8
0
100
AcDbLine
 10
5.498640014939809
 20
23.00622802341242
 30
0.0
 11
5.916889574095724
 21
23.00622802341242
 31
0.0
  0
LINE
  5
6DC
330
1C
100
AcDbEntity
  8
0
100
AcDbLine
 10
5.61482043084913
 20
23.09909118525998
 30
0.0
 11
6.009833937764359
 21
23.16873863193334
 31
0.0
  0
LINE
  5
6DD
330
1C
100
AcDbEntity
  8
0
100
AcDbLine
 10
5.916889574095724
 20
23.42411230191822
 30
0.0
 11
6.126014353673681
 21
23.42411230191822
 31
0.0
  0
LINE
  5
6DE
330
1C
100
AcDbEntity
  8
0
100
AcDbLine
 10
5.777473105945718
 20
23.2616016933973
 30
0.0
 11
6.009833937764359
 21
23.30803332451288
 31
0.0
  0
LINE
  5
6DF
330
1C
100
AcDbEntity
  8
0
100
AcDbLine
 10
5.545112274127076
 20
23.19195434710753
 30
0.0
 11
5.56834832636776
 21
23.56340699449775
 31
0.0
  0
LINE
  5
6E0
330
1C
100
AcDbEntity
  8
0
100
AcDbLine
 10
5.731001001464348
 20
23.33124914007066
 30
0.0
 11
5.731001001464348
 21
23.56340699449775
 31
0.0
  0
LINE
  5
6E1
330
1C
100
AcDbEntity
  8
0
100
AcDbLine
 10
5.382459599030488
 20
22.91336486156486
 30
0.0
 11
5.986597885523675
 21
23.54019117893997
 31
0.0
  0
LINE
  5
6E2
330
1C
100
AcDbEntity
  8
0
100
AcDbLine
 10
6.288667028770269
 20
24.44560698185774
 30
0.0
 11
6.428083496920274
 21
24.25988065816263
 31
0.0
  0
LINE
  5
6E3
330
1C
100
AcDbEntity
  8
0
100
AcDbLine
 10
5.335987494549119
 20
25.97784900176702
 30
0.0
 11
5.428931858217755
 21
25.79212267807191
 31
0.0
  0
LINE
  5
6E4
330
1C
100
AcDbEntity
  8
0
100
AcDbLine
 10
5.243043130880482
 20
25.83855430918749
 30
0.0
 11
5.40569580597707
 21
25.65282798549237
 31
0.0
  0
LINE
  5
6E5
330
1C
100
AcDbEntity
  8
0
100
AcDbLine
 10
5.126862714971161
 20
25.72247533178214
 30
0.0
 11
5.359223546789803
 21
25.55996482364482
 31
0.0
  0
LINE
  5
6E6
330
1C
100
AcDbEntity
  8
0
100
AcDbLine
 10
5.05715440354321
 20
25.62961216993459
 30
0.0
 11
5.173334974158428
 21
25.46710166179726
 31
0.0
  0
LINE
  5
6E7
330
1C
100
AcDbEntity
  8
0
100
AcDbLine
 10
4.987446246821155
 20
25.53674900808703
 30
0.0
 11
5.080390610489792
 21
25.39745431550749
 31
0.0
  0
ARC
  5
6E8
330
1C
100
AcDbEntity
  8
0
100
AcDbCircle
 10
5.987012009785073
 20
25.13057006866695
 30
0.0
 40
0.4679089430145426
100
AcDbArc
 50
299.7165181697689
 51
7.113311172765736
  0
ARC
  5
6E9
330
1C
100
AcDbEntity
  8
0
100
AcDbCircle
 10
5.876140126252346
 20
25.3725932690213
 30
0.0
 40
0.4427822068608156
100
AcDbArc
 50
338.6966533862387
 51
90.74052930931642
  0
ARC
  5
6EA
330
1C
100
AcDbEntity
  8
0
100
AcDbCircle
 10
136861.1476232163
 20
136999.0500287208
 30
0.0
 40
193626.0977213451
100
AcDbArc
 50
225.0249875255198
 51
225.0250847212019
  0
ARC
  5
6EB
330
1C
100
AcDbEntity
  8
0
100
AcDbCircle
 10
6.480901903060803
 20
25.3639447516438
 30
0.0
 40
0.3438317495307383
100
AcDbArc
 50
280.6192755586213
 51
102.7793323740719
  0
ARC
  5
6EC
330
1C
100
AcDbEntity
  8
0
100
AcDbCircle
 10
6.242439110263592
 20
25.90824181424494
 30
0.0
 40
0.2321164946120101
100
AcDbArc
 50
306.8397368056262
 51
359.9900871848225
  0
LWPOLYLINE
  5
6ED
330
1C
100
AcDbEntity
  8
0
100
AcDbPolyline
 90
        5
 70
     0
 43
0.0
 10
4.871265830911834
 20
25.83855430918749
 42
-0.1582043730220831
 10
5.033918351302525
 20
26.21000685619411
 42
-0.045321423714553
 10
5.61482043084913
 20
26.18679114101992
 42
-0.8773083549462398
 10
5.61482043084913
 20
26.09392797917236
 42
-0.2453831351971641
 10
6.40484744467959
 20
25.55996482364482
 42
0.5964505656786532
  0
LWPOLYLINE
  5
6F4
330
1C
100
AcDbEntity
  8
0
100
AcDbPolyline
 90
        5
 70
     0
 43
0.0
 10
5.428931858217755
 20
25.65282798549237
 10
5.638056637795711
 20
25.14208064552261
 42
-0.395159674021835
 10
5.591584378608446
 20
24.65454902072704
 42
0.3433973184044538
 10
5.521876221886391
 20
25.11886482996482
 42
-0.0969545115207764
 10
5.312751442308433
 20
25.53674900808703
 42
-1.315293901242681
  0
LWPOLYLINE
  5
6FB
330
1C
100
AcDbEntity
  8
0
100
AcDbPolyline
 90
        9
 70
     0
 43
0.0
 10
5.498640014939809
 20
25.86177002436167
 42
-0.1059793062676359
 10
5.219807078639798
 20
25.44388584623947
 42
0.5922423525095845
 10
5.219807078639798
 20
24.79384381369018
 42
0.2875030712721637
 10
5.823945210427087
 20
24.70098065184262
 42
0.5664449731380973
 10
5.940125626336408
 20
25.02600166811727
 42
-0.2248154390215043
 10
5.847181417373669
 20
25.39745431550749
 42
0.132629604860488
 10
5.823945210427087
 20
25.74569114733993
 42
0.6888315254474462
 10
5.498640014939809
 20
25.90820165547725
 42
0.2930084962860604
 10
5.823945210427087
 20
25.76890686251412
 42
-0.0829318212726314
  0
LWPOLYLINE
  5
706
330
1C
100
AcDbEntity
  8
0
100
AcDbPolyline
 90
        4
 70
     0
 43
0.0
 10
4.476252323996605
 20
24.49203851258972
 42
0.3428710816868532
 10
4.964210194580471
 20
24.3295280044524
 42
-0.2802340206483057
 10
5.40569580597707
 20
24.23666484260484
 42
0.3272463264302509
 10
6.358375185492323
 20
24.12058596558309
 42
-0.2613570817284621
  0
LWPOLYLINE
  5
70C
330
1C
100
AcDbEntity
  8
0
100
AcDbPolyline
 90
        5
 70
     0
 43
0.0
 10
4.499488376237289
 20
25.97784900176702
 42
0.1458698220310358
 10
4.243891492177962
 20
25.35102268439191
 42
0.5295231508747829
 10
4.801557519483883
 20
24.88670697553773
 42
0.4398309604401204
 10
5.335987494549119
 20
24.37595963556797
 42
-0.2343905156774076
 10
5.61482043084913
 20
24.25988065816263
 42
0.4555683202987117
  0
LWPOLYLINE
  5
713
330
1C
100
AcDbEntity
  8
0
100
AcDbPolyline
 90
        3
 70
     0
 43
0.0
 10
4.894501883152519
 20
26.2332226717519
 42
0.3269389764573627
 10
4.940973987633888
 20
25.23494380737017
 42
0.6814117185784479
 10
5.916889574095724
 20
24.56168585887949
 42
-0.3051696881531507
  0
ARC
  5
718
330
1C
100
AcDbEntity
  8
0
100
AcDbCircle
 10
1.991818939948765
 20
26.27965425267568
 30
0.0
 40
1.071065625451073
100
AcDbArc
 50
342.3347153126726
 51
4.973881104887496
  0
ARC
  5
719
330
1C
100
AcDbEntity
  8
0
100
AcDbCircle
 10
2.23397026600553
 20
25.81634359083834
 30
0.0
 40
0.8300478922071729
100
AcDbArc
 50
77.88043180055641
 51
123.0845872580101
  0
ARC
  5
71A
330
1C
100
AcDbEntity
  8
0
100
AcDbCircle
 10
1.637360869590701
 20
26.27965425267568
 30
0.0
 40
0.1652218602179916
100
AcDbArc
 50
122.5335208533737
 51
196.3214283303262
  0
ARC
  5
71B
330
1C
100
AcDbEntity
  8
0
100
AcDbCircle
 10
5.191442428076105
 20
25.74569109714813
 30
0.0
 40
2.949145651099626
100
AcDbArc
 50
177.2927850148247
 51
187.690661145482
  0
ARC
  5
71C
330
1C
100
AcDbEntity
  8
0
100
AcDbCircle
 10
0.5872490774530153
 20
25.61800431234749
 30
0.0
 40
1.752244983751862
100
AcDbArc
 50
350.4670606132583
 51
9.53293938674161
  0
ARC
  5
71D
330
1C
100
AcDbEntity
  8
0
100
AcDbCircle
 10
2.650906280668622
 20
26.00630275341377
 30
0.0
 40
0.1265933839003548
100
AcDbArc
 50
182.3713508465715
 51
286.6006084540109
  0
LWPOLYLINE
  5
71E
330
1C
100
AcDbEntity
  8
0
100
AcDbPolyline
 90
        5
 70
     0
 43
0.0
 10
2.036463435194966
 20
25.79212267807191
 42
-0.2068251470334838
 10
2.431476942110196
 20
25.93141747103504
 42
0.3718213040235294
 10
2.524421305778832
 20
26.00106481732481
 42
-0.3819207232045432
 10
2.710309878410208
 20
25.88498583991946
 42
0.1784812211352965
 10
2.594129462500887
 20
25.49031747735505
 42
0.935190658487571
  0
LWPOLYLINE
  5
725
330
1C
100
AcDbEntity
  8
0
100
AcDbPolyline
 90
        7
 70
     0
 43
0.0
 10
2.989142969416116
 20
24.65454902072704
 42
-0.3149966124685442
 10
2.501185253538148
 20
24.81705952886437
 42
0.1256120289147678
 10
2.129407798863602
 20
25.11886482996482
 42
-0.3230739040008373
 10
2.431476942110196
 20
25.11886482996482
 42
0.2865837621761182
 10
2.756782137597475
 20
25.00278585255948
 42
0.2927051489940501
 10
2.942670864934747
 20
25.18851217625459
 42
-0.1621745429720687
 10
3.267975905716128
 20
25.30459115365994
 42
-0.1621745429720687
  0
LWPOLYLINE
  5
72E
330
1C
100
AcDbEntity
  8
0
100
AcDbPolyline
 90
        3
 70
     0
 43
0.0
 10
3.267975905716128
 20
25.88498583991946
 42
-0.5463776016232279
 10
3.012379021656801
 20
25.49031747735505
 42
0.2388775282722091
 10
2.152643851104287
 20
25.21172799181238
 42
2.424724232263576
  0
LWPOLYLINE
  5
733
330
1C
100
AcDbEntity
  8
0
100
AcDbPolyline
 90
        7
 70
     0
 43
0.0
 10
2.013227382954282
 20
26.34930164915724
 42
0.3306814759482785
 10
1.618214030744949
 20
25.93141747103504
 42
0.147745270879522
 10
1.687922187467003
 20
25.53674900808703
 42
0.1792146855718444
 10
2.013227382954282
 20
25.23494380737017
 42
0.3734175526866266
 10
2.082935694382233
 20
25.25815952254436
 42
0.1065985953622314
 10
1.943519226232227
 20
25.88498583991946
 42
-0.1884037588188978
 10
1.920283019285646
 20
26.27965430286748
 42
-6.32449377707528
  0
LWPOLYLINE
  5
73C
330
1C
100
AcDbEntity
  8
0
100
AcDbPolyline
 90
       25
 70
     0
 43
0.0
 10
2.385004837628827
 20
24.58490167443728
 42
-0.1713757072781681
 10
2.663837773928838
 20
24.02772280373554
 42
0.2165310112492516
 10
2.315296526200875
 20
24.25988065816263
 42
-0.3466041361428133
 10
2.059699642141548
 20
24.5384701437053
 42
-0.4524187706376741
 10
1.804102603376324
 20
24.16701749631507
 42
0.149764435151353
 10
1.827338810322906
 20
24.63133330555285
 42
-0.2771091378983976
 10
1.641450082985634
 20
25.02600166811727
 10
0.8978953283424415
 20
24.9563543218275
 10
1.199964471589035
 20
25.18851217625459
 10
0.7352428079517513
 20
25.55996482364482
 10
1.153492212401768
 20
25.60639635437679
 42
-0.460894041632467
 10
1.525269667076313
 20
26.46538052617899
 42
-0.2751460502719807
 10
1.711158239707688
 20
26.86004898912701
 42
-0.450149326650285
 10
2.431476942110196
 20
26.67432266543189
 42
-0.4668310117566754
 10
3.012379021656801
 20
26.37251736433143
 42
-0.2266950534447003
 10
3.221503801234758
 20
26.27965430286748
 42
-0.3684865308256212
 10
3.244739853475443
 20
25.88498583991946
 42
-0.5778705661967627
 10
3.267975905716128
 20
25.28137533810215
 42
-0.1060245007572082
 10
3.105323385325438
 20
24.51525432814751
 42
-0.2431474287736683
 10
2.687073826169523
 20
24.35274382001018
 42
0.0372531296024876
 10
2.385004837628827
 20
24.58490167443728
 42
0.6298534852076437
 10
2.175880058050869
 20
24.63133330555285
 42
-0.4337730524550231
 10
1.711158239707688
 20
24.84027534442216
 42
-0.1713757486294969
 10
1.502033614835628
 20
25.18851217625459
 42
-0.1686456227498936
 10
1.17672841934835
 20
25.60639635437679
 42
-1.39560219799772
  0
LWPOLYLINE
  5
757
330
1C
100
AcDbEntity
  8
0
100
AcDbPolyline
 90
        7
 70
     0
 43
0.0
 10
5.80953899727317
 20
7.895535809239995
 42
0.1616034660400232
 10
4.717442994902015
 20
9.079540997316836
 42
0.2306721880449919
 10
1.58057161064445
 20
9.427777829149274
 42
0.2703682156044608
 10
0.5117116605139796
 20
7.849104178124417
 42
0.3182497038597322
 10
1.464391194735129
 20
6.061488488230258
 42
0.2880153086754074
 10
2.765611821978345
 20
6.084704303788047
 42
0.4488548037543708
 10
2.719139717496975
 20
6.897256844474664
 42
0.4488548037543708
  0
LINE
  5
760
330
1C
100
AcDbEntity
  8
0
100
AcDbLine
 10
4.740679047142699
 20
7.684736473003318
 30
0.0
 11
4.740679047142699
 21
7.406146987460649
 31
0.0
  0
LINE
  5
761
330
1C
100
AcDbEntity
  8
0
100
AcDbLine
 10
4.554790319805427
 20
7.777599634850874
 30
0.0
 11
4.578026526752009
 21
7.452578618576227
 31
0.0
  0
LINE
  5
762
330
1C
100
AcDbEntity
  8
0
100
AcDbLine
 10
4.229485124318149
 20
7.452578618576227
 30
0.0
 11
4.508318215324057
 21
7.452578618576227
 31
0.0
  0
LINE
  5
763
330
1C
100
AcDbEntity
  8
0
100
AcDbLine
 10
4.368901747174051
 20
7.266852294881115
 30
0.0
 11
4.694206942661329
 21
7.313283825613093
 31
0.0
  0
LINE
  5
764
330
1C
100
AcDbEntity
  8
0
100
AcDbLine
 10
4.531554267564742
 20
7.034694340070424
 30
0.0
 11
4.926567774479972
 21
7.081125971186002
 31
0.0
  0
LINE
  5
765
330
1C
100
AcDbEntity
  8
0
100
AcDbLine
 10
5.135692554057929
 20
7.522225964865994
 30
0.0
 11
5.484233801785892
 21
7.522225964865994
 31
0.0
  0
LINE
  5
766
330
1C
100
AcDbEntity
  8
0
100
AcDbLine
 10
5.089220294870662
 20
7.684736473003318
 30
0.0
 11
5.507469854026576
 21
7.707952288561108
 31
0.0
  0
LINE
  5
767
330
1C
100
AcDbEntity
  8
0
100
AcDbLine
 10
5.414525490357941
 20
7.800815450408664
 30
0.0
 11
5.391289438117255
 21
8.079404835567732
 31
0.0
  0
LINE
  5
768
330
1C
100
AcDbEntity
  8
0
100
AcDbLine
 10
5.530705906267261
 20
7.684736473003318
 30
0.0
 11
5.577178165454528
 21
7.986541673720176
 31
0.0
  0
LINE
  5
769
330
1C
100
AcDbEntity
  8
0
100
AcDbLine
 10
5.577178165454528
 20
7.545441680040184
 30
0.0
 11
5.693358581363849
 21
7.777599634850874
 31
0.0
  0
LINE
  5
76A
330
1C
100
AcDbEntity
  8
0
100
AcDbLine
 10
6.738982324547738
 20
7.313283825613093
 30
0.0
 11
6.948107104125695
 21
7.313283825613093
 31
0.0
  0
LINE
  5
76B
330
1C
100
AcDbEntity
  8
0
100
AcDbLine
 10
6.553093597210466
 20
7.220420663765536
 30
0.0
 11
6.855162740457059
 21
7.173989133033559
 31
0.0
  0
LINE
  5
76C
330
1C
100
AcDbEntity
  8
0
100
AcDbLine
 10
6.390441076819775
 20
7.15077331747577
 30
0.0
 11
6.715746272307053
 21
7.011478624896235
 31
0.0
  0
LINE
  5
76D
330
1C
100
AcDbEntity
  8
0
100
AcDbLine
 10
6.692510220066369
 20
7.38293117190286
 30
0.0
 11
6.80869063597569
 21
7.707952288561108
 31
0.0
  0
LINE
  5
76E
330
1C
100
AcDbEntity
  8
0
100
AcDbLine
 10
6.506621492729096
 20
7.266852294881115
 30
0.0
 11
6.599565856397732
 21
7.684736473003318
 31
0.0
  0
LINE
  5
76F
330
1C
100
AcDbEntity
  8
0
100
AcDbLine
 10
6.320732765391824
 20
7.243636479323326
 30
0.0
 11
6.343968817632508
 21
7.684736473003318
 31
0.0
  0
LINE
  5
770
330
1C
100
AcDbEntity
  8
0
100
AcDbLine
 10
6.181316297241818
 20
7.197204948591347
 30
0.0
 11
6.181316297241818
 21
7.568657495597973
 31
0.0
  0
LINE
  5
771
330
1C
100
AcDbEntity
  8
0
100
AcDbLine
 10
6.227788401723187
 20
7.081125971186002
 30
0.0
 11
6.599565856397732
 21
6.918615463048679
 31
0.0
  0
LINE
  5
772
330
1C
100
AcDbEntity
  8
0
100
AcDbLine
 10
6.088371933573181
 20
6.500731284926475
 30
0.0
 11
6.506621492729096
 21
6.431083838253107
 31
0.0
  0
LINE
  5
773
330
1C
100
AcDbEntity
  8
0
100
AcDbLine
 10
6.297496713151139
 20
6.315004961231363
 30
0.0
 11
6.576329804157047
 21
6.222141799383806
 31
0.0
  0
LINE
  5
774
330
1C
100
AcDbEntity
  8
0
100
AcDbLine
 10
6.436913181301145
 20
6.036415475688693
 30
0.0
 11
6.622801908638417
 21
5.87390496755137
 31
0.0
  0
LINE
  5
775
330
1C
100
AcDbEntity
  8
0
100
AcDbLine
 10
6.018663776851127
 20
5.897120783109159
 30
0.0
 11
6.251024608669769
 21
6.268573330115784
 31
0.0
  0
LINE
  5
776
330
1C
100
AcDbEntity
  8
0
100
AcDbLine
 10
5.80953899727317
 20
5.943552313841137
 30
0.0
 11
5.97219151766386
 21
6.407868123078919
 31
0.0
  0
LINE
  5
777
330
1C
100
AcDbEntity
  8
0
100
AcDbLine
 10
5.670122374417267
 20
6.245357614941595
 30
0.0
 11
5.85601110175454
 21
6.500731284926475
 31
0.0
  0
LINE
  5
778
330
1C
100
AcDbEntity
  8
0
100
AcDbLine
 10
5.577178165454528
 20
5.664962828298468
 30
0.0
 11
5.786302790326588
 21
5.595315482008701
 31
0.0
  0
LINE
  5
779
330
1C
100
AcDbEntity
  8
0
100
AcDbLine
 10
5.344817178929988
 20
5.502452320161145
 30
0.0
 11
5.553941958507946
 21
5.827473336435792
 31
0.0
  0
LINE
  5
77A
330
1C
100
AcDbEntity
  8
0
100
AcDbLine
 10
5.182164658539298
 20
5.61853129756649
 30
0.0
 11
5.484233801785892
 21
5.989983844573115
 31
0.0
  0
LINE
  5
77B
330
1C
100
AcDbEntity
  8
0
100
AcDbLine
 10
5.112456347111347
 20
5.897120783109159
 30
0.0
 11
5.368053385876571
 21
6.152494453094039
 31
0.0
  0
ARC
  5
77C
330
1C
100
AcDbEntity
  8
0
100
AcDbCircle
 10
5.333430752136378
 20
7.557034795772313
 30
0.0
 40
0.2350004357548623
100
AcDbArc
 50
339.7752569592254
 51
69.81311600197376
  0
ARC
  5
77D
330
1C
100
AcDbEntity
  8
0
100
AcDbCircle
 10
5.415018037530625
 20
8.127309637045454
 30
0.0
 40
0.3497103490571179
100
AcDbArc
 50
176.4354499914967
 51
269.9193021207054
  0
ARC
  5
77E
330
1C
100
AcDbEntity
  8
0
100
AcDbCircle
 10
3.793039036794981
 20
6.403497415929396
 30
0.0
 40
1.332692849556849
100
AcDbArc
 50
31.72790037672039
 51
74.02692277894748
  0
ARC
  5
77F
330
1C
100
AcDbEntity
  8
0
100
AcDbCircle
 10
4.172111850816203
 20
5.459566427481262
 30
0.0
 40
1.428437805144547
100
AcDbArc
 50
0.789007416743992
 51
37.96031392585467
  0
ARC
  5
780
330
1C
100
AcDbEntity
  8
0
100
AcDbCircle
 10
5.705714800466591
 20
5.862240100755027
 30
0.0
 40
0.7011451212410078
100
AcDbArc
 50
347.5761519732185
 51
65.59402246219026
  0
ARC
  5
781
330
1C
100
AcDbEntity
  8
0
100
AcDbCircle
 10
6.109322313359555
 20
8.138001990063653
 30
0.0
 40
0.9884319844468814
100
AcDbArc
 50
272.8274660722383
 51
328.0598769715214
  0
LINE
  5
782
330
1C
100
AcDbEntity
  8
0
100
AcDbLine
 10
3.718291356199495
 20
1.277178807439932
 30
0.0
 11
3.741527408440179
 21
1.439689315577256
 31
0.0
  0
LINE
  5
783
330
1C
100
AcDbEntity
  8
0
100
AcDbLine
 10
3.741527408440179
 20
1.068236668187031
 30
0.0
 11
3.880943876590185
 21
1.230747276707954
 31
0.0
  0
LINE
  5
784
330
1C
100
AcDbEntity
  8
0
100
AcDbLine
 10
3.578874888049489
 20
0.8360788137599403
 30
0.0
 11
3.392986160712216
 21
1.09145248374482
 31
0.0
  0
LINE
  5
785
330
1C
100
AcDbEntity
  8
0
100
AcDbLine
 10
3.648583044771543
 20
1.045020953012842
 30
0.0
 11
3.485930524380853
 21
1.300394622997721
 31
0.0
  0
LINE
  5
786
330
1C
100
AcDbEntity
  8
0
100
AcDbLine
 10
4.531554267564742
 20
1.068236668187031
 30
0.0
 11
4.531554267564742
 21
1.161099830034587
 31
0.0
  0
LINE
  5
787
330
1C
100
AcDbEntity
  8
0
100
AcDbLine
 10
4.2991934357461
 20
0.8592946293177293
 30
0.0
 11
4.2991934357461
 21
1.09145248374482
 31
0.0
  0
ARC
  5
788
330
1C
100
AcDbEntity
  8
0
100
AcDbCircle
 10
4.822005307338044
 20
1.475324754512408
 30
0.0
 40
0.4780078293096081
100
AcDbArc
 50
251.5808156274066
 51
274.1814583455018
  0
ARC
  5
789
330
1C
100
AcDbEntity
  8
0
100
AcDbCircle
 10
3.83452459131238
 20
-2.3497996206027
 30
0.0
 40
3.261237766265045
100
AcDbArc
 50
74.29222535449807
 51
79.7404829743542
  0
ARC
  5
78A
330
1C
100
AcDbEntity
  8
0
100
AcDbCircle
 10
3.73011534534843
 20
-0.872508877122879
 30
0.0
 40
1.69113390228933
100
AcDbArc
 50
60.81401162150392
 51
70.3358070800732
  0
ARC
  5
78B
330
1C
100
AcDbEntity
  8
0
100
AcDbCircle
 10
2.506597891587556
 20
1.032091135790112
 30
0.0
 40
1.142031475859752
100
AcDbArc
 50
336.7185396080015
 51
28.61210367103439
  0
ARC
  5
78C
330
1C
100
AcDbEntity
  8
0
100
AcDbCircle
 10
5.924806409605241
 20
-0.9535672693909239
 30
0.0
 40
2.394860894448786
100
AcDbArc
 50
112.8125758828301
 51
140.8791638581554
  0
LWPOLYLINE
  5
78D
330
1C
100
AcDbEntity
  8
0
100
AcDbPolyline
 90
       13
 70
     0
 43
0.0
 10
3.323277849284265
 20
0.2788999430582024
 42
0.3029225447010541
 10
3.462694472140168
 20
0.6039209593328496
 42
-0.3823920882481186
 10
3.416222212952901
 20
1.486120946692834
 42
-0.0000000263879215
 10
3.369750108471532
 20
1.904005124815037
 42
0.309351979353618
 10
3.764763460680864
 20
1.555768292982601
 42
-0.6421076379781934
 10
3.787999667627446
 20
0.743215651912384
 42
0.2012793641824667
 10
3.578874888049489
 20
0.418194635637737
 42
0.162232354939471
 10
3.904180083536767
 20
0.6503524900648277
 42
-0.2913374076050701
 10
4.206249072077463
 20
1.114668299302609
 42
-0.0317114773553365
 10
5.065984242629977
 20
1.32361033817191
 42
-0.1032236914294451
 10
4.787151151624069
 20
0.6967841211804059
 42
-0.5533551314625165
 10
4.090068656168143
 20
0.5342736130430823
 42
0.1317312305370472
 10
3.69505530395881
 20
0.3717630045221588
 42
2.956802819129631
  0
LWPOLYLINE
  5
79C
330
1C
100
AcDbEntity
  8
0
100
AcDbPolyline
 90
        5
 70
     0
 43
0.0
 10
2.277654106100376
 20
2.554047157364331
 10
2.417070574250382
 20
2.646910319211888
 10
2.417070574250382
 20
2.855852458464789
 10
2.18470974243174
 20
2.809420827349211
 10
2.254418053859691
 20
2.554047157364331
  0
ARC
  5
7A3
330
1C
100
AcDbEntity
  8
0
100
AcDbCircle
 10
2.172259082305719
 20
2.579597890803411
 30
0.0
 40
1.323041956389073
100
AcDbArc
 50
284.7906117820878
 51
330.4562035425728
  0
LWPOLYLINE
  5
7A4
330
1C
100
AcDbEntity
  8
0
100
AcDbPolyline
 90
        5
 70
     0
 43
0.0
 10
2.324126210581745
 20
3.227305005471415
 42
0.0533908056540167
 10
1.789696390222407
 20
2.971931335486535
 42
0.4280545329732177
 10
1.998821015094467
 20
2.275457671821663
 42
0.2617516131157826
 10
2.788848028924927
 20
2.484399811074564
 42
0.4417448121343974
 10
2.835320133406296
 20
2.971931335486535
 42
0.4417448121343974
  0
LWPOLYLINE
  5
7AB
330
1C
100
AcDbEntity
  8
0
100
AcDbPolyline
 90
        4
 70
     0
 43
0.0
 10
2.719139717496975
 20
3.064794497334091
 42
0.2599572976085809
 10
2.091765378763104
 20
2.995147151044324
 42
0.2123840736541735
 10
2.18470974243174
 20
2.414752464784797
 42
0.4567168913434549
 10
2.719139717496975
 20
2.879068173638978
 42
0.4567168913434549
  0
ARC
  5
7B1
330
1C
100
AcDbEntity
  8
0
100
AcDbCircle
 10
2.589208122890568
 20
2.583689051391743
 30
0.0
 40
0.6717400155561167
100
AcDbArc
 50
312.664008790622
 51
35.30754540241139
  0
ARC
  5
7B2
330
1C
100
AcDbEntity
  8
0
100
AcDbCircle
 10
2.486064902089415
 20
2.783379555635858
 30
0.0
 40
0.8904695014912066
100
AcDbArc
 50
242.0374892115178
 51
308.8337283726269
  0
ARC
  5
7B3
330
1C
100
AcDbEntity
  8
0
100
AcDbCircle
 10
2.605001758015168
 20
3.018362966602113
 30
0.0
 40
0.3528601424317229
100
AcDbArc
 50
328.2411387689216
 51
67.08806980246944
  0
ARC
  5
7B4
330
1C
100
AcDbEntity
  8
0
100
AcDbCircle
 10
2.437100972638293
 20
2.740924804735009
 30
0.0
 40
0.6753886015260355
100
AcDbArc
 50
63.12800645660003
 51
127.917475369001
  0
ARC
  5
7B5
330
1C
100
AcDbEntity
  8
0
100
AcDbCircle
 10
2.272873632942441
 20
2.556231370105926
 30
0.0
 40
1.319843117598012
100
AcDbArc
 50
20.49595842816464
 51
61.3823639091344
  0
ARC
  5
7B6
330
1C
100
AcDbEntity
  8
0
100
AcDbCircle
 10
2.3810108256363
 20
2.510643280880125
 30
0.0
 40
1.010602233286146
100
AcDbArc
 50
41.54429059037279
 51
119.547294435195
  0
ARC
  5
7B7
330
1C
100
AcDbEntity
  8
0
100
AcDbCircle
 10
2.204908598610718
 20
2.559697588791706
 30
0.0
 40
1.192365804515541
100
AcDbArc
 50
71.67870206457131
 51
172.4406188206562
  0
LWPOLYLINE
  5
7B8
330
1C
100
AcDbEntity
  8
0
100
AcDbPolyline
 90
        3
 70
     0
 43
0.0
 10
1.743224131035141
 20
3.111226128449669
 42
0.2656796231903718
 10
1.278502467397857
 20
2.275457671821663
 42
0.4798712239131394
 10
2.231182001619007
 20
1.532552477424812
 42
0.4798712239131394
  0
LWPOLYLINE
  5
7BD
330
1C
100
AcDbEntity
  8
0
100
AcDbPolyline
 90
       13
 70
     0
 43
0.0
 10
3.323277849284265
 20
2.136162979242128
 42
-0.5388519958580385
 10
2.649431406069024
 20
1.277178807439932
 42
0.1811861707002099
 10
2.068529326522419
 20
1.207531461150165
 42
-0.1941307466212983
 10
1.719988078794456
 20
1.230747276707954
 42
-0.0928805432851551
 10
1.162322051488536
 20
1.439689315577256
 42
-0.3085496922813909
 10
1.02290558333853
 20
2.739773481059444
 42
-0.2337408121623614
 10
0.8602529082419426
 20
3.389815613992338
 42
-0.2441029406516914
 10
1.882640599185146
 20
4.155936623946979
 42
-0.276776416852592
 10
2.254418053859691
 20
4.086289277657211
 42
0.0622038937330193
 10
2.556487042400388
 20
4.063073462099421
 42
-0.3882554768810749
 10
2.905028444834248
 20
3.714836630266985
 42
-0.509309001496601
 10
3.532402628862223
 20
3.064794497334091
 42
-0.2054318982641644
 10
3.346514056230847
 20
2.159378794799917
 42
1.913627770295765
  0
LINE
  5
7CC
330
1C
100
AcDbEntity
  8
0
100
AcDbLine
 10
3.509166576621538
 20
4.202368154678956
 30
0.0
 11
3.509166576621538
 21
4.457741824663837
 31
0.0
  0
LINE
  5
7CD
330
1C
100
AcDbEntity
  8
0
100
AcDbLine
 10
3.392986160712216
 20
4.295231316526512
 30
0.0
 11
3.392986160712216
 21
4.504173455779414
 31
0.0
  0
LINE
  5
7CE
330
1C
100
AcDbEntity
  8
0
100
AcDbLine
 10
3.13738927665289
 20
4.248799785794535
 30
0.0
 11
3.30004179704358
 21
4.248799785794535
 31
0.0
  0
LINE
  5
7CF
330
1C
100
AcDbEntity
  8
0
100
AcDbLine
 10
3.578874888049489
 20
4.039857646541633
 30
0.0
 11
3.160625328893575
 21
4.086289277657211
 31
0.0
  0
LINE
  5
7D0
330
1C
100
AcDbEntity
  8
0
100
AcDbLine
 10
3.741527408440179
 20
4.039857646541633
 30
0.0
 11
3.718291356199495
 21
4.480957640221626
 31
0.0
  0
LINE
  5
7D1
330
1C
100
AcDbEntity
  8
0
100
AcDbLine
 10
3.904180083536767
 20
4.039857646541633
 30
0.0
 11
3.904180083536767
 21
4.388094478374069
 31
0.0
  0
ARC
  5
7D2
330
1C
100
AcDbEntity
  8
0
100
AcDbCircle
 10
3.391060393651623
 20
4.004523530064886
 30
0.0
 40
0.4780874668515724
100
AcDbArc
 50
296.1962778100687
 51
347.4406407245865
  0
ARC
  5
7D3
330
1C
100
AcDbEntity
  8
0
100
AcDbCircle
 10
2.998479667415899
 20
4.365447653965826
 30
0.0
 40
0.904661993727158
100
AcDbArc
 50
299.1731952610221
 51
330.7767153186836
  0
ARC
  5
7D4
330
1C
100
AcDbEntity
  8
0
100
AcDbCircle
 10
3.370263906347628
 20
4.246445655704593
 30
0.0
 40
0.4443299196008399
100
AcDbArc
 50
260.9068236490703
 51
321.5603659537922
  0
ARC
  5
7D5
330
1C
100
AcDbEntity
  8
0
100
AcDbCircle
 10
4.190619162798504
 20
5.298693915319502
 30
0.0
 40
1.362380036259945
100
AcDbArc
 50
219.3686436463118
 51
262.8208906198548
  0
LINE
  5
7D6
330
1C
100
AcDbEntity
  8
0
100
AcDbLine
 10
2.440306626491067
 20
5.495795880464175
 30
0.0
 11
2.440306626491067
 21
5.405180422614844
 31
0.0
  0
LINE
  5
7D7
330
1C
100
AcDbEntity
  8
0
100
AcDbLine
 10
1.812932442463092
 20
5.471267451387215
 30
0.0
 11
1.812932442463092
 21
5.314961512076382
 31
0.0
  0
LINE
  5
7D8
330
1C
100
AcDbEntity
  8
0
100
AcDbLine
 10
8.667577290524826
 20
2.391536649227008
 30
0.0
 11
8.667577290524826
 21
2.182594610357706
 31
0.0
  0
LINE
  5
7D9
330
1C
100
AcDbEntity
  8
0
100
AcDbLine
 10
8.551396874615505
 20
2.57726297292212
 30
0.0
 11
8.45845251094687
 21
2.321889302937241
 31
0.0
  0
LINE
  5
7DA
330
1C
100
AcDbEntity
  8
0
100
AcDbLine
 10
7.947258742828215
 20
1.300394622997721
 30
0.0
 11
8.226091679128227
 21
1.393257784845278
 31
0.0
  0
LINE
  5
7DB
330
1C
100
AcDbEntity
  8
0
100
AcDbLine
 10
8.01696689955027
 20
1.486120946692834
 30
0.0
 11
8.272563938315494
 21
1.625415639272369
 31
0.0
  0
LINE
  5
7DC
330
1C
100
AcDbEntity
  8
0
100
AcDbLine
 10
7.92402269058753
 20
1.83435777852527
 30
0.0
 11
7.9704947950689
 21
1.555768292982601
 31
0.0
  0
LINE
  5
7DD
330
1C
100
AcDbEntity
  8
0
100
AcDbLine
 10
7.854314379159579
 20
1.370041969287489
 30
0.0
 11
7.761370015490943
 21
1.671847170004347
 31
0.0
  0
LINE
  5
7DE
330
1C
100
AcDbEntity
  8
0
100
AcDbLine
 10
6.460149233541829
 20
1.300394622997721
 30
0.0
 11
6.529857544969781
 21
1.021805137455052
 31
0.0
  0
LINE
  5
7DF
330
1C
100
AcDbEntity
  8
0
100
AcDbLine
 10
6.692510220066369
 20
1.230747276707954
 30
0.0
 11
6.715746272307053
 21
0.9057261600497076
 31
0.0
  0
LINE
  5
7E0
330
1C
100
AcDbEntity
  8
0
100
AcDbLine
 10
6.924871051885011
 20
0.8360788137599403
 30
0.0
 11
6.924871051885011
 21
1.09145248374482
 31
0.0
  0
LINE
  5
7E1
330
1C
100
AcDbEntity
  8
0
100
AcDbLine
 10
6.738982324547738
 20
0.6039209593328496
 30
0.0
 11
6.924871051885011
 21
0.8128629982021513
 31
0.0
  0
LINE
  5
7E2
330
1C
100
AcDbEntity
  8
0
100
AcDbLine
 10
6.413677129060459
 20
0.6735683056226167
 30
0.0
 11
6.762218376788423
 21
0.8592946293177293
 31
0.0
  0
LINE
  5
7E3
330
1C
100
AcDbEntity
  8
0
100
AcDbLine
 10
6.274260660910454
 20
0.8360788137599403
 30
0.0
 11
6.576329804157047
 21
0.9289419756074966
 31
0.0
  0
LINE
  5
7E4
330
1C
100
AcDbEntity
  8
0
100
AcDbLine
 10
6.018663776851127
 20
1.021805137455052
 30
0.0
 11
6.390441076819775
 21
1.09145248374482
 31
0.0
  0
LINE
  5
7E5
330
1C
100
AcDbEntity
  8
0
100
AcDbLine
 10
7.110759624516385
 20
3.738052445824775
 30
0.0
 11
6.855162740457059
 21
3.877347138404309
 31
0.0
  0
LINE
  5
7E6
330
1C
100
AcDbEntity
  8
0
100
AcDbLine
 10
7.157231883703652
 20
3.505894491014084
 30
0.0
 11
6.831926688216374
 21
3.668404999151407
 31
0.0
  0
LINE
  5
7E7
330
1C
100
AcDbEntity
  8
0
100
AcDbLine
 10
7.157231883703652
 20
3.34338398287676
 30
0.0
 11
6.80869063597569
 21
3.482678675456294
 31
0.0
  0
ARC
  5
7E8
330
1C
100
AcDbEntity
  8
0
100
AcDbCircle
 10
9.047676420153271
 20
2.701589796695729
 30
0.0
 40
0.0631849447294476
100
AcDbArc
 50
13.7030461333752
 51
209.8652170277427
  0
ARC
  5
7E9
330
1C
100
AcDbEntity
  8
0
100
AcDbCircle
 10
9.004439778372393
 20
2.751381388838339
 30
0.0
 40
0.0820730608693494
100
AcDbArc
 50
134.9950430685197
 51
261.9048675817732
  0
ARC
  5
7EA
330
1C
100
AcDbEntity
  8
0
100
AcDbCircle
 10
8.991988166926425
 20
4.049536582966447
 30
0.0
 40
1.986473906641845
100
AcDbArc
 50
260.6009321988815
 51
282.8674356318313
  0
ARC
  5
7EB
330
1C
100
AcDbEntity
  8
0
100
AcDbCircle
 10
0.8504691233372167
 20
-10.68751892172264
 30
0.0
 40
15.22547258885506
100
AcDbArc
 50
65.62554890380552
 51
67.1524705069206
  0
ARC
  5
7EC
330
1C
100
AcDbEntity
  8
0
100
AcDbCircle
 10
6.612079155982451
 20
4.074681369878317
 30
0.0
 40
0.5282039686128815
100
AcDbArc
 50
340.7529288462819
 51
8.849126173261531
  0
ARC
  5
7ED
330
1C
100
AcDbEntity
  8
0
100
AcDbCircle
 10
6.971830106551553
 20
3.946994484694076
 30
0.0
 40
0.3669006991455262
100
AcDbArc
 50
304.6560916384564
 51
18.44396780090711
  0
ARC
  5
7EE
330
1C
100
AcDbEntity
  8
0
100
AcDbCircle
 10
6.867470392680576
 20
3.889036346008397
 30
0.0
 40
0.6409286482417427
100
AcDbArc
 50
301.641574159845
 51
5.18825188909765
  0
ARC
  5
7EF
330
1C
100
AcDbEntity
  8
0
100
AcDbCircle
 10
5.076348209039728
 20
3.104245337271642
 30
0.0
 40
2.130151409008517
100
AcDbArc
 50
357.0642454816361
 51
31.03181589199669
  0
ARC
  5
7F0
330
1C
100
AcDbEntity
  8
0
100
AcDbCircle
 10
6.12904509615184
 20
0.7541729237846618
 30
0.0
 40
0.4320614160953265
100
AcDbArc
 50
56.54940304353099
 51
95.40167720265005
  0
ARC
  5
7F1
330
1C
100
AcDbEntity
  8
0
100
AcDbCircle
 10
6.965530289819131
 20
1.668806126432284
 30
0.0
 40
0.8155132460485004
100
AcDbArc
 50
222.8042557832852
 51
276.9554901647893
  0
ARC
  5
7F2
330
1C
100
AcDbEntity
  8
0
100
AcDbCircle
 10
7.94113029199335
 20
1.29460602306586
 30
0.0
 40
0.2829459360958755
100
AcDbArc
 50
164.5374154520343
 51
241.8960700095392
  0
ARC
  5
7F3
330
1C
100
AcDbEntity
  8
0
100
AcDbCircle
 10
7.958876768948555
 20
1.275035981510403
 30
0.0
 40
0.1798103630932286
100
AcDbArc
 50
243.1093295495236
 51
345.7408629452013
  0
ARC
  5
7F4
330
1C
100
AcDbEntity
  8
0
100
AcDbCircle
 10
9.490113060215191
 20
0.7929494530638955
 30
0.0
 40
1.669034097351453
100
AcDbArc
 50
144.3924933276854
 51
173.7250787493755
  0
LWPOLYLINE
  5
7F5
330
1C
100
AcDbEntity
  8
0
100
AcDbPolyline
 90
        3
 70
     0
 43
0.0
 10
8.435216458706184
 20
2.762989296617233
 42
0.6811795390844184
 10
8.481688717893451
 20
2.275457671821663
 42
0.5161024074522177
 10
9.109062901921426
 20
2.321889302937241
 42
-0.5638096723622159
  0
LWPOLYLINE
  5
7FA
330
1C
100
AcDbEntity
  8
0
100
AcDbPolyline
 90
        6
 70
     0
 43
0.0
 10
9.202007265590061
 20
2.995147151044324
 42
-0.1927387822603719
 10
9.294951629258699
 20
2.530831442190142
 42
-0.3111216437915783
 10
8.92317432929005
 20
2.507615626632353
 42
0.0004294133556275
 10
8.806993913380729
 20
2.57726297292212
 42
-0.9860966410178535
 10
9.062590797440057
 20
3.018362966602113
 42
0.1623224903602961
 10
8.760521654193462
 20
2.60047878847991
 42
1.361869797025732
  0
LWPOLYLINE
  5
802
330
1C
100
AcDbEntity
  8
0
100
AcDbPolyline
 90
        2
 70
     0
 43
0.0
 10
9.480840356595971
 20
3.134441944007458
 10
9.364659940686649
 20
3.134441944007458
  0
LWPOLYLINE
  5
806
330
1C
100
AcDbEntity
  8
0
100
AcDbPolyline
 90
        3
 70
     0
 43
0.0
 10
9.597020772505292
 20
3.227305005471415
 10
9.411132045168018
 20
3.250520821029204
 42
0.5138153250273914
 10
8.597869133802772
 20
3.34338398287676
 42
2.252623891206225
  0
LWPOLYLINE
  5
80B
330
1C
100
AcDbEntity
  8
0
100
AcDbPolyline
 90
        7
 70
     0
 43
0.0
 10
9.225243317830747
 20
3.621973468419429
 42
0.4814449905312982
 10
8.574632926856191
 20
3.482678675456294
 42
0.3550235381163602
 10
7.92402269058753
 20
2.995147151044324
 42
0.1504930872085052
 10
8.01696689955027
 20
2.321889302937241
 42
0.0989618788056105
 10
8.760521654193462
 20
1.996868286662594
 42
-0.066033530713293
 10
9.248479524777328
 20
1.857573493699459
 42
-0.7295800461399874
 10
9.225243317830747
 20
1.625415639272369
 42
9.46911022001413
  0
LWPOLYLINE
  5
814
330
1C
100
AcDbEntity
  8
0
100
AcDbPolyline
 90
        3
 70
     0
 43
0.0
 10
9.294951629258699
 20
3.877347138404309
 42
-0.4603267740797957
 10
9.271715577018014
 20
3.621973468419429
 42
-0.1189144750615542
 10
9.597020772505292
 20
3.459462960282106
 42
-14.93858818465106
  0
LWPOLYLINE
  5
819
330
1C
100
AcDbEntity
  8
0
100
AcDbPolyline
 90
       10
 70
     0
 43
0.0
 10
10.10821454062394
 20
2.275457671821663
 10
9.92232596799257
 20
2.08973144851015
 42
0.2730731896687717
 10
9.806145552083249
 20
1.811141962967481
 42
-0.6025367640953008
 10
8.92317432929005
 20
1.509336661867023
 42
-0.023777547726332
 10
9.341423733740068
 20
1.602199823714579
 42
0.1472303040694906
 10
9.666728929227346
 20
1.764710331851903
 42
-0.4803624881912044
 10
9.411132045168018
 20
1.880789309257248
 42
-0.2770630078768168
 10
9.480840356595971
 20
2.112947163684339
 42
0.2362524665040883
 10
9.620256824745977
 20
2.60047878847991
 42
0.4808871751669067
 10
9.387895992927335
 20
3.041578782159902
 42
-10.52379227874956
  0
LWPOLYLINE
  5
825
330
1C
100
AcDbEntity
  8
0
100
AcDbPolyline
 90
        8
 70
     0
 43
0.0
 10
8.946410381530736
 20
1.509336661867023
 42
-0.3207556731160733
 10
7.831078326918894
 20
2.136162979242128
 42
0.0232931938760472
 10
7.621953547340937
 20
3.018362966602113
 42
-0.3293295850597283
 10
8.01696689955027
 20
3.645189283977218
 42
-0.2894414619773511
 10
8.45845251094687
 20
3.900562953962097
 42
-0.2612418809294092
 10
9.387895992927335
 20
3.85413132284652
 42
-0.437664540366156
 10
10.01527017695531
 20
2.925499804754556
 42
-0.1161611071810938
 10
10.10821454062394
 20
2.275457671821663
 42
0.0534317306626718
  0
LINE
  5
82F
330
1C
100
AcDbEntity
  8
0
100
AcDbLine
 10
7.064287520035017
 20
0.8128629982021513
 30
0.0
 11
7.412828767762979
 21
0.743215651912384
 31
0.0
  0
LWPOLYLINE
  5
830
330
1C
100
AcDbEntity
  8
0
100
AcDbPolyline
 90
       10
 70
     0
 43
0.0
 10
7.36635666328161
 20
0.8128629982021513
 10
7.319884404094343
 20
0.9057261600497076
 10
7.041051467794331
 20
0.9289419756074966
 42
0.0277635757048537
 10
6.924871051885011
 20
1.09145248374482
 42
0.3004116733440512
 10
6.460149233541829
 20
1.3468261537297
 42
0.0784008048160345
 10
5.902483206235909
 20
1.207531461150165
 42
0.5282472269959129
 10
5.879247153995224
 20
1.09145248374482
 42
-0.0000001194347694
 10
6.343968817632508
 20
0.6735683056226167
 42
0.2358834586617097
 10
6.855162740457059
 20
0.5574893282172714
 42
0.5886529650222043
 10
7.064287520035017
 20
0.8128629982021513
 42
-1.472911700550175
  0
LWPOLYLINE
  5
83C
330
1C
100
AcDbEntity
  8
0
100
AcDbPolyline
 90
        9
 70
     0
 43
0.0
 10
7.831078326918894
 20
0.6967841211804059
 10
7.854314379159579
 20
0.8825104448755183
 42
0.2050927460084672
 10
8.179619574646858
 20
0.9521577911652856
 42
0.2705531370972003
 10
8.342272095037548
 20
1.555768292982601
 42
0.0204474698788318
 10
8.202855626887542
 20
1.996868286662594
 42
-0.0217134336467044
 10
7.831078326918894
 20
1.880789309257248
 42
0.4081205669150618
 10
7.5290091836723
 20
1.3468261537297
 42
0.3293585358009918
 10
7.738133963250257
 20
0.8825104448755183
 10
7.691661858768888
 20
0.7896472830279622
  0
LWPOLYLINE
  5
847
330
1C
100
AcDbEntity
  8
0
100
AcDbPolyline
 90
        3
 70
     0
 43
0.0
 10
7.436064820003664
 20
3.134441944007458
 10
7.436064820003664
 20
2.786205112175022
 42
0.1450183565402876
 10
6.924871051885011
 20
2.321889302937241
 42
1.776467664277279
  0
LWPOLYLINE
  5
84C
330
1C
100
AcDbEntity
  8
0
100
AcDbPolyline
 90
       11
 70
     0
 43
0.0
 10
6.924871051885011
 20
2.34510511849503
 42
-0.1339900485739574
 10
7.087523572275701
 20
2.693341950327466
 42
0.2362529353909463
 10
7.133995831462968
 20
2.995147151044324
 42
-0.3202371684217077
 10
6.785454429029107
 20
3.111226128449669
 42
-0.4945160430668271
 10
6.715746272307053
 20
3.575541837303851
 42
0.0991042323457752
 10
6.762218376788423
 20
4.1095049928314
 42
0.0879952406250104
 10
6.646037960879102
 20
4.504173455779414
 42
0.1622174619037847
 10
7.017815415553647
 20
4.248799785794535
 42
-0.1700801229020579
 10
7.621953547340937
 20
3.85413132284652
 42
-0.1181529802906528
 10
7.645189599581621
 20
3.273736636586993
 42
-0.4906604041330097
 10
7.412828767762979
 20
3.157657659181647
 42
1.591842203453489
  0
LWPOLYLINE
  5
859
330
1C
100
AcDbEntity
  8
0
100
AcDbPolyline
 90
        3
 70
     0
 43
0.0
 10
3.904180083536767
 20
2.391536649227008
 42
0.6182758295452324
 10
3.718291356199495
 20
2.623694503654099
 42
0.4323083742346555
 10
3.997124292499506
 20
2.693341950327466
 42
-0.5864965503919777
  0
ENDBLK
  5
85E
330
1C
100
AcDbEntity
  8
0
100
AcDbBlockEnd
  0
BLOCK
  5
88F
330
21
100
AcDbEntity
  8
0
100
AcDbBlockBegin
  2
*D1
 70
     1
 10
0.0
 20
0.0
 30
0.0
  3
*D1
  1

  0
LINE
  5
890
330
21
100
AcDbEntity
  8
0
  6
BYBLOCK
 62
     0
100
AcDbLine
 10
44.94787461876043
 20
27.78682338312989
 30
0.0
 11
47.90488907511558
 21
27.78682338312989
 31
0.0
  0
LINE
  5
891
330
21
100
AcDbEntity
  8
0
  6
BYBLOCK
 62
     0
100
AcDbLine
 10
44.94787461876043
 20
-0.0171068277539061
 30
0.0
 11
47.90488907511558
 21
-0.0171068277539063
 31
0.0
  0
LINE
  5
892
330
21
100
AcDbEntity
  8
0
  6
BYBLOCK
 62
     0
100
AcDbLine
 10
47.72488907511558
 20
27.60682338312989
 30
0.0
 11
47.72488907511558
 21
14.06485827768799
 31
0.0
  0
LINE
  5
893
330
21
100
AcDbEntity
  8
0
  6
BYBLOCK
 62
     0
100
AcDbLine
 10
47.72488907511558
 20
0.1628931722460937
 30
0.0
 11
47.72488907511558
 21
13.70485827768799
 31
0.0
  0
SOLID
  5
894
330
21
100
AcDbEntity
  8
0
  6
BYBLOCK
 62
     0
100
AcDbTrace
 10
47.69488907511558
 20
27.60682338312989
 30
0.0
 11
47.75488907511558
 21
27.60682338312989
 31
0.0
 12
47.72488907511558
 22
27.78682338312989
 32
0.0
 13
47.72488907511558
 23
27.78682338312989
 33
0.0
  0
SOLID
  5
895
330
21
100
AcDbEntity
  8
0
  6
BYBLOCK
 62
     0
100
AcDbTrace
 10
47.69488907511558
 20
0.1628931722460937
 30
0.0
 11
47.75488907511558
 21
0.1628931722460937
 31
0.0
 12
47.72488907511558
 22
-0.0171068277539063
 32
0.0
 13
47.72488907511558
 23
-0.0171068277539063
 33
0.0
  0
TEXT
  5
896
330
21
100
AcDbEntity
  8
0
  6
BYBLOCK
 62
     0
100
AcDbText
 10
47.57488907511558
 20
13.79485827768799
 30
0.0
 40
0.18
  1
28
 72
     1
 11
47.72488907511558
 21
13.88485827768799
 31
0.0
100
AcDbText
 73
     2
  0
POINT
  5
897
330
21
100
AcDbEntity
  8
DEFPOINTS
  6
BYBLOCK
 62
     0
100
AcDbPoint
 10
44.88537461876044
 20
27.78682338312989
 30
0.0
  0
POINT
  5
898
330
21
100
AcDbEntity
  8
DEFPOINTS
  6
BYBLOCK
 62
     0
100
AcDbPoint
 10
44.88537461876044
 20
-0.0171068277539061
 30
0.0
  0
POINT
  5
899
330
21
100
AcDbEntity
  8
DEFPOINTS
  6
BYBLOCK
 62
     0
100
AcDbPoint
 10
47.72488907511558
 20
-0.0171068277539063
 30
0.0
  0
ENDBLK
  5
89A
330
21
100
AcDbEntity
  8
0
100
AcDbBlockEnd
  0
BLOCK
  5
89B
330
22
100
AcDbEntity
  8
0
100
AcDbBlockBegin
  2
*D2
 70
     1
 10
0.0
 20
0.0
 30
0.0
  3
*D2
  1

  0
LINE
  5
89C
330
22
100
AcDbEntity
  8
0
  6
BYBLOCK
 62
     0
100
AcDbLine
 10
35.97218652738511
 20
2.710406921068115
 30
0.0
 11
35.97218652738511
 21
-0.8705584456253081
 31
0.0
  0
LINE
  5
89D
330
22
100
AcDbEntity
  8
0
  6
BYBLOCK
 62
     0
100
AcDbLine
 10
46.99335313692779
 20
2.710406921068115
 30
0.0
 11
46.99335313692779
 21
-0.8705584456253081
 31
0.0
  0
LINE
  5
89E
330
22
100
AcDbEntity
  8
0
  6
BYBLOCK
 62
     0
100
AcDbLine
 10
36.15218652738512
 20
-0.6905584456253081
 30
0.0
 11
41.30276983215646
 21
-0.6905584456253081
 31
0.0
  0
LINE
  5
89F
330
22
100
AcDbEntity
  8
0
  6
BYBLOCK
 62
     0
100
AcDbLine
 10
46.81335313692779
 20
-0.6905584456253081
 30
0.0
 11
41.66276983215645
 21
-0.6905584456253081
 31
0.0
  0
SOLID
  5
8A0
330
22
100
AcDbEntity
  8
0
  6
BYBLOCK
 62
     0
100
AcDbTrace
 10
36.15218652738512
 20
-0.6605584456253081
 30
0.0
 11
36.15218652738512
 21
-0.7205584456253082
 31
0.0
 12
35.97218652738511
 22
-0.6905584456253081
 32
0.0
 13
35.97218652738511
 23
-0.6905584456253081
 33
0.0
  0
SOLID
  5
8A1
330
22
100
AcDbEntity
  8
0
  6
BYBLOCK
 62
     0
100
AcDbTrace
 10
46.81335313692779
 20
-0.6605584456253081
 30
0.0
 11
46.81335313692779
 21
-0.7205584456253082
 31
0.0
 12
46.99335313692779
 22
-0.6905584456253081
 32
0.0
 13
46.99335313692779
 23
-0.6905584456253081
 33
0.0
  0
TEXT
  5
8A2
330
22
100
AcDbEntity
  8
0
  6
BYBLOCK
 62
     0
100
AcDbText
 10
41.39276983215645
 20
-0.7805584456253082
 30
0.0
 40
0.18
  1
11
 72
     1
 11
41.48276983215645
 21
-0.6905584456253081
 31
0.0
100
AcDbText
 73
     2
  0
POINT
  5
8A3
330
22
100
AcDbEntity
  8
DEFPOINTS
  6
BYBLOCK
 62
     0
100
AcDbPoint
 10
35.97218652738511
 20
2.772906921068115
 30
0.0
  0
POINT
  5
8A4
330
22
100
AcDbEntity
  8
DEFPOINTS
  6
BYBLOCK
 62
     0
100
AcDbPoint
 10
46.99335313692779
 20
2.772906921068115
 30
0.0
  0
POINT
  5
8A5
330
22
100
AcDbEntity
  8
DEFPOINTS
  6
BYBLOCK
 62
     0
100
AcDbPoint
 10
46.99335313692779
 20
-0.6905584456253081
 30
0.0
  0
ENDBLK
  5
8A6
330
22
100
AcDbEntity
  8
0
100
AcDbBlockEnd
  0
ENDSEC
  0
SECTION
  2
ENTITIES
  0
INSERT
  5
8A7
330
18
100
AcDbEntity
  8
ADP1DETAIL
100
AcDbBlockReference
  2
571
 10
36.0
 20
0.0
 30
0.0
  0
DIMENSION
  5
8A8
330
18
100
AcDbEntity
  8
ADPDIM
100
AcDbDimension
  2
*D1
 10
47.72488907511558
 20
-0.0171068277539063
 30
0.0
 11
47.72488907511558
 21
13.88485827768799
 31
0.0
  1
28
100
AcDbAlignedDimension
 13
44.88537461876044
 23
27.78682338312989
 33
0.0
 14
44.88537461876044
 24
-0.0171068277539061
 34
0.0
 50
90.0
100
AcDbRotatedDimension
  0
DIMENSION
  5
8A9
330
18
100
AcDbEntity
  8
ADPDIM
100
AcDbDimension
  2
*D2
 10
46.99335313692779
 20
-0.6905584456253081
 30
0.0
 11
41.48276983215645
 21
-0.6905584456253081
 31
0.0
100
AcDbAlignedDimension
 13
35.97218652738511
 23
2.772906921068115
 33
0.0
 14
46.99335313692779
 24
2.772906921068115
 34
0.0
100
AcDbRotatedDimension
  0
TEXT
  5
8B7
330
18
100
AcDbEntity
  8
ADPDIM
100
AcDbText
 10
15.78223207931106
 20
-2.164289057947029
 30
0.0
 40
0.5
  1
J U L I U S  B L U M  &  C O . ,  I N C .      ( 8 0 0 )  5 2 6 - 6 2 9 3        W W W . J U L I U S B L U M . C O M        P A R T  N o .  5 7 1
 41
1.25
  7
ARIAL_WIDE
 72
     1
 11
41.52106222937928
 21
-1.664289057947029
 31
0.0
100
AcDbText
 73
     3
  0
ENDSEC
  0
SECTION
  2
OBJECTS
  0
DICTIONARY
  5
C
330
0
100
AcDbDictionary
  3
ACAD_GROUP
350
D
  3
ACAD_LAYOUT
350
8B0
  3
ACAD_MLINESTYLE
350
E
  3
ACAD_PLOTSETTINGS
350
8B1
  3
ACAD_PLOTSTYLENAME
350
8AE
  3
ACDBHEADERROUNDTRIPXREC
350
9FF
  3
ACDBVARIABLEDICTIONARY
350
911
  0
DICTIONARY
  5
90B
330
18
100
AcDbDictionary
280
     1
  3
ACAD_LAYOUTSELFREF
360
A20
  0
DICTIONARY
  5
909
330
15
100
AcDbDictionary
280
     1
  3
ACAD_LAYOUTSELFREF
360
A1F
  0
DICTIONARY
  5
D
102
{ACAD_REACTORS
330
C
102
}
330
C
100
AcDbDictionary
  0
DICTIONARY
  5
8B0
102
{ACAD_REACTORS
330
C
102
}
330
C
100
AcDbDictionary
  0
DICTIONARY
  5
E
102
{ACAD_REACTORS
330
C
102
}
330
C
100
AcDbDictionary
  3
STANDARD
350
1B
  0
DICTIONARY
  5
8B1
102
{ACAD_REACTORS
330
C
102
}
330
C
100
AcDbDictionary
  0
ACDBDICTIONARYWDFLT
  5
8AE
102
{ACAD_REACTORS
330
C
102
}
330
C
100
AcDbDictionary
281
     1
  3
Normal
350
8AF
100
AcDbDictionaryWithDefault
340
8AF
  0
DICTIONARY
  5
9FF
102
{ACAD_REACTORS
330
C
102
}
330
C
100
AcDbDictionary
  3
CEPSNTYPE
350
A09
  3
FINGERPRINTGUID
350
A0A
  3
HYPERLINKBASE
350
A02
  3
INSUNITS
350
A08
  3
LAYOUTDICT
350
A04
  3
LWETCUNION
350
A07
  3
PLOTSETDICT
350
A05
  3
PLOTSTYLNAMDICT
350
A06
  3
PSVPSCALE
350
A0C
  3
PUCSBASE
350
A0F
  3
PUCSORGBACK
350
A15
  3
PUCSORGBOTTOM
350
A11
  3
PUCSORGFRONT
350
A14
  3
PUCSORGLEFT
350
A12
  3
PUCSORGRIGHT
350
A13
  3
PUCSORGTOP
350
A10
  3
PUCSORTHOREF
350
A0D
  3
PUCSORTHOVIEW
350
A0E
  3
STYLESHEET
350
A03
  3
TSTACKALIGN
350
A00
  3
TSTACKSIZE
350
A01
  3
UCSBASE
350
A18
  3
UCSORGBACK
350
A1E
  3
UCSORGBOTTOM
350
A1A
  3
UCSORGFRONT
350
A1D
  3
UCSORGLEFT
350
A1B
  3
UCSORGRIGHT
350
A1C
  3
UCSORGTOP
350
A19
  3
UCSORTHOREF
350
A16
  3
UCSORTHOVIEW
350
A17
  3
VERSIONGUID
350
A0B
  0
DICTIONARY
  5
911
102
{ACAD_REACTORS
330
C
102
}
330
C
100
AcDbDictionary
  3
DIMASSOC
350
912
  0
XRECORD
  5
A20
102
{ACAD_REACTORS
330
90B
102
}
330
90B
100
AcDbXrecord
340
18
  0
XRECORD
  5
A1F
102
{ACAD_REACTORS
330
909
102
}
330
909
100
AcDbXrecord
340
15
  0
MLINESTYLE
  5
1B
102
{ACAD_REACTORS
330
E
102
}
330
E
100
AcDbMlineStyle
  2
STANDARD
 70
     0
  3

 62
     0
 51
90.0
 52
90.0
 71
     2
 49
0.5
 62
   256
  6
BYLAYER
 49
-0.5
 62
   256
  6
BYLAYER
  0
ACDBPLACEHOLDER
  5
8AF
102
{ACAD_REACTORS
330
8AE
102
}
330
8AE
100
AcDbPlaceHolder
280
     0
  0
XRECORD
  5
A09
102
{ACAD_REACTORS
330
9FF
102
}
330
9FF
100
AcDbXrecord
 90
        0
  0
XRECORD
  5
A0A
102
{ACAD_REACTORS
330
9FF
102
}
330
9FF
100
AcDbXrecord
  1
{271DFF24-5EC8-4395-B4AA-9ABF9E5FF31C}
  0
XRECORD
  5
A02
102
{ACAD_REACTORS
330
9FF
102
}
330
9FF
100
AcDbXrecord
  1

  0
XRECORD
  5
A08
102
{ACAD_REACTORS
330
9FF
102
}
330
9FF
100
AcDbXrecord
 90
        0
  0
XRECORD
  5
A04
102
{ACAD_REACTORS
330
9FF
102
}
330
9FF
100
AcDbXrecord
340
8B0
  0
XRECORD
  5
A07
102
{ACAD_REACTORS
330
9FF
102
}
330
9FF
100
AcDbXrecord
 90
    14877
  0
XRECORD
  5
A05
102
{ACAD_REACTORS
330
9FF
102
}
330
9FF
100
AcDbXrecord
340
8B1
  0
XRECORD
  5
A06
102
{ACAD_REACTORS
330
9FF
102
}
330
9FF
100
AcDbXrecord
340
8AE
  0
XRECORD
  5
A0C
102
{ACAD_REACTORS
330
9FF
102
}
330
9FF
100
AcDbXrecord
 40
0.0
  0
XRECORD
  5
A0F
102
{ACAD_REACTORS
330
9FF
102
}
330
9FF
100
AcDbXrecord
340
0
  0
XRECORD
  5
A15
102
{ACAD_REACTORS
330
9FF
102
}
330
9FF
100
AcDbXrecord
 10
0.0
 20
0.0
 30
0.0
  0
XRECORD
  5
A11
102
{ACAD_REACTORS
330
9FF
102
}
330
9FF
100
AcDbXrecord
 10
0.0
 20
0.0
 30
0.0
  0
XRECORD
  5
A14
102
{ACAD_REACTORS
330
9FF
102
}
330
9FF
100
AcDbXrecord
 10
0.0
 20
0.0
 30
0.0
  0
XRECORD
  5
A12
102
{ACAD_REACTORS
330
9FF
102
}
330
9FF
100
AcDbXrecord
 10
0.0
 20
0.0
 30
0.0
  0
XRECORD
  5
A13
102
{ACAD_REACTORS
330
9FF
102
}
330
9FF
100
AcDbXrecord
 10
0.0
 20
0.0
 30
0.0
  0
XRECORD
  5
A10
102
{ACAD_REACTORS
330
9FF
102
}
330
9FF
100
AcDbXrecord
 10
0.0
 20
0.0
 30
0.0
  0
XRECORD
  5
A0D
102
{ACAD_REACTORS
330
9FF
102
}
330
9FF
100
AcDbXrecord
340
0
  0
XRECORD
  5
A0E
102
{ACAD_REACTORS
330
9FF
102
}
330
9FF
100
AcDbXrecord
 70
     0
  0
XRECORD
  5
A03
102
{ACAD_REACTORS
330
9FF
102
}
330
9FF
100
AcDbXrecord
  1

  0
XRECORD
  5
A00
102
{ACAD_REACTORS
330
9FF
102
}
330
9FF
100
AcDbXrecord
 90
        1
  0
XRECORD
  5
A01
102
{ACAD_REACTORS
330
9FF
102
}
330
9FF
100
AcDbXrecord
 90
       70
  0
XRECORD
  5
A18
102
{ACAD_REACTORS
330
9FF
102
}
330
9FF
100
AcDbXrecord
340
0
  0
XRECORD
  5
A1E
102
{ACAD_REACTORS
330
9FF
102
}
330
9FF
100
AcDbXrecord
 10
0.0
 20
0.0
 30
0.0
  0
XRECORD
  5
A1A
102
{ACAD_REACTORS
330
9FF
102
}
330
9FF
100
AcDbXrecord
 10
0.0
 20
0.0
 30
0.0
  0
XRECORD
  5
A1D
102
{ACAD_REACTORS
330
9FF
102
}
330
9FF
100
AcDbXrecord
 10
0.0
 20
0.0
 30
0.0
  0
XRECORD
  5
A1B
102
{ACAD_REACTORS
330
9FF
102
}
330
9FF
100
AcDbXrecord
 10
0.0
 20
0.0
 30
0.0
  0
XRECORD
  5
A1C
102
{ACAD_REACTORS
330
9FF
102
}
330
9FF
100
AcDbXrecord
 10
0.0
 20
0.0
 30
0.0
  0
XRECORD
  5
A19
102
{ACAD_REACTORS
330
9FF
102
}
330
9FF
100
AcDbXrecord
 10
0.0
 20
0.0
 30
0.0
  0
XRECORD
  5
A16
102
{ACAD_REACTORS
330
9FF
102
}
330
9FF
100
AcDbXrecord
340
0
  0
XRECORD
  5
A17
102
{ACAD_REACTORS
330
9FF
102
}
330
9FF
100
AcDbXrecord
 70
     0
  0
XRECORD
  5
A0B
102
{ACAD_REACTORS
330
9FF
102
}
330
9FF
100
AcDbXrecord
  1
{0B530B36-636C-42EB-ACA9-3E0A9B378FDC}
  0
DICTIONARYVAR
  5
912
102
{ACAD_REACTORS
330
911
102
}
330
911
100
DictionaryVariables
280
     0
  1
1
  0
ENDSEC
  0
EOF
