  0
SECTION
  2
HEADER
  9
$ACADVER
  1
AC1014
  9
$ACADMAINTVER
 70
     9
  9
$DWGCODEPAGE
  3
ANSI_1252
  9
$INSBASE
 10
34.5097595458572
 20
-76.58739085478228
 30
0.0
  9
$EXTMIN
 10
18.39765667055451
 20
-79.18585576627599
 30
0.0
  9
$EXTMAX
 10
50.57119435813978
 20
-65.0592355274458
 30
0.0
  9
$LIMMIN
 10
0.0
 20
0.0
  9
$LIMMAX
 10
36.0
 20
36.0
  9
$ORTHOMODE
 70
     1
  9
$REGENMODE
 70
     1
  9
$FILLMODE
 70
     1
  9
$QTEXTMODE
 70
     0
  9
$MIRRTEXT
 70
     1
  9
$DRAGMODE
 70
     0
  9
$LTSCALE
 40
1.0
  9
$OSMODE
 70
    37
  9
$ATTMODE
 70
     1
  9
$TEXTSIZE
 40
0.2
  9
$TRACEWID
 40
0.05
  9
$TEXTSTYLE
  7
STANDARD
  9
$CLAYER
  8
ADPDIM
  9
$CELTYPE
  6
BYLAYER
  9
$CECOLOR
 62
   256
  9
$CELTSCALE
 40
1.0
  9
$DELOBJ
 70
     1
  9
$DISPSILH
 70
     0
  9
$DIMSCALE
 40
1.0
  9
$DIMASZ
 40
0.125
  9
$DIMEXO
 40
0.0625
  9
$DIMDLI
 40
0.38
  9
$DIMRND
 40
0.0
  9
$DIMDLE
 40
0.0
  9
$DIMEXE
 40
0.18
  9
$DIMTP
 40
0.0
  9
$DIMTM
 40
0.0
  9
$DIMTXT
 40
0.125
  9
$DIMCEN
 40
0.1875
  9
$DIMTSZ
 40
0.125
  9
$DIMTOL
 70
     0
  9
$DIMLIM
 70
     0
  9
$DIMTIH
 70
     0
  9
$DIMTOH
 70
     0
  9
$DIMSE1
 70
     0
  9
$DIMSE2
 70
     0
  9
$DIMTAD
 70
     0
  9
$DIMZIN
 70
     3
  9
$DIMBLK
  1

  9
$DIMASO
 70
     1
  9
$DIMSHO
 70
     1
  9
$DIMPOST
  1

  9
$DIMAPOST
  1

  9
$DIMALT
 70
     0
  9
$DIMALTD
 70
     1
  9
$DIMALTF
 40
25.4
  9
$DIMLFAC
 40
1.0
  9
$DIMTOFL
 70
     0
  9
$DIMTVP
 40
0.0
  9
$DIMTIX
 70
     0
  9
$DIMSOXD
 70
     0
  9
$DIMSAH
 70
     0
  9
$DIMBLK1
  1

  9
$DIMBLK2
  1

  9
$DIMSTYLE
  2
STANDARD
  9
$DIMCLRD
 70
     0
  9
$DIMCLRE
 70
     0
  9
$DIMCLRT
 70
     0
  9
$DIMTFAC
 40
1.0
  9
$DIMGAP
 40
0.125
  9
$DIMJUST
 70
     0
  9
$DIMSD1
 70
     0
  9
$DIMSD2
 70
     0
  9
$DIMTOLJ
 70
     1
  9
$DIMTZIN
 70
     0
  9
$DIMALTZ
 70
     0
  9
$DIMALTTZ
 70
     0
  9
$DIMFIT
 70
     3
  9
$DIMUPT
 70
     0
  9
$DIMUNIT
 70
     2
  9
$DIMDEC
 70
     4
  9
$DIMTDEC
 70
     4
  9
$DIMALTU
 70
     2
  9
$DIMALTTD
 70
     2
  9
$DIMTXSTY
  7
STANDARD
  9
$DIMAUNIT
 70
     0
  9
$LUNITS
 70
     5
  9
$LUPREC
 70
     4
  9
$SKETCHINC
 40
0.1
  9
$FILLETRAD
 40
0.062
  9
$AUNITS
 70
     0
  9
$AUPREC
 70
     0
  9
$MENU
  1
acad
  9
$ELEVATION
 40
0.0
  9
$PELEVATION
 40
0.0
  9
$THICKNESS
 40
0.0
  9
$LIMCHECK
 70
     0
  9
$BLIPMODE
 70
     0
  9
$CHAMFERA
 40
0.0
  9
$CHAMFERB
 40
0.0
  9
$CHAMFERC
 40
0.0
  9
$CHAMFERD
 40
0.0
  9
$SKPOLY
 70
     0
  9
$TDCREATE
 40
2450408.691775070
  9
$TDUPDATE
 40
2452297.073189919
  9
$TDINDWG
 40
0.0076625463
  9
$TDUSRTIMER
 40
0.0076625463
  9
$USRTIMER
 70
     1
  9
$ANGBASE
 50
0.0
  9
$ANGDIR
 70
     0
  9
$PDMODE
 70
     0
  9
$PDSIZE
 40
0.0
  9
$PLINEWID
 40
0.0
  9
$COORDS
 70
     2
  9
$SPLFRAME
 70
     0
  9
$SPLINETYPE
 70
     6
  9
$SPLINESEGS
 70
     8
  9
$ATTDIA
 70
     0
  9
$ATTREQ
 70
     1
  9
$HANDLING
 70
 22529
  9
$HANDSEED
  5
646
  9
$SURFTAB1
 70
     6
  9
$SURFTAB2
 70
     6
  9
$SURFTYPE
 70
     6
  9
$SURFU
 70
     6
  9
$SURFV
 70
     6
  9
$UCSNAME
  2

  9
$UCSORG
 10
0.0
 20
0.0
 30
0.0
  9
$UCSXDIR
 10
1.0
 20
0.0
 30
0.0
  9
$UCSYDIR
 10
0.0
 20
1.0
 30
0.0
  9
$PUCSNAME
  2

  9
$PUCSORG
 10
0.0
 20
0.0
 30
0.0
  9
$PUCSXDIR
 10
1.0
 20
0.0
 30
0.0
  9
$PUCSYDIR
 10
0.0
 20
1.0
 30
0.0
  9
$USERI1
 70
     0
  9
$USERI2
 70
     0
  9
$USERI3
 70
     0
  9
$USERI4
 70
     0
  9
$USERI5
 70
     0
  9
$USERR1
 40
0.0
  9
$USERR2
 40
0.0
  9
$USERR3
 40
0.0
  9
$USERR4
 40
0.0
  9
$USERR5
 40
0.0
  9
$WORLDVIEW
 70
     1
  9
$SHADEDGE
 70
     3
  9
$SHADEDIF
 70
    70
  9
$TILEMODE
 70
     1
  9
$MAXACTVP
 70
    15
  9
$PINSBASE
 10
0.0
 20
0.0
 30
0.0
  9
$PLIMCHECK
 70
     0
  9
$PEXTMIN
 10
1.000000000000000E+20
 20
1.000000000000000E+20
 30
1.000000000000000E+20
  9
$PEXTMAX
 10
-1.000000000000000E+20
 20
-1.000000000000000E+20
 30
-1.000000000000000E+20
  9
$PLIMMIN
 10
0.0
 20
0.0
  9
$PLIMMAX
 10
12.0
 20
9.0
  9
$UNITMODE
 70
     0
  9
$VISRETAIN
 70
     0
  9
$PLINEGEN
 70
     0
  9
$PSLTSCALE
 70
     1
  9
$TREEDEPTH
 70
  3020
  9
$PICKSTYLE
 70
     1
  9
$CMLSTYLE
  2
STANDARD
  9
$CMLJUST
 70
     0
  9
$CMLSCALE
 40
1.0
  9
$PROXYGRAPHICS
 70
     1
  9
$MEASUREMENT
 70
     0
  0
ENDSEC
  0
SECTION
  2
CLASSES
  0
CLASS
  1
ACDBDICTIONARYWDFLT
  2
AcDbDictionaryWithDefault
  3
AutoCAD 2000
 90
        0
280
     0
281
     0
  0
CLASS
  1
ACDBPLACEHOLDER
  2
AcDbPlaceHolder
  3
AutoCAD 2000
 90
        0
280
     0
281
     0
  0
CLASS
  1
LAYOUT
  2
AcDbLayout
  3
AutoCAD 2000
 90
        0
280
     0
281
     0
  0
CLASS
  1
DICTIONARYVAR
  2
AcDbDictionaryVar
  3
AutoCAD 2000
 90
        0
280
     0
281
     0
  0
CLASS
  1
LONG_TRANSACTION
  2
AcDbLongTransaction
  3
AutoCAD 2000
 90
        0
280
     0
281
     0
  0
CLASS
  1
LWPOLYLINE
  2
AcDbPolyline
  3
AutoCAD 2000
 90
        0
280
     0
281
     1
  0
CLASS
  1
HATCH
  2
AcDbHatch
  3
AutoCAD 2000
 90
        0
280
     0
281
     1
  0
CLASS
  1
XRECORD
  2
AcDbXrecord
  3
AutoCAD 2000
 90
        0
280
     0
281
     0
  0
CLASS
  1
LONG_TRANSACTION
  2
AcDbLongTransaction
  3
AutoCAD 2000
 90
        0
280
     0
281
     0
  0
CLASS
  1
LWPOLYLINE
  2
AcDbPolyline
  3
AutoCAD 2000
 90
        0
280
     0
281
     1
  0
CLASS
  1
HATCH
  2
AcDbHatch
  3
AutoCAD 2000
 90
        0
280
     0
281
     1
  0
CLASS
  1
XRECORD
  2
AcDbXrecord
  3
AutoCAD 2000
 90
        0
280
     0
281
     0
  0
CLASS
  1
LONG_TRANSACTION
  2
AcDbLongTransaction
  3
AutoCAD 2000
 90
        0
280
     0
281
     0
  0
CLASS
  1
LWPOLYLINE
  2
AcDbPolyline
  3
AutoCAD 2000
 90
        0
280
     0
281
     1
  0
CLASS
  1
HATCH
  2
AcDbHatch
  3
AutoCAD 2000
 90
        0
280
     0
281
     1
  0
CLASS
  1
XRECORD
  2
AcDbXrecord
  3
AutoCAD 2000
 90
        0
280
     0
281
     0
  0
CLASS
  1
LONG_TRANSACTION
  2
AcDbLongTransaction
  3
AutoCAD 2000
 90
        0
280
     0
281
     0
  0
CLASS
  1
LWPOLYLINE
  2
AcDbPolyline
  3
AutoCAD 2000
 90
        0
280
     0
281
     1
  0
CLASS
  1
HATCH
  2
AcDbHatch
  3
AutoCAD 2000
 90
        0
280
     0
281
     1
  0
CLASS
  1
XRECORD
  2
AcDbXrecord
  3
AutoCAD 2000
 90
        0
280
     0
281
     0
  0
CLASS
  1
LONG_TRANSACTION
  2
AcDbLongTransaction
  3
AutoCAD 2000
 90
        0
280
     0
281
     0
  0
CLASS
  1
LWPOLYLINE
  2
AcDbPolyline
  3
AutoCAD 2000
 90
        0
280
     0
281
     1
  0
CLASS
  1
HATCH
  2
AcDbHatch
  3
AutoCAD 2000
 90
        0
280
     0
281
     1
  0
CLASS
  1
XRECORD
  2
AcDbXrecord
  3
AutoCAD 2000
 90
        0
280
     0
281
     0
  0
CLASS
  1
LONG_TRANSACTION
  2
AcDbLongTransaction
  3
AutoCAD 2000
 90
        0
280
     0
281
     0
  0
CLASS
  1
LWPOLYLINE
  2
AcDbPolyline
  3
AutoCAD 2000
 90
        0
280
     0
281
     1
  0
CLASS
  1
HATCH
  2
AcDbHatch
  3
AutoCAD 2000
 90
        0
280
     0
281
     1
  0
CLASS
  1
XRECORD
  2
AcDbXrecord
  3
AutoCAD 2000
 90
        0
280
     0
281
     0
  0
ENDSEC
  0
SECTION
  2
TABLES
  0
TABLE
  2
VPORT
  5
8
330
0
100
AcDbSymbolTable
 70
     2
  0
VPORT
  5
623
330
8
100
AcDbSymbolTableRecord
100
AcDbViewportTableRecord
  2
*ACTIVE
 70
     0
 10
0.0
 20
0.0
 11
1.0
 21
1.0
 12
34.50987472556318
 22
-72.11870831882049
 13
0.0
 23
0.0
 14
0.5740882589684922
 24
0.5740882589684922
 15
0.5
 25
0.5
 16
0.0
 26
0.0
 36
1.0
 17
0.0
 27
0.0
 37
0.0
 40
20.62044608507666
 41
1.570528967254408
 42
50.0
 43
0.0
 44
0.0
 50
0.0
 51
0.0
 71
     0
 72
   100
 73
     1
 74
     0
 75
     0
 76
     0
 77
     0
 78
     0
  0
ENDTAB
  0
TABLE
  2
LTYPE
  5
5
330
0
100
AcDbSymbolTable
 70
     1
  0
LTYPE
  5
12
330
5
100
AcDbSymbolTableRecord
100
AcDbLinetypeTableRecord
  2
BYBLOCK
 70
     0
  3

 72
    65
 73
     0
 40
0.0
  0
LTYPE
  5
13
330
5
100
AcDbSymbolTableRecord
100
AcDbLinetypeTableRecord
  2
BYLAYER
 70
     0
  3

 72
    65
 73
     0
 40
0.0
  0
LTYPE
  5
14
330
5
100
AcDbSymbolTableRecord
100
AcDbLinetypeTableRecord
  2
CONTINUOUS
 70
     0
  3
Solid line
 72
    65
 73
     0
 40
0.0
  0
ENDTAB
  0
TABLE
  2
LAYER
  5
2
330
0
100
AcDbSymbolTable
 70
     3
  0
LAYER
  5
F
330
2
100
AcDbSymbolTableRecord
100
AcDbLayerTableRecord
  2
0
 70
     0
 62
     7
  6
CONTINUOUS
  0
LAYER
  5
C9
330
2
100
AcDbSymbolTableRecord
100
AcDbLayerTableRecord
  2
DEFPOINTS
 70
     0
 62
     7
  6
CONTINUOUS
  0
LAYER
  5
CA
330
2
100
AcDbSymbolTableRecord
100
AcDbLayerTableRecord
  2
ADPDIM
 70
     0
 62
     3
  6
CONTINUOUS
  0
ENDTAB
  0
TABLE
  2
STYLE
  5
3
330
0
100
AcDbSymbolTable
 70
     2
  0
STYLE
  5
10
330
3
100
AcDbSymbolTableRecord
100
AcDbTextStyleTableRecord
  2
STANDARD
 70
     0
 40
0.0
 41
1.0
 50
0.0
 71
     0
 42
0.2
  3
txt
  4

  0
STYLE
  5
4DA
330
3
100
AcDbSymbolTableRecord
100
AcDbTextStyleTableRecord
  2
ARIAL_WIDE
 70
     0
 40
0.0
 41
1.25
 50
0.0
 71
     0
 42
0.2
  3
ARIAL.TTF
  4

1001
ACAD
1000
Arial
1071
       34
  0
ENDTAB
  0
TABLE
  2
VIEW
  5
6
330
0
100
AcDbSymbolTable
 70
     0
  0
ENDTAB
  0
TABLE
  2
UCS
  5
7
330
0
100
AcDbSymbolTable
 70
     0
  0
ENDTAB
  0
TABLE
  2
APPID
  5
9
330
0
100
AcDbSymbolTable
 70
     1
  0
APPID
  5
11
330
9
100
AcDbSymbolTableRecord
100
AcDbRegAppTableRecord
  2
ACAD
 70
     0
  0
ENDTAB
  0
TABLE
  2
DIMSTYLE
  5
A
330
0
100
AcDbSymbolTable
 70
     1
  0
DIMSTYLE
105
4CE
330
A
100
AcDbSymbolTableRecord
100
AcDbDimStyleTableRecord
  2
STANDARD
 70
     0
  3

  4

  5

  6

  7

 40
1.0
 41
0.18
 42
0.0625
 43
0.38
 44
0.18
 45
0.0
 46
0.0
 47
0.0
 48
0.0
140
0.18
141
0.09
142
0.0
143
25.4
144
1.0
145
0.0
146
1.0
147
0.09
 71
     0
 72
     0
 73
     1
 74
     1
 75
     0
 76
     0
 77
     0
 78
     0
170
     0
171
     2
172
     0
173
     0
174
     0
175
     0
176
     0
177
     0
178
     0
270
     2
271
     4
272
     4
273
     2
274
     2
340
10
275
     0
280
     0
281
     0
282
     0
283
     1
284
     0
285
     0
286
     0
287
     3
288
     0
  0
ENDTAB
  0
TABLE
  2
BLOCK_RECORD
  5
1
330
0
100
AcDbSymbolTable
 70
     2
  0
BLOCK_RECORD
  5
18
102
{ACAD_XDICTIONARY
360
52F
102
}
330
1
100
AcDbSymbolTableRecord
100
AcDbBlockTableRecord
  2
*MODEL_SPACE
  0
BLOCK_RECORD
  5
15
102
{ACAD_XDICTIONARY
360
52D
102
}
330
1
100
AcDbSymbolTableRecord
100
AcDbBlockTableRecord
  2
*PAPER_SPACE
  0
BLOCK_RECORD
  5
C1
330
1
100
AcDbSymbolTableRecord
100
AcDbBlockTableRecord
  2
*D0
  0
BLOCK_RECORD
  5
C3
330
1
100
AcDbSymbolTableRecord
100
AcDbBlockTableRecord
  2
*D1
  0
ENDTAB
  0
ENDSEC
  0
SECTION
  2
BLOCKS
  0
BLOCK
  5
CD
330
18
100
AcDbEntity
  8
0
100
AcDbBlockBegin
  2
*MODEL_SPACE
 70
     0
 10
0.0
 20
0.0
 30
0.0
  3
*MODEL_SPACE
  1

  0
ENDBLK
  5
CE
330
18
100
AcDbEntity
  8
0
100
AcDbBlockEnd
  0
BLOCK
  5
CB
330
15
100
AcDbEntity
 67
     1
  8
0
100
AcDbBlockBegin
  2
*PAPER_SPACE
 70
     0
 10
0.0
 20
0.0
 30
0.0
  3
*PAPER_SPACE
  1

  0
ENDBLK
  5
CC
330
15
100
AcDbEntity
 67
     1
  8
0
100
AcDbBlockEnd
  0
BLOCK
  5
D0
330
C1
100
AcDbEntity
  8
0
100
AcDbBlockBegin
  2
*D0
 70
     1
 10
0.0
 20
0.0
 30
0.0
  3
*D0
  1

  0
LINE
  5
D1
330
C1
100
AcDbEntity
  8
0
  6
BYBLOCK
 62
     0
100
AcDbLine
 10
30.2597595458572
 20
-70.45309364432755
 30
0.0
 11
30.2597595458572
 21
-65.0592355274458
 31
0.0
  0
LINE
  5
D2
330
C1
100
AcDbEntity
  8
0
  6
BYBLOCK
 62
     0
100
AcDbLine
 10
38.75975954585721
 20
-70.45309364432755
 30
0.0
 11
38.75975954585721
 21
-65.0592355274458
 31
0.0
  0
LINE
  5
D3
330
C1
100
AcDbEntity
  8
0
  6
BYBLOCK
 62
     0
100
AcDbLine
 10
30.2597595458572
 20
-65.23923552744578
 30
0.0
 11
34.11392621252387
 21
-65.23923552744578
 31
0.0
  0
LINE
  5
D4
330
C1
100
AcDbEntity
  8
0
  6
BYBLOCK
 62
     0
100
AcDbLine
 10
38.75975954585721
 20
-65.23923552744578
 30
0.0
 11
34.90559287919054
 21
-65.23923552744578
 31
0.0
  0
LINE
  5
D5
330
C1
100
AcDbEntity
  8
0
  6
BYBLOCK
 62
     0
100
AcDbLine
 10
30.1347595458572
 20
-65.36423552744579
 30
0.0
 11
30.3847595458572
 21
-65.11423552744578
 31
0.0
  0
LINE
  5
D6
330
C1
100
AcDbEntity
  8
0
  6
BYBLOCK
 62
     0
100
AcDbLine
 10
38.6347595458572
 20
-65.36423552744579
 30
0.0
 11
38.8847595458572
 21
-65.11423552744578
 31
0.0
  0
TEXT
  5
D7
330
C1
100
AcDbEntity
  8
0
  6
BYBLOCK
 62
     0
100
AcDbText
 10
34.23892621252387
 20
-65.30173552744578
 30
0.0
 40
0.125
  1
8 1/2
 72
     1
 11
34.5097595458572
 21
-65.23923552744578
 31
0.0
100
AcDbText
 73
     2
  0
POINT
  5
D8
330
C1
100
AcDbEntity
  8
DEFPOINTS
  6
BYBLOCK
 62
     0
100
AcDbPoint
 10
30.2597595458572
 20
-70.51559364432755
 30
0.0
  0
POINT
  5
D9
330
C1
100
AcDbEntity
  8
DEFPOINTS
  6
BYBLOCK
 62
     0
100
AcDbPoint
 10
38.75975954585721
 20
-70.51559364432755
 30
0.0
  0
POINT
  5
DA
330
C1
100
AcDbEntity
  8
DEFPOINTS
  6
BYBLOCK
 62
     0
100
AcDbPoint
 10
38.75975954585721
 20
-65.23923552744578
 30
0.0
  0
ENDBLK
  5
DB
330
C1
100
AcDbEntity
  8
0
100
AcDbBlockEnd
  0
BLOCK
  5
DC
330
C3
100
AcDbEntity
  8
0
100
AcDbBlockBegin
  2
*D1
 70
     1
 10
0.0
 20
0.0
 30
0.0
  3
*D1
  1

  0
LINE
  5
DD
330
C3
100
AcDbEntity
  8
0
  6
BYBLOCK
 62
     0
100
AcDbLine
 10
36.71033099389536
 20
-77.97611876608719
 30
0.0
 11
39.77351006469784
 21
-77.97611876608719
 31
0.0
  0
LINE
  5
DE
330
C3
100
AcDbEntity
  8
0
  6
BYBLOCK
 62
     0
100
AcDbLine
 10
36.36666842933051
 20
-65.47611876608719
 30
0.0
 11
39.77351006469784
 21
-65.47611876608719
 31
0.0
  0
LINE
  5
DF
330
C3
100
AcDbEntity
  8
0
  6
BYBLOCK
 62
     0
100
AcDbLine
 10
39.59351006469784
 20
-77.97611876608719
 30
0.0
 11
39.59351006469784
 21
-72.16361876608719
 31
0.0
  0
LINE
  5
E0
330
C3
100
AcDbEntity
  8
0
  6
BYBLOCK
 62
     0
100
AcDbLine
 10
39.59351006469784
 20
-65.47611876608719
 30
0.0
 11
39.59351006469784
 21
-71.2886187660872
 31
0.0
  0
LINE
  5
E1
330
C3
100
AcDbEntity
  8
0
  6
BYBLOCK
 62
     0
100
AcDbLine
 10
39.71851006469784
 20
-78.10111876608719
 30
0.0
 11
39.46851006469784
 21
-77.8511187660872
 31
0.0
  0
LINE
  5
E2
330
C3
100
AcDbEntity
  8
0
  6
BYBLOCK
 62
     0
100
AcDbLine
 10
39.71851006469784
 20
-65.60111876608719
 30
0.0
 11
39.46851006469784
 21
-65.3511187660872
 31
0.0
  0
TEXT
  5
E3
330
C3
100
AcDbEntity
  8
0
  6
BYBLOCK
 62
     0
100
AcDbText
 10
39.65601006469784
 20
-72.03861876608719
 30
0.0
 40
0.125
  1
12 1/2
 50
90.0
 72
     1
 11
39.59351006469784
 21
-71.72611876608719
 31
0.0
100
AcDbText
 73
     2
  0
POINT
  5
E4
330
C3
100
AcDbEntity
  8
DEFPOINTS
  6
BYBLOCK
 62
     0
100
AcDbPoint
 10
36.64783099389536
 20
-77.97611876608719
 30
0.0
  0
POINT
  5
E5
330
C3
100
AcDbEntity
  8
DEFPOINTS
  6
BYBLOCK
 62
     0
100
AcDbPoint
 10
36.30416842933051
 20
-65.47611876608719
 30
0.0
  0
POINT
  5
E6
330
C3
100
AcDbEntity
  8
DEFPOINTS
  6
BYBLOCK
 62
     0
100
AcDbPoint
 10
39.59351006469784
 20
-65.47611876608719
 30
0.0
  0
ENDBLK
  5
E7
330
C3
100
AcDbEntity
  8
0
100
AcDbBlockEnd
  0
ENDSEC
  0
SECTION
  2
ENTITIES
  0
LWPOLYLINE
  5
E8
330
18
100
AcDbEntity
  8
0
100
AcDbPolyline
 90
        2
 70
     0
 43
0.0
 10
31.3464186047573
 20
-68.0359756045905
 42
0.2141213607839187
 10
31.32314160434722
 20
-68.50130533771232
 42
0.6833332678815176
  0
ARC
  5
EC
330
18
100
AcDbEntity
  8
0
100
AcDbCircle
 10
31.24992773948603
 20
-70.86038039424441
 30
0.0
 40
0.4193481684914943
100
AcDbArc
 50
227.4271248849164
 51
286.595014809529
  0
LWPOLYLINE
  5
ED
330
18
100
AcDbEntity
  8
0
100
AcDbPolyline
 90
        8
 70
     0
 43
0.0
 10
32.21542750192262
 20
-70.19975880860918
 42
0.2785501239600217
 10
31.96713927195746
 20
-70.08342635417571
 42
-0.1015338646243557
 10
31.64901991771241
 20
-70.05240437760839
 42
-0.1391807064715752
 10
31.49383975091236
 20
-69.95158295376461
 42
0.7072246780766439
 10
31.33865958411233
 20
-70.20751430275101
 42
-0.1249713889328039
 10
31.46280372985732
 20
-70.26955825588565
 42
0.0914678894398301
 10
31.57142983431239
 20
-70.77366545971663
 42
0.2313503476088783
 10
31.76540504281244
 20
-70.94428633083689
 42
0.1341609253536637
  0
LWPOLYLINE
  5
F7
330
18
100
AcDbEntity
  8
0
100
AcDbPolyline
 90
        3
 70
     0
 43
0.0
 10
31.12916639584717
 20
-70.40140165629677
 42
0.1803441126754391
 10
31.27658754200224
 20
-70.88224237770226
 42
0.3550955134532556
 10
32.13007839787763
 20
-70.70386597013414
 42
-0.4759490048122272
  0
LWPOLYLINE
  5
FC
330
18
100
AcDbEntity
  8
0
100
AcDbPolyline
 90
        3
 70
     0
 43
0.0
 10
31.07485331285722
 20
-68.43150589043585
 42
-0.1689740745477557
 10
31.3696956666922
 20
-68.01270912216502
 42
0.1713357992738369
 10
31.6102248760124
 20
-67.47757998407272
 42
-0.9202225479734471
  0
LWPOLYLINE
  5
101
330
18
100
AcDbEntity
  8
0
100
AcDbPolyline
 90
        8
 70
     0
 43
0.0
 10
32.49394364192139
 20
-69.32485944975505
 42
0.2197582471620745
 10
32.00593431365748
 20
-69.17603341266357
 42
0.2734336849053915
 10
31.35417762540226
 20
-69.51727519721011
 42
0.3089193449315833
 10
30.9817452496921
 20
-69.99036042447376
 42
0.4552629841811998
 10
30.83432410353703
 20
-70.61080004043218
 42
0.3080545522975889
 10
30.96622720840216
 20
-71.1769511973978
 42
0.7515553411361699
 10
31.4860807302674
 20
-71.33206108023441
 42
-0.1326379626197644
 10
32.28525856467767
 20
-71.10715175012133
 42
-0.0052970222021466
  0
ARC
  5
10B
330
18
100
AcDbEntity
  8
0
100
AcDbCircle
 10
31.4585930155307
 20
-72.63328899730367
 30
0.0
 40
0.2702857337834048
100
AcDbArc
 50
108.0449906424028
 51
173.3507513462215
  0
LWPOLYLINE
  5
10C
330
18
100
AcDbEntity
  8
0
100
AcDbPolyline
 90
        3
 70
     0
 43
0.0
 10
31.28591796859029
 20
-73.57316362354135
 42
-0.1902614640500833
 10
31.20380999312606
 20
-72.40365457617587
 42
0.234150780009044
 10
31.38171066815673
 20
-73.36798661698522
 42
0.5006610590941079
  0
ARC
  5
111
330
18
100
AcDbEntity
  8
0
100
AcDbCircle
 10
32.08156208392807
 20
-73.21887486295934
 30
0.0
 40
0.9552608955010907
100
AcDbArc
 50
135.3277634359766
 51
158.9371393613151
  0
ARC
  5
112
330
18
100
AcDbEntity
  8
0
100
AcDbCircle
 10
-12.49981197214113
 20
-42.51911566360902
 30
0.0
 40
53.36299729529645
100
AcDbArc
 50
325.0604485043709
 51
325.5249475533251
  0
LWPOLYLINE
  5
113
330
18
100
AcDbEntity
  8
0
100
AcDbPolyline
 90
        8
 70
     0
 43
0.0
 10
31.08749039198082
 20
-74.50193158839626
 10
31.32697201784724
 20
-74.26939761660825
 42
0.3832355415111731
 10
31.36802600557936
 20
-73.96163210677407
 42
0.3097342255946864
 10
31.24486398085817
 20
-73.91375744934778
 42
-0.1122551116178242
 10
31.21065235517717
 20
-74.23520146295089
 42
-0.3114510611645
 10
31.02590937962023
 20
-74.37198616219231
 42
0.476179774426506
 10
30.97801309136185
 20
-74.66607321056355
 42
0.720862443789843
 10
31.08064802992972
 20
-74.50877081912771
 42
-2.07088788861111
  0
LWPOLYLINE
  5
11D
330
18
100
AcDbEntity
  8
0
100
AcDbPolyline
 90
        4
 70
     0
 43
0.0
 10
34.23496303087564
 20
-76.5878980191448
 42
-0.4955154202361575
 10
31.95646649640634
 20
-77.86683484282581
 42
-0.3182526476386269
 10
30.69747747776331
 20
-75.99972388009632
 42
-0.0979118087300373
 10
30.96432842878447
 20
-74.65239474910061
 42
-0.6696035687441499
  0
LWPOLYLINE
  5
123
330
18
100
AcDbEntity
  8
0
100
AcDbPolyline
 90
       10
 70
     0
 43
0.0
 10
33.94074275469973
 20
-76.5878980191448
 42
-0.378828630724914
 10
32.62701502422238
 20
-77.64797933250076
 42
-0.3834202348237016
 10
31.12854437971294
 20
-76.57421955768185
 42
-0.253913756567901
 10
31.55961128166256
 20
-74.34462919696042
 42
-0.2039640536331526
 10
32.70228069916035
 20
-73.74961586948649
 42
-0.1926634622386057
 10
32.72965002431509
 20
-73.94111441457965
 42
0.3649263445904696
 10
32.27805609773699
 20
-74.28991535110866
 42
0.3563586866967827
 10
32.46279907329393
 20
-74.65239474910061
 42
-0.126821334684421
 10
32.91439299987203
 20
-75.00803495866708
 42
-0.0627117195698241
 10
33.16755928831582
 20
-74.54980624582255
 42
-0.5084596692082381
  0
LWPOLYLINE
  5
12F
330
18
100
AcDbEntity
  8
0
100
AcDbPolyline
 90
       11
 70
     0
 43
0.0
 10
33.08545125132675
 20
-72.54043927541727
 42
0.0129232581753975
 10
31.54592661908519
 20
-73.86041148348711
 42
0.2772677289382011
 10
31.38171066815673
 20
-73.36798661698522
 42
0.2410218677139615
 10
31.70330026948738
 20
-73.29959426736451
 42
0.2667266209510819
 10
31.61434993197205
 20
-72.77981243563075
 42
-0.2968039052644494
 10
31.41592229383774
 20
-72.41049380690734
 42
-0.0567928825216599
 10
31.4911879687757
 20
-72.03433590514645
 42
0.1722650445847117
 10
30.80011241633118
 20
-72.5814746598061
 42
0.3641546701376944
 10
30.91643207900126
 20
-73.41586123210551
 42
0.2648622576225485
 10
31.19696769259979
 20
-73.47741435099475
 42
-0.3222605215724902
 10
31.34065668042461
 20
-73.9561607560337
 42
1.402408411248529
  0
LWPOLYLINE
  5
13C
330
18
100
AcDbEntity
  8
0
100
AcDbPolyline
 90
       14
 70
     0
 43
0.0
 10
32.37836668936763
 20
-68.58661577327247
 42
0.1508074051219662
 10
31.47832177114727
 20
-68.70294822770592
 42
-0.4600714900450516
 10
31.2610695007123
 20
-68.60212676155612
 42
-0.4188176834173491
 10
31.32314160434722
 20
-68.4935498435705
 42
0.4409661843562844
 10
31.74212804240237
 20
-68.41599490215219
 42
0.2650450031881228
 10
31.76540504281244
 20
-67.81882176861926
 42
-0.0589998499923181
 10
31.63350187642247
 20
-67.4698244899309
 42
0.3875816431281633
 10
31.6102248760124
 20
-67.45431345934123
 42
-0.4201454758497126
 10
31.4705627505023
 20
-67.60942338448384
 42
-0.0226435812821195
 10
31.08261233350219
 20
-67.75677777317861
 42
0.7151024463013771
 10
31.07485331285722
 20
-68.43150589043585
 42
0.1652343906344194
 10
31.20675647924719
 20
-68.81152514569155
 42
0.5095777607456519
 10
31.05933533309212
 20
-72.25496505233621
 42
0.0038503397261111
 10
31.07515105072264
 20
-72.26732408440489
 42
0.1316789741820084
  0
LWPOLYLINE
  5
14C
330
18
100
AcDbEntity
  8
0
100
AcDbPolyline
 90
        3
 70
     0
 43
0.0
 10
32.40164368977771
 20
-68.87356909882618
 42
0.4310974757594512
 10
30.48516872823693
 20
-70.45569015759558
 42
0.3323411161722714
 10
31.35320530327539
 20
-72.09025554155857
 42
0.1969639042135385
  0
DIMENSION
  5
151
330
18
100
AcDbEntity
  8
ADPDIM
100
AcDbDimension
  2
*D0
 10
38.75975954585721
 20
-65.23923552744578
 30
0.0
 11
34.5097595458572
 21
-65.23923552744578
 31
0.0
100
AcDbAlignedDimension
 13
30.2597595458572
 23
-70.51559364432755
 33
0.0
 14
38.75975954585721
 24
-70.51559364432755
 34
0.0
100
AcDbRotatedDimension
  0
ARC
  5
152
330
18
100
AcDbEntity
  8
0
100
AcDbCircle
 10
30.28205455154369
 20
-73.98666812934448
 30
0.0
 40
1.210201043772135
100
AcDbArc
 50
45.61613159178422
 51
63.57425972877738
  0
ARC
  5
153
330
18
100
AcDbEntity
  8
0
100
AcDbCircle
 10
30.73808514728385
 20
-73.89364006897377
 30
0.0
 40
0.7368939623018655
100
AcDbArc
 50
52.83196740162479
 51
79.26230569443017
  0
ARC
  5
154
330
18
100
AcDbEntity
  8
0
100
AcDbCircle
 10
30.42522768603614
 20
-72.6501937690938
 30
0.0
 40
0.6566924924842819
100
AcDbArc
 50
9.016424282672668
 51
26.63648200445338
  0
ARC
  5
155
330
18
100
AcDbEntity
  8
0
100
AcDbCircle
 10
31.34922384484244
 20
-72.38795301113099
 30
0.0
 40
0.4719023394267034
100
AcDbArc
 50
192.807763546861
 51
233.2636821852701
  0
ARC
  5
156
330
18
100
AcDbEntity
  8
0
100
AcDbCircle
 10
30.18165069190172
 20
-68.32508983665481
 30
0.0
 40
0.9569411321011546
100
AcDbArc
 50
3.381805837399189
 51
21.02986742692787
  0
ARC
  5
157
330
18
100
AcDbEntity
  8
0
100
AcDbCircle
 10
28.8424111262025
 20
-68.24537881914778
 30
0.0
 40
2.440703725200849
100
AcDbArc
 50
4.191254507234767
 51
10.06516081131155
  0
LWPOLYLINE
  5
158
330
18
100
AcDbEntity
  8
0
100
AcDbPolyline
 90
        4
 70
     0
 43
0.0
 10
34.77667643434468
 20
-76.5878980191448
 42
0.4955154202361575
 10
37.05517296881399
 20
-77.86683484282581
 42
0.3182526476386269
 10
38.31416198745701
 20
-75.99972388009632
 42
0.0979118087300373
 10
38.04731103643584
 20
-74.65239474910061
 42
0.6696035687441499
  0
LWPOLYLINE
  5
15E
330
18
100
AcDbEntity
  8
0
100
AcDbPolyline
 90
       10
 70
     0
 43
0.0
 10
35.07089671052059
 20
-76.5878980191448
 42
0.378828630724914
 10
36.38462444099794
 20
-77.64797933250076
 42
0.3834202348237016
 10
37.88309508550739
 20
-76.57421955768185
 42
0.253913756567901
 10
37.45202818355776
 20
-74.34462919696042
 42
0.2039640536331526
 10
36.30935876605998
 20
-73.74961586948649
 42
0.1926634622386057
 10
36.28198944090523
 20
-73.94111441457965
 42
-0.3649263445904696
 10
36.73358336748334
 20
-74.28991535110866
 42
-0.3563586866967827
 10
36.5488403919264
 20
-74.65239474910061
 42
0.126821334684421
 10
36.0972464653483
 20
-75.00803495866708
 42
0.0627117195698241
 10
35.8440801769045
 20
-74.54980624582255
 42
0.5084596692082381
  0
DIMENSION
  5
16A
330
18
100
AcDbEntity
  8
ADPDIM
100
AcDbDimension
  2
*D1
 10
39.59351006469784
 20
-65.47611876608719
 30
0.0
 11
39.59351006469784
 21
-71.72611876608719
 31
0.0
100
AcDbAlignedDimension
 13
36.64783099389536
 23
-77.97611876608719
 33
0.0
 14
36.30416842933051
 24
-65.47611876608719
 34
0.0
 50
90.0
100
AcDbRotatedDimension
  0
LWPOLYLINE
  5
16B
330
18
100
AcDbEntity
  8
0
100
AcDbPolyline
 90
       14
 70
     0
 43
0.0
 10
36.63327277585269
 20
-68.58661577327247
 42
-0.1508074051219662
 10
37.53331769407306
 20
-68.70294822770592
 42
0.4600714900450516
 10
37.75056996450802
 20
-68.60212676155612
 42
0.4188176834173491
 10
37.6884978608731
 20
-68.4935498435705
 42
-0.4409661843562844
 10
37.26951142281795
 20
-68.41599490215219
 42
-0.2650450031881228
 10
37.24623442240789
 20
-67.81882176861926
 42
0.0589998499923181
 10
37.37813758879785
 20
-67.4698244899309
 42
-0.3875816431281633
 10
37.40141458920793
 20
-67.45431345934123
 42
0.4201454758497126
 10
37.54107671471803
 20
-67.60942338448384
 42
0.0226435812821195
 10
37.92902713171813
 20
-67.75677777317861
 42
-0.7151024463013771
 10
37.9367861523631
 20
-68.43150589043585
 42
-0.1652343906344194
 10
37.80488298597314
 20
-68.81152514569155
 42
-0.5095777607456519
 10
37.9523041321282
 20
-72.25496505233621
 42
-0.0038503397261113
 10
37.93648841449768
 20
-72.26732408440489
 42
-0.131678974182008
  0
LWPOLYLINE
  5
17B
330
18
100
AcDbEntity
  8
0
100
AcDbPolyline
 90
        3
 70
     0
 43
0.0
 10
36.60999577544262
 20
-68.87356909882618
 42
-0.4310974757594512
 10
38.52647073698339
 20
-70.45569015759558
 42
-0.3323411161722716
 10
37.65843416194493
 20
-72.09025554155857
 42
-0.1969639042135392
  0
LWPOLYLINE
  5
180
330
18
100
AcDbEntity
  8
0
100
AcDbPolyline
 90
        2
 70
     0
 43
0.0
 10
37.66522086046303
 20
-68.0359756045905
 42
-0.2141213607839187
 10
37.6884978608731
 20
-68.50130533771232
 42
-0.6833332678815176
  0
LWPOLYLINE
  5
184
330
18
100
AcDbEntity
  8
0
100
AcDbPolyline
 90
        2
 70
     0
 43
0.0
 10
36.63115207613647
 20
-68.5747884955775
 42
0.1062063498687415
 10
37.19053552493368
 20
-67.97599167632168
 42
0.2484354962630672
  0
LWPOLYLINE
  5
188
330
18
100
AcDbEntity
  8
0
100
AcDbPolyline
 90
        3
 70
     0
 43
0.0
 10
37.9367861523631
 20
-68.43150589043585
 42
0.1689740745477557
 10
37.64194379852812
 20
-68.01270912216502
 42
-0.1713357992738369
 10
37.40141458920793
 20
-67.47757998407272
 42
0.9202225479734471
  0
LWPOLYLINE
  5
18D
330
18
100
AcDbEntity
  8
0
100
AcDbPolyline
 90
        7
 70
     0
 43
0.0
 10
32.87157300312734
 20
-68.19167569847329
 42
0.0554100766295565
 10
32.8536064577727
 20
-68.51492710913141
 42
-0.0946482779070306
 10
32.68591872163764
 20
-69.10156858630758
 42
-0.1182094569683206
 10
32.48828666121172
 20
-69.33502791729655
 42
0.2313031923806099
 10
32.919483811248
 20
-68.86810921301258
 42
0.1121214223702955
 10
32.94343918454591
 20
-68.51492710913141
 42
-0.1211254906107858
 10
33.05123845667377
 20
-68.25752321510279
 42
-0.5036440139583789
  0
LWPOLYLINE
  5
196
330
18
100
AcDbEntity
  8
0
100
AcDbPolyline
 90
       15
 70
     0
 43
0.0
 10
34.2370305116051
 20
-70.52028313201571
 42
0.139941291560938
 10
33.94357689646269
 20
-69.49066751359521
 42
-0.128527151130715
 10
33.76391144291626
 20
-68.91001216660246
 42
-0.1908590369343923
 10
33.87769960451223
 20
-68.58077462576092
 42
0.3149485209309448
 10
33.91962152316478
 20
-68.16174500525024
 42
0.7144002335891246
 10
32.87157300312734
 20
-68.18568952598387
 42
0.2107474558598759
 10
32.44636474255916
 20
-68.35330138264935
 42
0.196586187742014
 10
32.44037591461589
 20
-68.99980424627161
 42
-0.1656218957128371
 10
32.47630900532518
 20
-69.43080612714911
 42
-0.0531836464485691
 10
32.93745035660265
 20
-69.26918040066706
 42
0.6956053764780826
 10
33.06321617408515
 20
-68.26350934528619
 42
-0.4386500965317106
 10
33.34469207181618
 20
-68.03004997199121
 42
-0.1936195167655641
 10
33.65012334284513
 20
-68.2036479588401
 42
-0.1896241743295055
 10
33.4944132625966
 20
-69.01177650663843
 42
-0.1138760200739595
 10
33.33870318234807
 20
-68.89205377605224
 42
-2.117940842132481
  0
LWPOLYLINE
  5
1A7
330
18
100
AcDbEntity
  8
0
100
AcDbPolyline
 90
        4
 70
     0
 43
0.0
 10
33.42853590912129
 20
-66.21625032650604
 42
0.3744167676818281
 10
33.01530536596449
 20
-65.79722070599536
 42
0.333980103992741
 10
32.051100744757
 20
-66.29407014580836
 42
0.3886026951225279
 10
32.51823092397774
 20
-68.28745390832584
 42
0.3089661007186255
  0
LWPOLYLINE
  5
1AD
330
18
100
AcDbEntity
  8
0
100
AcDbPolyline
 90
        2
 70
     0
 43
0.0
 10
32.38048738908385
 20
-68.5747884955775
 42
-0.1062063498687414
 10
31.82110394028664
 20
-67.97599167632168
 42
-0.2484354962630672
  0
LWPOLYLINE
  5
1B1
330
18
100
AcDbEntity
  8
0
100
AcDbPolyline
 90
       15
 70
     0
 43
0.0
 10
34.77460895361522
 20
-70.52028313201571
 42
-0.139941291560938
 10
35.06806256875763
 20
-69.49066751359521
 42
0.128527151130715
 10
35.24772802230407
 20
-68.91001216660246
 42
0.1908590369343923
 10
35.13393986070809
 20
-68.58077462576092
 42
-0.3149485209309448
 10
35.09201794205555
 20
-68.16174500525024
 42
-0.7144002335891246
 10
36.14006646209299
 20
-68.18568952598387
 42
-0.2107474558598759
 10
36.56527472266116
 20
-68.35330138264935
 42
-0.196586187742014
 10
36.57126355060443
 20
-68.99980424627161
 42
0.1656218957128371
 10
36.53533045989515
 20
-69.43080612714911
 42
0.0531836464485691
 10
36.07418910861768
 20
-69.26918040066706
 42
-0.6956053764780826
 10
35.94842329113517
 20
-68.26350934528619
 42
0.4386500965317106
 10
35.66694739340414
 20
-68.03004997199121
 42
0.1936195167655641
 10
35.3615161223752
 20
-68.2036479588401
 42
0.1896241743295055
 10
35.51722620262372
 20
-69.01177650663843
 42
0.1138760200739595
 10
35.67293628287225
 20
-68.89205377605224
 42
2.117940842132481
  0
LWPOLYLINE
  5
1C2
330
18
100
AcDbEntity
  8
0
100
AcDbPolyline
 90
        4
 70
     0
 43
0.0
 10
35.58310355609903
 20
-66.21625032650604
 42
-0.3744167676818281
 10
35.99633409925583
 20
-65.79722070599536
 42
-0.333980103992741
 10
36.96053872046332
 20
-66.29407014580836
 42
-0.3886026951225279
 10
36.49340854124259
 20
-68.28745390832584
 42
-0.3089661007186255
  0
LWPOLYLINE
  5
1C8
330
18
100
AcDbEntity
  8
0
100
AcDbPolyline
 90
        7
 70
     0
 43
0.0
 10
36.14006646209299
 20
-68.19167569847329
 42
-0.0554100766295565
 10
36.15803300744762
 20
-68.51492710913141
 42
0.0946482779070306
 10
36.32572074358269
 20
-69.10156858630758
 42
0.1182094569683206
 10
36.52335280400861
 20
-69.33502791729655
 42
-0.2313031923806099
 10
36.09215565397232
 20
-68.86810921301258
 42
-0.1121214223702955
 10
36.06820028067441
 20
-68.51492710913141
 42
0.1211254906107858
 10
35.96040100854654
 20
-68.25752321510279
 42
0.5036440139583789
  0
LINE
  5
1D1
330
18
100
AcDbEntity
  8
0
100
AcDbLine
 10
33.77573159521193
 20
-71.13449230062409
 30
0.0
 11
35.24378749650248
 21
-71.13449230062409
 31
0.0
  0
LINE
  5
1D2
330
18
100
AcDbEntity
  8
0
100
AcDbLine
 10
35.24378749650248
 20
-70.51855027813776
 30
0.0
 11
33.77573159521193
 21
-70.51855027813776
 31
0.0
  0
LINE
  5
1D3
330
18
100
AcDbEntity
  8
0
100
AcDbLine
 10
33.77573159521193
 20
-76.58739085478228
 30
0.0
 11
35.24378749650248
 21
-76.58739085478228
 31
0.0
  0
LINE
  5
1D4
330
18
100
AcDbEntity
  8
0
100
AcDbLine
 10
35.24378749650248
 20
-75.97144883229596
 30
0.0
 11
33.77573159521193
 21
-75.97144883229596
 31
0.0
  0
LWPOLYLINE
  5
1D5
330
18
100
AcDbEntity
  8
0
100
AcDbPolyline
 90
        3
 70
     0
 43
0.0
 10
35.37772657017345
 20
-74.89464761334417
 42
0.087089463452601
 10
35.05721204794322
 20
-75.07642726598179
 42
0.1413344828851912
 10
34.77667643434468
 20
-75.9792061879019
 42
-0.979729101505157
  0
ARC
  5
1DA
330
18
100
AcDbEntity
  8
0
100
AcDbCircle
 10
36.88889668123247
 20
-70.89631401756581
 30
0.0
 40
2.138880772012586
100
AcDbArc
 50
186.3144025425142
 51
226.1140560165463
  0
LWPOLYLINE
  5
1DB
330
18
100
AcDbEntity
  8
0
100
AcDbPolyline
 90
        3
 70
     0
 43
0.0
 10
36.1930391033899
 20
-75.82874302719756
 42
0.3641568307133065
 10
36.0014538273067
 20
-75.24056888814908
 42
0.569762289177294
 10
35.03668502331474
 20
-75.97236695717045
 42
-1.120933423391582
  0
LINE
  5
1E0
330
18
100
AcDbEntity
  8
0
100
AcDbLine
 10
33.2154555765742
 20
-73.13545264519722
 30
0.0
 11
32.94860462555304
 21
-72.82084786232558
 31
0.0
  0
LWPOLYLINE
  5
1E1
330
18
100
AcDbEntity
  8
0
100
AcDbPolyline
 90
        4
 70
     0
 43
0.0
 10
32.90755063782091
 20
-73.05338183411357
 42
0.2990926692557095
 10
33.11966293853259
 20
-73.28591580590158
 42
0.3483858236652412
 10
33.3112482146158
 20
-72.30790530362927
 42
-0.3329251508646431
 10
33.16755928831582
 20
-73.40902200137406
 42
0.2930386056269485
  0
LINE
  5
1E7
330
18
100
AcDbEntity
  8
0
100
AcDbLine
 10
33.31809057666691
 20
-72.9781502537614
 30
0.0
 11
33.11282063800633
 21
-72.67722393235269
 31
0.0
  0
LWPOLYLINE
  5
1E8
330
18
100
AcDbEntity
  8
0
100
AcDbPolyline
 90
       23
 70
     0
 43
0.0
 10
32.92123530039829
 20
-73.92059672238525
 10
32.89386597524355
 20
-73.74961586948649
 42
-0.2165231641098013
 10
33.29756355203843
 20
-73.86588283422749
 42
0.1944597316860491
 10
33.08545125132675
 20
-74.03686368712626
 42
0.2939199522055959
 10
33.18808625141945
 20
-74.55664547655402
 42
0.0318512259660787
 10
33.42756787728588
 20
-74.77550098687908
 42
-0.2245220208265735
 10
33.54388753995596
 20
-75.01487418939856
 42
-0.0597887423522772
 10
33.8586347792355
 20
-74.65923402213808
 42
0.1980583121435498
 10
34.00232376706032
 20
-73.98898902969995
 42
0.4740458709488954
 10
33.6670495031523
 20
-73.70174121206019
 42
0.0545501286837197
 10
33.43441017781215
 20
-73.77013356168089
 42
0.1515856665768773
 10
33.22914023915157
 20
-73.62650963170802
 42
-0.1267140867490811
 10
33.04439726359464
 20
-73.51024266696701
 42
-0.0384017876262692
 10
33.18124395089319
 20
-73.39397565992001
 42
0.6848877128466066
 10
33.83126545408076
 20
-72.90975790414069
 42
0.2331230692760563
 10
33.14703226368734
 20
-72.07537133184127
 42
-0.1785289007118949
 10
33.09913597542896
 20
-72.5336000023798
 42
0.0420321548530075
 10
32.81175799977932
 20
-72.92343636560364
 42
0.296712109303081
 10
32.81860036183042
 20
-73.19016649104899
 42
0.1041173285525105
 10
32.9622892881304
 20
-73.3269511902904
 42
0.1041486797571395
 10
32.88018131266618
 20
-73.47741435099475
 42
0.0346219475441253
 10
32.44911441071655
 20
-73.51161050465211
 42
-0.017565482125947
 10
32.81175799977932
 20
-73.19016649104899
 42
-0.3594390976545042
  0
ARC
  5
201
330
18
100
AcDbEntity
  8
0
100
AcDbCircle
 10
31.94880545746261
 20
-73.32188051537045
 30
0.0
 40
0.5551991674049299
100
AcDbArc
 50
125.2930192549526
 51
169.88381826716
  0
LWPOLYLINE
  5
202
330
18
100
AcDbEntity
  8
0
100
AcDbPolyline
 90
        4
 70
     0
 43
0.0
 10
32.72965002431509
 20
-73.94795364531113
 42
0.1516365838170306
 10
32.90755063782091
 20
-74.99435649720414
 42
-0.2106939118876021
 10
32.92807766244939
 20
-73.91375749165378
 42
-0.0217207391939116
 10
33.10597827595523
 20
-73.96847133750554
 42
0.172586680012437
  0
LWPOLYLINE
  5
208
330
18
100
AcDbEntity
  8
0
100
AcDbPolyline
 90
        2
 70
     0
 43
0.0
 10
32.97177090469442
 20
-74.87729880819654
 42
-0.1256025559826777
 10
33.49848895383874
 20
-74.85627830206476
 42
-0.1413344828851912
  0
LWPOLYLINE
  5
20C
330
18
100
AcDbEntity
  8
0
100
AcDbPolyline
 90
        3
 70
     0
 43
0.0
 10
32.81860036183042
 20
-75.82874302719756
 42
-0.3641568307133065
 10
33.01018563791362
 20
-75.24056888814908
 42
-0.569762289177294
 10
33.97495444190558
 20
-75.97236695717045
 42
1.120933423391582
  0
LWPOLYLINE
  5
211
330
18
100
AcDbEntity
  8
0
100
AcDbPolyline
 90
        5
 70
     0
 43
0.0
 10
32.82544266235669
 20
-75.82874302719756
 42
0.1338595892437025
 10
32.97597395070778
 20
-75.80822533500314
 42
0.1052228596597649
 10
33.05808192617201
 20
-75.3773535873905
 42
-0.1559463667848991
 10
33.32493287719318
 20
-75.29528277630685
 42
0.0434024280094386
 10
33.24282490172894
 20
-75.18585499999132
 42
-2.238293013188938
  0
LWPOLYLINE
  5
218
330
18
100
AcDbEntity
  8
0
100
AcDbPolyline
 90
       13
 70
     0
 43
0.0
 10
32.82544266235669
 20
-75.82190379646609
 42
-0.2638948344163872
 10
32.59964569906764
 20
-75.78086841207727
 42
-0.0031418822532795
 10
32.12068250885963
 20
-75.50729901359443
 42
0.3633451645990565
 10
31.51855729393044
 20
-75.8424214886605
 42
0.1776374061509379
 10
31.51171493187934
 20
-76.32116789369945
 42
-0.1217570682647957
 10
31.55276891961146
 20
-76.7520396413121
 42
0.1679309076954061
 10
31.61434993197205
 20
-77.0803228856467
 42
0.5472847257089098
 10
31.98383582156108
 20
-76.96405592090569
 42
-0.2113460622060729
 10
32.08647082165379
 20
-77.00509130529451
 10
32.10699784628227
 20
-76.97089515163717
 42
0.2328482513349877
 10
32.28489845978809
 20
-77.19658989269369
 42
0.2654600414807848
 10
33.06492428822311
 20
-76.97773438236862
 42
0.4558089263634053
 10
32.98281631275888
 20
-75.81506456573461
 42
-2.992796450414648
  0
LWPOLYLINE
  5
227
330
18
100
AcDbEntity
  8
0
100
AcDbPolyline
 90
        8
 70
     0
 43
0.0
 10
31.9359395333027
 20
-76.7520396413121
 42
-0.4592797055557551
 10
32.33279474804647
 20
-76.04759853752262
 42
0.1602921177156044
 10
32.90070833729465
 20
-75.89713537681827
 42
0.2818351898364982
 10
32.94176232502677
 20
-76.33484635516238
 42
-0.3124927164384937
 10
33.06492428822311
 20
-76.80675352946986
 42
-0.3599037004408816
 10
32.78438867462458
 20
-76.97089515163717
 42
0.2549611659357036
 10
32.53122238618078
 20
-77.05980519345228
 42
-0.0107781839565036
 10
32.42174508556181
 20
-77.17607220049927
 42
2.385445904678585
  0
ARC
  5
231
330
18
100
AcDbEntity
  8
0
100
AcDbCircle
 10
32.07232359497938
 20
-75.12506538426698
 30
0.0
 40
0.8433862362595716
100
AcDbArc
 50
345.0135323549831
 51
7.976249640144556
  0
LWPOLYLINE
  5
232
330
18
100
AcDbEntity
  8
0
100
AcDbPolyline
 90
        2
 70
     0
 43
0.0
 10
32.49016839844866
 20
-75.17901576925985
 42
-0.1033691414038726
 10
32.84412916896383
 20
-74.92442183055257
 42
-0.1413344828851912
  0
LWPOLYLINE
  5
236
330
18
100
AcDbEntity
  8
0
100
AcDbPolyline
 90
        9
 70
     0
 43
0.0
 10
31.98383582156108
 20
-76.97773438236862
 42
0.1064137958921791
 10
31.8401468952611
 20
-76.57421955768185
 42
-0.1320297420494543
 10
31.65540391970416
 20
-75.9586884957075
 42
-0.449014375353649
 10
32.134367171437
 20
-75.50729901359443
 42
-0.2692460638398073
 10
32.27121379721072
 20
-75.1653373077969
 42
0.2123022940031026
 10
32.32595244752021
 20
-74.88492872088861
 42
-0.4717107015846024
 10
32.44227211019028
 20
-74.88492872088861
 42
0.0603154294383374
 10
32.49016839844866
 20
-75.18585499999132
 42
0.0737022596479862
 10
32.38753345988079
 20
-75.6304052513729
  0
LWPOLYLINE
  5
241
330
18
100
AcDbEntity
  8
0
100
AcDbPolyline
 90
        3
 70
     0
 43
0.0
 10
32.10699784628227
 20
-76.97089515163717
 10
32.15489413454065
 20
-76.69048656472885
 10
32.19594812227276
 20
-76.60157652291374
  0
LWPOLYLINE
  5
246
330
18
100
AcDbEntity
  8
0
100
AcDbPolyline
 90
        4
 70
     0
 43
0.0
 10
32.89386597524355
 20
-75.91081383828122
 42
-0.1818160638141092
 10
32.47648373587129
 20
-76.41007793551456
 42
0.0293453560020294
 10
32.0317321713443
 20
-76.69732579546033
 42
-0.0570151865308511
 10
31.97015115898371
 20
-76.97089515163717
 42
1.407457654935757
  0
LWPOLYLINE
  5
24C
330
18
100
AcDbEntity
  8
0
100
AcDbPolyline
 90
        5
 70
     0
 43
0.0
 10
32.10015548423116
 20
-76.97089515163717
 10
32.18226345969539
 20
-76.99825207456304
 10
32.27121379721072
 20
-76.99825207456304
 42
-0.0578773108601903
 10
32.62701502422238
 20
-76.52634494256156
 42
0.1271675270122074
 10
32.85965434956254
 20
-76.10915165641185
 42
-0.7721798730761506
  0
LINE
  5
253
330
18
100
AcDbEntity
  8
0
100
AcDbLine
 10
32.55859171133552
 20
-75.71931529318803
 30
0.0
 11
32.75701934946983
 21
-75.71931529318803
 31
0.0
  0
LINE
  5
254
330
18
100
AcDbEntity
  8
0
100
AcDbLine
 10
32.51069542307714
 20
-75.71931529318803
 30
0.0
 11
32.579118735964
 21
-75.60304832844703
 31
0.0
  0
LINE
  5
255
330
18
100
AcDbEntity
  8
0
100
AcDbLine
 10
32.75701934946983
 20
-75.71931529318803
 30
0.0
 11
32.78438867462458
 21
-75.67827986649319
 31
0.0
  0
LINE
  5
256
330
18
100
AcDbEntity
  8
0
100
AcDbLine
 10
32.21647514690124
 20
-75.42522820251079
 30
0.0
 11
32.21647514690124
 21
-75.53465597882632
 31
0.0
  0
ARC
  5
257
330
18
100
AcDbEntity
  8
0
100
AcDbCircle
 10
33.15838658630748
 20
-74.36678876200282
 30
0.0
 40
0.2982530237114686
100
AcDbArc
 50
191.8564400648417
 51
235.5476321850022
  0
ARC
  5
258
330
18
100
AcDbEntity
  8
0
100
AcDbCircle
 10
33.69378425147633
 20
-74.05189513567705
 30
0.0
 40
0.7897969633088556
100
AcDbArc
 50
191.996179979128
 51
200.7969796771149
  0
ARC
  5
259
330
18
100
AcDbEntity
  8
0
100
AcDbCircle
 10
33.13901708837487
 20
-74.81368179353679
 30
0.0
 40
0.5298683457086023
100
AcDbArc
 50
139.435050569469
 51
162.4336970784637
  0
ARC
  5
25A
330
18
100
AcDbEntity
  8
0
100
AcDbCircle
 10
30.20330937466839
 20
-70.2704470932327
 30
0.0
 40
4.73341148272169
100
AcDbArc
 50
297.8546609538262
 51
302.159606809794
  0
ARC
  5
25B
330
18
100
AcDbEntity
  8
0
100
AcDbCircle
 10
33.50816866184352
 20
-74.27405812362194
 30
0.0
 40
0.7468114799753227
100
AcDbArc
 50
206.3804071440474
 51
223.0341834011343
  0
ARC
  5
25C
330
18
100
AcDbEntity
  8
0
100
AcDbCircle
 10
33.08732162892479
 20
-74.88119209367643
 30
0.0
 40
0.3971896865284553
100
AcDbArc
 50
146.2632767728655
 51
165.7924955658379
  0
ARC
  5
25D
330
18
100
AcDbEntity
  8
0
100
AcDbCircle
 10
31.24559149637293
 20
-68.25734593935995
 30
0.0
 40
6.052823209321594
100
AcDbArc
 50
280.479287804272
 51
284.125939367197
  0
LWPOLYLINE
  5
25E
330
18
100
AcDbEntity
  8
0
100
AcDbPolyline
 90
        3
 70
     0
 43
0.0
 10
33.63391289504686
 20
-74.89464761334417
 42
-0.087089463452601
 10
33.9544274172771
 20
-75.07642726598179
 42
-0.1413344828851912
 10
34.23496303087564
 20
-75.9792061879019
 42
0.979729101505157
  0
ARC
  5
263
330
18
100
AcDbEntity
  8
0
100
AcDbCircle
 10
33.77505956563615
 20
-76.27941984353912
 30
0.0
 40
0.3079717444667403
100
AcDbArc
 50
89.87497395573077
 51
270.1250260442691
  0
LINE
  5
264
330
18
100
AcDbEntity
  8
0
100
AcDbLine
 10
33.46862186501799
 20
-72.99866794595581
 30
0.0
 11
33.72863045398805
 21
-72.91659713487216
 31
0.0
  0
LINE
  5
265
330
18
100
AcDbEntity
  8
0
100
AcDbLine
 10
33.33861753977054
 20
-73.19700572178046
 30
0.0
 11
33.67389180367857
 21
-73.17648802958604
 31
0.0
  0
LINE
  5
266
330
18
100
AcDbEntity
  8
0
100
AcDbLine
 10
33.24282490172894
 20
-73.3269511902904
 30
0.0
 11
33.42072551523477
 21
-73.28591580590158
 31
0.0
  0
ARC
  5
267
330
18
100
AcDbEntity
  8
0
100
AcDbCircle
 10
33.17074970930708
 20
-78.27885149241471
 30
0.0
 40
4.452071904166812
100
AcDbArc
 50
82.26858952716479
 51
86.95763013431806
  0
LINE
  5
268
330
18
100
AcDbEntity
  8
0
100
AcDbLine
 10
33.68757646625594
 20
-74.64692339836023
 30
0.0
 11
33.73547281603916
 21
-74.66744109055465
 31
0.0
  0
ARC
  5
269
330
18
100
AcDbEntity
  8
0
100
AcDbCircle
 10
33.08256817113203
 20
-74.26395729121174
 30
0.0
 40
0.4955777619865944
100
AcDbArc
 50
306.8347444731299
 51
359.2128506648903
  0
LINE
  5
26A
330
18
100
AcDbEntity
  8
0
100
AcDbLine
 10
33.69441882830704
 20
-74.31864015402564
 30
0.0
 11
33.87231944181287
 21
-74.51013869911882
 31
0.0
  0
LINE
  5
26B
330
18
100
AcDbEntity
  8
0
100
AcDbLine
 10
33.6670495031523
 20
-74.14765930112688
 30
0.0
 11
33.9544274172771
 21
-74.29128323109977
 31
0.0
  0
LINE
  5
26C
330
18
100
AcDbEntity
  8
0
100
AcDbLine
 10
33.55757220253333
 20
-74.0245530633484
 30
0.0
 11
33.87231944181287
 21
-74.04507079784882
 31
0.0
  0
ARC
  5
26D
330
18
100
AcDbEntity
  8
0
100
AcDbCircle
 10
32.65597702761672
 20
-74.5168142274262
 30
0.0
 40
1.015689031726894
100
AcDbArc
 50
340.3154883415209
 51
42.31436159590687
  0
ARC
  5
26E
330
18
100
AcDbEntity
  8
0
100
AcDbCircle
 10
34.70631717815534
 20
-74.84006514245781
 30
0.0
 40
1.656767696364789
100
AcDbArc
 50
146.063087476491
 51
158.8916414031477
  0
ARC
  5
26F
330
18
100
AcDbEntity
  8
0
100
AcDbCircle
 10
32.63668810268818
 20
-74.6273314687602
 30
0.0
 40
1.002737310159129
100
AcDbArc
 50
346.6454628227611
 51
49.2887126704502
  0
ARC
  5
270
330
18
100
AcDbEntity
  8
0
100
AcDbCircle
 10
32.95100022639297
 20
-74.11594976982458
 30
0.0
 40
0.491974124406746
100
AcDbArc
 50
305.3987180347724
 51
10.70634523827264
  0
ARC
  5
271
330
18
100
AcDbEntity
  8
0
100
AcDbCircle
 10
32.64526615269809
 20
-69.18565865642688
 30
0.0
 40
0.4061405215153922
100
AcDbArc
 50
358.3508882023972
 51
47.5319273407264
  0
ARC
  5
272
330
18
100
AcDbEntity
  8
0
100
AcDbCircle
 10
31.2767419180362
 20
-70.01606491502862
 30
0.0
 40
2.196993266435864
100
AcDbArc
 50
26.5014644684297
 51
40.17493274333165
  0
ARC
  5
273
330
18
100
AcDbEntity
  8
0
100
AcDbCircle
 10
35.03050668521059
 20
-67.05801827261739
 30
0.0
 40
2.404299961010149
100
AcDbArc
 50
212.2596228603831
 51
224.6730628856258
  0
LWPOLYLINE
  5
274
330
18
100
AcDbEntity
  8
0
100
AcDbPolyline
 90
        7
 70
     0
 43
0.0
 10
33.34048364969809
 20
-71.37083859324956
 42
-0.2954265390262254
 10
33.2551345456531
 20
-71.04510779698668
 42
0.2469303652059024
 10
33.36376065010816
 20
-70.57202256972303
 42
0.4419815998155711
 10
32.991328274398
 20
-70.37813517387127
 42
0.3236936214398249
 10
32.88270216994293
 20
-69.59483018093441
 42
0.2425671355032771
 10
32.63441393997777
 20
-69.50951970306828
 42
0.0569972277552821
 10
32.55952748531083
 20
-69.39328683439555
 42
0.2734336849053915
  0
LWPOLYLINE
  5
27D
330
18
100
AcDbEntity
  8
0
100
AcDbPolyline
 90
       21
 70
     0
 43
0.0
 10
32.68096794079791
 20
-70.44793466345375
 42
-0.2439487435274176
 10
32.57234183634285
 20
-70.93653083669505
 42
0.01117739177086
 10
32.44819775212269
 20
-71.09164076183766
 42
0.0611941074998157
 10
31.83523610556749
 20
-71.44839353466785
 42
0.628030769935603
 10
31.95162123066752
 20
-72.0223001857753
 42
-0.0241916586347373
 10
32.87494314929796
 20
-72.12312160961911
 42
0.7981881545314194
 10
32.8904611905879
 20
-72.08434413890995
 42
0.0739510193250121
 10
32.20766848127766
 20
-71.87494575477453
 42
-0.6616602290387187
 10
32.1378374185226
 20
-71.60350341750447
 42
0.0933326490372011
 10
32.33957164766762
 20
-71.37859408739139
 42
0.2959364797399164
 10
32.61889589868783
 20
-71.65003642466145
 42
-0.058200937003994
 10
32.85942516953286
 20
-71.72759136607975
 42
-0.0176448574214693
 10
33.09219535820808
 20
-71.84392377820721
 42
0.2089921064723258
 10
33.27065258694304
 20
-71.85943476649086
 42
-0.085582151444854
 10
33.06891835779802
 20
-71.61901440578813
 42
0.0710996626008915
 10
33.03788233674297
 20
-71.06061878527035
 42
0.3969625758669922
 10
32.74304004443283
 20
-70.85122040113493
 42
-0.1928205366680064
 10
32.97581029463289
 20
-70.67284399356683
 42
-0.5162959994216712
 10
33.13874942055306
 20
-70.80468743628394
 42
0.2128253359008956
 10
33.06115933715305
 20
-71.27777262124159
 42
0.193280757547969
 10
33.34824267034306
 20
-71.36308309910773
 42
-0.046534125578401
  0
ARC
  5
294
330
18
100
AcDbEntity
  8
0
100
AcDbCircle
 10
32.4482959958872
 20
-70.44108087347736
 30
0.0
 40
0.2705406086366781
100
AcDbArc
 50
269.9791936847416
 51
336.5467798726557
  0
LWPOLYLINE
  5
295
330
18
100
AcDbEntity
  8
0
100
AcDbPolyline
 90
        3
 70
     0
 43
0.0
 10
31.49383975091236
 20
-70.33160220902029
 42
0.4283455618034779
 10
31.7498870015225
 20
-70.5642670755812
 42
-0.2539979761160553
 10
32.1378374185226
 20
-70.64182201699951
 42
0.3620759517603063
  0
LWPOLYLINE
  5
29A
330
18
100
AcDbEntity
  8
0
100
AcDbPolyline
 90
        6
 70
     0
 43
0.0
 10
32.6266549193328
 20
-69.50176420892645
 42
-0.2539319092535901
 10
32.58010085698781
 20
-70.2850692441693
 42
0.1084170077662626
 10
32.2619815642676
 20
-71.09164076183766
 42
-0.1736545447586717
 10
32.16887343957764
 20
-70.54875608729755
 42
0.0187833794728565
 10
32.22318652256759
 20
-70.1532258437582
 42
0.6440339678951445
 10
31.79644106386748
 20
-69.61809666335991
 42
8.06470107995133
  0
ARC
  5
2A2
330
18
100
AcDbEntity
  8
0
100
AcDbCircle
 10
31.57961850540905
 20
-71.99453003299598
 30
0.0
 40
1.16855638160079
100
AcDbArc
 50
57.03696567428361
 51
73.43250054425189
  0
LWPOLYLINE
  5
2A3
330
18
100
AcDbEntity
  8
0
100
AcDbPolyline
 90
        3
 70
     0
 43
0.0
 10
31.4147807920098
 20
-72.4555597090433
 42
0.2265128420461157
 10
32.53354679464284
 20
-72.35578647618002
 42
0.1316789741820084
 10
32.77601100266366
 20
-72.10797446192795
 42
-1.093497588887877
  0
LWPOLYLINE
  5
2A8
330
18
100
AcDbEntity
  8
0
100
AcDbPolyline
 90
        3
 70
     0
 43
0.0
 10
31.46184871526434
 20
-72.13653561460455
 42
0.0573252058096471
 10
31.80420008451245
 20
-72.2239430334629
 42
0.1969639042135385
 10
32.42612559860137
 20
-72.06281897642671
 42
0.1743114107953727
  0
LWPOLYLINE
  5
2AD
330
18
100
AcDbEntity
  8
0
100
AcDbPolyline
 90
        2
 70
     0
 43
0.0
 10
31.90506716832254
 20
-71.29328360952526
 10
32.00593431365748
 20
-71.22348416224878
  0
LWPOLYLINE
  5
2B1
330
18
100
AcDbEntity
  8
0
100
AcDbPolyline
 90
        4
 70
     0
 43
0.0
 10
31.49383975091236
 20
-71.32430558609257
 10
31.49383975091236
 20
-71.45614902880969
 10
31.57918885495735
 20
-71.42512705224238
 10
31.74212804240237
 20
-71.30879459780891
  0
LWPOLYLINE
  5
2B7
330
18
100
AcDbEntity
  8
0
100
AcDbPolyline
 90
        3
 70
     0
 43
0.0
 10
31.57142983431239
 20
-71.41737155810054
 10
31.57142983431239
 20
-71.45614902880969
 10
31.84299512621246
 20
-71.44839353466785
  0
LWPOLYLINE
  5
2BC
330
18
100
AcDbEntity
  8
0
100
AcDbPolyline
 90
        2
 70
     0
 43
0.0
 10
31.75764602216747
 20
-71.37083859324956
 10
31.88954918855744
 20
-71.23123965639061
  0
ARC
  5
2C0
330
18
100
AcDbEntity
  8
0
100
AcDbCircle
 10
31.47834053073674
 20
-69.83053989052121
 30
0.0
 40
1.040074833400258
100
AcDbArc
 50
278.5795754939385
 51
292.8241697129656
  0
ARC
  5
2C1
330
18
100
AcDbEntity
  8
0
100
AcDbCircle
 10
32.63488740859961
 20
-71.19365312480748
 30
0.0
 40
0.1695865426844493
100
AcDbArc
 50
195.5077112051992
 51
272.462223038126
  0
LWPOLYLINE
  5
2C2
330
18
100
AcDbEntity
  8
0
100
AcDbPolyline
 90
        5
 70
     0
 43
0.0
 10
32.64993191974287
 20
-71.13041823254682
 42
-0.1458307700803835
 10
32.85166614888789
 20
-71.34757211082408
 42
0.335580044186841
 10
32.85166614888789
 20
-71.16144020911415
 42
0.2581119948607053
 10
32.64217296062274
 20
-71.06837427941218
 42
0.9164463183121529
 10
32.64217296062274
 20
-71.12266273840498
 42
0.0435982374718615
  0
ARC
  5
2C9
330
18
100
AcDbEntity
  8
0
100
AcDbCircle
 10
32.27756259547848
 20
-71.32042786017466
 30
0.0
 40
0.0799147330756009
100
AcDbArc
 50
320.8903502565394
 51
14.04111132095455
  0
ARC
  5
2CA
330
18
100
AcDbEntity
  8
0
100
AcDbCircle
 10
32.26975106264953
 20
-70.4940669593629
 30
0.0
 40
0.5278311892193227
100
AcDbArc
 50
270.84112351969
 51
306.013204628419
  0
ARC
  5
2CB
330
18
100
AcDbEntity
  8
0
100
AcDbCircle
 10
32.40261839878836
 20
-70.52039608453
 30
0.0
 40
0.3430641750308643
100
AcDbArc
 50
260.7258396690764
 51
316.1284884790326
  0
LWPOLYLINE
  5
2CC
330
18
100
AcDbEntity
  8
0
100
AcDbPolyline
 90
        2
 70
     0
 43
0.0
 10
32.80666270371912
 20
-72.04629212118314
 42
0.1254005969862207
 10
32.85942516953286
 20
-71.71983587193793
 42
-1.093497588887877
  0
LWPOLYLINE
  5
2D0
330
18
100
AcDbEntity
  8
0
100
AcDbPolyline
 90
        3
 70
     0
 43
0.0
 10
32.54787036003952
 20
-71.95167632203117
 42
0.0146982438049518
 10
32.58010085698781
 20
-71.91372322548367
 42
0.1743114107953727
 10
32.59561889827776
 20
-71.64228093051962
 42
-1.339258662032918
  0
ARC
  5
2D5
330
18
100
AcDbEntity
  8
0
100
AcDbCircle
 10
31.52621540124946
 20
-71.08753739661745
 30
0.0
 40
1.408531776253561
100
AcDbArc
 50
65.65737179112685
 51
75.05141593950155
  0
ARC
  5
2D6
330
18
100
AcDbEntity
  8
0
100
AcDbCircle
 10
31.97144915024969
 20
-70.25440701720363
 30
0.0
 40
0.2551595858406322
100
AcDbArc
 50
46.96042012282059
 51
76.9161586029557
  0
LWPOLYLINE
  5
2D7
330
18
100
AcDbEntity
  8
0
100
AcDbPolyline
 90
        3
 70
     0
 43
0.0
 10
31.50935779220231
 20
-70.21526979689284
 42
0.6138744916359848
 10
31.78868204322251
 20
-70.44793466345375
 42
-0.1429205056440845
 10
32.17663246022262
 20
-70.54100059315572
 42
-0.1429205056440845
  0
ARC
  5
2DC
330
18
100
AcDbEntity
  8
0
100
AcDbCircle
 10
31.31776733230344
 20
-70.02505566782331
 30
0.0
 40
0.1836508634483523
100
AcDbArc
 50
276.532149613874
 51
23.58238884866919
  0
ARC
  5
2DD
330
18
100
AcDbEntity
  8
0
100
AcDbCircle
 10
35.68870426035661
 20
-63.18615290085556
 30
0.0
 40
7.650255454445279
100
AcDbArc
 50
240.3581673275121
 51
242.6723055030667
  0
ARC
  5
2DE
330
18
100
AcDbEntity
  8
0
100
AcDbCircle
 10
33.06346995372328
 20
-69.65802016314552
 30
0.0
 40
1.065960608219879
100
AcDbArc
 50
102.3411553414687
 51
123.8103903137728
  0
ARC
  5
2DF
330
18
100
AcDbEntity
  8
0
100
AcDbCircle
 10
32.922327332986
 20
-69.22427525669395
 30
0.0
 40
0.8443548849578483
100
AcDbArc
 50
95.07624921821934
 51
122.8486174709433
  0
ARC
  5
2E0
330
18
100
AcDbEntity
  8
0
100
AcDbCircle
 10
32.40634351409152
 20
-69.239249728597
 30
0.0
 40
0.454238938898089
100
AcDbArc
 50
356.2219342836293
 51
13.72199197356181
  0
ARC
  5
2E1
330
18
100
AcDbEntity
  8
0
100
AcDbCircle
 10
32.52554164382856
 20
-69.05504911818117
 30
0.0
 40
0.1563270738339321
100
AcDbArc
 50
260.6947214381336
 51
335.6408622395666
  0
LWPOLYLINE
  5
2E2
330
18
100
AcDbEntity
  8
0
100
AcDbPolyline
 90
        2
 70
     0
 43
0.0
 10
32.68872696144288
 20
-69.68014061649454
 10
32.79735306589794
 20
-69.64136314578539
  0
LWPOLYLINE
  5
2E6
330
18
100
AcDbEntity
  8
0
100
AcDbPolyline
 90
        2
 70
     0
 43
0.0
 10
32.70424500273282
 20
-69.7732065461965
 10
32.85942516953286
 20
-69.68014061649454
  0
ARC
  5
2EA
330
18
100
AcDbEntity
  8
0
100
AcDbCircle
 10
33.0529846445087
 20
-69.57882519678769
 30
0.0
 40
0.7973082136175541
100
AcDbArc
 50
111.7307558540014
 51
138.2289073645629
  0
LWPOLYLINE
  5
2EB
330
18
100
AcDbEntity
  8
0
100
AcDbPolyline
 90
        2
 70
     0
 43
0.0
 10
32.65769094038784
 20
-70.10669283660121
 10
32.83614810759795
 20
-69.99811591861558
  0
LWPOLYLINE
  5
2EF
330
18
100
AcDbEntity
  8
0
100
AcDbPolyline
 90
        2
 70
     0
 43
0.0
 10
32.52578783552271
 20
-70.57977806386486
 10
32.67320898167778
 20
-70.39364616215493
  0
LWPOLYLINE
  5
2F3
330
18
100
AcDbEntity
  8
0
100
AcDbPolyline
 90
        2
 70
     0
 43
0.0
 10
32.991328274398
 20
-70.37813517387127
 10
32.83614810759795
 20
-70.5099786165884
  0
LWPOLYLINE
  5
2F7
330
18
100
AcDbEntity
  8
0
100
AcDbPolyline
 90
        2
 70
     0
 43
0.0
 10
32.70424500273282
 20
-69.92056097719729
 10
32.85166614888789
 20
-69.85076152992082
  0
ARC
  5
2FB
330
18
100
AcDbEntity
  8
0
100
AcDbCircle
 10
33.77505956563615
 20
-70.82652128938093
 30
0.0
 40
0.3079717444667403
100
AcDbArc
 50
89.87497395573077
 51
270.1250260442691
  0
ARC
  5
2FC
330
18
100
AcDbEntity
  8
0
100
AcDbCircle
 10
32.15773195085327
 20
-70.91386407876568
 30
0.0
 40
1.802230181524723
100
AcDbArc
 50
313.2834770073284
 51
353.2812368543919
  0
ARC
  5
2FD
330
18
100
AcDbEntity
  8
0
100
AcDbCircle
 10
32.12274278398786
 20
-70.89631401756581
 30
0.0
 40
2.138880772012586
100
AcDbArc
 50
313.8859439834536
 51
353.6855974574857
  0
ARC
  5
2FE
330
18
100
AcDbEntity
  8
0
100
AcDbCircle
 10
33.17970052621795
 20
-70.67503272210757
 30
0.0
 40
0.0549603872844637
100
AcDbArc
 50
48.19147598709833
 51
152.4090794001378
  0
ARC
  5
2FF
330
18
100
AcDbEntity
  8
0
100
AcDbCircle
 10
33.39182846192406
 20
-72.47055094596831
 30
0.0
 40
0.3236922172030783
100
AcDbArc
 50
273.9068718719799
 51
330.620996389852
  0
LINE
  5
300
330
18
100
AcDbEntity
  8
0
100
AcDbLine
 10
33.11282063800633
 20
-72.67722393235269
 30
0.0
 11
33.10597827595523
 21
-72.57463542907463
 31
0.0
  0
ARC
  5
301
330
18
100
AcDbEntity
  8
0
100
AcDbCircle
 10
33.68849983448579
 20
-72.28243137736041
 30
0.0
 40
0.5175495383171911
100
AcDbArc
 50
186.6205519824746
 51
233.3651872616312
  0
LWPOLYLINE
  5
302
330
18
100
AcDbEntity
  8
0
100
AcDbPolyline
 90
        6
 70
     0
 43
0.0
 10
33.76391144291626
 20
-68.91001216660246
 10
33.85973305915758
 20
-68.91599829678587
 10
33.89566614986687
 20
-69.13149923722463
 42
0.06993651572752
 10
34.06335388600193
 20
-69.26319427048364
 42
-0.3321544166356015
 10
34.08730925929984
 20
-69.50263977396203
 42
-0.4471682073111002
 10
33.96154344181734
 20
-69.52658433700168
 42
-2.953879186401367
  0
ARC
  5
30A
330
18
100
AcDbEntity
  8
0
100
AcDbCircle
 10
32.54491303549868
 20
-70.38385533311288
 30
0.0
 40
1.390984920296278
100
AcDbArc
 50
354.7977362602326
 51
63.66286424720432
  0
ARC
  5
30B
330
18
100
AcDbEntity
  8
0
100
AcDbCircle
 10
37.06283400775771
 20
-73.32188051537045
 30
0.0
 40
0.5551991674049299
100
AcDbArc
 50
10.11618173283995
 51
54.70698074504736
  0
LWPOLYLINE
  5
30C
330
18
100
AcDbEntity
  8
0
100
AcDbPolyline
 90
        3
 70
     0
 43
0.0
 10
37.72572149663004
 20
-73.57316362354135
 42
0.1902614640500833
 10
37.80782947209427
 20
-72.40365457617587
 42
-0.234150780009044
 10
37.62992879706359
 20
-73.36798661698522
 42
-0.5006610590941079
  0
ARC
  5
311
330
18
100
AcDbEntity
  8
0
100
AcDbCircle
 10
81.51145143736147
 20
-42.51911566360902
 30
0.0
 40
53.36299729529645
100
AcDbArc
 50
214.4750524466747
 51
214.939551495629
  0
ARC
  5
312
330
18
100
AcDbEntity
  8
0
100
AcDbCircle
 10
36.93007738129225
 20
-73.21887486295934
 30
0.0
 40
0.9552608955010907
100
AcDbArc
 50
21.06286063868482
 51
44.67223656402334
  0
LINE
  5
313
330
18
100
AcDbEntity
  8
0
100
AcDbLine
 10
35.79618388864612
 20
-73.13545264519722
 30
0.0
 11
36.06303483966729
 21
-72.82084786232558
 31
0.0
  0
LINE
  5
314
330
18
100
AcDbEntity
  8
0
100
AcDbLine
 10
35.69354888855342
 20
-72.9781502537614
 30
0.0
 11
35.89881882721399
 21
-72.67722393235269
 31
0.0
  0
LWPOLYLINE
  5
315
330
18
100
AcDbEntity
  8
0
100
AcDbPolyline
 90
       23
 70
     0
 43
0.0
 10
36.09040416482203
 20
-73.92059672238525
 10
36.11777348997677
 20
-73.74961586948649
 42
0.2165231641098013
 10
35.7140759131819
 20
-73.86588283422749
 42
-0.1944597316860491
 10
35.92618821389357
 20
-74.03686368712626
 42
-0.2939199522055959
 10
35.82355321380087
 20
-74.55664547655402
 42
-0.0318512259660787
 10
35.58407158793444
 20
-74.77550098687908
 42
0.2245220208265735
 10
35.46775192526436
 20
-75.01487418939856
 42
0.0597887423522772
 10
35.15300468598482
 20
-74.65923402213808
 42
-0.1980583121435498
 10
35.00931569816
 20
-73.98898902969995
 42
-0.4740458709488954
 10
35.34458996206803
 20
-73.70174121206019
 42
-0.0545501286837197
 10
35.57722928740818
 20
-73.77013356168089
 42
-0.1515856665768773
 10
35.78249922606875
 20
-73.62650963170802
 42
0.1267140867490811
 10
35.96724220162569
 20
-73.51024266696701
 42
0.0384017876262692
 10
35.83039551432714
 20
-73.39397565992001
 42
-0.6848877128466066
 10
35.18037401113957
 20
-72.90975790414069
 42
-0.2331230692760563
 10
35.86460720153298
 20
-72.07537133184127
 42
0.1785289007118949
 10
35.91250348979136
 20
-72.5336000023798
 42
-0.0420321548530075
 10
36.19988146544101
 20
-72.92343636560364
 42
-0.296712109303081
 10
36.1930391033899
 20
-73.19016649104899
 42
-0.1041173285525105
 10
36.04935017708992
 20
-73.3269511902904
 42
-0.1041486797571395
 10
36.13145815255415
 20
-73.47741435099475
 42
-0.0346219475441253
 10
36.56252505450377
 20
-73.51161050465211
 42
0.017565482125947
 10
36.19988146544101
 20
-73.19016649104899
 42
0.3594390976545042
  0
LWPOLYLINE
  5
32E
330
18
100
AcDbEntity
  8
0
100
AcDbPolyline
 90
       11
 70
     0
 43
0.0
 10
35.92618821389357
 20
-72.54043927541727
 42
-0.0129232581753975
 10
37.46571284613513
 20
-73.86041148348711
 42
-0.2772677289382011
 10
37.62992879706359
 20
-73.36798661698522
 42
-0.2410218677139615
 10
37.30833919573294
 20
-73.29959426736451
 42
-0.2667266209510819
 10
37.39728953324827
 20
-72.77981243563075
 42
0.2968039052644494
 10
37.59571717138259
 20
-72.41049380690734
 42
0.0567928825216599
 10
37.52045149644462
 20
-72.03433590514645
 42
-0.1722650445847117
 10
38.21152704888914
 20
-72.5814746598061
 42
-0.3641546701376944
 10
38.09520738621906
 20
-73.41586123210551
 42
-0.2648622576225485
 10
37.81467177262053
 20
-73.47741435099475
 42
0.3222605215724902
 10
37.67098278479571
 20
-73.9561607560337
 42
-1.402408411248529
  0
LWPOLYLINE
  5
33B
330
18
100
AcDbEntity
  8
0
100
AcDbPolyline
 90
        4
 70
     0
 43
0.0
 10
36.10408882739941
 20
-73.05338183411357
 42
-0.2990926692557095
 10
35.89197652668772
 20
-73.28591580590158
 42
-0.3483858236652412
 10
35.70039125060452
 20
-72.30790530362927
 42
0.3329251508646431
 10
35.8440801769045
 20
-73.40902200137406
 42
-0.2930386056269485
  0
ARC
  5
341
330
18
100
AcDbEntity
  8
0
100
AcDbCircle
 10
37.76604796884739
 20
-68.25734593935995
 30
0.0
 40
6.052823209321594
100
AcDbArc
 50
255.8740606328029
 51
259.5207121957279
  0
LWPOLYLINE
  5
342
330
18
100
AcDbEntity
  8
0
100
AcDbPolyline
 90
        5
 70
     0
 43
0.0
 10
36.91148398098917
 20
-76.97089515163717
 10
36.82937600552494
 20
-76.99825207456304
 10
36.7404256680096
 20
-76.99825207456304
 42
0.0578773108601903
 10
36.38462444099794
 20
-76.52634494256156
 42
-0.1271675270122074
 10
36.15198511565778
 20
-76.10915165641185
 42
0.7721798730761506
  0
LWPOLYLINE
  5
349
330
18
100
AcDbEntity
  8
0
100
AcDbPolyline
 90
        9
 70
     0
 43
0.0
 10
37.02780364365924
 20
-76.97773438236862
 42
-0.1064137958921791
 10
37.17149256995922
 20
-76.57421955768185
 42
0.1320297420494543
 10
37.35623554551616
 20
-75.9586884957075
 42
0.449014375353649
 10
36.87727229378332
 20
-75.50729901359443
 42
0.2692460638398073
 10
36.7404256680096
 20
-75.1653373077969
 42
-0.2123022940031026
 10
36.68568701770011
 20
-74.88492872088861
 42
0.4717107015846024
 10
36.56936735503004
 20
-74.88492872088861
 42
-0.0603154294383374
 10
36.52147106677166
 20
-75.18585499999132
 42
-0.0737022596479862
 10
36.62410600533952
 20
-75.6304052513729
  0
LWPOLYLINE
  5
354
330
18
100
AcDbEntity
  8
0
100
AcDbPolyline
 90
       13
 70
     0
 43
0.0
 10
36.18619680286363
 20
-75.82190379646609
 42
0.2638948344163872
 10
36.41199376615269
 20
-75.78086841207727
 42
0.0031418822532795
 10
36.89095695636069
 20
-75.50729901359443
 42
-0.3633451645990565
 10
37.49308217128987
 20
-75.8424214886605
 42
-0.1776374061509379
 10
37.49992453334098
 20
-76.32116789369945
 42
0.1217570682647957
 10
37.45887054560887
 20
-76.7520396413121
 42
-0.1679309076954061
 10
37.39728953324827
 20
-77.0803228856467
 42
-0.5472847257089098
 10
37.02780364365924
 20
-76.96405592090569
 42
0.2113460622060729
 10
36.92516864356654
 20
-77.00509130529451
 10
36.90464161893806
 20
-76.97089515163717
 42
-0.2328482513349877
 10
36.72674100543223
 20
-77.19658989269369
 42
-0.2654600414807848
 10
35.94671517699721
 20
-76.97773438236862
 42
-0.4558089263634053
 10
36.02882315246144
 20
-75.81506456573461
 42
2.992796450414648
  0
LWPOLYLINE
  5
363
330
18
100
AcDbEntity
  8
0
100
AcDbPolyline
 90
        8
 70
     0
 43
0.0
 10
37.07569993191762
 20
-76.7520396413121
 42
0.4592797055557551
 10
36.67884471717385
 20
-76.04759853752262
 42
-0.1602921177156044
 10
36.11093112792567
 20
-75.89713537681827
 42
-0.2818351898364982
 10
36.06987714019355
 20
-76.33484635516238
 42
0.3124927164384937
 10
35.94671517699721
 20
-76.80675352946986
 42
0.3599037004408816
 10
36.22725079059575
 20
-76.97089515163717
 42
-0.2549611659357036
 10
36.48041707903955
 20
-77.05980519345228
 42
0.0107781839565036
 10
36.58989437965852
 20
-77.17607220049927
 42
-2.385445904678585
  0
LWPOLYLINE
  5
36D
330
18
100
AcDbEntity
  8
0
100
AcDbPolyline
 90
        4
 70
     0
 43
0.0
 10
36.11777348997677
 20
-75.9108138382812
 42
0.1818160638141092
 10
36.53515572934903
 20
-76.41007793551456
 42
-0.0293453560020294
 10
36.97990729387602
 20
-76.69732579546033
 42
0.0570151865308511
 10
37.04148830623661
 20
-76.97089515163717
 42
-1.407457654935757
  0
LWPOLYLINE
  5
373
330
18
100
AcDbEntity
  8
0
100
AcDbPolyline
 90
        2
 70
     0
 43
0.0
 10
36.52147106677166
 20
-75.17901576925985
 42
0.1033691414038727
 10
36.16751029625649
 20
-74.92442183055257
 42
0.1413344828851912
  0
ARC
  5
377
330
18
100
AcDbEntity
  8
0
100
AcDbCircle
 10
36.93931587024094
 20
-75.12506538426698
 30
0.0
 40
0.8433862362595716
100
AcDbArc
 50
172.0237503598554
 51
194.9864676450168
  0
LWPOLYLINE
  5
378
330
18
100
AcDbEntity
  8
0
100
AcDbPolyline
 90
        5
 70
     0
 43
0.0
 10
36.18619680286363
 20
-75.82874302719756
 42
-0.1338595892437025
 10
36.03566551451255
 20
-75.80822533500314
 42
-0.1052228596597649
 10
35.95355753904831
 20
-75.3773535873905
 42
0.1559463667848991
 10
35.68670658802715
 20
-75.29528277630685
 42
-0.0434024280094386
 10
35.76881456349138
 20
-75.18585499999132
 42
2.238293013188938
  0
ARC
  5
37F
330
18
100
AcDbEntity
  8
0
100
AcDbCircle
 10
35.23657989958417
 20
-76.27941984353912
 30
0.0
 40
0.3079717444667403
100
AcDbArc
 50
269.8749739557308
 51
90.12502604426922
  0
LINE
  5
380
330
18
100
AcDbEntity
  8
0
100
AcDbLine
 10
36.4530477538848
 20
-75.71931529318803
 30
0.0
 11
36.25462011575049
 21
-75.71931529318803
 31
0.0
  0
LINE
  5
381
330
18
100
AcDbEntity
  8
0
100
AcDbLine
 10
36.25462011575049
 20
-75.71931529318803
 30
0.0
 11
36.22725079059575
 21
-75.67827986649319
 31
0.0
  0
LINE
  5
382
330
18
100
AcDbEntity
  8
0
100
AcDbLine
 10
36.50094404214318
 20
-75.71931529318803
 30
0.0
 11
36.43252072925632
 21
-75.60304832844703
 31
0.0
  0
LINE
  5
383
330
18
100
AcDbEntity
  8
0
100
AcDbLine
 10
35.76881456349138
 20
-73.3269511902904
 30
0.0
 11
35.59091394998555
 21
-73.28591580590158
 31
0.0
  0
ARC
  5
384
330
18
100
AcDbEntity
  8
0
100
AcDbCircle
 10
34.30532228706498
 20
-74.84006514245781
 30
0.0
 40
1.656767696364789
100
AcDbArc
 50
21.10835859685221
 51
33.93691252350893
  0
ARC
  5
385
330
18
100
AcDbEntity
  8
0
100
AcDbCircle
 10
36.06063923882736
 20
-74.11594976982458
 30
0.0
 40
0.491974124406746
100
AcDbArc
 50
169.2936547617273
 51
234.6012819652275
  0
LWPOLYLINE
  5
386
330
18
100
AcDbEntity
  8
0
100
AcDbPolyline
 90
        2
 70
     0
 43
0.0
 10
36.0398685605259
 20
-74.87729880819654
 42
0.1256025559826777
 10
35.51315051138158
 20
-74.85627830206476
 42
0.1413344828851912
  0
LINE
  5
38A
330
18
100
AcDbEntity
  8
0
100
AcDbLine
 10
35.54301760020233
 20
-72.99866794595581
 30
0.0
 11
35.28300901123227
 21
-72.91659713487216
 31
0.0
  0
LINE
  5
38B
330
18
100
AcDbEntity
  8
0
100
AcDbLine
 10
35.67302192544978
 20
-73.19700572178046
 30
0.0
 11
35.33774766154176
 21
-73.17648802958604
 31
0.0
  0
ARC
  5
38C
330
18
100
AcDbEntity
  8
0
100
AcDbCircle
 10
35.84088975591325
 20
-78.27885149241471
 30
0.0
 40
4.452071904166812
100
AcDbArc
 50
93.04236986568193
 51
97.73141047283521
  0
LINE
  5
38D
330
18
100
AcDbEntity
  8
0
100
AcDbLine
 10
35.32406299896438
 20
-74.64692339836023
 30
0.0
 11
35.27616664918117
 21
-74.66744109055465
 31
0.0
  0
ARC
  5
38E
330
18
100
AcDbEntity
  8
0
100
AcDbCircle
 10
35.92907129408828
 20
-74.26395729121174
 30
0.0
 40
0.4955777619865944
100
AcDbArc
 50
180.7871493351097
 51
233.16525552687
  0
ARC
  5
38F
330
18
100
AcDbEntity
  8
0
100
AcDbCircle
 10
36.37495136253214
 20
-74.6273314687602
 30
0.0
 40
1.002737310159129
100
AcDbArc
 50
130.7112873295497
 51
193.3545371772389
  0
ARC
  5
390
330
18
100
AcDbEntity
  8
0
100
AcDbCircle
 10
36.35566243760361
 20
-74.5168142274262
 30
0.0
 40
1.015689031726894
100
AcDbArc
 50
137.6856384040931
 51
199.684511658479
  0
LINE
  5
391
330
18
100
AcDbEntity
  8
0
100
AcDbLine
 10
35.454067262687
 20
-74.0245530633484
 30
0.0
 11
35.13932002340744
 21
-74.04507079784882
 31
0.0
  0
LINE
  5
392
330
18
100
AcDbEntity
  8
0
100
AcDbLine
 10
35.31722063691328
 20
-74.31864015402564
 30
0.0
 11
35.13932002340744
 21
-74.51013869911882
 31
0.0
  0
LINE
  5
393
330
18
100
AcDbEntity
  8
0
100
AcDbLine
 10
35.34458996206803
 20
-74.14765930112688
 30
0.0
 11
35.05721204794322
 21
-74.29128323109977
 31
0.0
  0
ARC
  5
394
330
18
100
AcDbEntity
  8
0
100
AcDbCircle
 10
35.87262237684545
 20
-74.81368179353677
 30
0.0
 40
0.5298683457086023
100
AcDbArc
 50
17.56630292153624
 51
40.564949430531
  0
ARC
  5
395
330
18
100
AcDbEntity
  8
0
100
AcDbCircle
 10
38.80833009055193
 20
-70.2704470932327
 30
0.0
 40
4.73341148272169
100
AcDbArc
 50
237.840393190206
 51
242.1453390461737
  0
ARC
  5
396
330
18
100
AcDbEntity
  8
0
100
AcDbCircle
 10
35.92431783629554
 20
-74.88119209367643
 30
0.0
 40
0.3971896865284553
100
AcDbArc
 50
14.20750443416204
 51
33.73672322713447
  0
ARC
  5
397
330
18
100
AcDbEntity
  8
0
100
AcDbCircle
 10
35.31785521374398
 20
-74.05189513567705
 30
0.0
 40
0.7897969633088556
100
AcDbArc
 50
339.2030203228851
 51
348.0038200208719
  0
LWPOLYLINE
  5
398
330
18
100
AcDbEntity
  8
0
100
AcDbPolyline
 90
        4
 70
     0
 43
0.0
 10
36.28198944090523
 20
-73.94795364531113
 42
-0.1516365838170306
 10
36.10408882739941
 20
-74.99435649720414
 42
0.2106939118876021
 10
36.08356180277093
 20
-73.91375749165378
 42
0.0217207391939116
 10
35.9056611892651
 20
-73.96847133750554
 42
-0.172586680012437
  0
ARC
  5
39E
330
18
100
AcDbEntity
  8
0
100
AcDbCircle
 10
35.85325287891284
 20
-74.36678876200282
 30
0.0
 40
0.2982530237114686
100
AcDbArc
 50
304.4523678149977
 51
348.1435599351582
  0
ARC
  5
39F
330
18
100
AcDbEntity
  8
0
100
AcDbCircle
 10
35.5034708033768
 20
-74.27405812362194
 30
0.0
 40
0.7468114799753227
100
AcDbArc
 50
316.9658165988656
 51
333.6195928559526
  0
LINE
  5
3A0
330
18
100
AcDbEntity
  8
0
100
AcDbLine
 10
36.79516431831908
 20
-75.42522820251079
 30
0.0
 11
36.79516431831908
 21
-75.53465597882632
 31
0.0
  0
LWPOLYLINE
  5
3A1
330
18
100
AcDbEntity
  8
0
100
AcDbPolyline
 90
        3
 70
     0
 43
0.0
 10
36.90464161893806
 20
-76.97089515163717
 10
36.85674533067968
 20
-76.69048656472885
 10
36.81569134294756
 20
-76.60157652291374
  0
LWPOLYLINE
  5
3A6
330
18
100
AcDbEntity
  8
0
100
AcDbPolyline
 90
        8
 70
     0
 43
0.0
 10
37.9241490732395
 20
-74.50193158839626
 10
37.68466744737308
 20
-74.26939761660825
 42
-0.3832355415111731
 10
37.64361345964096
 20
-73.96163210677407
 42
-0.3097342255946864
 10
37.76677548436214
 20
-73.91375744934778
 42
0.1122551116178242
 10
37.80098711004316
 20
-74.23520146295089
 42
0.3114510611645
 10
37.98573008560009
 20
-74.37198616219231
 42
-0.476179774426506
 10
38.03362637385847
 20
-74.66607321056355
 42
-0.720862443789843
 10
37.9309914352906
 20
-74.50877081912773
 42
2.07088788861111
  0
ARC
  5
3B0
330
18
100
AcDbEntity
  8
0
100
AcDbCircle
 10
38.72958491367663
 20
-73.98666812934448
 30
0.0
 40
1.210201043772135
100
AcDbArc
 50
116.4257402712226
 51
134.3838684082157
  0
ARC
  5
3B1
330
18
100
AcDbEntity
  8
0
100
AcDbCircle
 10
38.27355431793647
 20
-73.89364006897377
 30
0.0
 40
0.7368939623018655
100
AcDbArc
 50
100.7376943055698
 51
127.1680325983752
  0
ARC
  5
3B2
330
18
100
AcDbEntity
  8
0
100
AcDbCircle
 10
36.74188840257079
 20
-70.4940669593629
 30
0.0
 40
0.5278311892193227
100
AcDbArc
 50
233.9867953715809
 51
269.1588764803099
  0
ARC
  5
3B3
330
18
100
AcDbEntity
  8
0
100
AcDbCircle
 10
36.60902106643195
 20
-70.52039608453
 30
0.0
 40
0.3430641750308643
100
AcDbArc
 50
223.8715115209672
 51
279.2741603309235
  0
LWPOLYLINE
  5
3B4
330
18
100
AcDbEntity
  8
0
100
AcDbPolyline
 90
        6
 70
     0
 43
0.0
 10
36.38498454588752
 20
-69.50176420892645
 42
0.2539319092535901
 10
36.4315386082325
 20
-70.2850692441693
 42
-0.1084170077662626
 10
36.74965790095272
 20
-71.09164076183766
 42
0.1736545447586717
 10
36.84276602564268
 20
-70.54875608729755
 42
-0.0187833794728565
 10
36.78845294265273
 20
-70.1532258437582
 42
-0.6440339678951445
 10
37.21519840135284
 20
-69.61809666335991
 42
-8.06470107995133
  0
LWPOLYLINE
  5
3BC
330
18
100
AcDbEntity
  8
0
100
AcDbPolyline
 90
        3
 70
     0
 43
0.0
 10
37.59685867321052
 20
-72.4555597090433
 42
-0.2265128420461157
 10
36.47809267057748
 20
-72.35578647618002
 42
-0.131678974182008
 10
36.23562846255666
 20
-72.10797446192795
 42
1.093497588887877
  0
LWPOLYLINE
  5
3C1
330
18
100
AcDbEntity
  8
0
100
AcDbPolyline
 90
        3
 70
     0
 43
0.0
 10
37.54979074995599
 20
-72.13653561460455
 42
-0.0573252058096471
 10
37.20743938070787
 20
-72.2239430334629
 42
-0.1969639042135392
 10
36.58551386661895
 20
-72.06281897642671
 42
-0.1743114107953727
  0
LWPOLYLINE
  5
3C6
330
18
100
AcDbEntity
  8
0
100
AcDbPolyline
 90
       13
 70
     0
 43
0.0
 10
35.67115581552224
 20
-71.37083859324956
 42
0.2954265390262254
 10
35.75650491956722
 20
-71.04510779698668
 42
-0.2469303652059024
 10
35.64787881511216
 20
-70.57202256972303
 42
-0.4419815998155711
 10
36.02031119082233
 20
-70.37813517387127
 42
-0.3236936214398249
 10
36.12893729527739
 20
-69.59483018093441
 42
-0.2425671355032771
 10
36.37722552524255
 20
-69.50951970306828
 42
-0.3227984698477692
 10
37.00570515156285
 20
-69.17603341266357
 42
-0.2734336849053915
 10
37.65746183981806
 20
-69.51727519721011
 42
-0.3089193449315833
 10
38.02989421552822
 20
-69.99036042447376
 42
-0.4552629841811998
 10
38.17731536168329
 20
-70.61080004043218
 42
-0.3080545522975889
 10
38.04541225681816
 20
-71.1769511973978
 42
-0.7515553411361699
 10
37.52555873495293
 20
-71.33206108023441
 42
0.1326379626197644
 10
36.72638090054265
 20
-71.10715175012133
 42
0.0052970222021466
  0
LWPOLYLINE
  5
3D5
330
18
100
AcDbEntity
  8
0
100
AcDbPolyline
 90
       21
 70
     0
 43
0.0
 10
36.33067152442241
 20
-70.44793466345375
 42
0.2439487435274176
 10
36.43929762887747
 20
-70.93653083669505
 42
-0.01117739177086
 10
36.56344171309763
 20
-71.09164076183766
 42
-0.0611941074998157
 10
37.17640335965283
 20
-71.44839353466785
 42
-0.628030769935603
 10
37.0600182345528
 20
-72.0223001857753
 42
0.0241916586347373
 10
36.13669631592236
 20
-72.12312160961911
 42
-0.7981881545314194
 10
36.12117827463242
 20
-72.08434413890995
 42
-0.0739510193250121
 10
36.80397098394267
 20
-71.87494575477453
 42
0.6616602290387187
 10
36.87380204669771
 20
-71.60350341750447
 42
-0.0933326490372011
 10
36.6720678175527
 20
-71.37859408739139
 42
-0.2959364797399164
 10
36.39274356653249
 20
-71.65003642466145
 42
0.058200937003994
 10
36.15221429568746
 20
-71.72759136607975
 42
0.0176448574214693
 10
35.91944410701223
 20
-71.84392377820721
 42
-0.2089921064723258
 10
35.74098687827729
 20
-71.85943476649086
 42
0.085582151444854
 10
35.94272110742231
 20
-71.61901440578813
 42
-0.0710996626008915
 10
35.97375712847735
 20
-71.06061878527035
 42
-0.3969625758669922
 10
36.26859942078749
 20
-70.85122040113493
 42
0.1928205366680064
 10
36.03582917058743
 20
-70.67284399356683
 42
0.5162959994216712
 10
35.87289004466725
 20
-70.80468743628394
 42
-0.2128253359008956
 10
35.95048012806728
 20
-71.27777262124159
 42
-0.193280757547969
 10
35.66339679487726
 20
-71.36308309910773
 42
0.046534125578401
  0
ARC
  5
3EC
330
18
100
AcDbEntity
  8
0
100
AcDbCircle
 10
36.56334346933313
 20
-70.44108087347736
 30
0.0
 40
0.2705406086366781
100
AcDbArc
 50
203.4532201273442
 51
270.0208063152583
  0
ARC
  5
3ED
330
18
100
AcDbEntity
  8
0
100
AcDbCircle
 10
35.23657989958417
 20
-70.82652128938093
 30
0.0
 40
0.3079717444667403
100
AcDbArc
 50
269.8749739557308
 51
90.12502604426922
  0
ARC
  5
3EE
330
18
100
AcDbEntity
  8
0
100
AcDbCircle
 10
35.32313963073454
 20
-72.28243137736041
 30
0.0
 40
0.5175495383171911
100
AcDbArc
 50
306.6348127383687
 51
353.3794480175253
  0
ARC
  5
3EF
330
18
100
AcDbEntity
  8
0
100
AcDbCircle
 10
35.61981100329626
 20
-72.47055094596831
 30
0.0
 40
0.3236922172030783
100
AcDbArc
 50
209.3790036101478
 51
266.09312812802
  0
ARC
  5
3F0
330
18
100
AcDbEntity
  8
0
100
AcDbCircle
 10
36.85390751436706
 20
-70.91386407876568
 30
0.0
 40
1.802230181524723
100
AcDbArc
 50
186.718763145608
 51
226.7165229926715
  0
LWPOLYLINE
  5
3F1
330
18
100
AcDbEntity
  8
0
100
AcDbPolyline
 90
        5
 70
     0
 43
0.0
 10
36.36170754547745
 20
-71.13041823254682
 42
0.1458307700803835
 10
36.15997331633243
 20
-71.34757211082408
 42
-0.335580044186841
 10
36.15997331633243
 20
-71.16144020911415
 42
-0.2581119948607053
 10
36.36946650459758
 20
-71.06837427941218
 42
-0.9164463183121529
 10
36.36946650459758
 20
-71.12266273840498
 42
-0.0435982374718615
  0
ARC
  5
3F8
330
18
100
AcDbEntity
  8
0
100
AcDbCircle
 10
36.37675205662072
 20
-71.19365312480748
 30
0.0
 40
0.1695865426844493
100
AcDbArc
 50
267.5377769618739
 51
344.4922887948007
  0
LWPOLYLINE
  5
3F9
330
18
100
AcDbEntity
  8
0
100
AcDbPolyline
 90
        2
 70
     0
 43
0.0
 10
36.2049767615012
 20
-72.04629212118314
 42
-0.1254005969862207
 10
36.15221429568746
 20
-71.71983587193793
 42
1.093497588887877
  0
LWPOLYLINE
  5
3FD
330
18
100
AcDbEntity
  8
0
100
AcDbPolyline
 90
        3
 70
     0
 43
0.0
 10
36.4637691051808
 20
-71.95167632203117
 42
-0.0146982438049518
 10
36.4315386082325
 20
-71.91372322548367
 42
-0.1743114107953727
 10
36.41602056694256
 20
-71.64228093051962
 42
1.339258662032918
  0
ARC
  5
402
330
18
100
AcDbEntity
  8
0
100
AcDbCircle
 10
35.83193893900237
 20
-70.67503272210757
 30
0.0
 40
0.0549603872844637
100
AcDbArc
 50
27.59092059986212
 51
131.8085240129016
  0
LINE
  5
403
330
18
100
AcDbEntity
  8
0
100
AcDbLine
 10
35.89881882721399
 20
-72.67722393235269
 30
0.0
 11
35.9056611892651
 21
-72.57463542907463
 31
0.0
  0
ARC
  5
404
330
18
100
AcDbEntity
  8
0
100
AcDbCircle
 10
33.98113278000973
 20
-67.05801827261739
 30
0.0
 40
2.404299961010149
100
AcDbArc
 50
315.3269371143741
 51
327.7403771396169
  0
ARC
  5
405
330
18
100
AcDbEntity
  8
0
100
AcDbCircle
 10
36.46672642972164
 20
-70.38385533311288
 30
0.0
 40
1.390984920296278
100
AcDbArc
 50
116.3371357527956
 51
185.2022637397673
  0
LWPOLYLINE
  5
406
330
18
100
AcDbEntity
  8
0
100
AcDbPolyline
 90
        6
 70
     0
 43
0.0
 10
35.24772802230407
 20
-68.91001216660246
 10
35.15190640606274
 20
-68.91599829678587
 10
35.11597331535345
 20
-69.13149923722463
 42
-0.06993651572752
 10
34.94828557921839
 20
-69.26319427048364
 42
0.3321544166356015
 10
34.92433020592048
 20
-69.50263977396203
 42
0.4471682073111002
 10
35.05009602340298
 20
-69.52658433700168
 42
2.953879186401367
  0
ARC
  5
40E
330
18
100
AcDbEntity
  8
0
100
AcDbCircle
 10
35.94816951149704
 20
-69.65802016314552
 30
0.0
 40
1.065960608219879
100
AcDbArc
 50
56.18960968622719
 51
77.65884465853128
  0
ARC
  5
40F
330
18
100
AcDbEntity
  8
0
100
AcDbCircle
 10
36.08931213223431
 20
-69.22427525669395
 30
0.0
 40
0.8443548849578483
100
AcDbArc
 50
57.15138252905668
 51
84.92375078178067
  0
ARC
  5
410
330
18
100
AcDbEntity
  8
0
100
AcDbCircle
 10
36.60529595112881
 20
-69.239249728597
 30
0.0
 40
0.454238938898089
100
AcDbArc
 50
166.2780080264381
 51
183.7780657163707
  0
ARC
  5
411
330
18
100
AcDbEntity
  8
0
100
AcDbCircle
 10
36.48609782139176
 20
-69.05504911818117
 30
0.0
 40
0.1563270738339321
100
AcDbArc
 50
204.3591377604333
 51
279.3052785618663
  0
LWPOLYLINE
  5
412
330
18
100
AcDbEntity
  8
0
100
AcDbPolyline
 90
        2
 70
     0
 43
0.0
 10
36.30739446248751
 20
-69.7732065461965
 10
36.15221429568746
 20
-69.68014061649454
  0
LWPOLYLINE
  5
416
330
18
100
AcDbEntity
  8
0
100
AcDbPolyline
 90
        2
 70
     0
 43
0.0
 10
36.32291250377744
 20
-69.68014061649454
 10
36.21428639932238
 20
-69.64136314578539
  0
ARC
  5
41A
330
18
100
AcDbEntity
  8
0
100
AcDbCircle
 10
35.95865482071163
 20
-69.57882519678769
 30
0.0
 40
0.7973082136175541
100
AcDbArc
 50
41.77109263543701
 51
68.26924414599857
  0
LWPOLYLINE
  5
41B
330
18
100
AcDbEntity
  8
0
100
AcDbPolyline
 90
        2
 70
     0
 43
0.0
 10
36.30739446248751
 20
-69.92056097719729
 10
36.15997331633243
 20
-69.85076152992082
  0
LWPOLYLINE
  5
41F
330
18
100
AcDbEntity
  8
0
100
AcDbPolyline
 90
        2
 70
     0
 43
0.0
 10
36.35394852483249
 20
-70.10669283660121
 10
36.17549135762237
 20
-69.99811591861558
  0
LWPOLYLINE
  5
423
330
18
100
AcDbEntity
  8
0
100
AcDbPolyline
 90
        2
 70
     0
 43
0.0
 10
36.48585162969762
 20
-70.57977806386486
 10
36.33843048354254
 20
-70.39364616215493
  0
ARC
  5
427
330
18
100
AcDbEntity
  8
0
100
AcDbCircle
 10
36.36637331252223
 20
-69.18565865642688
 30
0.0
 40
0.4061405215153922
100
AcDbArc
 50
132.4680726592735
 51
181.6491117976027
  0
ARC
  5
428
330
18
100
AcDbEntity
  8
0
100
AcDbCircle
 10
37.73489754718411
 20
-70.01606491502862
 30
0.0
 40
2.196993266435864
100
AcDbArc
 50
139.8250672566683
 51
153.4985355315702
  0
LWPOLYLINE
  5
429
330
18
100
AcDbEntity
  8
0
100
AcDbPolyline
 90
        2
 70
     0
 43
0.0
 10
36.02031119082233
 20
-70.37813517387127
 10
36.17549135762237
 20
-70.5099786165884
  0
LWPOLYLINE
  5
42D
330
18
100
AcDbEntity
  8
0
100
AcDbPolyline
 90
        8
 70
     0
 43
0.0
 10
36.7962119632977
 20
-70.19975880860918
 42
-0.2785501239600217
 10
37.04450019326286
 20
-70.08342635417571
 42
0.1015338646243557
 10
37.36261954750792
 20
-70.05240437760839
 42
0.1391807064715752
 10
37.51779971430796
 20
-69.95158295376461
 42
-0.7072246780766439
 10
37.67297988110799
 20
-70.20751430275101
 42
0.1249713889328039
 10
37.548835735363
 20
-70.26955825588565
 42
-0.0914678894398301
 10
37.44020963090793
 20
-70.77366545971663
 42
-0.2313503476088783
 10
37.24623442240789
 20
-70.94428633083689
 42
-0.1341609253536637
  0
LWPOLYLINE
  5
437
330
18
100
AcDbEntity
  8
0
100
AcDbPolyline
 90
        3
 70
     0
 43
0.0
 10
37.88247306937315
 20
-70.40140165629677
 42
-0.1803441126754391
 10
37.73505192321808
 20
-70.88224237770226
 42
-0.3550955134532556
 10
36.88156106734269
 20
-70.70386597013414
 42
0.4759490048122272
  0
LWPOLYLINE
  5
43C
330
18
100
AcDbEntity
  8
0
100
AcDbPolyline
 90
        3
 70
     0
 43
0.0
 10
37.51779971430796
 20
-70.33160220902029
 42
-0.4283455618034779
 10
37.26175246369782
 20
-70.5642670755812
 42
0.2539979761160553
 10
36.87380204669771
 20
-70.64182201699951
 42
-0.3620759517603063
  0
LWPOLYLINE
  5
441
330
18
100
AcDbEntity
  8
0
100
AcDbPolyline
 90
        4
 70
     0
 43
0.0
 10
37.51779971430796
 20
-71.32430558609257
 10
37.51779971430796
 20
-71.45614902880969
 10
37.43245061026296
 20
-71.42512705224238
 10
37.26951142281795
 20
-71.30879459780891
  0
LWPOLYLINE
  5
447
330
18
100
AcDbEntity
  8
0
100
AcDbPolyline
 90
        3
 70
     0
 43
0.0
 10
37.44020963090793
 20
-71.41737155810054
 10
37.44020963090793
 20
-71.45614902880969
 10
37.16864433900787
 20
-71.44839353466785
  0
LWPOLYLINE
  5
44C
330
18
100
AcDbEntity
  8
0
100
AcDbPolyline
 90
        2
 70
     0
 43
0.0
 10
37.25399344305285
 20
-71.37083859324956
 10
37.12209027666288
 20
-71.23123965639061
  0
ARC
  5
450
330
18
100
AcDbEntity
  8
0
100
AcDbCircle
 10
37.53329893448358
 20
-69.83053989052121
 30
0.0
 40
1.040074833400258
100
AcDbArc
 50
247.1758302870343
 51
261.4204245060615
  0
ARC
  5
451
330
18
100
AcDbEntity
  8
0
100
AcDbCircle
 10
36.73407686974184
 20
-71.32042786017466
 30
0.0
 40
0.0799147330756009
100
AcDbArc
 50
165.9588886790454
 51
219.1096497434606
  0
ARC
  5
452
330
18
100
AcDbEntity
  8
0
100
AcDbCircle
 10
37.43202095981127
 20
-71.99453003299598
 30
0.0
 40
1.16855638160079
100
AcDbArc
 50
106.5674994557481
 51
122.9630343257164
  0
LWPOLYLINE
  5
453
330
18
100
AcDbEntity
  8
0
100
AcDbPolyline
 90
        2
 70
     0
 43
0.0
 10
37.10657229689779
 20
-71.29328360952526
 10
37.00570515156285
 20
-71.22348416224878
  0
ARC
  5
457
330
18
100
AcDbEntity
  8
0
100
AcDbCircle
 10
37.76171172573429
 20
-70.86038039424441
 30
0.0
 40
0.4193481684914943
100
AcDbArc
 50
253.4049851904709
 51
312.5728751150836
  0
ARC
  5
458
330
18
100
AcDbEntity
  8
0
100
AcDbCircle
 10
37.55304644968962
 20
-72.63328899730367
 30
0.0
 40
0.2702857337834048
100
AcDbArc
 50
6.649248653778437
 51
71.95500935759717
  0
ARC
  5
459
330
18
100
AcDbEntity
  8
0
100
AcDbCircle
 10
38.58641177918419
 20
-72.6501937690938
 30
0.0
 40
0.6566924924842819
100
AcDbArc
 50
153.3635179955465
 51
170.9835757173273
  0
ARC
  5
45A
330
18
100
AcDbEntity
  8
0
100
AcDbCircle
 10
37.66241562037787
 20
-72.38795301113099
 30
0.0
 40
0.4719023394267034
100
AcDbArc
 50
306.7363178147297
 51
347.192236453139
  0
ARC
  5
45B
330
18
100
AcDbEntity
  8
0
100
AcDbCircle
 10
37.69387213291688
 20
-70.02505566782331
 30
0.0
 40
0.1836508634483523
100
AcDbArc
 50
156.4176111513307
 51
263.4678503861259
  0
LWPOLYLINE
  5
45C
330
18
100
AcDbEntity
  8
0
100
AcDbPolyline
 90
        3
 70
     0
 43
0.0
 10
37.50228167301802
 20
-70.21526979689284
 42
-0.6138744916359848
 10
37.22295742199781
 20
-70.44793466345375
 42
0.1429205056440845
 10
36.83500700499771
 20
-70.54100059315572
 42
0.1429205056440845
  0
ARC
  5
461
330
18
100
AcDbEntity
  8
0
100
AcDbCircle
 10
37.48542406397087
 20
-71.08753739661745
 30
0.0
 40
1.408531776253561
100
AcDbArc
 50
104.9485840604984
 51
114.3426282088731
  0
ARC
  5
462
330
18
100
AcDbEntity
  8
0
100
AcDbCircle
 10
37.04019031497063
 20
-70.25440701720363
 30
0.0
 40
0.2551595858406322
100
AcDbArc
 50
103.0838413970442
 51
133.0395798771794
  0
ARC
  5
463
330
18
100
AcDbEntity
  8
0
100
AcDbCircle
 10
33.32293520486372
 20
-63.18615290085556
 30
0.0
 40
7.650255454445279
100
AcDbArc
 50
297.3276944969333
 51
299.6418326724878
  0
LWPOLYLINE
  5
464
330
18
100
AcDbEntity
  8
0
100
AcDbPolyline
 90
        4
 70
     0
 43
0.0
 10
33.08717154738306
 20
-66.85078092976148
 42
0.2705750539611953
 10
32.99134999266657
 20
-67.19199073096984
 42
-0.1465776510314745
 10
32.9793722752552
 20
-67.52122831411738
 42
0.0027800348134354
 10
32.9134949217799
 20
-67.7187708216999
 42
1.251273241215836
  0
LWPOLYLINE
  5
46A
330
18
100
AcDbEntity
  8
0
100
AcDbPolyline
 90
        5
 70
     0
 43
0.0
 10
33.51836863589451
 20
-67.15607390756338
 42
-0.1139905216132299
 10
33.09914926479444
 20
-66.83880862708867
 42
0.3461777869302167
 10
32.81767336706341
 20
-67.06029574001682
 42
0.0281074375493507
 10
32.85959528571597
 20
-67.40150554122519
 42
-0.2372404745829344
 10
32.83563991241805
 20
-67.74870151492295
 42
1.754582701568895
  0
LWPOLYLINE
  5
471
330
18
100
AcDbEntity
  8
0
100
AcDbPolyline
 90
       18
 70
     0
 43
0.0
 10
33.33870318234807
 20
-66.10849985628665
 42
-0.1937726929856123
 10
33.32672552646154
 20
-66.35393148994847
 42
-0.0038635409391967
 10
33.11711581014908
 20
-66.64725224968954
 42
0.2410762670797296
 10
33.08717154738306
 20
-66.83880862708867
 42
0.1703704270595238
 10
32.68591872163764
 20
-66.95254522749144
 42
0.0669705221778731
 10
32.59009710539631
 20
-67.31769963404545
 42
-0.0711422459331303
 10
32.49427555067982
 20
-67.67088173792664
 42
0.3536027236793022
 10
32.70388526699228
 20
-67.86842428781516
 42
-0.2157090579290796
 10
32.9134949217799
 20
-67.7127846915165
 42
0.2054325455793654
 10
33.3686474451141
 20
-67.59904809111372
 42
0.30646814296604
 10
33.51836863589451
 20
-67.15607390756338
 42
0.468471463666464
 10
33.76990033238437
 20
-66.97050366034767
 42
-0.056897902187786
 10
33.8477553417462
 20
-66.50957108624712
 42
-0.0688037039763017
 10
33.91962152316478
 20
-66.34794535976505
 42
0.5029388012962654
 10
33.68605643355441
 20
-66.53950177947017
 42
0.1098193418480864
 10
33.62616790802237
 20
-66.21625032650604
 42
0.0261813875441285
 10
33.47045788929869
 20
-66.42576513676138
 42
0.2805087656360718
 10
33.33870318234807
 20
-66.10251372610325
 42
-3.033838641347707
  0
LWPOLYLINE
  5
485
330
18
100
AcDbEntity
  8
0
100
AcDbPolyline
 90
        5
 70
     0
 43
0.0
 10
31.60988100907618
 20
-67.47697608181126
 42
-0.081956587323303
 10
31.54803747482698
 20
-66.84479475727207
 42
-0.2484354962630672
 10
32.24274391571481
 20
-65.71940092899902
 42
-0.2369356147133356
 10
33.33870318234807
 20
-65.6475672821861
 42
-0.3226612768640069
 10
33.77588916032763
 20
-66.36590379262128
 42
0.2915388422424349
  0
ARC
  5
48C
330
18
100
AcDbEntity
  8
0
100
AcDbCircle
 10
31.90856317238663
 20
-67.70636708240971
 30
0.0
 40
0.430258875676852
100
AcDbArc
 50
169.0901385132526
 51
190.9098614867475
  0
ARC
  5
48D
330
18
100
AcDbEntity
  8
0
100
AcDbCircle
 10
32.40538389272985
 20
-69.4525572144332
 30
0.0
 40
1.834211007514786
100
AcDbArc
 50
113.0300560221883
 51
120.0793006314673
  0
ARC
  5
48E
330
18
100
AcDbEntity
  8
0
100
AcDbCircle
 10
34.17067186469278
 20
-91.25326996820209
 30
0.0
 40
23.16130112914279
100
AcDbArc
 50
96.07663137951503
 51
97.08134923585483
  0
ARC
  5
48F
330
18
100
AcDbEntity
  8
0
100
AcDbCircle
 10
31.87194351848452
 20
-69.33292856907232
 30
0.0
 40
1.327368121563096
100
AcDbArc
 50
95.94907999640666
 51
111.5114979235021
  0
ARC
  5
490
330
18
100
AcDbEntity
  8
0
100
AcDbCircle
 10
32.48303927935159
 20
-67.90555489992948
 30
0.0
 40
0.2289629059820673
100
AcDbArc
 50
7.817844989426161
 51
87.18710062948614
  0
LINE
  5
491
330
18
100
AcDbEntity
  8
0
100
AcDbLine
 10
33.32672552646154
 20
-66.88071158067853
 30
0.0
 11
33.44650245447594
 21
-66.66521064023978
 31
0.0
  0
LINE
  5
492
330
18
100
AcDbEntity
  8
0
100
AcDbLine
 10
33.08717154738306
 20
-67.51524218393398
 30
0.0
 11
33.17101544621301
 21
-67.55714513752384
 31
0.0
  0
LINE
  5
493
330
18
100
AcDbEntity
  8
0
100
AcDbLine
 10
33.16502661826975
 20
-67.45538079748787
 30
0.0
 11
33.23689279968832
 21
-67.50925601144456
 31
0.0
  0
ARC
  5
494
330
18
100
AcDbEntity
  8
0
100
AcDbCircle
 10
33.90586344836433
 20
-66.97831622472553
 30
0.0
 40
0.7118938707788014
100
AcDbArc
 50
128.3182115879216
 51
176.9608619294229
  0
LINE
  5
495
330
18
100
AcDbEntity
  8
0
100
AcDbLine
 10
33.29079243575225
 20
-67.26382437778275
 30
0.0
 11
33.41056936376665
 21
-67.31769963404545
 31
0.0
  0
LINE
  5
496
330
18
100
AcDbEntity
  8
0
100
AcDbLine
 10
33.27881471834088
 20
-67.36558871781872
 30
0.0
 11
33.35068089975945
 21
-67.43742236463164
 31
0.0
  0
ARC
  5
497
330
18
100
AcDbEntity
  8
0
100
AcDbCircle
 10
33.27726193306958
 20
-66.61144059366598
 30
0.0
 40
0.4081692256834111
100
AcDbArc
 50
274.4257225735434
 51
9.298716619245466
  0
LWPOLYLINE
  5
498
330
18
100
AcDbEntity
  8
0
100
AcDbPolyline
 90
        5
 70
     0
 43
0.0
 10
37.40175845614414
 20
-67.47697608181124
 42
0.0819565873233028
 10
37.46360199039335
 20
-66.84479475727207
 42
0.2484354962630672
 10
36.76889554950551
 20
-65.71940092899902
 42
0.2369356147133356
 10
35.67293628287225
 20
-65.6475672821861
 42
0.3226612768640069
 10
35.23575030489269
 20
-66.36590379262128
 42
-0.2915388422424349
  0
ARC
  5
49F
330
18
100
AcDbEntity
  8
0
100
AcDbCircle
 10
35.105776016856
 20
-66.97831622472553
 30
0.0
 40
0.7118938707788014
100
AcDbArc
 50
3.039138070577064
 51
51.6817884120783
  0
LWPOLYLINE
  5
4A0
330
18
100
AcDbEntity
  8
0
100
AcDbPolyline
 90
       18
 70
     0
 43
0.0
 10
35.67293628287225
 20
-66.10849985628665
 42
0.1937726929856123
 10
35.68491393875878
 20
-66.35393148994847
 42
0.0038635409391967
 10
35.89452365507124
 20
-66.64725224968954
 42
-0.2410762670797296
 10
35.92446791783726
 20
-66.83880862708867
 42
-0.1703704270595238
 10
36.32572074358269
 20
-66.95254522749144
 42
-0.0669705221778731
 10
36.42154235982401
 20
-67.31769963404545
 42
0.0711422459331303
 10
36.5173639145405
 20
-67.67088173792664
 42
-0.3536027236793022
 10
36.30775419822804
 20
-67.86842428781516
 42
0.2157090579290796
 10
36.09814454344043
 20
-67.7127846915165
 42
-0.2054325455793654
 10
35.64299202010623
 20
-67.59904809111372
 42
-0.30646814296604
 10
35.49327082932581
 20
-67.15607390756338
 42
-0.468471463666464
 10
35.24173913283596
 20
-66.97050366034767
 42
0.056897902187786
 10
35.16388412347412
 20
-66.50957108624712
 42
0.0688037039763017
 10
35.09201794205555
 20
-66.34794535976505
 42
-0.5029388012962654
 10
35.32558303166591
 20
-66.53950177947017
 42
-0.1098193418480864
 10
35.38547155719795
 20
-66.21625032650604
 42
-0.0261813875441285
 10
35.54118157592164
 20
-66.42576513676138
 42
-0.2805087656360718
 10
35.67293628287225
 20
-66.10251372610325
 42
3.033838641347707
  0
LWPOLYLINE
  5
4B4
330
18
100
AcDbEntity
  8
0
100
AcDbPolyline
 90
        5
 70
     0
 43
0.0
 10
35.49327082932581
 20
-67.15607390756338
 42
0.1139905216132299
 10
35.91249020042588
 20
-66.83880862708867
 42
-0.3461777869302167
 10
36.19396609815692
 20
-67.06029574001682
 42
-0.0281074375493507
 10
36.15204417950435
 20
-67.40150554122519
 42
0.2372404745829344
 10
36.17599955280227
 20
-67.74870151492295
 42
-1.754582701568895
  0
LINE
  5
4BB
330
18
100
AcDbEntity
  8
0
100
AcDbLine
 10
35.68491393875878
 20
-66.88071158067853
 30
0.0
 11
35.56513701074438
 21
-66.66521064023978
 31
0.0
  0
LINE
  5
4BC
330
18
100
AcDbEntity
  8
0
100
AcDbLine
 10
35.73282474687945
 20
-67.36558871781872
 30
0.0
 11
35.66095856546087
 21
-67.43742236463164
 31
0.0
  0
LINE
  5
4BD
330
18
100
AcDbEntity
  8
0
100
AcDbLine
 10
35.72084702946807
 20
-67.26382437778275
 30
0.0
 11
35.60107010145367
 21
-67.31769963404545
 31
0.0
  0
ARC
  5
4BE
330
18
100
AcDbEntity
  8
0
100
AcDbCircle
 10
35.73437753215074
 20
-66.61144059366598
 30
0.0
 40
0.4081692256834111
100
AcDbArc
 50
170.7012833807545
 51
265.5742774264564
  0
ARC
  5
4BF
330
18
100
AcDbEntity
  8
0
100
AcDbCircle
 10
36.52860018586873
 20
-67.90555489992948
 30
0.0
 40
0.2289629059820673
100
AcDbArc
 50
92.81289937051386
 51
172.1821550105738
  0
LINE
  5
4C0
330
18
100
AcDbEntity
  8
0
100
AcDbLine
 10
35.84661284695057
 20
-67.45538079748787
 30
0.0
 11
35.774746665532
 21
-67.50925601144456
 31
0.0
  0
LINE
  5
4C1
330
18
100
AcDbEntity
  8
0
100
AcDbLine
 10
35.92446791783726
 20
-67.51524218393398
 30
0.0
 11
35.8406240190073
 21
-67.55714513752384
 31
0.0
  0
LWPOLYLINE
  5
4C2
330
18
100
AcDbEntity
  8
0
100
AcDbPolyline
 90
        4
 70
     0
 43
0.0
 10
35.92446791783726
 20
-66.85078092976148
 42
-0.2705750539611953
 10
36.02028947255375
 20
-67.19199073096984
 42
0.1465776510314745
 10
36.03226718996512
 20
-67.52122831411738
 42
-0.0027800348134354
 10
36.09814454344043
 20
-67.7187708216999
 42
-1.251273241215836
  0
ARC
  5
4C8
330
18
100
AcDbEntity
  8
0
100
AcDbCircle
 10
37.10307629283369
 20
-67.70636708240971
 30
0.0
 40
0.430258875676852
100
AcDbArc
 50
349.0901385132525
 51
10.9098614867473
  0
ARC
  5
4C9
330
18
100
AcDbEntity
  8
0
100
AcDbCircle
 10
37.13969594673581
 20
-69.33292856907232
 30
0.0
 40
1.327368121563096
100
AcDbArc
 50
68.48850207649788
 51
84.05092000359337
  0
ARC
  5
4CA
330
18
100
AcDbEntity
  8
0
100
AcDbCircle
 10
34.84096760052755
 20
-91.25326996820209
 30
0.0
 40
23.16130112914279
100
AcDbArc
 50
82.9186507641452
 51
83.923368620485
  0
ARC
  5
4CB
330
18
100
AcDbEntity
  8
0
100
AcDbCircle
 10
36.60625557249048
 20
-69.4525572144332
 30
0.0
 40
1.834211007514786
100
AcDbArc
 50
59.92069936853268
 51
66.96994397781164
  0
ARC
  5
4CC
330
18
100
AcDbEntity
  8
0
100
AcDbCircle
 10
38.8299887733186
 20
-68.32508983665481
 30
0.0
 40
0.9569411321011546
100
AcDbArc
 50
158.9701325730721
 51
176.6181941626008
  0
ARC
  5
4CD
330
18
100
AcDbEntity
  8
0
100
AcDbCircle
 10
40.16922833901782
 20
-68.24537881914778
 30
0.0
 40
2.440703725200849
100
AcDbArc
 50
169.9348391886884
 51
175.8087454927652
  0
TEXT
  5
4DB
330
18
100
AcDbEntity
  8
ADPDIM
100
AcDbText
 10
18.39765667055451
 20
-79.0933421237112
 30
0.0
 40
0.3125
  1
J U L I U S  B L U M  &  C O . ,  I N C .      ( 8 0 0 )  5 2 6 - 6 2 9 3        W W W . J U L I U S B L U M . C O M        P A R T  N o .  5 7 0
 41
1.25
  7
ARIAL_WIDE
 72
     1
 11
34.48442551434715
 21
-78.7808421237112
 31
0.0
100
AcDbText
 73
     3
  0
ENDSEC
  0
SECTION
  2
OBJECTS
  0
DICTIONARY
  5
C
330
0
100
AcDbDictionary
  3
ACAD_GROUP
350
D
  3
ACAD_LAYOUT
350
4D4
  3
ACAD_MLINESTYLE
350
E
  3
ACAD_PLOTSETTINGS
350
4D5
  3
ACAD_PLOTSTYLENAME
350
4D2
  3
ACDBHEADERROUNDTRIPXREC
350
624
  3
ACDBVARIABLEDICTIONARY
350
535
  0
DICTIONARY
  5
52F
330
18
100
AcDbDictionary
280
     1
  3
ACAD_LAYOUTSELFREF
360
645
  0
DICTIONARY
  5
52D
330
15
100
AcDbDictionary
280
     1
  3
ACAD_LAYOUTSELFREF
360
644
  0
DICTIONARY
  5
D
102
{ACAD_REACTORS
330
C
102
}
330
C
100
AcDbDictionary
  0
DICTIONARY
  5
4D4
102
{ACAD_REACTORS
330
C
102
}
330
C
100
AcDbDictionary
  0
DICTIONARY
  5
E
102
{ACAD_REACTORS
330
C
102
}
330
C
100
AcDbDictionary
  3
STANDARD
350
1B
  0
DICTIONARY
  5
4D5
102
{ACAD_REACTORS
330
C
102
}
330
C
100
AcDbDictionary
  0
ACDBDICTIONARYWDFLT
  5
4D2
102
{ACAD_REACTORS
330
C
102
}
330
C
100
AcDbDictionary
281
     1
  3
Normal
350
4D3
100
AcDbDictionaryWithDefault
340
4D3
  0
DICTIONARY
  5
624
102
{ACAD_REACTORS
330
C
102
}
330
C
100
AcDbDictionary
  3
CEPSNTYPE
350
62E
  3
FINGERPRINTGUID
350
62F
  3
HYPERLINKBASE
350
627
  3
INSUNITS
350
62D
  3
LAYOUTDICT
350
629
  3
LWETCUNION
350
62C
  3
PLOTSETDICT
350
62A
  3
PLOTSTYLNAMDICT
350
62B
  3
PSVPSCALE
350
631
  3
PUCSBASE
350
634
  3
PUCSORGBACK
350
63A
  3
PUCSORGBOTTOM
350
636
  3
PUCSORGFRONT
350
639
  3
PUCSORGLEFT
350
637
  3
PUCSORGRIGHT
350
638
  3
PUCSORGTOP
350
635
  3
PUCSORTHOREF
350
632
  3
PUCSORTHOVIEW
350
633
  3
STYLESHEET
350
628
  3
TSTACKALIGN
350
625
  3
TSTACKSIZE
350
626
  3
UCSBASE
350
63D
  3
UCSORGBACK
350
643
  3
UCSORGBOTTOM
350
63F
  3
UCSORGFRONT
350
642
  3
UCSORGLEFT
350
640
  3
UCSORGRIGHT
350
641
  3
UCSORGTOP
350
63E
  3
UCSORTHOREF
350
63B
  3
UCSORTHOVIEW
350
63C
  3
VERSIONGUID
350
630
  0
DICTIONARY
  5
535
102
{ACAD_REACTORS
330
C
102
}
330
C
100
AcDbDictionary
  3
DIMASSOC
350
536
  0
XRECORD
  5
645
102
{ACAD_REACTORS
330
52F
102
}
330
52F
100
AcDbXrecord
340
18
  0
XRECORD
  5
644
102
{ACAD_REACTORS
330
52D
102
}
330
52D
100
AcDbXrecord
340
15
  0
MLINESTYLE
  5
1B
102
{ACAD_REACTORS
330
E
102
}
330
E
100
AcDbMlineStyle
  2
STANDARD
 70
     0
  3

 62
     0
 51
90.0
 52
90.0
 71
     2
 49
0.5
 62
   256
  6
BYLAYER
 49
-0.5
 62
   256
  6
BYLAYER
  0
ACDBPLACEHOLDER
  5
4D3
102
{ACAD_REACTORS
330
4D2
102
}
330
4D2
100
AcDbPlaceHolder
280
     0
  0
XRECORD
  5
62E
102
{ACAD_REACTORS
330
624
102
}
330
624
100
AcDbXrecord
 90
        0
  0
XRECORD
  5
62F
102
{ACAD_REACTORS
330
624
102
}
330
624
100
AcDbXrecord
  1
{9B207CCA-49A6-49D3-9AF9-36D7E739EE79}
  0
XRECORD
  5
627
102
{ACAD_REACTORS
330
624
102
}
330
624
100
AcDbXrecord
  1

  0
XRECORD
  5
62D
102
{ACAD_REACTORS
330
624
102
}
330
624
100
AcDbXrecord
 90
        0
  0
XRECORD
  5
629
102
{ACAD_REACTORS
330
624
102
}
330
624
100
AcDbXrecord
340
4D4
  0
XRECORD
  5
62C
102
{ACAD_REACTORS
330
624
102
}
330
624
100
AcDbXrecord
 90
    14877
  0
XRECORD
  5
62A
102
{ACAD_REACTORS
330
624
102
}
330
624
100
AcDbXrecord
340
4D5
  0
XRECORD
  5
62B
102
{ACAD_REACTORS
330
624
102
}
330
624
100
AcDbXrecord
340
4D2
  0
XRECORD
  5
631
102
{ACAD_REACTORS
330
624
102
}
330
624
100
AcDbXrecord
 40
0.0
  0
XRECORD
  5
634
102
{ACAD_REACTORS
330
624
102
}
330
624
100
AcDbXrecord
340
0
  0
XRECORD
  5
63A
102
{ACAD_REACTORS
330
624
102
}
330
624
100
AcDbXrecord
 10
0.0
 20
0.0
 30
0.0
  0
XRECORD
  5
636
102
{ACAD_REACTORS
330
624
102
}
330
624
100
AcDbXrecord
 10
0.0
 20
0.0
 30
0.0
  0
XRECORD
  5
639
102
{ACAD_REACTORS
330
624
102
}
330
624
100
AcDbXrecord
 10
0.0
 20
0.0
 30
0.0
  0
XRECORD
  5
637
102
{ACAD_REACTORS
330
624
102
}
330
624
100
AcDbXrecord
 10
0.0
 20
0.0
 30
0.0
  0
XRECORD
  5
638
102
{ACAD_REACTORS
330
624
102
}
330
624
100
AcDbXrecord
 10
0.0
 20
0.0
 30
0.0
  0
XRECORD
  5
635
102
{ACAD_REACTORS
330
624
102
}
330
624
100
AcDbXrecord
 10
0.0
 20
0.0
 30
0.0
  0
XRECORD
  5
632
102
{ACAD_REACTORS
330
624
102
}
330
624
100
AcDbXrecord
340
0
  0
XRECORD
  5
633
102
{ACAD_REACTORS
330
624
102
}
330
624
100
AcDbXrecord
 70
     0
  0
XRECORD
  5
628
102
{ACAD_REACTORS
330
624
102
}
330
624
100
AcDbXrecord
  1

  0
XRECORD
  5
625
102
{ACAD_REACTORS
330
624
102
}
330
624
100
AcDbXrecord
 90
        1
  0
XRECORD
  5
626
102
{ACAD_REACTORS
330
624
102
}
330
624
100
AcDbXrecord
 90
       70
  0
XRECORD
  5
63D
102
{ACAD_REACTORS
330
624
102
}
330
624
100
AcDbXrecord
340
0
  0
XRECORD
  5
643
102
{ACAD_REACTORS
330
624
102
}
330
624
100
AcDbXrecord
 10
0.0
 20
0.0
 30
0.0
  0
XRECORD
  5
63F
102
{ACAD_REACTORS
330
624
102
}
330
624
100
AcDbXrecord
 10
0.0
 20
0.0
 30
0.0
  0
XRECORD
  5
642
102
{ACAD_REACTORS
330
624
102
}
330
624
100
AcDbXrecord
 10
0.0
 20
0.0
 30
0.0
  0
XRECORD
  5
640
102
{ACAD_REACTORS
330
624
102
}
330
624
100
AcDbXrecord
 10
0.0
 20
0.0
 30
0.0
  0
XRECORD
  5
641
102
{ACAD_REACTORS
330
624
102
}
330
624
100
AcDbXrecord
 10
0.0
 20
0.0
 30
0.0
  0
XRECORD
  5
63E
102
{ACAD_REACTORS
330
624
102
}
330
624
100
AcDbXrecord
 10
0.0
 20
0.0
 30
0.0
  0
XRECORD
  5
63B
102
{ACAD_REACTORS
330
624
102
}
330
624
100
AcDbXrecord
340
0
  0
XRECORD
  5
63C
102
{ACAD_REACTORS
330
624
102
}
330
624
100
AcDbXrecord
 70
     0
  0
XRECORD
  5
630
102
{ACAD_REACTORS
330
624
102
}
330
624
100
AcDbXrecord
  1
{0E3BA709-4FA8-4A80-8B87-BB1819715FDC}
  0
DICTIONARYVAR
  5
536
102
{ACAD_REACTORS
330
535
102
}
330
535
100
DictionaryVariables
280
     0
  1
1
  0
ENDSEC
  0
EOF
