  0
SECTION
  2
HEADER
  9
$ACADVER
  1
AC1014
  9
$ACADMAINTVER
 70
     9
  9
$DWGCODEPAGE
  3
ANSI_1252
  9
$INSBASE
 10
2.625987241798323
 20
7.672388563389691
 30
0.0
  9
$EXTMIN
 10
-8.737970807314908
 20
-0.7087677733021983
 30
0.0
  9
$EXTMAX
 10
17.36494529091155
 20
9.650565160898015
 30
0.0
  9
$LIMMIN
 10
0.0
 20
0.0
  9
$LIMMAX
 10
36.0
 20
36.0
  9
$ORTHOMODE
 70
     1
  9
$REGENMODE
 70
     1
  9
$FILLMODE
 70
     1
  9
$QTEXTMODE
 70
     0
  9
$MIRRTEXT
 70
     1
  9
$DRAGMODE
 70
     0
  9
$LTSCALE
 40
1.0
  9
$OSMODE
 70
    37
  9
$ATTMODE
 70
     1
  9
$TEXTSIZE
 40
0.2
  9
$TRACEWID
 40
0.05
  9
$TEXTSTYLE
  7
STANDARD
  9
$CLAYER
  8
ADPDIM
  9
$CELTYPE
  6
BYLAYER
  9
$CECOLOR
 62
   256
  9
$CELTSCALE
 40
1.0
  9
$DELOBJ
 70
     1
  9
$DISPSILH
 70
     0
  9
$DIMSCALE
 40
1.0
  9
$DIMASZ
 40
0.125
  9
$DIMEXO
 40
0.0625
  9
$DIMDLI
 40
0.38
  9
$DIMRND
 40
0.0
  9
$DIMDLE
 40
0.0
  9
$DIMEXE
 40
0.18
  9
$DIMTP
 40
0.0
  9
$DIMTM
 40
0.0
  9
$DIMTXT
 40
0.125
  9
$DIMCEN
 40
0.1875
  9
$DIMTSZ
 40
0.125
  9
$DIMTOL
 70
     0
  9
$DIMLIM
 70
     0
  9
$DIMTIH
 70
     0
  9
$DIMTOH
 70
     0
  9
$DIMSE1
 70
     0
  9
$DIMSE2
 70
     0
  9
$DIMTAD
 70
     0
  9
$DIMZIN
 70
     3
  9
$DIMBLK
  1

  9
$DIMASO
 70
     1
  9
$DIMSHO
 70
     1
  9
$DIMPOST
  1

  9
$DIMAPOST
  1

  9
$DIMALT
 70
     0
  9
$DIMALTD
 70
     1
  9
$DIMALTF
 40
25.4
  9
$DIMLFAC
 40
1.0
  9
$DIMTOFL
 70
     0
  9
$DIMTVP
 40
0.0
  9
$DIMTIX
 70
     0
  9
$DIMSOXD
 70
     0
  9
$DIMSAH
 70
     0
  9
$DIMBLK1
  1

  9
$DIMBLK2
  1

  9
$DIMSTYLE
  2
STANDARD
  9
$DIMCLRD
 70
     0
  9
$DIMCLRE
 70
     0
  9
$DIMCLRT
 70
     0
  9
$DIMTFAC
 40
1.0
  9
$DIMGAP
 40
0.125
  9
$DIMJUST
 70
     0
  9
$DIMSD1
 70
     0
  9
$DIMSD2
 70
     0
  9
$DIMTOLJ
 70
     1
  9
$DIMTZIN
 70
     0
  9
$DIMALTZ
 70
     0
  9
$DIMALTTZ
 70
     0
  9
$DIMFIT
 70
     3
  9
$DIMUPT
 70
     0
  9
$DIMUNIT
 70
     2
  9
$DIMDEC
 70
     4
  9
$DIMTDEC
 70
     4
  9
$DIMALTU
 70
     2
  9
$DIMALTTD
 70
     2
  9
$DIMTXSTY
  7
STANDARD
  9
$DIMAUNIT
 70
     0
  9
$LUNITS
 70
     5
  9
$LUPREC
 70
     4
  9
$SKETCHINC
 40
0.1
  9
$FILLETRAD
 40
0.125
  9
$AUNITS
 70
     0
  9
$AUPREC
 70
     0
  9
$MENU
  1
acad
  9
$ELEVATION
 40
0.0
  9
$PELEVATION
 40
0.0
  9
$THICKNESS
 40
0.0
  9
$LIMCHECK
 70
     0
  9
$BLIPMODE
 70
     0
  9
$CHAMFERA
 40
0.0
  9
$CHAMFERB
 40
0.0
  9
$CHAMFERC
 40
0.0
  9
$CHAMFERD
 40
0.0
  9
$SKPOLY
 70
     0
  9
$TDCREATE
 40
2450254.509443669
  9
$TDUPDATE
 40
2452297.091874629
  9
$TDINDWG
 40
0.0183513889
  9
$TDUSRTIMER
 40
0.0183513889
  9
$USRTIMER
 70
     1
  9
$ANGBASE
 50
0.0
  9
$ANGDIR
 70
     0
  9
$PDMODE
 70
     0
  9
$PDSIZE
 40
0.0
  9
$PLINEWID
 40
0.0
  9
$COORDS
 70
     2
  9
$SPLFRAME
 70
     0
  9
$SPLINETYPE
 70
     6
  9
$SPLINESEGS
 70
     8
  9
$ATTDIA
 70
     0
  9
$ATTREQ
 70
     1
  9
$HANDLING
 70
 22529
  9
$HANDSEED
  5
260
  9
$SURFTAB1
 70
     6
  9
$SURFTAB2
 70
     6
  9
$SURFTYPE
 70
     6
  9
$SURFU
 70
     6
  9
$SURFV
 70
     6
  9
$UCSNAME
  2

  9
$UCSORG
 10
0.0
 20
0.0
 30
0.0
  9
$UCSXDIR
 10
1.0
 20
0.0
 30
0.0
  9
$UCSYDIR
 10
0.0
 20
1.0
 30
0.0
  9
$PUCSNAME
  2

  9
$PUCSORG
 10
0.0
 20
0.0
 30
0.0
  9
$PUCSXDIR
 10
1.0
 20
0.0
 30
0.0
  9
$PUCSYDIR
 10
0.0
 20
1.0
 30
0.0
  9
$USERI1
 70
     0
  9
$USERI2
 70
     0
  9
$USERI3
 70
     0
  9
$USERI4
 70
     0
  9
$USERI5
 70
     0
  9
$USERR1
 40
0.0
  9
$USERR2
 40
0.0
  9
$USERR3
 40
0.0
  9
$USERR4
 40
0.0
  9
$USERR5
 40
0.0
  9
$WORLDVIEW
 70
     1
  9
$SHADEDGE
 70
     3
  9
$SHADEDIF
 70
    70
  9
$TILEMODE
 70
     1
  9
$MAXACTVP
 70
    15
  9
$PINSBASE
 10
0.1093764901161195
 20
0.0
 30
0.0
  9
$PLIMCHECK
 70
     0
  9
$PEXTMIN
 10
1.000000000000000E+20
 20
1.000000000000000E+20
 30
1.000000000000000E+20
  9
$PEXTMAX
 10
-1.000000000000000E+20
 20
-1.000000000000000E+20
 30
-1.000000000000000E+20
  9
$PLIMMIN
 10
0.0
 20
0.0
  9
$PLIMMAX
 10
12.0
 20
9.0
  9
$UNITMODE
 70
     0
  9
$VISRETAIN
 70
     0
  9
$PLINEGEN
 70
     0
  9
$PSLTSCALE
 70
     1
  9
$TREEDEPTH
 70
  3020
  9
$PICKSTYLE
 70
     1
  9
$CMLSTYLE
  2
STANDARD
  9
$CMLJUST
 70
     0
  9
$CMLSCALE
 40
1.0
  9
$PROXYGRAPHICS
 70
     1
  9
$MEASUREMENT
 70
     0
  0
ENDSEC
  0
SECTION
  2
CLASSES
  0
CLASS
  1
ACDBDICTIONARYWDFLT
  2
AcDbDictionaryWithDefault
  3
AutoCAD 2000
 90
        0
280
     0
281
     0
  0
CLASS
  1
ACDBPLACEHOLDER
  2
AcDbPlaceHolder
  3
AutoCAD 2000
 90
        0
280
     0
281
     0
  0
CLASS
  1
LAYOUT
  2
AcDbLayout
  3
AutoCAD 2000
 90
        0
280
     0
281
     0
  0
CLASS
  1
DICTIONARYVAR
  2
AcDbDictionaryVar
  3
AutoCAD 2000
 90
        0
280
     0
281
     0
  0
CLASS
  1
LONG_TRANSACTION
  2
AcDbLongTransaction
  3
AutoCAD 2000
 90
        0
280
     0
281
     0
  0
CLASS
  1
LWPOLYLINE
  2
AcDbPolyline
  3
AutoCAD 2000
 90
        0
280
     0
281
     1
  0
CLASS
  1
HATCH
  2
AcDbHatch
  3
AutoCAD 2000
 90
        0
280
     0
281
     1
  0
CLASS
  1
XRECORD
  2
AcDbXrecord
  3
AutoCAD 2000
 90
        0
280
     0
281
     0
  0
CLASS
  1
LONG_TRANSACTION
  2
AcDbLongTransaction
  3
AutoCAD 2000
 90
        0
280
     0
281
     0
  0
CLASS
  1
LWPOLYLINE
  2
AcDbPolyline
  3
AutoCAD 2000
 90
        0
280
     0
281
     1
  0
CLASS
  1
HATCH
  2
AcDbHatch
  3
AutoCAD 2000
 90
        0
280
     0
281
     1
  0
CLASS
  1
XRECORD
  2
AcDbXrecord
  3
AutoCAD 2000
 90
        0
280
     0
281
     0
  0
CLASS
  1
LONG_TRANSACTION
  2
AcDbLongTransaction
  3
AutoCAD 2000
 90
        0
280
     0
281
     0
  0
CLASS
  1
LWPOLYLINE
  2
AcDbPolyline
  3
AutoCAD 2000
 90
        0
280
     0
281
     1
  0
CLASS
  1
HATCH
  2
AcDbHatch
  3
AutoCAD 2000
 90
        0
280
     0
281
     1
  0
CLASS
  1
XRECORD
  2
AcDbXrecord
  3
AutoCAD 2000
 90
        0
280
     0
281
     0
  0
CLASS
  1
LONG_TRANSACTION
  2
AcDbLongTransaction
  3
AutoCAD 2000
 90
        0
280
     0
281
     0
  0
CLASS
  1
LWPOLYLINE
  2
AcDbPolyline
  3
AutoCAD 2000
 90
        0
280
     0
281
     1
  0
CLASS
  1
HATCH
  2
AcDbHatch
  3
AutoCAD 2000
 90
        0
280
     0
281
     1
  0
CLASS
  1
XRECORD
  2
AcDbXrecord
  3
AutoCAD 2000
 90
        0
280
     0
281
     0
  0
CLASS
  1
LONG_TRANSACTION
  2
AcDbLongTransaction
  3
AutoCAD 2000
 90
        0
280
     0
281
     0
  0
CLASS
  1
LWPOLYLINE
  2
AcDbPolyline
  3
AutoCAD 2000
 90
        0
280
     0
281
     1
  0
CLASS
  1
HATCH
  2
AcDbHatch
  3
AutoCAD 2000
 90
        0
280
     0
281
     1
  0
CLASS
  1
XRECORD
  2
AcDbXrecord
  3
AutoCAD 2000
 90
        0
280
     0
281
     0
  0
CLASS
  1
LONG_TRANSACTION
  2
AcDbLongTransaction
  3
AutoCAD 2000
 90
        0
280
     0
281
     0
  0
CLASS
  1
LWPOLYLINE
  2
AcDbPolyline
  3
AutoCAD 2000
 90
        0
280
     0
281
     1
  0
CLASS
  1
HATCH
  2
AcDbHatch
  3
AutoCAD 2000
 90
        0
280
     0
281
     1
  0
CLASS
  1
XRECORD
  2
AcDbXrecord
  3
AutoCAD 2000
 90
        0
280
     0
281
     0
  0
ENDSEC
  0
SECTION
  2
TABLES
  0
TABLE
  2
VPORT
  5
8
330
0
100
AcDbSymbolTable
 70
     2
  0
VPORT
  5
23D
330
8
100
AcDbSymbolTableRecord
100
AcDbViewportTableRecord
  2
*ACTIVE
 70
     0
 10
0.0
 20
0.0
 11
1.0
 21
1.0
 12
4.335019733528877
 22
4.470156114773454
 13
0.0
 23
0.0
 14
0.5740882589684922
 24
0.5740882589684922
 15
0.5
 25
0.5
 16
0.0
 26
0.0
 36
1.0
 17
0.0
 27
0.0
 37
0.0
 40
16.72949526116603
 41
1.570528967254408
 42
50.0
 43
0.0
 44
0.0
 50
0.0
 51
0.0
 71
     0
 72
   100
 73
     1
 74
     0
 75
     0
 76
     0
 77
     0
 78
     0
  0
ENDTAB
  0
TABLE
  2
LTYPE
  5
5
330
0
100
AcDbSymbolTable
 70
     2
  0
LTYPE
  5
12
330
5
100
AcDbSymbolTableRecord
100
AcDbLinetypeTableRecord
  2
BYBLOCK
 70
     0
  3

 72
    65
 73
     0
 40
0.0
  0
LTYPE
  5
13
330
5
100
AcDbSymbolTableRecord
100
AcDbLinetypeTableRecord
  2
BYLAYER
 70
     0
  3

 72
    65
 73
     0
 40
0.0
  0
LTYPE
  5
14
330
5
100
AcDbSymbolTableRecord
100
AcDbLinetypeTableRecord
  2
CONTINUOUS
 70
     0
  3
Solid line
 72
    65
 73
     0
 40
0.0
  0
LTYPE
  5
53
330
5
100
AcDbSymbolTableRecord
100
AcDbLinetypeTableRecord
  2
HIDDEN2
 70
     0
  3
_ _ _ _ _ _ _ _ _ _ _ _ _ _ _ _ _ _ _ _ _ _ _ _
 72
    65
 73
     2
 40
0.1875
 49
0.125
 74
     0
 49
-0.0625
 74
     0
  0
ENDTAB
  0
TABLE
  2
LAYER
  5
2
330
0
100
AcDbSymbolTable
 70
     5
  0
LAYER
  5
F
330
2
100
AcDbSymbolTableRecord
100
AcDbLayerTableRecord
  2
0
 70
     0
 62
     7
  6
CONTINUOUS
  0
LAYER
  5
54
330
2
100
AcDbSymbolTableRecord
100
AcDbLayerTableRecord
  2
ADP2DETAIL
 70
     0
 62
     5
  6
CONTINUOUS
  0
LAYER
  5
55
330
2
100
AcDbSymbolTableRecord
100
AcDbLayerTableRecord
  2
ADPDIM
 70
     0
 62
     3
  6
CONTINUOUS
  0
LAYER
  5
57
330
2
100
AcDbSymbolTableRecord
100
AcDbLayerTableRecord
  2
ADP1DETAIL
 70
     0
 62
     7
  6
CONTINUOUS
  0
LAYER
  5
59
330
2
100
AcDbSymbolTableRecord
100
AcDbLayerTableRecord
  2
DEFPOINTS
 70
     0
 62
     7
  6
CONTINUOUS
  0
ENDTAB
  0
TABLE
  2
STYLE
  5
3
330
0
100
AcDbSymbolTable
 70
     2
  0
STYLE
  5
10
330
3
100
AcDbSymbolTableRecord
100
AcDbTextStyleTableRecord
  2
STANDARD
 70
     0
 40
0.0
 41
1.0
 50
0.0
 71
     0
 42
0.2
  3
txt
  4

  0
STYLE
  5
CA
330
3
100
AcDbSymbolTableRecord
100
AcDbTextStyleTableRecord
  2
ARIAL_WIDE
 70
     0
 40
0.0
 41
1.25
 50
0.0
 71
     0
 42
0.2
  3
ARIAL.TTF
  4

1001
ACAD
1000
Arial
1071
       34
  0
ENDTAB
  0
TABLE
  2
VIEW
  5
6
330
0
100
AcDbSymbolTable
 70
     0
  0
ENDTAB
  0
TABLE
  2
UCS
  5
7
330
0
100
AcDbSymbolTable
 70
     0
  0
ENDTAB
  0
TABLE
  2
APPID
  5
9
330
0
100
AcDbSymbolTable
 70
     1
  0
APPID
  5
11
330
9
100
AcDbSymbolTableRecord
100
AcDbRegAppTableRecord
  2
ACAD
 70
     0
  0
ENDTAB
  0
TABLE
  2
DIMSTYLE
  5
A
330
0
100
AcDbSymbolTable
 70
     1
  0
DIMSTYLE
105
BE
330
A
100
AcDbSymbolTableRecord
100
AcDbDimStyleTableRecord
  2
STANDARD
 70
     0
  3

  4

  5

  6

  7

 40
1.0
 41
0.18
 42
0.0625
 43
0.38
 44
0.18
 45
0.0
 46
0.0
 47
0.0
 48
0.0
140
0.18
141
0.09
142
0.0
143
25.4
144
1.0
145
0.0
146
1.0
147
0.09
 71
     0
 72
     0
 73
     1
 74
     1
 75
     0
 76
     0
 77
     0
 78
     0
170
     0
171
     2
172
     0
173
     0
174
     0
175
     0
176
     0
177
     0
178
     0
270
     2
271
     4
272
     4
273
     2
274
     2
340
10
275
     0
280
     0
281
     0
282
     0
283
     1
284
     0
285
     0
286
     0
287
     3
288
     0
  0
ENDTAB
  0
TABLE
  2
BLOCK_RECORD
  5
1
330
0
100
AcDbSymbolTable
 70
     3
  0
BLOCK_RECORD
  5
18
102
{ACAD_XDICTIONARY
360
11F
102
}
330
1
100
AcDbSymbolTableRecord
100
AcDbBlockTableRecord
  2
*MODEL_SPACE
  0
BLOCK_RECORD
  5
15
102
{ACAD_XDICTIONARY
360
11D
102
}
330
1
100
AcDbSymbolTableRecord
100
AcDbBlockTableRecord
  2
*PAPER_SPACE
  0
BLOCK_RECORD
  5
3C
330
1
100
AcDbSymbolTableRecord
100
AcDbBlockTableRecord
  2
*D0
  0
BLOCK_RECORD
  5
3D
330
1
100
AcDbSymbolTableRecord
100
AcDbBlockTableRecord
  2
*D1
  0
BLOCK_RECORD
  5
3F
330
1
100
AcDbSymbolTableRecord
100
AcDbBlockTableRecord
  2
*D2
  0
ENDTAB
  0
ENDSEC
  0
SECTION
  2
BLOCKS
  0
BLOCK
  5
5C
330
18
100
AcDbEntity
  8
0
100
AcDbBlockBegin
  2
*MODEL_SPACE
 70
     0
 10
0.0
 20
0.0
 30
0.0
  3
*MODEL_SPACE
  1

  0
ENDBLK
  5
5D
330
18
100
AcDbEntity
  8
0
100
AcDbBlockEnd
  0
BLOCK
  5
5A
330
15
100
AcDbEntity
 67
     1
  8
0
100
AcDbBlockBegin
  2
*PAPER_SPACE
 70
     0
 10
0.0
 20
0.0
 30
0.0
  3
*PAPER_SPACE
  1

  0
ENDBLK
  5
5B
330
15
100
AcDbEntity
 67
     1
  8
0
100
AcDbBlockEnd
  0
BLOCK
  5
5F
330
3C
100
AcDbEntity
  8
0
100
AcDbBlockBegin
  2
*D0
 70
     1
 10
0.0
 20
0.0
 30
0.0
  3
*D0
  1

  0
LINE
  5
60
330
3C
100
AcDbEntity
  8
0
  6
BYBLOCK
 62
     0
100
AcDbLine
 10
2.625987241798323
 20
7.609888563389691
 30
0.0
 11
2.625987241798323
 21
7.19386238542302
 31
0.0
  0
LINE
  5
61
330
3C
100
AcDbEntity
  8
0
  6
BYBLOCK
 62
     0
100
AcDbLine
 10
6.000987241798323
 20
7.609888563389691
 30
0.0
 11
6.000987241798323
 21
7.19386238542302
 31
0.0
  0
LINE
  5
62
330
3C
100
AcDbEntity
  8
0
  6
BYBLOCK
 62
     0
100
AcDbLine
 10
2.625987241798323
 20
7.37386238542302
 30
0.0
 11
3.896820575131657
 21
7.37386238542302
 31
0.0
  0
LINE
  5
63
330
3C
100
AcDbEntity
  8
0
  6
BYBLOCK
 62
     0
100
AcDbLine
 10
6.000987241798323
 20
7.37386238542302
 30
0.0
 11
4.73015390846499
 21
7.37386238542302
 31
0.0
  0
LINE
  5
64
330
3C
100
AcDbEntity
  8
0
  6
BYBLOCK
 62
     0
100
AcDbLine
 10
2.500987241798323
 20
7.24886238542302
 30
0.0
 11
2.750987241798323
 21
7.49886238542302
 31
0.0
  0
LINE
  5
65
330
3C
100
AcDbEntity
  8
0
  6
BYBLOCK
 62
     0
100
AcDbLine
 10
5.875987241798323
 20
7.24886238542302
 30
0.0
 11
6.125987241798323
 21
7.49886238542302
 31
0.0
  0
TEXT
  5
66
330
3C
100
AcDbEntity
  8
0
  6
BYBLOCK
 62
     0
100
AcDbText
 10
4.021820575131656
 20
7.31136238542302
 30
0.0
 40
0.125
  1
3 3/8
 72
     1
 11
4.313487241798323
 21
7.37386238542302
 31
0.0
100
AcDbText
 73
     2
  0
POINT
  5
67
330
3C
100
AcDbEntity
  8
DEFPOINTS
  6
BYBLOCK
 62
     0
100
AcDbPoint
 10
2.625987241798323
 20
7.672388563389691
 30
0.0
  0
POINT
  5
68
330
3C
100
AcDbEntity
  8
DEFPOINTS
  6
BYBLOCK
 62
     0
100
AcDbPoint
 10
6.000987241798323
 20
7.672388563389691
 30
0.0
  0
POINT
  5
69
330
3C
100
AcDbEntity
  8
DEFPOINTS
  6
BYBLOCK
 62
     0
100
AcDbPoint
 10
6.000987241798323
 20
7.37386238542302
 30
0.0
  0
ENDBLK
  5
6A
330
3C
100
AcDbEntity
  8
0
100
AcDbBlockEnd
  0
BLOCK
  5
6B
330
3D
100
AcDbEntity
  8
0
100
AcDbBlockBegin
  2
*D1
 70
     1
 10
0.0
 20
0.0
 30
0.0
  3
*D1
  1

  0
LINE
  5
6C
330
3D
100
AcDbEntity
  8
0
  6
BYBLOCK
 62
     0
100
AcDbLine
 10
2.563487241798323
 20
7.672388563389691
 30
0.0
 11
2.087872523175947
 21
7.672388563389691
 31
0.0
  0
LINE
  5
6D
330
3D
100
AcDbEntity
  8
0
  6
BYBLOCK
 62
     0
100
AcDbLine
 10
4.250987241225175
 20
9.525565160898015
 30
0.0
 11
2.087872523175946
 21
9.525565160898015
 31
0.0
  0
LINE
  5
6E
330
3D
100
AcDbEntity
  8
0
  6
BYBLOCK
 62
     0
100
AcDbLine
 10
2.267872523175947
 20
7.672388563389691
 30
0.0
 11
2.267872523175947
 21
8.203143528810519
 31
0.0
  0
LINE
  5
6F
330
3D
100
AcDbEntity
  8
0
  6
BYBLOCK
 62
     0
100
AcDbLine
 10
2.267872523175947
 20
9.525565160898015
 30
0.0
 11
2.267872523175947
 21
8.994810195477187
 31
0.0
  0
LINE
  5
70
330
3D
100
AcDbEntity
  8
0
  6
BYBLOCK
 62
     0
100
AcDbLine
 10
2.392872523175947
 20
7.547388563389691
 30
0.0
 11
2.142872523175947
 21
7.797388563389691
 31
0.0
  0
LINE
  5
71
330
3D
100
AcDbEntity
  8
0
  6
BYBLOCK
 62
     0
100
AcDbLine
 10
2.392872523175947
 20
9.400565160898015
 30
0.0
 11
2.142872523175947
 21
9.650565160898015
 31
0.0
  0
TEXT
  5
72
330
3D
100
AcDbEntity
  8
0
  6
BYBLOCK
 62
     0
100
AcDbText
 10
2.330372523175947
 20
8.328143528810519
 30
0.0
 40
0.125
  1
1 7/8
 50
90.0
 72
     1
 11
2.267872523175947
 21
8.598976862143853
 31
0.0
100
AcDbText
 73
     2
  0
POINT
  5
73
330
3D
100
AcDbEntity
  8
DEFPOINTS
  6
BYBLOCK
 62
     0
100
AcDbPoint
 10
2.625987241798323
 20
7.672388563389691
 30
0.0
  0
POINT
  5
74
330
3D
100
AcDbEntity
  8
DEFPOINTS
  6
BYBLOCK
 62
     0
100
AcDbPoint
 10
4.313487241225175
 20
9.525565160898015
 30
0.0
  0
POINT
  5
75
330
3D
100
AcDbEntity
  8
DEFPOINTS
  6
BYBLOCK
 62
     0
100
AcDbPoint
 10
2.267872523175947
 20
9.525565160898015
 30
0.0
  0
ENDBLK
  5
76
330
3D
100
AcDbEntity
  8
0
100
AcDbBlockEnd
  0
BLOCK
  5
77
330
3F
100
AcDbEntity
  8
0
100
AcDbBlockBegin
  2
*D2
 70
     1
 10
0.0
 20
0.0
 30
0.0
  3
*D2
  1

  0
LINE
  5
78
330
3F
100
AcDbEntity
  8
0
  6
BYBLOCK
 62
     0
100
AcDbLine
 10
2.688487241798323
 20
6.922388563389691
 30
0.0
 11
2.095570978984938
 21
6.922388563389691
 31
0.0
  0
LINE
  5
79
330
3F
100
AcDbEntity
  8
0
  6
BYBLOCK
 62
     0
100
AcDbLine
 10
2.688487241798323
 20
0.5473885633896917
 30
0.0
 11
2.095570978984937
 21
0.5473885633896917
 31
0.0
  0
LINE
  5
7A
330
3F
100
AcDbEntity
  8
0
  6
BYBLOCK
 62
     0
100
AcDbLine
 10
2.275570978984938
 20
6.922388563389691
 30
0.0
 11
2.275570978984938
 21
4.151555230056358
 31
0.0
  0
LINE
  5
7B
330
3F
100
AcDbEntity
  8
0
  6
BYBLOCK
 62
     0
100
AcDbLine
 10
2.275570978984937
 20
0.5473885633896917
 30
0.0
 11
2.275570978984937
 21
3.318221896723025
 31
0.0
  0
LINE
  5
7C
330
3F
100
AcDbEntity
  8
0
  6
BYBLOCK
 62
     0
100
AcDbLine
 10
2.400570978984938
 20
6.797388563389691
 30
0.0
 11
2.150570978984938
 21
7.047388563389691
 31
0.0
  0
LINE
  5
7D
330
3F
100
AcDbEntity
  8
0
  6
BYBLOCK
 62
     0
100
AcDbLine
 10
2.400570978984937
 20
0.4223885633896917
 30
0.0
 11
2.150570978984937
 21
0.6723885633896917
 31
0.0
  0
TEXT
  5
7E
330
3F
100
AcDbEntity
  8
0
  6
BYBLOCK
 62
     0
100
AcDbText
 10
2.338070978984938
 20
3.443221896723025
 30
0.0
 40
0.125
  1
6 3/8
 50
90.0
 72
     1
 11
2.275570978984938
 21
3.734888563389691
 31
0.0
100
AcDbText
 73
     2
  0
POINT
  5
7F
330
3F
100
AcDbEntity
  8
DEFPOINTS
  6
BYBLOCK
 62
     0
100
AcDbPoint
 10
2.750987241798323
 20
6.922388563389691
 30
0.0
  0
POINT
  5
80
330
3F
100
AcDbEntity
  8
DEFPOINTS
  6
BYBLOCK
 62
     0
100
AcDbPoint
 10
2.750987241798323
 20
0.5473885633896916
 30
0.0
  0
POINT
  5
81
330
3F
100
AcDbEntity
  8
DEFPOINTS
  6
BYBLOCK
 62
     0
100
AcDbPoint
 10
2.275570978984937
 20
0.5473885633896917
 30
0.0
  0
ENDBLK
  5
82
330
3F
100
AcDbEntity
  8
0
100
AcDbBlockEnd
  0
ENDSEC
  0
SECTION
  2
ENTITIES
  0
DIMENSION
  5
83
330
18
100
AcDbEntity
  8
ADPDIM
100
AcDbDimension
  2
*D2
 10
2.275570978984937
 20
0.5473885633896917
 30
0.0
 11
2.275570978984938
 21
3.734888563389691
 31
0.0
100
AcDbAlignedDimension
 13
2.750987241798323
 23
6.922388563389691
 33
0.0
 14
2.750987241798323
 24
0.5473885633896916
 34
0.0
 50
90.0
100
AcDbRotatedDimension
  0
LINE
  5
84
330
18
100
AcDbEntity
  8
ADP2DETAIL
  6
HIDDEN2
100
AcDbLine
 10
2.750987241798323
 20
0.9223885633896916
 30
0.0
 11
2.750987241798323
 21
6.547388563389691
 31
0.0
  0
LINE
  5
85
330
18
100
AcDbEntity
  8
ADP2DETAIL
  6
HIDDEN2
100
AcDbLine
 10
5.875987241798323
 20
6.547388563389691
 30
0.0
 11
5.875987241798323
 21
0.9223885633896916
 31
0.0
  0
LINE
  5
86
330
18
100
AcDbEntity
  8
ADP1DETAIL
100
AcDbLine
 10
2.719737241798323
 20
0.7661385633896916
 30
0.0
 11
2.719737241798323
 21
6.703638563389691
 31
0.0
  0
LINE
  5
87
330
18
100
AcDbEntity
  8
ADP1DETAIL
100
AcDbLine
 10
5.907237241798323
 20
6.703638563389691
 30
0.0
 11
5.907237241798323
 21
0.7661385633896916
 31
0.0
  0
LINE
  5
88
330
18
100
AcDbEntity
  8
ADP1DETAIL
100
AcDbLine
 10
2.625987241798323
 20
0.6723885633896916
 30
0.0
 11
2.625987241798323
 21
6.797388563389691
 31
0.0
  0
LINE
  5
89
330
18
100
AcDbEntity
  8
ADP1DETAIL
100
AcDbLine
 10
6.000987241798323
 20
6.797388563389691
 30
0.0
 11
6.000987241798323
 21
0.6723885633896916
 31
0.0
  0
LINE
  5
8A
330
18
100
AcDbEntity
  8
ADP2DETAIL
  6
HIDDEN2
100
AcDbLine
 10
2.938487241798323
 20
1.109888563389691
 30
0.0
 11
2.938487241798323
 21
6.359888563389691
 31
0.0
  0
LINE
  5
8B
330
18
100
AcDbEntity
  8
ADP2DETAIL
  6
HIDDEN2
100
AcDbLine
 10
5.688487241798323
 20
6.359888563389691
 30
0.0
 11
5.688487241798324
 21
1.109888563389691
 31
0.0
  0
LINE
  5
8C
330
18
100
AcDbEntity
  8
ADP1DETAIL
100
AcDbLine
 10
4.313487241798323
 20
5.234888563389691
 30
0.0
 11
5.870625589446642
 21
6.792026911038011
 31
0.0
  0
LINE
  5
8D
330
18
100
AcDbEntity
  8
ADP1DETAIL
100
AcDbLine
 10
4.313487241798323
 20
5.234888563389691
 30
0.0
 11
2.756348894150004
 21
6.792026911038011
 31
0.0
  0
LINE
  5
8E
330
18
100
AcDbEntity
  8
ADP1DETAIL
100
AcDbLine
 10
4.313487241798323
 20
2.234888563389691
 30
0.0
 11
2.756348894150004
 21
0.6777502157413729
 31
0.0
  0
LINE
  5
8F
330
18
100
AcDbEntity
  8
ADP2DETAIL
  6
HIDDEN2
100
AcDbLine
 10
5.625987241798323
 20
0.6723885633896916
 30
0.0
 11
3.000987241798323
 21
0.6723885633896916
 31
0.0
  0
LINE
  5
90
330
18
100
AcDbEntity
  8
ADP1DETAIL
100
AcDbLine
 10
5.782237241798323
 20
0.6411385633896916
 30
0.0
 11
2.844737241798323
 21
0.6411385633896916
 31
0.0
  0
LINE
  5
91
330
18
100
AcDbEntity
  8
ADP1DETAIL
100
AcDbLine
 10
5.875987241798323
 20
0.5473885633896916
 30
0.0
 11
2.750987241798323
 21
0.5473885633896916
 31
0.0
  0
LINE
  5
92
330
18
100
AcDbEntity
  8
ADP2DETAIL
  6
HIDDEN2
100
AcDbLine
 10
5.438487241798324
 20
0.8598885633896916
 30
0.0
 11
3.188487241798323
 21
0.8598885633896916
 31
0.0
  0
ARC
  5
93
330
18
100
AcDbEntity
  8
ADP1DETAIL
100
AcDbCircle
 10
2.844737241798323
 20
0.7661385633896916
 30
0.0
 40
0.125
100
AcDbArc
 50
180.0
 51
270.0
  0
ARC
  5
94
330
18
100
AcDbEntity
  8
ADP2DETAIL
  6
HIDDEN2
100
AcDbCircle
 10
3.000987241798323
 20
0.9223885633896916
 30
0.0
 40
0.25
100
AcDbArc
 50
180.0
 51
270.0
  0
ARC
  5
95
330
18
100
AcDbEntity
  8
ADP1DETAIL
100
AcDbCircle
 10
2.750987241798323
 20
0.6723885633896916
 30
0.0
 40
0.125
100
AcDbArc
 50
180.0
 51
270.0
  0
ARC
  5
96
330
18
100
AcDbEntity
  8
ADP2DETAIL
  6
HIDDEN2
100
AcDbCircle
 10
3.188487241798323
 20
1.109888563389691
 30
0.0
 40
0.2500000000000004
100
AcDbArc
 50
180.0
 51
269.9999999999998
  0
LINE
  5
97
330
18
100
AcDbEntity
  8
ADP1DETAIL
100
AcDbLine
 10
4.313487241798323
 20
2.234888563389691
 30
0.0
 11
4.313487241798323
 21
5.234888563389691
 31
0.0
  0
LINE
  5
98
330
18
100
AcDbEntity
  8
ADP1DETAIL
100
AcDbLine
 10
4.313487241798323
 20
2.234888563389691
 30
0.0
 11
5.870625589446642
 21
0.6777502157413729
 31
0.0
  0
ARC
  5
99
330
18
100
AcDbEntity
  8
ADP2DETAIL
  6
HIDDEN2
100
AcDbCircle
 10
5.625987241798323
 20
0.9223885633896916
 30
0.0
 40
0.25
100
AcDbArc
 50
270.0
 51
0.0
  0
ARC
  5
9A
330
18
100
AcDbEntity
  8
ADP2DETAIL
  6
HIDDEN2
100
AcDbCircle
 10
5.438487241798324
 20
1.109888563389691
 30
0.0
 40
0.25
100
AcDbArc
 50
270.0
 51
0.0
  0
ARC
  5
9B
330
18
100
AcDbEntity
  8
ADP1DETAIL
100
AcDbCircle
 10
5.782237241798323
 20
0.7661385633896916
 30
0.0
 40
0.125
100
AcDbArc
 50
270.0
 51
0.0
  0
ARC
  5
9C
330
18
100
AcDbEntity
  8
ADP1DETAIL
100
AcDbCircle
 10
5.875987241798323
 20
0.6723885633896916
 30
0.0
 40
0.125
100
AcDbArc
 50
270.0
 51
0.0
  0
LINE
  5
9D
330
18
100
AcDbEntity
  8
ADP2DETAIL
  6
HIDDEN2
100
AcDbLine
 10
3.188487241798323
 20
6.609888563389691
 30
0.0
 11
5.438487241798323
 21
6.609888563389691
 31
0.0
  0
LINE
  5
9E
330
18
100
AcDbEntity
  8
ADP1DETAIL
100
AcDbLine
 10
2.750987241798323
 20
6.922388563389691
 30
0.0
 11
5.875987241798323
 21
6.922388563389691
 31
0.0
  0
LINE
  5
9F
330
18
100
AcDbEntity
  8
ADP1DETAIL
100
AcDbLine
 10
2.844737241798323
 20
6.828638563389691
 30
0.0
 11
5.782237241798323
 21
6.828638563389691
 31
0.0
  0
LINE
  5
A0
330
18
100
AcDbEntity
  8
ADP2DETAIL
  6
HIDDEN2
100
AcDbLine
 10
3.000987241798323
 20
6.797388563389691
 30
0.0
 11
5.625987241798323
 21
6.797388563389691
 31
0.0
  0
DIMENSION
  5
A1
330
18
100
AcDbEntity
  8
ADPDIM
100
AcDbDimension
  2
*D1
 10
2.267872523175947
 20
9.525565160898015
 30
0.0
 11
2.267872523175947
 21
8.598976862143853
 31
0.0
100
AcDbAlignedDimension
 13
2.625987241798323
 23
7.672388563389691
 33
0.0
 14
4.313487241225175
 24
9.525565160898015
 34
0.0
 50
90.0
100
AcDbRotatedDimension
  0
LINE
  5
A2
330
18
100
AcDbEntity
  8
ADP1DETAIL
100
AcDbLine
 10
2.625987241798323
 20
8.547388563389691
 30
0.0
 11
6.000987241798323
 21
8.547388563389691
 31
0.0
  0
LINE
  5
A3
330
18
100
AcDbEntity
  8
ADP1DETAIL
100
AcDbLine
 10
6.000987241798323
 20
7.672388563389691
 30
0.0
 11
2.625987241798323
 21
7.672388563389691
 31
0.0
  0
LINE
  5
A4
330
18
100
AcDbEntity
  8
ADP1DETAIL
100
AcDbLine
 10
2.719737241798323
 20
8.641138563389691
 30
0.0
 11
5.907237241798322
 21
8.641138563389691
 31
0.0
  0
DIMENSION
  5
A5
330
18
100
AcDbEntity
  8
ADPDIM
100
AcDbDimension
  2
*D0
 10
6.000987241798323
 20
7.37386238542302
 30
0.0
 11
4.313487241798323
 21
7.37386238542302
 31
0.0
100
AcDbAlignedDimension
 13
2.625987241798323
 23
7.672388563389691
 33
0.0
 14
6.000987241798323
 24
7.672388563389691
 34
0.0
100
AcDbRotatedDimension
  0
LINE
  5
A6
330
18
100
AcDbEntity
  8
ADP2DETAIL
  6
HIDDEN2
100
AcDbLine
 10
4.247915097476552
 20
9.360162122830681
 30
0.0
 11
2.930597120931188
 21
8.624238924825107
 31
0.0
  0
LINE
  5
A7
330
18
100
AcDbEntity
  8
ADP1DETAIL
100
AcDbLine
 10
4.247915097485548
 20
9.5069855253279
 30
0.0
 11
2.719737241798323
 21
8.641138563389691
 31
0.0
  0
ARC
  5
A8
330
18
100
AcDbEntity
  8
ADP1DETAIL
100
AcDbCircle
 10
2.844737241798323
 20
6.703638563389691
 30
0.0
 40
0.125
100
AcDbArc
 50
90.0
 51
180.0
  0
ARC
  5
A9
330
18
100
AcDbEntity
  8
ADP2DETAIL
  6
HIDDEN2
100
AcDbCircle
 10
3.000987241798323
 20
6.547388563389691
 30
0.0
 40
0.25
100
AcDbArc
 50
90.0
 51
180.0
  0
ARC
  5
AA
330
18
100
AcDbEntity
  8
ADP1DETAIL
100
AcDbCircle
 10
2.750987241798323
 20
6.797388563389691
 30
0.0
 40
0.125
100
AcDbArc
 50
90.0
 51
180.0
  0
ARC
  5
AB
330
18
100
AcDbEntity
  8
ADP2DETAIL
  6
HIDDEN2
100
AcDbCircle
 10
3.188487241798323
 20
6.359888563389691
 30
0.0
 40
0.25
100
AcDbArc
 50
90.0
 51
180.0
  0
LINE
  5
AC
330
18
100
AcDbEntity
  8
ADP2DETAIL
  6
HIDDEN2
100
AcDbLine
 10
2.750987241798323
 20
8.422388563389691
 30
0.0
 11
2.930597120931188
 21
8.422388563389691
 31
0.0
  0
LINE
  5
AD
330
18
100
AcDbEntity
  8
ADP1DETAIL
100
AcDbLine
 10
2.625987241798323
 20
7.672388563389691
 30
0.0
 11
2.625987241798323
 21
8.547388563389691
 31
0.0
  0
LINE
  5
AE
330
18
100
AcDbEntity
  8
ADP2DETAIL
  6
HIDDEN2
100
AcDbLine
 10
2.750987241798323
 20
7.672388563389691
 30
0.0
 11
2.750987241798323
 21
8.422388563389691
 31
0.0
  0
LINE
  5
AF
330
18
100
AcDbEntity
  8
ADP1DETAIL
100
AcDbLine
 10
2.719737241798323
 20
8.547388563389691
 30
0.0
 11
2.719737241798323
 21
8.641138563389691
 31
0.0
  0
LINE
  5
B0
330
18
100
AcDbEntity
  8
ADP2DETAIL
  6
HIDDEN2
100
AcDbLine
 10
2.930597120931188
 20
8.624238924825107
 30
0.0
 11
2.930597120931188
 21
8.422388563389691
 31
0.0
  0
LINE
  5
B1
330
18
100
AcDbEntity
  8
ADP1DETAIL
100
AcDbLine
 10
5.907237241798323
 20
8.641138563389691
 30
0.0
 11
4.379059384964802
 21
9.5069855253279
 31
0.0
  0
LINE
  5
B2
330
18
100
AcDbEntity
  8
ADP2DETAIL
  6
HIDDEN2
100
AcDbLine
 10
5.696301088728332
 20
8.624285921863581
 30
0.0
 11
4.379059384955805
 21
9.360162122841767
 31
0.0
  0
ARC
  5
B3
330
18
100
AcDbEntity
  8
ADP2DETAIL
  6
HIDDEN2
100
AcDbCircle
 10
5.438487241798323
 20
6.359888563389691
 30
0.0
 40
0.25
100
AcDbArc
 50
0.0
 51
90.0
  0
ARC
  5
B4
330
18
100
AcDbEntity
  8
ADP2DETAIL
  6
HIDDEN2
100
AcDbCircle
 10
5.625987241798323
 20
6.547388563389691
 30
0.0
 40
0.25
100
AcDbArc
 50
0.0
 51
90.0
  0
ARC
  5
B5
330
18
100
AcDbEntity
  8
ADP1DETAIL
100
AcDbCircle
 10
5.875987241798323
 20
6.797388563389691
 30
0.0
 40
0.125
100
AcDbArc
 50
0.0
 51
90.0
  0
ARC
  5
B6
330
18
100
AcDbEntity
  8
ADP1DETAIL
100
AcDbCircle
 10
5.782237241798323
 20
6.703638563389691
 30
0.0
 40
0.125
100
AcDbArc
 50
0.0
 51
90.0
  0
LINE
  5
B7
330
18
100
AcDbEntity
  8
ADP2DETAIL
  6
HIDDEN2
100
AcDbLine
 10
5.875987241798324
 20
8.422388563389691
 30
0.0
 11
5.875987241798323
 21
7.672388563389691
 31
0.0
  0
LINE
  5
B8
330
18
100
AcDbEntity
  8
ADP1DETAIL
100
AcDbLine
 10
6.000987241798323
 20
8.547388563389691
 30
0.0
 11
6.000987241798323
 21
7.672388563389691
 31
0.0
  0
LINE
  5
B9
330
18
100
AcDbEntity
  8
ADP2DETAIL
  6
HIDDEN2
100
AcDbLine
 10
5.696301088728331
 20
8.422388563389691
 30
0.0
 11
5.875987241798323
 21
8.422388563389691
 31
0.0
  0
LINE
  5
BA
330
18
100
AcDbEntity
  8
ADP2DETAIL
  6
HIDDEN2
100
AcDbLine
 10
5.696301088728333
 20
8.624285921863583
 30
0.0
 11
5.696301088728331
 21
8.422388563389691
 31
0.0
  0
LINE
  5
BB
330
18
100
AcDbEntity
  8
ADP1DETAIL
100
AcDbLine
 10
5.907237241798323
 20
8.641138563389691
 30
0.0
 11
5.907237241798322
 21
8.547388563389691
 31
0.0
  0
ARC
  5
BC
330
18
100
AcDbEntity
  8
ADP2DETAIL
  6
HIDDEN2
100
AcDbCircle
 10
4.313487241225174
 20
9.253741758406338
 30
0.0
 40
0.125
100
AcDbArc
 50
58.36021844960769
 51
121.6397815600787
  0
ARC
  5
BD
330
18
100
AcDbEntity
  8
ADP1DETAIL
100
AcDbCircle
 10
4.313487241225175
 20
9.400565160898015
 30
0.0
 40
0.125
100
AcDbArc
 50
58.36021844476447
 51
121.6397815552354
  0
TEXT
  5
CB
330
18
100
AcDbEntity
  8
ADPDIM
100
AcDbText
 10
-8.737970807314908
 20
-0.6347568592503566
 30
0.0
 40
0.25
  1
J U L I U S  B L U M  &  C O . ,  I N C .      ( 8 0 0 )  5 2 6 - 6 2 9 3        W W W . J U L I U S B L U M . C O M        P A R T  N o .  5 6 6 3
 41
1.25
  7
ARIAL_WIDE
 72
     1
 11
4.313487241798323
 21
-0.3847568592503565
 31
0.0
100
AcDbText
 73
     3
  0
ENDSEC
  0
SECTION
  2
OBJECTS
  0
DICTIONARY
  5
C
330
0
100
AcDbDictionary
  3
ACAD_GROUP
350
D
  3
ACAD_LAYOUT
350
C4
  3
ACAD_MLINESTYLE
350
E
  3
ACAD_PLOTSETTINGS
350
C5
  3
ACAD_PLOTSTYLENAME
350
C2
  3
ACDBHEADERROUNDTRIPXREC
350
23E
  3
ACDBVARIABLEDICTIONARY
350
125
  0
DICTIONARY
  5
11F
330
18
100
AcDbDictionary
280
     1
  3
ACAD_LAYOUTSELFREF
360
25F
  0
DICTIONARY
  5
11D
330
15
100
AcDbDictionary
280
     1
  3
ACAD_LAYOUTSELFREF
360
25E
  0
DICTIONARY
  5
D
102
{ACAD_REACTORS
330
C
102
}
330
C
100
AcDbDictionary
  0
DICTIONARY
  5
C4
102
{ACAD_REACTORS
330
C
102
}
330
C
100
AcDbDictionary
  0
DICTIONARY
  5
E
102
{ACAD_REACTORS
330
C
102
}
330
C
100
AcDbDictionary
  3
STANDARD
350
1B
  0
DICTIONARY
  5
C5
102
{ACAD_REACTORS
330
C
102
}
330
C
100
AcDbDictionary
  0
ACDBDICTIONARYWDFLT
  5
C2
102
{ACAD_REACTORS
330
C
102
}
330
C
100
AcDbDictionary
281
     1
  3
Normal
350
C3
100
AcDbDictionaryWithDefault
340
C3
  0
DICTIONARY
  5
23E
102
{ACAD_REACTORS
330
C
102
}
330
C
100
AcDbDictionary
  3
CEPSNTYPE
350
248
  3
FINGERPRINTGUID
350
249
  3
HYPERLINKBASE
350
241
  3
INSUNITS
350
247
  3
LAYOUTDICT
350
243
  3
LWETCUNION
350
246
  3
PLOTSETDICT
350
244
  3
PLOTSTYLNAMDICT
350
245
  3
PSVPSCALE
350
24B
  3
PUCSBASE
350
24E
  3
PUCSORGBACK
350
254
  3
PUCSORGBOTTOM
350
250
  3
PUCSORGFRONT
350
253
  3
PUCSORGLEFT
350
251
  3
PUCSORGRIGHT
350
252
  3
PUCSORGTOP
350
24F
  3
PUCSORTHOREF
350
24C
  3
PUCSORTHOVIEW
350
24D
  3
STYLESHEET
350
242
  3
TSTACKALIGN
350
23F
  3
TSTACKSIZE
350
240
  3
UCSBASE
350
257
  3
UCSORGBACK
350
25D
  3
UCSORGBOTTOM
350
259
  3
UCSORGFRONT
350
25C
  3
UCSORGLEFT
350
25A
  3
UCSORGRIGHT
350
25B
  3
UCSORGTOP
350
258
  3
UCSORTHOREF
350
255
  3
UCSORTHOVIEW
350
256
  3
VERSIONGUID
350
24A
  0
DICTIONARY
  5
125
102
{ACAD_REACTORS
330
C
102
}
330
C
100
AcDbDictionary
  3
DIMASSOC
350
126
  0
XRECORD
  5
25F
102
{ACAD_REACTORS
330
11F
102
}
330
11F
100
AcDbXrecord
340
18
  0
XRECORD
  5
25E
102
{ACAD_REACTORS
330
11D
102
}
330
11D
100
AcDbXrecord
340
15
  0
MLINESTYLE
  5
1B
102
{ACAD_REACTORS
330
E
102
}
330
E
100
AcDbMlineStyle
  2
STANDARD
 70
     0
  3

 62
     0
 51
90.0
 52
90.0
 71
     2
 49
0.5
 62
   256
  6
BYLAYER
 49
-0.5
 62
   256
  6
BYLAYER
  0
ACDBPLACEHOLDER
  5
C3
102
{ACAD_REACTORS
330
C2
102
}
330
C2
100
AcDbPlaceHolder
280
     0
  0
XRECORD
  5
248
102
{ACAD_REACTORS
330
23E
102
}
330
23E
100
AcDbXrecord
 90
        0
  0
XRECORD
  5
249
102
{ACAD_REACTORS
330
23E
102
}
330
23E
100
AcDbXrecord
  1
{4E8167E5-D791-4A25-BF2D-36E90EFA1DFF}
  0
XRECORD
  5
241
102
{ACAD_REACTORS
330
23E
102
}
330
23E
100
AcDbXrecord
  1

  0
XRECORD
  5
247
102
{ACAD_REACTORS
330
23E
102
}
330
23E
100
AcDbXrecord
 90
        0
  0
XRECORD
  5
243
102
{ACAD_REACTORS
330
23E
102
}
330
23E
100
AcDbXrecord
340
C4
  0
XRECORD
  5
246
102
{ACAD_REACTORS
330
23E
102
}
330
23E
100
AcDbXrecord
 90
    14877
  0
XRECORD
  5
244
102
{ACAD_REACTORS
330
23E
102
}
330
23E
100
AcDbXrecord
340
C5
  0
XRECORD
  5
245
102
{ACAD_REACTORS
330
23E
102
}
330
23E
100
AcDbXrecord
340
C2
  0
XRECORD
  5
24B
102
{ACAD_REACTORS
330
23E
102
}
330
23E
100
AcDbXrecord
 40
0.0
  0
XRECORD
  5
24E
102
{ACAD_REACTORS
330
23E
102
}
330
23E
100
AcDbXrecord
340
0
  0
XRECORD
  5
254
102
{ACAD_REACTORS
330
23E
102
}
330
23E
100
AcDbXrecord
 10
0.0
 20
0.0
 30
0.0
  0
XRECORD
  5
250
102
{ACAD_REACTORS
330
23E
102
}
330
23E
100
AcDbXrecord
 10
0.0
 20
0.0
 30
0.0
  0
XRECORD
  5
253
102
{ACAD_REACTORS
330
23E
102
}
330
23E
100
AcDbXrecord
 10
0.0
 20
0.0
 30
0.0
  0
XRECORD
  5
251
102
{ACAD_REACTORS
330
23E
102
}
330
23E
100
AcDbXrecord
 10
0.0
 20
0.0
 30
0.0
  0
XRECORD
  5
252
102
{ACAD_REACTORS
330
23E
102
}
330
23E
100
AcDbXrecord
 10
0.0
 20
0.0
 30
0.0
  0
XRECORD
  5
24F
102
{ACAD_REACTORS
330
23E
102
}
330
23E
100
AcDbXrecord
 10
0.0
 20
0.0
 30
0.0
  0
XRECORD
  5
24C
102
{ACAD_REACTORS
330
23E
102
}
330
23E
100
AcDbXrecord
340
0
  0
XRECORD
  5
24D
102
{ACAD_REACTORS
330
23E
102
}
330
23E
100
AcDbXrecord
 70
     0
  0
XRECORD
  5
242
102
{ACAD_REACTORS
330
23E
102
}
330
23E
100
AcDbXrecord
  1

  0
XRECORD
  5
23F
102
{ACAD_REACTORS
330
23E
102
}
330
23E
100
AcDbXrecord
 90
        1
  0
XRECORD
  5
240
102
{ACAD_REACTORS
330
23E
102
}
330
23E
100
AcDbXrecord
 90
       70
  0
XRECORD
  5
257
102
{ACAD_REACTORS
330
23E
102
}
330
23E
100
AcDbXrecord
340
0
  0
XRECORD
  5
25D
102
{ACAD_REACTORS
330
23E
102
}
330
23E
100
AcDbXrecord
 10
0.0
 20
0.0
 30
0.0
  0
XRECORD
  5
259
102
{ACAD_REACTORS
330
23E
102
}
330
23E
100
AcDbXrecord
 10
0.0
 20
0.0
 30
0.0
  0
XRECORD
  5
25C
102
{ACAD_REACTORS
330
23E
102
}
330
23E
100
AcDbXrecord
 10
0.0
 20
0.0
 30
0.0
  0
XRECORD
  5
25A
102
{ACAD_REACTORS
330
23E
102
}
330
23E
100
AcDbXrecord
 10
0.0
 20
0.0
 30
0.0
  0
XRECORD
  5
25B
102
{ACAD_REACTORS
330
23E
102
}
330
23E
100
AcDbXrecord
 10
0.0
 20
0.0
 30
0.0
  0
XRECORD
  5
258
102
{ACAD_REACTORS
330
23E
102
}
330
23E
100
AcDbXrecord
 10
0.0
 20
0.0
 30
0.0
  0
XRECORD
  5
255
102
{ACAD_REACTORS
330
23E
102
}
330
23E
100
AcDbXrecord
340
0
  0
XRECORD
  5
256
102
{ACAD_REACTORS
330
23E
102
}
330
23E
100
AcDbXrecord
 70
     0
  0
XRECORD
  5
24A
102
{ACAD_REACTORS
330
23E
102
}
330
23E
100
AcDbXrecord
  1
{5AB32141-BBFA-46B0-9C19-975BF11EDD11}
  0
DICTIONARYVAR
  5
126
102
{ACAD_REACTORS
330
125
102
}
330
125
100
DictionaryVariables
280
     0
  1
1
  0
ENDSEC
  0
EOF
