  0
SECTION
  2
HEADER
  9
$ACADVER
  1
AC1014
  9
$ACADMAINTVER
 70
     9
  9
$DWGCODEPAGE
  3
ANSI_1252
  9
$INSBASE
 10
85.62252734743202
 20
-22.49851721286012
 30
0.0
  9
$EXTMIN
 10
66.35824541259319
 20
-24.77488451444377
 30
0.0
  9
$EXTMAX
 10
104.9664906376955
 20
-10.26282606755936
 30
0.0
  9
$LIMMIN
 10
0.0
 20
0.0
  9
$LIMMAX
 10
36.0
 20
36.0
  9
$ORTHOMODE
 70
     1
  9
$REGENMODE
 70
     1
  9
$FILLMODE
 70
     1
  9
$QTEXTMODE
 70
     0
  9
$MIRRTEXT
 70
     1
  9
$DRAGMODE
 70
     0
  9
$LTSCALE
 40
1.0
  9
$OSMODE
 70
    37
  9
$ATTMODE
 70
     1
  9
$TEXTSIZE
 40
0.2
  9
$TRACEWID
 40
0.05
  9
$TEXTSTYLE
  7
STANDARD
  9
$CLAYER
  8
ADPDIM
  9
$CELTYPE
  6
BYLAYER
  9
$CECOLOR
 62
   256
  9
$CELTSCALE
 40
1.0
  9
$DELOBJ
 70
     1
  9
$DISPSILH
 70
     0
  9
$DIMSCALE
 40
1.0
  9
$DIMASZ
 40
0.125
  9
$DIMEXO
 40
0.0625
  9
$DIMDLI
 40
0.38
  9
$DIMRND
 40
0.0
  9
$DIMDLE
 40
0.0
  9
$DIMEXE
 40
0.18
  9
$DIMTP
 40
0.0
  9
$DIMTM
 40
0.0
  9
$DIMTXT
 40
0.125
  9
$DIMCEN
 40
0.1875
  9
$DIMTSZ
 40
0.125
  9
$DIMTOL
 70
     0
  9
$DIMLIM
 70
     0
  9
$DIMTIH
 70
     0
  9
$DIMTOH
 70
     0
  9
$DIMSE1
 70
     0
  9
$DIMSE2
 70
     0
  9
$DIMTAD
 70
     0
  9
$DIMZIN
 70
     3
  9
$DIMBLK
  1

  9
$DIMASO
 70
     1
  9
$DIMSHO
 70
     1
  9
$DIMPOST
  1

  9
$DIMAPOST
  1

  9
$DIMALT
 70
     0
  9
$DIMALTD
 70
     1
  9
$DIMALTF
 40
25.4
  9
$DIMLFAC
 40
1.0
  9
$DIMTOFL
 70
     0
  9
$DIMTVP
 40
0.0
  9
$DIMTIX
 70
     0
  9
$DIMSOXD
 70
     0
  9
$DIMSAH
 70
     0
  9
$DIMBLK1
  1

  9
$DIMBLK2
  1

  9
$DIMSTYLE
  2
STANDARD
  9
$DIMCLRD
 70
     0
  9
$DIMCLRE
 70
     0
  9
$DIMCLRT
 70
     0
  9
$DIMTFAC
 40
1.0
  9
$DIMGAP
 40
0.125
  9
$DIMJUST
 70
     0
  9
$DIMSD1
 70
     0
  9
$DIMSD2
 70
     0
  9
$DIMTOLJ
 70
     1
  9
$DIMTZIN
 70
     0
  9
$DIMALTZ
 70
     0
  9
$DIMALTTZ
 70
     0
  9
$DIMFIT
 70
     3
  9
$DIMUPT
 70
     0
  9
$DIMUNIT
 70
     2
  9
$DIMDEC
 70
     4
  9
$DIMTDEC
 70
     4
  9
$DIMALTU
 70
     2
  9
$DIMALTTD
 70
     2
  9
$DIMTXSTY
  7
STANDARD
  9
$DIMAUNIT
 70
     0
  9
$LUNITS
 70
     5
  9
$LUPREC
 70
     4
  9
$SKETCHINC
 40
0.1
  9
$FILLETRAD
 40
0.062
  9
$AUNITS
 70
     0
  9
$AUPREC
 70
     0
  9
$MENU
  1
acad
  9
$ELEVATION
 40
0.0
  9
$PELEVATION
 40
0.0
  9
$THICKNESS
 40
0.0
  9
$LIMCHECK
 70
     0
  9
$BLIPMODE
 70
     0
  9
$CHAMFERA
 40
0.0
  9
$CHAMFERB
 40
0.0
  9
$CHAMFERC
 40
0.0
  9
$CHAMFERD
 40
0.0
  9
$SKPOLY
 70
     0
  9
$TDCREATE
 40
2450408.683661065
  9
$TDUPDATE
 40
2452297.073021551
  9
$TDINDWG
 40
0.0140759954
  9
$TDUSRTIMER
 40
0.0140759954
  9
$USRTIMER
 70
     1
  9
$ANGBASE
 50
0.0
  9
$ANGDIR
 70
     0
  9
$PDMODE
 70
     0
  9
$PDSIZE
 40
0.0
  9
$PLINEWID
 40
0.0
  9
$COORDS
 70
     2
  9
$SPLFRAME
 70
     0
  9
$SPLINETYPE
 70
     6
  9
$SPLINESEGS
 70
     8
  9
$ATTDIA
 70
     0
  9
$ATTREQ
 70
     1
  9
$HANDLING
 70
 22529
  9
$HANDSEED
  5
2B7
  9
$SURFTAB1
 70
     6
  9
$SURFTAB2
 70
     6
  9
$SURFTYPE
 70
     6
  9
$SURFU
 70
     6
  9
$SURFV
 70
     6
  9
$UCSNAME
  2

  9
$UCSORG
 10
0.0
 20
0.0
 30
0.0
  9
$UCSXDIR
 10
1.0
 20
0.0
 30
0.0
  9
$UCSYDIR
 10
0.0
 20
1.0
 30
0.0
  9
$PUCSNAME
  2

  9
$PUCSORG
 10
0.0
 20
0.0
 30
0.0
  9
$PUCSXDIR
 10
1.0
 20
0.0
 30
0.0
  9
$PUCSYDIR
 10
0.0
 20
1.0
 30
0.0
  9
$USERI1
 70
     0
  9
$USERI2
 70
     0
  9
$USERI3
 70
     0
  9
$USERI4
 70
     0
  9
$USERI5
 70
     0
  9
$USERR1
 40
0.0
  9
$USERR2
 40
0.0
  9
$USERR3
 40
0.0
  9
$USERR4
 40
0.0
  9
$USERR5
 40
0.0
  9
$WORLDVIEW
 70
     1
  9
$SHADEDGE
 70
     3
  9
$SHADEDIF
 70
    70
  9
$TILEMODE
 70
     1
  9
$MAXACTVP
 70
    15
  9
$PINSBASE
 10
0.0
 20
0.0
 30
0.0
  9
$PLIMCHECK
 70
     0
  9
$PEXTMIN
 10
1.000000000000000E+20
 20
1.000000000000000E+20
 30
1.000000000000000E+20
  9
$PEXTMAX
 10
-1.000000000000000E+20
 20
-1.000000000000000E+20
 30
-1.000000000000000E+20
  9
$PLIMMIN
 10
0.0
 20
0.0
  9
$PLIMMAX
 10
12.0
 20
9.0
  9
$UNITMODE
 70
     0
  9
$VISRETAIN
 70
     0
  9
$PLINEGEN
 70
     0
  9
$PSLTSCALE
 70
     1
  9
$TREEDEPTH
 70
  3020
  9
$PICKSTYLE
 70
     1
  9
$CMLSTYLE
  2
STANDARD
  9
$CMLJUST
 70
     0
  9
$CMLSCALE
 40
1.0
  9
$PROXYGRAPHICS
 70
     1
  9
$MEASUREMENT
 70
     0
  0
ENDSEC
  0
SECTION
  2
CLASSES
  0
CLASS
  1
ACDBDICTIONARYWDFLT
  2
AcDbDictionaryWithDefault
  3
AutoCAD 2000
 90
        0
280
     0
281
     0
  0
CLASS
  1
ACDBPLACEHOLDER
  2
AcDbPlaceHolder
  3
AutoCAD 2000
 90
        0
280
     0
281
     0
  0
CLASS
  1
LAYOUT
  2
AcDbLayout
  3
AutoCAD 2000
 90
        0
280
     0
281
     0
  0
CLASS
  1
DICTIONARYVAR
  2
AcDbDictionaryVar
  3
AutoCAD 2000
 90
        0
280
     0
281
     0
  0
CLASS
  1
LONG_TRANSACTION
  2
AcDbLongTransaction
  3
AutoCAD 2000
 90
        0
280
     0
281
     0
  0
CLASS
  1
LWPOLYLINE
  2
AcDbPolyline
  3
AutoCAD 2000
 90
        0
280
     0
281
     1
  0
CLASS
  1
HATCH
  2
AcDbHatch
  3
AutoCAD 2000
 90
        0
280
     0
281
     1
  0
CLASS
  1
XRECORD
  2
AcDbXrecord
  3
AutoCAD 2000
 90
        0
280
     0
281
     0
  0
CLASS
  1
LONG_TRANSACTION
  2
AcDbLongTransaction
  3
AutoCAD 2000
 90
        0
280
     0
281
     0
  0
CLASS
  1
LWPOLYLINE
  2
AcDbPolyline
  3
AutoCAD 2000
 90
        0
280
     0
281
     1
  0
CLASS
  1
HATCH
  2
AcDbHatch
  3
AutoCAD 2000
 90
        0
280
     0
281
     1
  0
CLASS
  1
XRECORD
  2
AcDbXrecord
  3
AutoCAD 2000
 90
        0
280
     0
281
     0
  0
CLASS
  1
LONG_TRANSACTION
  2
AcDbLongTransaction
  3
AutoCAD 2000
 90
        0
280
     0
281
     0
  0
CLASS
  1
LWPOLYLINE
  2
AcDbPolyline
  3
AutoCAD 2000
 90
        0
280
     0
281
     1
  0
CLASS
  1
HATCH
  2
AcDbHatch
  3
AutoCAD 2000
 90
        0
280
     0
281
     1
  0
CLASS
  1
XRECORD
  2
AcDbXrecord
  3
AutoCAD 2000
 90
        0
280
     0
281
     0
  0
CLASS
  1
LONG_TRANSACTION
  2
AcDbLongTransaction
  3
AutoCAD 2000
 90
        0
280
     0
281
     0
  0
CLASS
  1
LWPOLYLINE
  2
AcDbPolyline
  3
AutoCAD 2000
 90
        0
280
     0
281
     1
  0
CLASS
  1
HATCH
  2
AcDbHatch
  3
AutoCAD 2000
 90
        0
280
     0
281
     1
  0
CLASS
  1
XRECORD
  2
AcDbXrecord
  3
AutoCAD 2000
 90
        0
280
     0
281
     0
  0
CLASS
  1
LONG_TRANSACTION
  2
AcDbLongTransaction
  3
AutoCAD 2000
 90
        0
280
     0
281
     0
  0
CLASS
  1
LWPOLYLINE
  2
AcDbPolyline
  3
AutoCAD 2000
 90
        0
280
     0
281
     1
  0
CLASS
  1
HATCH
  2
AcDbHatch
  3
AutoCAD 2000
 90
        0
280
     0
281
     1
  0
CLASS
  1
XRECORD
  2
AcDbXrecord
  3
AutoCAD 2000
 90
        0
280
     0
281
     0
  0
CLASS
  1
LONG_TRANSACTION
  2
AcDbLongTransaction
  3
AutoCAD 2000
 90
        0
280
     0
281
     0
  0
CLASS
  1
LWPOLYLINE
  2
AcDbPolyline
  3
AutoCAD 2000
 90
        0
280
     0
281
     1
  0
CLASS
  1
HATCH
  2
AcDbHatch
  3
AutoCAD 2000
 90
        0
280
     0
281
     1
  0
CLASS
  1
XRECORD
  2
AcDbXrecord
  3
AutoCAD 2000
 90
        0
280
     0
281
     0
  0
ENDSEC
  0
SECTION
  2
TABLES
  0
TABLE
  2
VPORT
  5
8
330
0
100
AcDbSymbolTable
 70
     2
  0
VPORT
  5
294
330
8
100
AcDbSymbolTableRecord
100
AcDbViewportTableRecord
  2
*ACTIVE
 70
     0
 10
0.0
 20
0.0
 11
1.0
 21
1.0
 12
85.69643273453095
 22
-17.51827202408242
 13
0.0
 23
0.0
 14
0.5740882589684922
 24
0.5740882589684922
 15
0.5
 25
0.5
 16
0.0
 26
0.0
 36
1.0
 17
0.0
 27
0.0
 37
0.0
 40
24.74700813443828
 41
1.570528967254408
 42
50.0
 43
0.0
 44
0.0
 50
0.0
 51
0.0
 71
     0
 72
   100
 73
     1
 74
     0
 75
     0
 76
     0
 77
     0
 78
     0
  0
ENDTAB
  0
TABLE
  2
LTYPE
  5
5
330
0
100
AcDbSymbolTable
 70
     1
  0
LTYPE
  5
12
330
5
100
AcDbSymbolTableRecord
100
AcDbLinetypeTableRecord
  2
BYBLOCK
 70
     0
  3

 72
    65
 73
     0
 40
0.0
  0
LTYPE
  5
13
330
5
100
AcDbSymbolTableRecord
100
AcDbLinetypeTableRecord
  2
BYLAYER
 70
     0
  3

 72
    65
 73
     0
 40
0.0
  0
LTYPE
  5
14
330
5
100
AcDbSymbolTableRecord
100
AcDbLinetypeTableRecord
  2
CONTINUOUS
 70
     0
  3
Solid line
 72
    65
 73
     0
 40
0.0
  0
ENDTAB
  0
TABLE
  2
LAYER
  5
2
330
0
100
AcDbSymbolTable
 70
     4
  0
LAYER
  5
F
330
2
100
AcDbSymbolTableRecord
100
AcDbLayerTableRecord
  2
0
 70
     0
 62
     7
  6
CONTINUOUS
  0
LAYER
  5
B8
330
2
100
AcDbSymbolTableRecord
100
AcDbLayerTableRecord
  2
ADP1DETAIL
 70
     0
 62
     7
  6
CONTINUOUS
  0
LAYER
  5
BA
330
2
100
AcDbSymbolTableRecord
100
AcDbLayerTableRecord
  2
DEFPOINTS
 70
     0
 62
     7
  6
CONTINUOUS
  0
LAYER
  5
BB
330
2
100
AcDbSymbolTableRecord
100
AcDbLayerTableRecord
  2
ADPDIM
 70
     0
 62
     3
  6
CONTINUOUS
  0
ENDTAB
  0
TABLE
  2
STYLE
  5
3
330
0
100
AcDbSymbolTable
 70
     2
  0
STYLE
  5
10
330
3
100
AcDbSymbolTableRecord
100
AcDbTextStyleTableRecord
  2
STANDARD
 70
     0
 40
0.0
 41
1.0
 50
0.0
 71
     0
 42
0.2
  3
txt
  4

  0
STYLE
  5
14C
330
3
100
AcDbSymbolTableRecord
100
AcDbTextStyleTableRecord
  2
ARIAL_WIDE
 70
     0
 40
0.0
 41
1.25
 50
0.0
 71
     0
 42
0.2
  3
ARIAL.TTF
  4

1001
ACAD
1000
Arial
1071
       34
  0
ENDTAB
  0
TABLE
  2
VIEW
  5
6
330
0
100
AcDbSymbolTable
 70
     0
  0
ENDTAB
  0
TABLE
  2
UCS
  5
7
330
0
100
AcDbSymbolTable
 70
     0
  0
ENDTAB
  0
TABLE
  2
APPID
  5
9
330
0
100
AcDbSymbolTable
 70
     1
  0
APPID
  5
11
330
9
100
AcDbSymbolTableRecord
100
AcDbRegAppTableRecord
  2
ACAD
 70
     0
  0
ENDTAB
  0
TABLE
  2
DIMSTYLE
  5
A
330
0
100
AcDbSymbolTable
 70
     1
  0
DIMSTYLE
105
140
330
A
100
AcDbSymbolTableRecord
100
AcDbDimStyleTableRecord
  2
STANDARD
 70
     0
  3

  4

  5

  6

  7

 40
1.0
 41
0.18
 42
0.0625
 43
0.38
 44
0.18
 45
0.0
 46
0.0
 47
0.0
 48
0.0
140
0.18
141
0.09
142
0.0
143
25.4
144
1.0
145
0.0
146
1.0
147
0.09
 71
     0
 72
     0
 73
     1
 74
     1
 75
     0
 76
     0
 77
     0
 78
     0
170
     0
171
     2
172
     0
173
     0
174
     0
175
     0
176
     0
177
     0
178
     0
270
     2
271
     4
272
     4
273
     2
274
     2
340
10
275
     0
280
     0
281
     0
282
     0
283
     1
284
     0
285
     0
286
     0
287
     3
288
     0
  0
ENDTAB
  0
TABLE
  2
BLOCK_RECORD
  5
1
330
0
100
AcDbSymbolTable
 70
     3
  0
BLOCK_RECORD
  5
18
102
{ACAD_XDICTIONARY
360
1A1
102
}
330
1
100
AcDbSymbolTableRecord
100
AcDbBlockTableRecord
  2
*MODEL_SPACE
  0
BLOCK_RECORD
  5
15
102
{ACAD_XDICTIONARY
360
19F
102
}
330
1
100
AcDbSymbolTableRecord
100
AcDbBlockTableRecord
  2
*PAPER_SPACE
  0
BLOCK_RECORD
  5
3A
330
1
100
AcDbSymbolTableRecord
100
AcDbBlockTableRecord
  2
561
  0
BLOCK_RECORD
  5
B3
330
1
100
AcDbSymbolTableRecord
100
AcDbBlockTableRecord
  2
*D1
  0
BLOCK_RECORD
  5
B4
330
1
100
AcDbSymbolTableRecord
100
AcDbBlockTableRecord
  2
*D2
  0
ENDTAB
  0
ENDSEC
  0
SECTION
  2
BLOCKS
  0
BLOCK
  5
BE
330
18
100
AcDbEntity
  8
0
100
AcDbBlockBegin
  2
*MODEL_SPACE
 70
     0
 10
0.0
 20
0.0
 30
0.0
  3
*MODEL_SPACE
  1

  0
ENDBLK
  5
BF
330
18
100
AcDbEntity
  8
0
100
AcDbBlockEnd
  0
BLOCK
  5
BC
330
15
100
AcDbEntity
 67
     1
  8
0
100
AcDbBlockBegin
  2
*PAPER_SPACE
 70
     0
 10
0.0
 20
0.0
 30
0.0
  3
*PAPER_SPACE
  1

  0
ENDBLK
  5
BD
330
15
100
AcDbEntity
 67
     1
  8
0
100
AcDbBlockEnd
  0
BLOCK
  5
C1
330
3A
100
AcDbEntity
  8
0
100
AcDbBlockBegin
  2
561
 70
     0
 10
0.0
 20
0.0
 30
0.0
  3
561
  1

  0
LWPOLYLINE
  5
C2
330
3A
100
AcDbEntity
  8
0
100
AcDbPolyline
 90
       11
 70
     0
 43
0.0
 10
0.43924049140605
 20
1.386676290013323
 42
0.1157438815115195
 10
0.1618369335526317
 20
2.264904721534048
 10
-0.9016623289377072
 20
3.536024711302406
 42
-0.1752874323840521
 10
-3.213617088709415
 20
9.059618771623902
 42
-0.2448133309210704
 10
-2.820584861667997
 20
9.914735874388263
 42
-0.2698357823207474
 10
-2.219476642376191
 20
9.776068130874637
 42
-0.8324710523451553
 10
-2.427552482552927
 20
9.452510329871529
 42
0.8792368522425215
 10
-2.797465256282292
 20
9.475621658627897
 42
0.1965790560800035
 10
-2.704987138886776
 20
9.013396228623456
 42
0.231170097680667
 10
-0.6242278246775097
 20
9.244508943625678
 42
0.1574610686355379
 10
0.3746646376145613
 20
10.44629506163722
 42
0.1603894016855337
  0
LWPOLYLINE
  5
CF
330
3A
100
AcDbEntity
  8
0
100
AcDbPolyline
 90
        7
 70
     0
 43
0.0
 10
0.7271920260186633
 20
10.44629506163722
 42
-0.0058161416513729
 10
0.7167060941466801
 20
10.42318384739314
 42
-0.1870706841018408
 10
-0.4855104965105852
 20
8.967173685623013
 42
-0.210474386890426
 10
-2.88994352575146
 20
8.736060970620794
 42
0.1815777518524806
 10
-0.7167059420730251
 20
3.813359969305068
 10
0.3236737150316102
 20
2.49601743653627
 42
-0.1437065520392196
 10
0.7706284412469593
 20
1.386676290013323
 42
-0.4492679528975213
  0
LWPOLYLINE
  5
D8
330
3A
100
AcDbEntity
  8
0
100
AcDbPolyline
 90
        3
 70
     0
 43
0.0
 10
0.3978112635031472
 20
11.04718812064299
 42
0.109346307470249
 10
0.0462392107714109
 20
11.50941366515972
 42
0.7246894046097765
 10
-0.5548691605940484
 20
11.13963320664388
 42
0.1675332360420768
  0
LWPOLYLINE
  5
DD
330
3A
100
AcDbEntity
  8
0
100
AcDbPolyline
 90
        5
 70
     0
 43
0.0
 10
-0.4855104965105852
 20
11.18585574964432
 42
0.6179361517218395
 10
-0.5086299498226375
 20
11.13963320664388
 42
-0.5893869979188383
 10
-0.7167059420730251
 20
11.60185875116061
 42
-0.4432164188567384
 10
0.5086301018962942
 20
11.64808129416105
 42
-0.1576099038663631
 10
0.8074323895835746
 20
11.04718812064299
 42
-0.1870706841018408
  0
LWPOLYLINE
  5
E4
330
3A
100
AcDbEntity
  8
0
100
AcDbPolyline
 90
        7
 70
     0
 43
0.0
 10
1.261089322868745
 20
10.44629506163722
 42
0.0058161416513729
 10
1.271575254740728
 20
10.42318384739314
 42
0.1870706841018408
 10
2.473791845397993
 20
8.967173685623013
 42
0.210474386890426
 10
4.878224874638871
 20
8.736060970620794
 42
-0.1815777518524806
 10
2.704987290960435
 20
3.813359969305068
 10
1.664607633855798
 20
2.49601743653627
 42
0.1437065520392196
 10
1.217652907640449
 20
1.386676290013323
 42
0.4492679528975213
  0
LWPOLYLINE
  5
ED
330
3A
100
AcDbEntity
  8
0
100
AcDbPolyline
 90
       11
 70
     0
 43
0.0
 10
1.549040857481358
 20
1.386676290013323
 42
-0.1157438815115195
 10
1.826444415334776
 20
2.264904721534048
 10
2.889943677825115
 20
3.536024711302406
 42
0.1752874323840521
 10
5.201898437596824
 20
9.059618771623902
 42
0.2448133309210704
 10
4.808866210555404
 20
9.914735874388263
 42
0.2698357823207474
 10
4.207757991263601
 20
9.776068130874637
 42
0.8324710523451553
 10
4.415833831440334
 20
9.452510329871529
 42
-0.8792368522425215
 10
4.785746605169702
 20
9.475621658627897
 42
-0.1965790560800035
 10
4.693268487774187
 20
9.013396228623456
 42
-0.231170097680667
 10
2.612509173564919
 20
9.244508943625678
 42
-0.1574610686355379
 10
1.613616711272847
 20
10.44629506163722
 42
-0.1603894016855337
  0
LWPOLYLINE
  5
FA
330
3A
100
AcDbEntity
  8
0
100
AcDbPolyline
 90
        7
 70
     0
 43
0.0
 10
1.244442047987533
 20
0.7857832310075495
 42
0.0252075231343288
 10
1.294694860126433
 20
0.5777818447616987
 42
0.4492679528975213
 10
1.988281348887408
 20
0.0
 42
0.656385108414257
 10
2.335074517231067
 20
0.5084479730048841
 42
0.7836010424484622
 10
2.265715853147604
 20
0.4853367587608091
 42
-0.6767994835073873
 10
1.687727239241503
 20
0.4853367587608091
 42
-0.0390926911553203
 10
1.593904941849213
 20
0.7857832310075495
  0
LWPOLYLINE
  5
103
330
3A
100
AcDbEntity
  8
0
100
AcDbPolyline
 90
        7
 70
     0
 43
0.0
 10
0.7438393008998752
 20
0.7857832310075495
 42
-0.0252075231343288
 10
0.6935864887609747
 20
0.5777818447616987
 42
-0.4492679528975213
 10
0.0
 20
0.0
 42
-0.656385108414257
 10
-0.3467931683436589
 20
0.5084479730048841
 42
-0.7836010424484622
 10
-0.2774345042601958
 20
0.4853367587608091
 42
0.6767994835073873
 10
0.3005541096459048
 20
0.4853367587608091
 42
0.0390926911553203
 10
0.3943764070381945
 20
0.7857832310075495
  0
LWPOLYLINE
  5
10C
330
3A
100
AcDbEntity
  8
0
100
AcDbPolyline
 90
        4
 70
     1
 43
0.0
 10
0.1849563868646839
 20
1.386676290013323
 10
0.1849563868646839
 20
0.7857832310075495
 10
1.780205204563365
 20
0.7857832310075495
 10
1.780205204563365
 20
1.386676290013323
  0
LWPOLYLINE
  5
112
330
3A
100
AcDbEntity
  8
0
100
AcDbPolyline
 90
        5
 70
     0
 43
0.0
 10
2.473791845397993
 20
11.18585574964432
 42
-0.6179361517218395
 10
2.496911298710045
 20
11.13963320664388
 42
0.5893869979188383
 10
2.704987290960435
 20
11.60185875116061
 42
0.4432164188567384
 10
1.479651246991114
 20
11.64808129416105
 42
0.1576099038663631
 10
1.180848959303833
 20
11.04718812064299
 42
0.1870706841018408
  0
LWPOLYLINE
  5
119
330
3A
100
AcDbEntity
  8
0
100
AcDbPolyline
 90
        3
 70
     0
 43
0.0
 10
1.590470085384261
 20
11.04718812064299
 42
-0.109346307470249
 10
1.942042138115997
 20
11.50941366515972
 42
-0.7246894046097765
 10
2.543150509481456
 20
11.13963320664388
 42
-0.1675332360420768
  0
LWPOLYLINE
  5
11E
330
3A
100
AcDbEntity
  8
0
100
AcDbPolyline
 90
        4
 70
     1
 43
0.0
 10
0.1849563868646839
 20
11.04718812064299
 10
0.1849563868646839
 20
10.44629506163722
 10
1.780205204563365
 20
10.44629506163722
 10
1.780205204563365
 20
11.04718812064299
  0
ENDBLK
  5
124
330
3A
100
AcDbEntity
  8
0
100
AcDbBlockEnd
  0
BLOCK
  5
125
330
B3
100
AcDbEntity
  8
0
100
AcDbBlockBegin
  2
*D1
 70
     1
 10
0.0
 20
0.0
 30
0.0
  3
*D1
  1

  0
LINE
  5
126
330
B3
100
AcDbEntity
  8
0
  6
BYBLOCK
 62
     0
100
AcDbLine
 10
87.20009082488097
 20
-23.31059549117824
 30
0.0
 11
90.61511488424875
 21
-23.31059549117824
 31
0.0
  0
LINE
  5
127
330
B3
100
AcDbEntity
  8
0
  6
BYBLOCK
 62
     0
100
AcDbLine
 10
87.20009082488097
 20
-11.31059549117824
 30
0.0
 11
90.61511488424875
 21
-11.31059549117824
 31
0.0
  0
LINE
  5
128
330
B3
100
AcDbEntity
  8
0
  6
BYBLOCK
 62
     0
100
AcDbLine
 10
90.43511488424874
 20
-23.31059549117824
 30
0.0
 11
90.43511488424874
 21
-17.51892882451157
 31
0.0
  0
LINE
  5
129
330
B3
100
AcDbEntity
  8
0
  6
BYBLOCK
 62
     0
100
AcDbLine
 10
90.43511488424874
 20
-11.31059549117824
 30
0.0
 11
90.43511488424874
 21
-17.10226215784491
 31
0.0
  0
LINE
  5
12A
330
B3
100
AcDbEntity
  8
0
  6
BYBLOCK
 62
     0
100
AcDbLine
 10
90.56011488424875
 20
-23.43559549117824
 30
0.0
 11
90.31011488424875
 21
-23.18559549117824
 31
0.0
  0
LINE
  5
12B
330
B3
100
AcDbEntity
  8
0
  6
BYBLOCK
 62
     0
100
AcDbLine
 10
90.56011488424875
 20
-11.43559549117824
 30
0.0
 11
90.31011488424875
 21
-11.18559549117824
 31
0.0
  0
TEXT
  5
12C
330
B3
100
AcDbEntity
  8
0
  6
BYBLOCK
 62
     0
100
AcDbText
 10
90.49761488424875
 20
-17.39392882451157
 30
0.0
 40
0.125
  1
12
 50
90.0
 72
     1
 11
90.43511488424874
 21
-17.31059549117824
 31
0.0
100
AcDbText
 73
     2
  0
POINT
  5
12D
330
B3
100
AcDbEntity
  8
DEFPOINTS
  6
BYBLOCK
 62
     0
100
AcDbPoint
 10
87.13759082488097
 20
-23.31059549117824
 30
0.0
  0
POINT
  5
12E
330
B3
100
AcDbEntity
  8
DEFPOINTS
  6
BYBLOCK
 62
     0
100
AcDbPoint
 10
87.13759082488097
 20
-11.31059549117824
 30
0.0
  0
POINT
  5
12F
330
B3
100
AcDbEntity
  8
DEFPOINTS
  6
BYBLOCK
 62
     0
100
AcDbPoint
 10
90.43511488424874
 20
-11.31059549117824
 30
0.0
  0
ENDBLK
  5
130
330
B3
100
AcDbEntity
  8
0
100
AcDbBlockEnd
  0
BLOCK
  5
131
330
B4
100
AcDbEntity
  8
0
100
AcDbBlockBegin
  2
*D2
 70
     1
 10
0.0
 20
0.0
 30
0.0
  3
*D2
  1

  0
LINE
  5
132
330
B4
100
AcDbEntity
  8
0
  6
BYBLOCK
 62
     0
100
AcDbLine
 10
81.37252734743203
 20
-14.4078616867755
 30
0.0
 11
81.37252734743203
 21
-10.26282606755936
 31
0.0
  0
LINE
  5
133
330
B4
100
AcDbEntity
  8
0
  6
BYBLOCK
 62
     0
100
AcDbLine
 10
89.87252734743202
 20
-14.4078616867755
 30
0.0
 11
89.87252734743202
 21
-10.26282606755936
 31
0.0
  0
LINE
  5
134
330
B4
100
AcDbEntity
  8
0
  6
BYBLOCK
 62
     0
100
AcDbLine
 10
81.37252734743203
 20
-10.44282606755936
 30
0.0
 11
85.22669401409869
 21
-10.44282606755936
 31
0.0
  0
LINE
  5
135
330
B4
100
AcDbEntity
  8
0
  6
BYBLOCK
 62
     0
100
AcDbLine
 10
89.87252734743202
 20
-10.44282606755936
 30
0.0
 11
86.01836068076535
 21
-10.44282606755936
 31
0.0
  0
LINE
  5
136
330
B4
100
AcDbEntity
  8
0
  6
BYBLOCK
 62
     0
100
AcDbLine
 10
81.24752734743202
 20
-10.56782606755936
 30
0.0
 11
81.49752734743202
 21
-10.31782606755936
 31
0.0
  0
LINE
  5
137
330
B4
100
AcDbEntity
  8
0
  6
BYBLOCK
 62
     0
100
AcDbLine
 10
89.74752734743203
 20
-10.56782606755936
 30
0.0
 11
89.99752734743202
 21
-10.31782606755936
 31
0.0
  0
TEXT
  5
138
330
B4
100
AcDbEntity
  8
0
  6
BYBLOCK
 62
     0
100
AcDbText
 10
85.3516940140987
 20
-10.50532606755936
 30
0.0
 40
0.125
  1
8 1/2
 72
     1
 11
85.62252734743202
 21
-10.44282606755936
 31
0.0
100
AcDbText
 73
     2
  0
POINT
  5
139
330
B4
100
AcDbEntity
  8
DEFPOINTS
  6
BYBLOCK
 62
     0
100
AcDbPoint
 10
81.37252734743203
 20
-14.4703616867755
 30
0.0
  0
POINT
  5
13A
330
B4
100
AcDbEntity
  8
DEFPOINTS
  6
BYBLOCK
 62
     0
100
AcDbPoint
 10
89.87252734743202
 20
-14.4703616867755
 30
0.0
  0
POINT
  5
13B
330
B4
100
AcDbEntity
  8
DEFPOINTS
  6
BYBLOCK
 62
     0
100
AcDbPoint
 10
89.87252734743202
 20
-10.44282606755936
 30
0.0
  0
ENDBLK
  5
13C
330
B4
100
AcDbEntity
  8
0
100
AcDbBlockEnd
  0
ENDSEC
  0
SECTION
  2
ENTITIES
  0
INSERT
  5
13D
330
18
100
AcDbEntity
  8
ADP1DETAIL
100
AcDbBlockReference
  2
561
 10
84.639946551718
 20
-23.28430044386767
 30
0.0
  0
DIMENSION
  5
13E
330
18
100
AcDbEntity
  8
ADPDIM
100
AcDbDimension
  2
*D1
 10
90.43511488424874
 20
-11.31059549117824
 30
0.0
 11
90.43511488424874
 21
-17.31059549117824
 31
0.0
100
AcDbAlignedDimension
 13
87.13759082488097
 23
-23.31059549117824
 33
0.0
 14
87.13759082488097
 24
-11.31059549117824
 34
0.0
 50
90.0
100
AcDbRotatedDimension
  0
DIMENSION
  5
13F
330
18
100
AcDbEntity
  8
ADPDIM
100
AcDbDimension
  2
*D2
 10
89.87252734743202
 20
-10.44282606755936
 30
0.0
 11
85.62252734743202
 21
-10.44282606755936
 31
0.0
100
AcDbAlignedDimension
 13
81.37252734743203
 23
-14.4703616867755
 33
0.0
 14
89.87252734743202
 24
-14.4703616867755
 34
0.0
100
AcDbRotatedDimension
  0
TEXT
  5
14D
330
18
100
AcDbEntity
  8
ADPDIM
100
AcDbText
 10
66.35824541259319
 20
-24.663868143366
 30
0.0
 40
0.375
  1
J U L I U S  B L U M  &  C O . ,  I N C .      ( 8 0 0 )  5 2 6 - 6 2 9 3        W W W . J U L I U S B L U M . C O M        P A R T  N o .  5 6 4
 41
1.25
  7
ARIAL_WIDE
 72
     1
 11
85.66236802514437
 21
-24.288868143366
 31
0.0
100
AcDbText
 73
     3
  0
ENDSEC
  0
SECTION
  2
OBJECTS
  0
DICTIONARY
  5
C
330
0
100
AcDbDictionary
  3
ACAD_GROUP
350
D
  3
ACAD_LAYOUT
350
146
  3
ACAD_MLINESTYLE
350
E
  3
ACAD_PLOTSETTINGS
350
147
  3
ACAD_PLOTSTYLENAME
350
144
  3
ACDBHEADERROUNDTRIPXREC
350
295
  3
ACDBVARIABLEDICTIONARY
350
1A7
  0
DICTIONARY
  5
1A1
330
18
100
AcDbDictionary
280
     1
  3
ACAD_LAYOUTSELFREF
360
2B6
  0
DICTIONARY
  5
19F
330
15
100
AcDbDictionary
280
     1
  3
ACAD_LAYOUTSELFREF
360
2B5
  0
DICTIONARY
  5
D
102
{ACAD_REACTORS
330
C
102
}
330
C
100
AcDbDictionary
  0
DICTIONARY
  5
146
102
{ACAD_REACTORS
330
C
102
}
330
C
100
AcDbDictionary
  0
DICTIONARY
  5
E
102
{ACAD_REACTORS
330
C
102
}
330
C
100
AcDbDictionary
  3
STANDARD
350
1B
  0
DICTIONARY
  5
147
102
{ACAD_REACTORS
330
C
102
}
330
C
100
AcDbDictionary
  0
ACDBDICTIONARYWDFLT
  5
144
102
{ACAD_REACTORS
330
C
102
}
330
C
100
AcDbDictionary
281
     1
  3
Normal
350
145
100
AcDbDictionaryWithDefault
340
145
  0
DICTIONARY
  5
295
102
{ACAD_REACTORS
330
C
102
}
330
C
100
AcDbDictionary
  3
CEPSNTYPE
350
29F
  3
FINGERPRINTGUID
350
2A0
  3
HYPERLINKBASE
350
298
  3
INSUNITS
350
29E
  3
LAYOUTDICT
350
29A
  3
LWETCUNION
350
29D
  3
PLOTSETDICT
350
29B
  3
PLOTSTYLNAMDICT
350
29C
  3
PSVPSCALE
350
2A2
  3
PUCSBASE
350
2A5
  3
PUCSORGBACK
350
2AB
  3
PUCSORGBOTTOM
350
2A7
  3
PUCSORGFRONT
350
2AA
  3
PUCSORGLEFT
350
2A8
  3
PUCSORGRIGHT
350
2A9
  3
PUCSORGTOP
350
2A6
  3
PUCSORTHOREF
350
2A3
  3
PUCSORTHOVIEW
350
2A4
  3
STYLESHEET
350
299
  3
TSTACKALIGN
350
296
  3
TSTACKSIZE
350
297
  3
UCSBASE
350
2AE
  3
UCSORGBACK
350
2B4
  3
UCSORGBOTTOM
350
2B0
  3
UCSORGFRONT
350
2B3
  3
UCSORGLEFT
350
2B1
  3
UCSORGRIGHT
350
2B2
  3
UCSORGTOP
350
2AF
  3
UCSORTHOREF
350
2AC
  3
UCSORTHOVIEW
350
2AD
  3
VERSIONGUID
350
2A1
  0
DICTIONARY
  5
1A7
102
{ACAD_REACTORS
330
C
102
}
330
C
100
AcDbDictionary
  3
DIMASSOC
350
1A8
  0
XRECORD
  5
2B6
102
{ACAD_REACTORS
330
1A1
102
}
330
1A1
100
AcDbXrecord
340
18
  0
XRECORD
  5
2B5
102
{ACAD_REACTORS
330
19F
102
}
330
19F
100
AcDbXrecord
340
15
  0
MLINESTYLE
  5
1B
102
{ACAD_REACTORS
330
E
102
}
330
E
100
AcDbMlineStyle
  2
STANDARD
 70
     0
  3

 62
     0
 51
90.0
 52
90.0
 71
     2
 49
0.5
 62
   256
  6
BYLAYER
 49
-0.5
 62
   256
  6
BYLAYER
  0
ACDBPLACEHOLDER
  5
145
102
{ACAD_REACTORS
330
144
102
}
330
144
100
AcDbPlaceHolder
280
     0
  0
XRECORD
  5
29F
102
{ACAD_REACTORS
330
295
102
}
330
295
100
AcDbXrecord
 90
        0
  0
XRECORD
  5
2A0
102
{ACAD_REACTORS
330
295
102
}
330
295
100
AcDbXrecord
  1
{C9F55941-2F82-4B21-AF55-77041647163B}
  0
XRECORD
  5
298
102
{ACAD_REACTORS
330
295
102
}
330
295
100
AcDbXrecord
  1

  0
XRECORD
  5
29E
102
{ACAD_REACTORS
330
295
102
}
330
295
100
AcDbXrecord
 90
        0
  0
XRECORD
  5
29A
102
{ACAD_REACTORS
330
295
102
}
330
295
100
AcDbXrecord
340
146
  0
XRECORD
  5
29D
102
{ACAD_REACTORS
330
295
102
}
330
295
100
AcDbXrecord
 90
    14877
  0
XRECORD
  5
29B
102
{ACAD_REACTORS
330
295
102
}
330
295
100
AcDbXrecord
340
147
  0
XRECORD
  5
29C
102
{ACAD_REACTORS
330
295
102
}
330
295
100
AcDbXrecord
340
144
  0
XRECORD
  5
2A2
102
{ACAD_REACTORS
330
295
102
}
330
295
100
AcDbXrecord
 40
0.0
  0
XRECORD
  5
2A5
102
{ACAD_REACTORS
330
295
102
}
330
295
100
AcDbXrecord
340
0
  0
XRECORD
  5
2AB
102
{ACAD_REACTORS
330
295
102
}
330
295
100
AcDbXrecord
 10
0.0
 20
0.0
 30
0.0
  0
XRECORD
  5
2A7
102
{ACAD_REACTORS
330
295
102
}
330
295
100
AcDbXrecord
 10
0.0
 20
0.0
 30
0.0
  0
XRECORD
  5
2AA
102
{ACAD_REACTORS
330
295
102
}
330
295
100
AcDbXrecord
 10
0.0
 20
0.0
 30
0.0
  0
XRECORD
  5
2A8
102
{ACAD_REACTORS
330
295
102
}
330
295
100
AcDbXrecord
 10
0.0
 20
0.0
 30
0.0
  0
XRECORD
  5
2A9
102
{ACAD_REACTORS
330
295
102
}
330
295
100
AcDbXrecord
 10
0.0
 20
0.0
 30
0.0
  0
XRECORD
  5
2A6
102
{ACAD_REACTORS
330
295
102
}
330
295
100
AcDbXrecord
 10
0.0
 20
0.0
 30
0.0
  0
XRECORD
  5
2A3
102
{ACAD_REACTORS
330
295
102
}
330
295
100
AcDbXrecord
340
0
  0
XRECORD
  5
2A4
102
{ACAD_REACTORS
330
295
102
}
330
295
100
AcDbXrecord
 70
     0
  0
XRECORD
  5
299
102
{ACAD_REACTORS
330
295
102
}
330
295
100
AcDbXrecord
  1

  0
XRECORD
  5
296
102
{ACAD_REACTORS
330
295
102
}
330
295
100
AcDbXrecord
 90
        1
  0
XRECORD
  5
297
102
{ACAD_REACTORS
330
295
102
}
330
295
100
AcDbXrecord
 90
       70
  0
XRECORD
  5
2AE
102
{ACAD_REACTORS
330
295
102
}
330
295
100
AcDbXrecord
340
0
  0
XRECORD
  5
2B4
102
{ACAD_REACTORS
330
295
102
}
330
295
100
AcDbXrecord
 10
0.0
 20
0.0
 30
0.0
  0
XRECORD
  5
2B0
102
{ACAD_REACTORS
330
295
102
}
330
295
100
AcDbXrecord
 10
0.0
 20
0.0
 30
0.0
  0
XRECORD
  5
2B3
102
{ACAD_REACTORS
330
295
102
}
330
295
100
AcDbXrecord
 10
0.0
 20
0.0
 30
0.0
  0
XRECORD
  5
2B1
102
{ACAD_REACTORS
330
295
102
}
330
295
100
AcDbXrecord
 10
0.0
 20
0.0
 30
0.0
  0
XRECORD
  5
2B2
102
{ACAD_REACTORS
330
295
102
}
330
295
100
AcDbXrecord
 10
0.0
 20
0.0
 30
0.0
  0
XRECORD
  5
2AF
102
{ACAD_REACTORS
330
295
102
}
330
295
100
AcDbXrecord
 10
0.0
 20
0.0
 30
0.0
  0
XRECORD
  5
2AC
102
{ACAD_REACTORS
330
295
102
}
330
295
100
AcDbXrecord
340
0
  0
XRECORD
  5
2AD
102
{ACAD_REACTORS
330
295
102
}
330
295
100
AcDbXrecord
 70
     0
  0
XRECORD
  5
2A1
102
{ACAD_REACTORS
330
295
102
}
330
295
100
AcDbXrecord
  1
{09D13DF3-BB4E-450C-A107-4B214BE70071}
  0
DICTIONARYVAR
  5
1A8
102
{ACAD_REACTORS
330
1A7
102
}
330
1A7
100
DictionaryVariables
280
     0
  1
1
  0
ENDSEC
  0
EOF
