  0
SECTION
  2
HEADER
  9
$ACADVER
  1
AC1014
  9
$ACADMAINTVER
 70
     9
  9
$DWGCODEPAGE
  3
ANSI_1252
  9
$INSBASE
 10
67.26682303577021
 20
-24.30181238146629
 30
0.0
  9
$EXTMIN
 10
47.98137392405926
 20
-26.89652138956971
 30
0.0
  9
$EXTMAX
 10
86.5896191491616
 20
-9.305719287309328
 30
0.0
  9
$LIMMIN
 10
0.0
 20
0.0
  9
$LIMMAX
 10
36.0
 20
36.0
  9
$ORTHOMODE
 70
     1
  9
$REGENMODE
 70
     1
  9
$FILLMODE
 70
     1
  9
$QTEXTMODE
 70
     0
  9
$MIRRTEXT
 70
     1
  9
$DRAGMODE
 70
     0
  9
$LTSCALE
 40
1.0
  9
$OSMODE
 70
    37
  9
$ATTMODE
 70
     1
  9
$TEXTSIZE
 40
0.2
  9
$TRACEWID
 40
0.05
  9
$TEXTSTYLE
  7
STANDARD
  9
$CLAYER
  8
ADPDIM
  9
$CELTYPE
  6
BYLAYER
  9
$CECOLOR
 62
   256
  9
$CELTSCALE
 40
1.0
  9
$DELOBJ
 70
     1
  9
$DISPSILH
 70
     0
  9
$DIMSCALE
 40
1.0
  9
$DIMASZ
 40
0.125
  9
$DIMEXO
 40
0.0625
  9
$DIMDLI
 40
0.38
  9
$DIMRND
 40
0.0
  9
$DIMDLE
 40
0.0
  9
$DIMEXE
 40
0.18
  9
$DIMTP
 40
0.0
  9
$DIMTM
 40
0.0
  9
$DIMTXT
 40
0.125
  9
$DIMCEN
 40
0.1875
  9
$DIMTSZ
 40
0.125
  9
$DIMTOL
 70
     0
  9
$DIMLIM
 70
     0
  9
$DIMTIH
 70
     0
  9
$DIMTOH
 70
     0
  9
$DIMSE1
 70
     0
  9
$DIMSE2
 70
     0
  9
$DIMTAD
 70
     0
  9
$DIMZIN
 70
     3
  9
$DIMBLK
  1

  9
$DIMASO
 70
     1
  9
$DIMSHO
 70
     1
  9
$DIMPOST
  1

  9
$DIMAPOST
  1

  9
$DIMALT
 70
     0
  9
$DIMALTD
 70
     1
  9
$DIMALTF
 40
25.4
  9
$DIMLFAC
 40
1.0
  9
$DIMTOFL
 70
     0
  9
$DIMTVP
 40
0.0
  9
$DIMTIX
 70
     0
  9
$DIMSOXD
 70
     0
  9
$DIMSAH
 70
     0
  9
$DIMBLK1
  1

  9
$DIMBLK2
  1

  9
$DIMSTYLE
  2
STANDARD
  9
$DIMCLRD
 70
     0
  9
$DIMCLRE
 70
     0
  9
$DIMCLRT
 70
     0
  9
$DIMTFAC
 40
1.0
  9
$DIMGAP
 40
0.125
  9
$DIMJUST
 70
     0
  9
$DIMSD1
 70
     0
  9
$DIMSD2
 70
     0
  9
$DIMTOLJ
 70
     1
  9
$DIMTZIN
 70
     0
  9
$DIMALTZ
 70
     0
  9
$DIMALTTZ
 70
     0
  9
$DIMFIT
 70
     3
  9
$DIMUPT
 70
     0
  9
$DIMUNIT
 70
     2
  9
$DIMDEC
 70
     4
  9
$DIMTDEC
 70
     4
  9
$DIMALTU
 70
     2
  9
$DIMALTTD
 70
     2
  9
$DIMTXSTY
  7
STANDARD
  9
$DIMAUNIT
 70
     0
  9
$LUNITS
 70
     5
  9
$LUPREC
 70
     4
  9
$SKETCHINC
 40
0.1
  9
$FILLETRAD
 40
0.062
  9
$AUNITS
 70
     0
  9
$AUPREC
 70
     0
  9
$MENU
  1
acad
  9
$ELEVATION
 40
0.0
  9
$PELEVATION
 40
0.0
  9
$THICKNESS
 40
0.0
  9
$LIMCHECK
 70
     0
  9
$BLIPMODE
 70
     0
  9
$CHAMFERA
 40
0.0
  9
$CHAMFERB
 40
0.0
  9
$CHAMFERC
 40
0.0
  9
$CHAMFERD
 40
0.0
  9
$SKPOLY
 70
     0
  9
$TDCREATE
 40
2450408.684761574
  9
$TDUPDATE
 40
2452297.072998044
  9
$TDINDWG
 40
0.0145049884
  9
$TDUSRTIMER
 40
0.0145049884
  9
$USRTIMER
 70
     1
  9
$ANGBASE
 50
0.0
  9
$ANGDIR
 70
     0
  9
$PDMODE
 70
     0
  9
$PDSIZE
 40
0.0
  9
$PLINEWID
 40
0.0
  9
$COORDS
 70
     2
  9
$SPLFRAME
 70
     0
  9
$SPLINETYPE
 70
     6
  9
$SPLINESEGS
 70
     8
  9
$ATTDIA
 70
     0
  9
$ATTREQ
 70
     1
  9
$HANDLING
 70
 22529
  9
$HANDSEED
  5
330
  9
$SURFTAB1
 70
     6
  9
$SURFTAB2
 70
     6
  9
$SURFTYPE
 70
     6
  9
$SURFU
 70
     6
  9
$SURFV
 70
     6
  9
$UCSNAME
  2

  9
$UCSORG
 10
0.0
 20
0.0
 30
0.0
  9
$UCSXDIR
 10
1.0
 20
0.0
 30
0.0
  9
$UCSYDIR
 10
0.0
 20
1.0
 30
0.0
  9
$PUCSNAME
  2

  9
$PUCSORG
 10
0.0
 20
0.0
 30
0.0
  9
$PUCSXDIR
 10
1.0
 20
0.0
 30
0.0
  9
$PUCSYDIR
 10
0.0
 20
1.0
 30
0.0
  9
$USERI1
 70
     0
  9
$USERI2
 70
     0
  9
$USERI3
 70
     0
  9
$USERI4
 70
     0
  9
$USERI5
 70
     0
  9
$USERR1
 40
0.0
  9
$USERR2
 40
0.0
  9
$USERR3
 40
0.0
  9
$USERR4
 40
0.0
  9
$USERR5
 40
0.0
  9
$WORLDVIEW
 70
     1
  9
$SHADEDGE
 70
     3
  9
$SHADEDIF
 70
    70
  9
$TILEMODE
 70
     1
  9
$MAXACTVP
 70
    15
  9
$PINSBASE
 10
0.0
 20
0.0
 30
0.0
  9
$PLIMCHECK
 70
     0
  9
$PEXTMIN
 10
1.000000000000000E+20
 20
1.000000000000000E+20
 30
1.000000000000000E+20
  9
$PEXTMAX
 10
-1.000000000000000E+20
 20
-1.000000000000000E+20
 30
-1.000000000000000E+20
  9
$PLIMMIN
 10
0.0
 20
0.0
  9
$PLIMMAX
 10
12.0
 20
9.0
  9
$UNITMODE
 70
     0
  9
$VISRETAIN
 70
     0
  9
$PLINEGEN
 70
     0
  9
$PSLTSCALE
 70
     1
  9
$TREEDEPTH
 70
  3020
  9
$PICKSTYLE
 70
     1
  9
$CMLSTYLE
  2
STANDARD
  9
$CMLJUST
 70
     0
  9
$CMLSCALE
 40
1.0
  9
$PROXYGRAPHICS
 70
     1
  9
$MEASUREMENT
 70
     0
  0
ENDSEC
  0
SECTION
  2
CLASSES
  0
CLASS
  1
ACDBDICTIONARYWDFLT
  2
AcDbDictionaryWithDefault
  3
AutoCAD 2000
 90
        0
280
     0
281
     0
  0
CLASS
  1
ACDBPLACEHOLDER
  2
AcDbPlaceHolder
  3
AutoCAD 2000
 90
        0
280
     0
281
     0
  0
CLASS
  1
LAYOUT
  2
AcDbLayout
  3
AutoCAD 2000
 90
        0
280
     0
281
     0
  0
CLASS
  1
DICTIONARYVAR
  2
AcDbDictionaryVar
  3
AutoCAD 2000
 90
        0
280
     0
281
     0
  0
CLASS
  1
LONG_TRANSACTION
  2
AcDbLongTransaction
  3
AutoCAD 2000
 90
        0
280
     0
281
     0
  0
CLASS
  1
LWPOLYLINE
  2
AcDbPolyline
  3
AutoCAD 2000
 90
        0
280
     0
281
     1
  0
CLASS
  1
HATCH
  2
AcDbHatch
  3
AutoCAD 2000
 90
        0
280
     0
281
     1
  0
CLASS
  1
XRECORD
  2
AcDbXrecord
  3
AutoCAD 2000
 90
        0
280
     0
281
     0
  0
CLASS
  1
LONG_TRANSACTION
  2
AcDbLongTransaction
  3
AutoCAD 2000
 90
        0
280
     0
281
     0
  0
CLASS
  1
LWPOLYLINE
  2
AcDbPolyline
  3
AutoCAD 2000
 90
        0
280
     0
281
     1
  0
CLASS
  1
HATCH
  2
AcDbHatch
  3
AutoCAD 2000
 90
        0
280
     0
281
     1
  0
CLASS
  1
XRECORD
  2
AcDbXrecord
  3
AutoCAD 2000
 90
        0
280
     0
281
     0
  0
CLASS
  1
LONG_TRANSACTION
  2
AcDbLongTransaction
  3
AutoCAD 2000
 90
        0
280
     0
281
     0
  0
CLASS
  1
LWPOLYLINE
  2
AcDbPolyline
  3
AutoCAD 2000
 90
        0
280
     0
281
     1
  0
CLASS
  1
HATCH
  2
AcDbHatch
  3
AutoCAD 2000
 90
        0
280
     0
281
     1
  0
CLASS
  1
XRECORD
  2
AcDbXrecord
  3
AutoCAD 2000
 90
        0
280
     0
281
     0
  0
CLASS
  1
LONG_TRANSACTION
  2
AcDbLongTransaction
  3
AutoCAD 2000
 90
        0
280
     0
281
     0
  0
CLASS
  1
LWPOLYLINE
  2
AcDbPolyline
  3
AutoCAD 2000
 90
        0
280
     0
281
     1
  0
CLASS
  1
HATCH
  2
AcDbHatch
  3
AutoCAD 2000
 90
        0
280
     0
281
     1
  0
CLASS
  1
XRECORD
  2
AcDbXrecord
  3
AutoCAD 2000
 90
        0
280
     0
281
     0
  0
CLASS
  1
LONG_TRANSACTION
  2
AcDbLongTransaction
  3
AutoCAD 2000
 90
        0
280
     0
281
     0
  0
CLASS
  1
LWPOLYLINE
  2
AcDbPolyline
  3
AutoCAD 2000
 90
        0
280
     0
281
     1
  0
CLASS
  1
HATCH
  2
AcDbHatch
  3
AutoCAD 2000
 90
        0
280
     0
281
     1
  0
CLASS
  1
XRECORD
  2
AcDbXrecord
  3
AutoCAD 2000
 90
        0
280
     0
281
     0
  0
CLASS
  1
LONG_TRANSACTION
  2
AcDbLongTransaction
  3
AutoCAD 2000
 90
        0
280
     0
281
     0
  0
CLASS
  1
LWPOLYLINE
  2
AcDbPolyline
  3
AutoCAD 2000
 90
        0
280
     0
281
     1
  0
CLASS
  1
HATCH
  2
AcDbHatch
  3
AutoCAD 2000
 90
        0
280
     0
281
     1
  0
CLASS
  1
XRECORD
  2
AcDbXrecord
  3
AutoCAD 2000
 90
        0
280
     0
281
     0
  0
ENDSEC
  0
SECTION
  2
TABLES
  0
TABLE
  2
VPORT
  5
8
330
0
100
AcDbSymbolTable
 70
     2
  0
VPORT
  5
30D
330
8
100
AcDbSymbolTableRecord
100
AcDbViewportTableRecord
  2
*ACTIVE
 70
     0
 10
0.0
 20
0.0
 11
1.0
 21
1.0
 12
67.31667301709973
 22
-18.10051541665789
 13
0.0
 23
0.0
 14
0.5740882589684922
 24
0.5740882589684922
 15
0.5
 25
0.5
 16
0.0
 26
0.0
 36
1.0
 17
0.0
 27
0.0
 37
0.0
 40
24.74441813142984
 41
1.570528967254408
 42
50.0
 43
0.0
 44
0.0
 50
0.0
 51
0.0
 71
     0
 72
   100
 73
     1
 74
     0
 75
     0
 76
     0
 77
     0
 78
     0
  0
ENDTAB
  0
TABLE
  2
LTYPE
  5
5
330
0
100
AcDbSymbolTable
 70
     1
  0
LTYPE
  5
12
330
5
100
AcDbSymbolTableRecord
100
AcDbLinetypeTableRecord
  2
BYBLOCK
 70
     0
  3

 72
    65
 73
     0
 40
0.0
  0
LTYPE
  5
13
330
5
100
AcDbSymbolTableRecord
100
AcDbLinetypeTableRecord
  2
BYLAYER
 70
     0
  3

 72
    65
 73
     0
 40
0.0
  0
LTYPE
  5
14
330
5
100
AcDbSymbolTableRecord
100
AcDbLinetypeTableRecord
  2
CONTINUOUS
 70
     0
  3
Solid line
 72
    65
 73
     0
 40
0.0
  0
ENDTAB
  0
TABLE
  2
LAYER
  5
2
330
0
100
AcDbSymbolTable
 70
     4
  0
LAYER
  5
F
330
2
100
AcDbSymbolTableRecord
100
AcDbLayerTableRecord
  2
0
 70
     0
 62
     7
  6
CONTINUOUS
  0
LAYER
  5
BB
330
2
100
AcDbSymbolTableRecord
100
AcDbLayerTableRecord
  2
ADP1DETAIL
 70
     0
 62
     7
  6
CONTINUOUS
  0
LAYER
  5
BD
330
2
100
AcDbSymbolTableRecord
100
AcDbLayerTableRecord
  2
DEFPOINTS
 70
     0
 62
     7
  6
CONTINUOUS
  0
LAYER
  5
BE
330
2
100
AcDbSymbolTableRecord
100
AcDbLayerTableRecord
  2
ADPDIM
 70
     0
 62
     3
  6
CONTINUOUS
  0
ENDTAB
  0
TABLE
  2
STYLE
  5
3
330
0
100
AcDbSymbolTable
 70
     2
  0
STYLE
  5
10
330
3
100
AcDbSymbolTableRecord
100
AcDbTextStyleTableRecord
  2
STANDARD
 70
     0
 40
0.0
 41
1.0
 50
0.0
 71
     0
 42
0.2
  3
txt
  4

  0
STYLE
  5
1C5
330
3
100
AcDbSymbolTableRecord
100
AcDbTextStyleTableRecord
  2
ARIAL_WIDE
 70
     0
 40
0.0
 41
1.25
 50
0.0
 71
     0
 42
0.2
  3
ARIAL.TTF
  4

1001
ACAD
1000
Arial
1071
       34
  0
ENDTAB
  0
TABLE
  2
VIEW
  5
6
330
0
100
AcDbSymbolTable
 70
     0
  0
ENDTAB
  0
TABLE
  2
UCS
  5
7
330
0
100
AcDbSymbolTable
 70
     0
  0
ENDTAB
  0
TABLE
  2
APPID
  5
9
330
0
100
AcDbSymbolTable
 70
     1
  0
APPID
  5
11
330
9
100
AcDbSymbolTableRecord
100
AcDbRegAppTableRecord
  2
ACAD
 70
     0
  0
ENDTAB
  0
TABLE
  2
DIMSTYLE
  5
A
330
0
100
AcDbSymbolTable
 70
     1
  0
DIMSTYLE
105
1B9
330
A
100
AcDbSymbolTableRecord
100
AcDbDimStyleTableRecord
  2
STANDARD
 70
     0
  3

  4

  5

  6

  7

 40
1.0
 41
0.18
 42
0.0625
 43
0.38
 44
0.18
 45
0.0
 46
0.0
 47
0.0
 48
0.0
140
0.18
141
0.09
142
0.0
143
25.4
144
1.0
145
0.0
146
1.0
147
0.09
 71
     0
 72
     0
 73
     1
 74
     1
 75
     0
 76
     0
 77
     0
 78
     0
170
     0
171
     2
172
     0
173
     0
174
     0
175
     0
176
     0
177
     0
178
     0
270
     2
271
     4
272
     4
273
     2
274
     2
340
10
275
     0
280
     0
281
     0
282
     0
283
     1
284
     0
285
     0
286
     0
287
     3
288
     0
  0
ENDTAB
  0
TABLE
  2
BLOCK_RECORD
  5
1
330
0
100
AcDbSymbolTable
 70
     3
  0
BLOCK_RECORD
  5
18
102
{ACAD_XDICTIONARY
360
21A
102
}
330
1
100
AcDbSymbolTableRecord
100
AcDbBlockTableRecord
  2
*MODEL_SPACE
  0
BLOCK_RECORD
  5
15
102
{ACAD_XDICTIONARY
360
218
102
}
330
1
100
AcDbSymbolTableRecord
100
AcDbBlockTableRecord
  2
*PAPER_SPACE
  0
BLOCK_RECORD
  5
36
330
1
100
AcDbSymbolTableRecord
100
AcDbBlockTableRecord
  2
560
  0
BLOCK_RECORD
  5
B6
330
1
100
AcDbSymbolTableRecord
100
AcDbBlockTableRecord
  2
*D1
  0
BLOCK_RECORD
  5
B7
330
1
100
AcDbSymbolTableRecord
100
AcDbBlockTableRecord
  2
*D2
  0
ENDTAB
  0
ENDSEC
  0
SECTION
  2
BLOCKS
  0
BLOCK
  5
C1
330
18
100
AcDbEntity
  8
0
100
AcDbBlockBegin
  2
*MODEL_SPACE
 70
     0
 10
0.0
 20
0.0
 30
0.0
  3
*MODEL_SPACE
  1

  0
ENDBLK
  5
C2
330
18
100
AcDbEntity
  8
0
100
AcDbBlockEnd
  0
BLOCK
  5
BF
330
15
100
AcDbEntity
 67
     1
  8
0
100
AcDbBlockBegin
  2
*PAPER_SPACE
 70
     0
 10
0.0
 20
0.0
 30
0.0
  3
*PAPER_SPACE
  1

  0
ENDBLK
  5
C0
330
15
100
AcDbEntity
 67
     1
  8
0
100
AcDbBlockEnd
  0
BLOCK
  5
C4
330
36
100
AcDbEntity
  8
0
100
AcDbBlockBegin
  2
560
 70
     0
 10
0.0
 20
0.0
 30
0.0
  3
560
  1

  0
LWPOLYLINE
  5
C5
330
36
100
AcDbEntity
  8
0
100
AcDbPolyline
 90
        8
 70
     0
 43
0.0
 10
-0.5083029883644699
 20
9.467438823989919
 42
0.4003466885482951
 10
-0.5370204594555688
 20
10.11335284839828
 42
0.3219314831300973
 10
-1.140089510140114
 20
10.19947470284498
 42
0.3683089161764466
 10
-1.757517296370217
 20
9.180365821090095
 42
-0.332201476857501
 10
-1.183165870903302
 20
10.7449132690849
 42
0.1157040667424215
 10
0.0947660623200832
 20
11.74966843105993
 10
0.2239951446096242
 20
12.23769235029664
 42
0.3663610736575929
 10
1.870894758510743
 20
13.78788607851159
 42
0.0179815275105373
  0
LWPOLYLINE
  5
CF
330
36
100
AcDbEntity
  8
0
100
AcDbPolyline
 90
        8
 70
     0
 43
0.0
 10
4.904959115744802
 20
9.467438823989919
 42
-0.4003466885482951
 10
4.9336765868359
 20
10.11335284839828
 42
-0.3219314831300973
 10
5.536745637520446
 20
10.19947470284498
 42
-0.3683089161764466
 10
6.154173423750549
 20
9.180365821090095
 42
0.332201476857501
 10
5.579821998283634
 20
10.7449132690849
 42
-0.1157040667424215
 10
4.301890065060248
 20
11.74966843105993
 10
4.172660982770707
 20
12.23769235029664
 42
-0.3663610736575929
 10
2.525761368869588
 20
13.78788607851159
 42
-0.0179815275105373
  0
LWPOLYLINE
  5
D9
330
36
100
AcDbEntity
  8
0
100
AcDbPolyline
 90
        5
 70
     0
 43
0.0
 10
2.851652842910667
 20
13.80223968223333
 42
0.3887861715949601
 10
4.416760411804247
 20
12.55347256063995
 10
4.589065854856976
 20
11.87885121272998
 42
0.0591403094607354
 10
5.752127441336362
 20
10.97457150892339
 42
-0.6337115690399616
 10
5.307005098158988
 20
7.945952419276576
 42
-1.349282875587615
  0
LWPOLYLINE
  5
E0
330
36
100
AcDbEntity
  8
0
100
AcDbPolyline
 90
       11
 70
     0
 43
0.0
 10
4.301890065060248
 20
7.945952419276576
 42
-0.3703611822739358
 10
3.655744807739047
 20
8.821524683523435
 42
-0.3944324882077497
 10
4.014714429390053
 20
9.266487791594915
 42
-0.6499673078709492
 10
4.143943511679601
 20
9.094243966643396
 42
0.485498949350949
 10
4.057790790153241
 20
8.620573651128431
 42
0.4549940747541064
 10
5.220852376632628
 20
8.290439837063377
 42
0.3096227134353919
 10
5.95315035548019
 20
9.094243966643396
 42
0.1822741071782802
 10
5.780844912427461
 20
9.654036136605064
 42
0.381962634684856
 10
5.249569847723726
 20
9.898048096223419
 42
0.6181327800938182
 10
5.07726455879753
 20
9.610975209381713
 42
-0.835722594806991
 10
4.904959115744802
 20
9.467438823989919
  0
LWPOLYLINE
  5
ED
330
36
100
AcDbEntity
  8
0
100
AcDbPolyline
 90
        5
 70
     0
 43
0.0
 10
1.545003284469665
 20
13.80223968223333
 42
-0.3887861715949601
 10
-0.0201042844239154
 20
12.55347256063995
 10
-0.1924097274766439
 20
11.87885121272998
 42
-0.0591403094607354
 10
-1.35547131395603
 20
10.97457150892339
 42
0.6337115690399616
 10
-0.9103489707786565
 20
7.945952419276576
 42
1.349282875587615
  0
LWPOLYLINE
  5
F4
330
36
100
AcDbEntity
  8
0
100
AcDbPolyline
 90
       11
 70
     0
 43
0.0
 10
0.0947660623200832
 20
7.945952419276576
 42
0.3703611822739358
 10
0.7409113196412847
 20
8.821524683523435
 42
0.3944324882077497
 10
0.3819416979902783
 20
9.266487791594915
 42
0.6499673078709492
 10
0.2527126157007302
 20
9.094243966643396
 42
-0.485498949350949
 10
0.3388653372270909
 20
8.620573651128431
 42
-0.4549940747541064
 10
-0.8241962492522958
 20
8.290439837063377
 42
-0.3096227134353919
 10
-1.556494228099857
 20
9.094243966643396
 42
-0.1822741071782802
 10
-1.384188785047129
 20
9.654036136605064
 42
-0.381962634684856
 10
-0.8529137203433947
 20
9.898048096223419
 42
-0.6181327800938182
 10
-0.6806084314171983
 20
9.610975209381713
 42
0.835722594806991
 10
-0.5083029883644699
 20
9.467438823989919
  0
LWPOLYLINE
  5
101
330
36
100
AcDbEntity
  8
0
100
AcDbPolyline
 90
       13
 70
     0
 43
0.0
 10
2.519833254941694
 20
1.501165662856543
 42
0.0015358750342644
 10
2.521400692350766
 20
1.486812059134798
 42
0.284765346484699
 10
3.784973890028595
 20
0.0658011125899023
 42
0.228811756360089
 10
5.436234180448536
 20
0.3528739994316083
 42
0.2859000203092602
 10
5.694692345027625
 20
1.788238549698249
 42
0.3252159402171721
 10
4.876241490527171
 20
2.304969792436565
 42
0.1475332091531111
 10
4.416760411804247
 20
2.132726083543168
 42
0.4527693439987018
 10
4.388042786586616
 20
1.716470298973291
 42
0.8378075416252437
 10
4.574706965184894
 20
1.845653196701462
 42
-0.3870773065174449
 10
5.105982029888629
 20
1.960482374649764
 42
-0.510617170766706
 10
5.235211112178177
 20
0.6830079295547833
 42
-0.2694219028441273
 10
3.756256264810964
 20
0.381581322933215
 42
-0.3043895980612786
 10
2.89707879841292
 20
1.501165662856543
 42
0.0313689218530108
  0
LWPOLYLINE
  5
110
330
36
100
AcDbEntity
  8
0
100
AcDbPolyline
 90
        5
 70
     0
 43
0.0
 10
2.851652842910667
 20
2.089665156319817
 42
-0.3887861715949601
 10
4.416760411804247
 20
3.338432277913199
 10
4.589065854856976
 20
4.013053625823168
 42
-0.0591403094607354
 10
5.752127441336362
 20
4.917333329629755
 42
0.6337115690399616
 10
5.307005098158988
 20
7.945952419276576
 42
1.349282875587615
  0
LWPOLYLINE
  5
117
330
36
100
AcDbEntity
  8
0
100
AcDbPolyline
 90
        8
 70
     0
 43
0.0
 10
4.904959115744802
 20
6.424466014563233
 42
0.4003466885482951
 10
4.9336765868359
 20
5.778551990154866
 42
0.3219314831300973
 10
5.536745637520446
 20
5.692430135708168
 42
0.3683089161764466
 10
6.154173423750549
 20
6.711539017463056
 42
-0.332201476857501
 10
5.579821998283634
 20
5.146991569468248
 42
0.1157040667424215
 10
4.301890065060248
 20
4.142236407493221
 10
4.172660982770707
 20
3.654212488256511
 42
0.3663610736575929
 10
2.525761368869588
 20
2.104018760041562
 42
0.0179815275105373
  0
LWPOLYLINE
  5
121
330
36
100
AcDbEntity
  8
0
100
AcDbPolyline
 90
       11
 70
     0
 43
0.0
 10
4.301890065060248
 20
7.945952419276576
 42
0.3703611822739358
 10
3.655744807739047
 20
7.070380155029717
 42
0.3944324882077497
 10
4.014714429390053
 20
6.625417046958236
 42
0.6499673078709492
 10
4.143943511679601
 20
6.797660871909755
 42
-0.485498949350949
 10
4.057790790153241
 20
7.271331187424721
 42
-0.4549940747541064
 10
5.220852376632628
 20
7.601465001489774
 42
-0.3096227134353919
 10
5.95315035548019
 20
6.797660871909755
 42
-0.1822741071782802
 10
5.780844912427461
 20
6.237868701948087
 42
-0.381962634684856
 10
5.249569847723726
 20
5.993856742329732
 42
-0.6181327800938182
 10
5.07726455879753
 20
6.280929629171438
 42
0.835722594806991
 10
4.904959115744802
 20
6.424466014563233
  0
LWPOLYLINE
  5
12E
330
36
100
AcDbEntity
  8
0
100
AcDbPolyline
 90
        8
 70
     0
 43
0.0
 10
-0.5083029883644699
 20
6.424466014563233
 42
-0.4003466885482951
 10
-0.5370204594555688
 20
5.778551990154866
 42
-0.3219314831300973
 10
-1.140089510140114
 20
5.692430135708168
 42
-0.3683089161764466
 10
-1.757517296370217
 20
6.711539017463056
 42
0.332201476857501
 10
-1.183165870903302
 20
5.146991569468248
 42
-0.1157040667424215
 10
0.0947660623200832
 20
4.142236407493221
 10
0.2239951446096242
 20
3.654212488256511
 42
-0.3663610736575929
 10
1.870894758510743
 20
2.104018760041562
 42
-0.0179815275105373
  0
LWPOLYLINE
  5
138
330
36
100
AcDbEntity
  8
0
100
AcDbPolyline
 90
        5
 70
     0
 43
0.0
 10
1.545003284469665
 20
2.089665156319817
 42
0.3887861715949601
 10
-0.0201042844239154
 20
3.338432277913199
 10
-0.1924097274766439
 20
4.013053625823168
 42
0.0591403094607354
 10
-1.35547131395603
 20
4.917333329629755
 42
-0.6337115690399616
 10
-0.9103489707786565
 20
7.945952419276576
 42
-1.349282875587615
  0
LWPOLYLINE
  5
13F
330
36
100
AcDbEntity
  8
0
100
AcDbPolyline
 90
       13
 70
     0
 43
0.0
 10
1.876822872438637
 20
1.501165662856543
 42
-0.0015358750342644
 10
1.875255435029565
 20
1.486812059134798
 42
-0.284765346484699
 10
0.6116822373517366
 20
0.0658011125899023
 42
-0.228811756360089
 10
-1.039578053068204
 20
0.3528739994316083
 42
-0.2859000203092602
 10
-1.298036217647293
 20
1.788238549698249
 42
-0.3252159402171721
 10
-0.479585363146839
 20
2.304969792436565
 42
-0.1475332091531111
 10
-0.0201042844239154
 20
2.132726083543168
 42
-0.4527693439987018
 10
0.0086133407937155
 20
1.716470298973291
 42
-0.8378075416252437
 10
-0.1780508378045624
 20
1.845653196701462
 42
0.3870773065174449
 10
-0.7093259025082972
 20
1.960482374649764
 42
0.510617170766706
 10
-0.8385549847978452
 20
0.6830079295547833
 42
0.2694219028441273
 10
0.6403998625693675
 20
0.381581322933215
 42
0.3043895980612786
 10
1.499577328967411
 20
1.501165662856543
 42
-0.0313689218530108
  0
LWPOLYLINE
  5
14E
330
36
100
AcDbEntity
  8
0
100
AcDbPolyline
 90
        4
 70
     1
 43
0.0
 10
1.35833910587138
 20
1.501165662856543
 10
1.35833910587138
 20
2.104018760041562
 10
3.052675757054501
 20
2.104018760041562
 10
3.052675757054501
 20
1.501165662856543
  0
LWPOLYLINE
  5
154
330
36
100
AcDbEntity
  8
0
100
AcDbPolyline
 90
       11
 70
     0
 43
0.0
 10
0.0947660623200832
 20
7.945952419276576
 42
-0.3703611822739358
 10
0.7409113196412847
 20
7.070380155029717
 42
-0.3944324882077497
 10
0.3819416979902783
 20
6.625417046958236
 42
-0.6499673078709492
 10
0.2527126157007302
 20
6.797660871909755
 42
0.485498949350949
 10
0.3388653372270909
 20
7.271331187424721
 42
0.4549940747541064
 10
-0.8241962492522958
 20
7.601465001489774
 42
0.3096227134353919
 10
-1.556494228099857
 20
6.797660871909755
 42
0.1822741071782802
 10
-1.384188785047129
 20
6.237868701948087
 42
0.381962634684856
 10
-0.8529137203433947
 20
5.993856742329732
 42
0.6181327800938182
 10
-0.6806084314171983
 20
6.280929629171438
 42
-0.835722594806991
 10
-0.5083029883644699
 20
6.424466014563233
  0
LWPOLYLINE
  5
161
330
36
100
AcDbEntity
  8
0
100
AcDbPolyline
 90
        4
 70
     0
 43
0.0
 10
0.6403998625693675
 20
8.31914716056498
 42
-0.2419454317046212
 10
1.071163470201184
 20
8.046427877445022
 10
1.200392552490733
 20
8.017720553943416
 10
1.214751288036282
 20
7.945952419276576
  0
LWPOLYLINE
  5
167
330
36
100
AcDbEntity
  8
0
100
AcDbPolyline
 90
        4
 70
     0
 43
0.0
 10
0.6403998625693675
 20
7.572757677988171
 42
0.2419454317046212
 10
1.071163470201184
 20
7.845476961108129
 10
1.200392552490733
 20
7.874184284609736
 10
1.214751288036282
 20
7.945952419276576
  0
LWPOLYLINE
  5
16D
330
36
100
AcDbEntity
  8
0
100
AcDbPolyline
 90
        4
 70
     0
 43
0.0
 10
3.756256264810964
 20
7.572757677988171
 42
-0.2419454317046212
 10
3.325492657179147
 20
7.845476961108129
 10
3.196263574889599
 20
7.874184284609736
 10
3.181904839344049
 20
7.945952419276576
  0
LWPOLYLINE
  5
173
330
36
100
AcDbEntity
  8
0
100
AcDbPolyline
 90
        4
 70
     0
 43
0.0
 10
3.756256264810964
 20
8.31914716056498
 42
0.2419454317046212
 10
3.325492657179147
 20
8.046427877445022
 10
3.196263574889599
 20
8.017720553943416
 10
3.181904839344049
 20
7.945952419276576
  0
LWPOLYLINE
  5
179
330
36
100
AcDbEntity
  8
0
100
AcDbPolyline
 90
       13
 70
     0
 43
0.0
 10
2.519833254941694
 20
14.3907391756966
 42
-0.0015358750342644
 10
2.521400692350766
 20
14.40509277941835
 42
-0.284765346484699
 10
3.784973890028595
 20
15.82610372596325
 42
-0.228811756360089
 10
5.436234180448536
 20
15.53903083912154
 42
-0.2859000203092602
 10
5.694692345027625
 20
14.1036662888549
 42
-0.3252159402171721
 10
4.876241490527171
 20
13.58693504611658
 42
-0.1475332091531111
 10
4.416760411804247
 20
13.75917875500998
 42
-0.4527693439987018
 10
4.388042786586616
 20
14.17543453957986
 42
-0.8378075416252437
 10
4.574706965184894
 20
14.04625164185168
 42
0.3870773065174449
 10
5.105982029888629
 20
13.93142246390338
 42
0.510617170766706
 10
5.235211112178177
 20
15.20889690899837
 42
0.2694219028441273
 10
3.756256264810964
 20
15.51032351561993
 42
0.3043895980612786
 10
2.89707879841292
 20
14.3907391756966
 42
-0.0313689218530108
  0
LWPOLYLINE
  5
188
330
36
100
AcDbEntity
  8
0
100
AcDbPolyline
 90
       13
 70
     0
 43
0.0
 10
1.876822872438637
 20
14.3907391756966
 42
0.0015358750342644
 10
1.875255435029565
 20
14.40509277941835
 42
0.284765346484699
 10
0.6116822373517366
 20
15.82610372596325
 42
0.228811756360089
 10
-1.039578053068204
 20
15.53903083912154
 42
0.2859000203092602
 10
-1.298036217647293
 20
14.1036662888549
 42
0.3252159402171721
 10
-0.479585363146839
 20
13.58693504611658
 42
0.1475332091531111
 10
-0.0201042844239154
 20
13.75917875500998
 42
0.4527693439987018
 10
0.0086133407937155
 20
14.17543453957986
 42
0.8378075416252437
 10
-0.1780508378045624
 20
14.04625164185168
 42
-0.3870773065174449
 10
-0.7093259025082972
 20
13.93142246390338
 42
-0.510617170766706
 10
-0.8385549847978452
 20
15.20889690899837
 42
-0.2694219028441273
 10
0.6403998625693675
 20
15.51032351561993
 42
-0.3043895980612786
 10
1.499577328967411
 20
14.3907391756966
 42
0.0313689218530108
  0
LWPOLYLINE
  5
197
330
36
100
AcDbEntity
  8
0
100
AcDbPolyline
 90
        4
 70
     1
 43
0.0
 10
1.35833910587138
 20
14.3907391756966
 10
1.35833910587138
 20
13.78788607851159
 10
3.052675757054501
 20
13.78788607851159
 10
3.052675757054501
 20
14.3907391756966
  0
ENDBLK
  5
19D
330
36
100
AcDbEntity
  8
0
100
AcDbBlockEnd
  0
BLOCK
  5
19E
330
B6
100
AcDbEntity
  8
0
100
AcDbBlockBegin
  2
*D1
 70
     1
 10
0.0
 20
0.0
 30
0.0
  3
*D1
  1

  0
LINE
  5
19F
330
B6
100
AcDbEntity
  8
0
  6
BYBLOCK
 62
     0
100
AcDbLine
 10
70.39335447893254
 20
-25.9575010832147
 30
0.0
 11
72.21280245375585
 21
-25.9575010832147
 31
0.0
  0
LINE
  5
1A0
330
B6
100
AcDbEntity
  8
0
  6
BYBLOCK
 62
     0
100
AcDbLine
 10
70.39335447893254
 20
-9.957501083214705
 30
0.0
 11
72.21280245375585
 21
-9.957501083214705
 31
0.0
  0
LINE
  5
1A1
330
B6
100
AcDbEntity
  8
0
  6
BYBLOCK
 62
     0
100
AcDbLine
 10
72.03280245375585
 20
-25.9575010832147
 30
0.0
 11
72.03280245375585
 21
-18.16583441654803
 31
0.0
  0
LINE
  5
1A2
330
B6
100
AcDbEntity
  8
0
  6
BYBLOCK
 62
     0
100
AcDbLine
 10
72.03280245375585
 20
-9.957501083214705
 30
0.0
 11
72.03280245375585
 21
-17.74916774988137
 31
0.0
  0
LINE
  5
1A3
330
B6
100
AcDbEntity
  8
0
  6
BYBLOCK
 62
     0
100
AcDbLine
 10
72.15780245375585
 20
-26.0825010832147
 30
0.0
 11
71.90780245375584
 21
-25.8325010832147
 31
0.0
  0
LINE
  5
1A4
330
B6
100
AcDbEntity
  8
0
  6
BYBLOCK
 62
     0
100
AcDbLine
 10
72.15780245375585
 20
-10.0825010832147
 30
0.0
 11
71.90780245375584
 21
-9.832501083214705
 31
0.0
  0
TEXT
  5
1A5
330
B6
100
AcDbEntity
  8
0
  6
BYBLOCK
 62
     0
100
AcDbText
 10
72.09530245375585
 20
-18.04083441654803
 30
0.0
 40
0.125
  1
16
 50
90.0
 72
     1
 11
72.03280245375585
 21
-17.9575010832147
 31
0.0
100
AcDbText
 73
     2
  0
POINT
  5
1A6
330
B6
100
AcDbEntity
  8
DEFPOINTS
  6
BYBLOCK
 62
     0
100
AcDbPoint
 10
70.33085447893253
 20
-25.9575010832147
 30
0.0
  0
POINT
  5
1A7
330
B6
100
AcDbEntity
  8
DEFPOINTS
  6
BYBLOCK
 62
     0
100
AcDbPoint
 10
70.33085447893253
 20
-9.957501083214705
 30
0.0
  0
POINT
  5
1A8
330
B6
100
AcDbEntity
  8
DEFPOINTS
  6
BYBLOCK
 62
     0
100
AcDbPoint
 10
72.03280245375585
 20
-9.957501083214705
 30
0.0
  0
ENDBLK
  5
1A9
330
B6
100
AcDbEntity
  8
0
100
AcDbBlockEnd
  0
BLOCK
  5
1AA
330
B7
100
AcDbEntity
  8
0
100
AcDbBlockBegin
  2
*D2
 70
     1
 10
0.0
 20
0.0
 30
0.0
  3
*D2
  1

  0
LINE
  5
1AB
330
B7
100
AcDbEntity
  8
0
  6
BYBLOCK
 62
     0
100
AcDbLine
 10
63.0168230357702
 20
-14.22105952382744
 30
0.0
 11
63.0168230357702
 21
-9.305719287309328
 31
0.0
  0
LINE
  5
1AC
330
B7
100
AcDbEntity
  8
0
  6
BYBLOCK
 62
     0
100
AcDbLine
 10
71.51682303577022
 20
-14.22105952382744
 30
0.0
 11
71.51682303577022
 21
-9.305719287309328
 31
0.0
  0
LINE
  5
1AD
330
B7
100
AcDbEntity
  8
0
  6
BYBLOCK
 62
     0
100
AcDbLine
 10
63.0168230357702
 20
-9.485719287309327
 30
0.0
 11
66.87098970243688
 21
-9.485719287309327
 31
0.0
  0
LINE
  5
1AE
330
B7
100
AcDbEntity
  8
0
  6
BYBLOCK
 62
     0
100
AcDbLine
 10
71.51682303577022
 20
-9.485719287309327
 30
0.0
 11
67.66265636910354
 21
-9.485719287309327
 31
0.0
  0
LINE
  5
1AF
330
B7
100
AcDbEntity
  8
0
  6
BYBLOCK
 62
     0
100
AcDbLine
 10
62.89182303577021
 20
-9.610719287309327
 30
0.0
 11
63.14182303577021
 21
-9.360719287309327
 31
0.0
  0
LINE
  5
1B0
330
B7
100
AcDbEntity
  8
0
  6
BYBLOCK
 62
     0
100
AcDbLine
 10
71.39182303577022
 20
-9.610719287309327
 30
0.0
 11
71.64182303577021
 21
-9.360719287309327
 31
0.0
  0
TEXT
  5
1B1
330
B7
100
AcDbEntity
  8
0
  6
BYBLOCK
 62
     0
100
AcDbText
 10
66.99598970243688
 20
-9.548219287309327
 30
0.0
 40
0.125
  1
8 1/2
 72
     1
 11
67.26682303577021
 21
-9.485719287309327
 31
0.0
100
AcDbText
 73
     2
  0
POINT
  5
1B2
330
B7
100
AcDbEntity
  8
DEFPOINTS
  6
BYBLOCK
 62
     0
100
AcDbPoint
 10
63.0168230357702
 20
-14.28355952382744
 30
0.0
  0
POINT
  5
1B3
330
B7
100
AcDbEntity
  8
DEFPOINTS
  6
BYBLOCK
 62
     0
100
AcDbPoint
 10
71.51682303577022
 20
-14.28355952382744
 30
0.0
  0
POINT
  5
1B4
330
B7
100
AcDbEntity
  8
DEFPOINTS
  6
BYBLOCK
 62
     0
100
AcDbPoint
 10
71.51682303577022
 20
-9.485719287309327
 30
0.0
  0
ENDBLK
  5
1B5
330
B7
100
AcDbEntity
  8
0
100
AcDbBlockEnd
  0
ENDSEC
  0
SECTION
  2
ENTITIES
  0
INSERT
  5
1B6
330
18
100
AcDbEntity
  8
ADP1DETAIL
100
AcDbBlockReference
  2
560
 10
65.06131560430727
 20
-25.80297804432283
 30
0.0
  0
DIMENSION
  5
1B7
330
18
100
AcDbEntity
  8
ADPDIM
100
AcDbDimension
  2
*D1
 10
72.03280245375585
 20
-9.957501083214705
 30
0.0
 11
72.03280245375585
 21
-17.9575010832147
 31
0.0
100
AcDbAlignedDimension
 13
70.33085447893253
 23
-25.9575010832147
 33
0.0
 14
70.33085447893253
 24
-9.957501083214705
 34
0.0
 50
90.0
100
AcDbRotatedDimension
  0
DIMENSION
  5
1B8
330
18
100
AcDbEntity
  8
ADPDIM
100
AcDbDimension
  2
*D2
 10
71.51682303577022
 20
-9.485719287309327
 30
0.0
 11
67.26682303577021
 21
-9.485719287309327
 31
0.0
100
AcDbAlignedDimension
 13
63.0168230357702
 23
-14.28355952382744
 33
0.0
 14
71.51682303577022
 24
-14.28355952382744
 34
0.0
100
AcDbRotatedDimension
  0
TEXT
  5
1C6
330
18
100
AcDbEntity
  8
ADPDIM
100
AcDbText
 10
47.98137392405926
 20
-26.78550501849195
 30
0.0
 40
0.375
  1
J U L I U S  B L U M  &  C O . ,  I N C .      ( 8 0 0 )  5 2 6 - 6 2 9 3        W W W . J U L I U S B L U M . C O M        P A R T  N o .  5 6 3
 41
1.25
  7
ARIAL_WIDE
 72
     1
 11
67.28549653661042
 21
-26.41050501849195
 31
0.0
100
AcDbText
 73
     3
  0
ENDSEC
  0
SECTION
  2
OBJECTS
  0
DICTIONARY
  5
C
330
0
100
AcDbDictionary
  3
ACAD_GROUP
350
D
  3
ACAD_LAYOUT
350
1BF
  3
ACAD_MLINESTYLE
350
E
  3
ACAD_PLOTSETTINGS
350
1C0
  3
ACAD_PLOTSTYLENAME
350
1BD
  3
ACDBHEADERROUNDTRIPXREC
350
30E
  3
ACDBVARIABLEDICTIONARY
350
220
  0
DICTIONARY
  5
21A
330
18
100
AcDbDictionary
280
     1
  3
ACAD_LAYOUTSELFREF
360
32F
  0
DICTIONARY
  5
218
330
15
100
AcDbDictionary
280
     1
  3
ACAD_LAYOUTSELFREF
360
32E
  0
DICTIONARY
  5
D
102
{ACAD_REACTORS
330
C
102
}
330
C
100
AcDbDictionary
  0
DICTIONARY
  5
1BF
102
{ACAD_REACTORS
330
C
102
}
330
C
100
AcDbDictionary
  0
DICTIONARY
  5
E
102
{ACAD_REACTORS
330
C
102
}
330
C
100
AcDbDictionary
  3
STANDARD
350
1B
  0
DICTIONARY
  5
1C0
102
{ACAD_REACTORS
330
C
102
}
330
C
100
AcDbDictionary
  0
ACDBDICTIONARYWDFLT
  5
1BD
102
{ACAD_REACTORS
330
C
102
}
330
C
100
AcDbDictionary
281
     1
  3
Normal
350
1BE
100
AcDbDictionaryWithDefault
340
1BE
  0
DICTIONARY
  5
30E
102
{ACAD_REACTORS
330
C
102
}
330
C
100
AcDbDictionary
  3
CEPSNTYPE
350
318
  3
FINGERPRINTGUID
350
319
  3
HYPERLINKBASE
350
311
  3
INSUNITS
350
317
  3
LAYOUTDICT
350
313
  3
LWETCUNION
350
316
  3
PLOTSETDICT
350
314
  3
PLOTSTYLNAMDICT
350
315
  3
PSVPSCALE
350
31B
  3
PUCSBASE
350
31E
  3
PUCSORGBACK
350
324
  3
PUCSORGBOTTOM
350
320
  3
PUCSORGFRONT
350
323
  3
PUCSORGLEFT
350
321
  3
PUCSORGRIGHT
350
322
  3
PUCSORGTOP
350
31F
  3
PUCSORTHOREF
350
31C
  3
PUCSORTHOVIEW
350
31D
  3
STYLESHEET
350
312
  3
TSTACKALIGN
350
30F
  3
TSTACKSIZE
350
310
  3
UCSBASE
350
327
  3
UCSORGBACK
350
32D
  3
UCSORGBOTTOM
350
329
  3
UCSORGFRONT
350
32C
  3
UCSORGLEFT
350
32A
  3
UCSORGRIGHT
350
32B
  3
UCSORGTOP
350
328
  3
UCSORTHOREF
350
325
  3
UCSORTHOVIEW
350
326
  3
VERSIONGUID
350
31A
  0
DICTIONARY
  5
220
102
{ACAD_REACTORS
330
C
102
}
330
C
100
AcDbDictionary
  3
DIMASSOC
350
221
  0
XRECORD
  5
32F
102
{ACAD_REACTORS
330
21A
102
}
330
21A
100
AcDbXrecord
340
18
  0
XRECORD
  5
32E
102
{ACAD_REACTORS
330
218
102
}
330
218
100
AcDbXrecord
340
15
  0
MLINESTYLE
  5
1B
102
{ACAD_REACTORS
330
E
102
}
330
E
100
AcDbMlineStyle
  2
STANDARD
 70
     0
  3

 62
     0
 51
90.0
 52
90.0
 71
     2
 49
0.5
 62
   256
  6
BYLAYER
 49
-0.5
 62
   256
  6
BYLAYER
  0
ACDBPLACEHOLDER
  5
1BE
102
{ACAD_REACTORS
330
1BD
102
}
330
1BD
100
AcDbPlaceHolder
280
     0
  0
XRECORD
  5
318
102
{ACAD_REACTORS
330
30E
102
}
330
30E
100
AcDbXrecord
 90
        0
  0
XRECORD
  5
319
102
{ACAD_REACTORS
330
30E
102
}
330
30E
100
AcDbXrecord
  1
{C4BBCF1A-BE9B-4851-98D6-A0400A6CE077}
  0
XRECORD
  5
311
102
{ACAD_REACTORS
330
30E
102
}
330
30E
100
AcDbXrecord
  1

  0
XRECORD
  5
317
102
{ACAD_REACTORS
330
30E
102
}
330
30E
100
AcDbXrecord
 90
        0
  0
XRECORD
  5
313
102
{ACAD_REACTORS
330
30E
102
}
330
30E
100
AcDbXrecord
340
1BF
  0
XRECORD
  5
316
102
{ACAD_REACTORS
330
30E
102
}
330
30E
100
AcDbXrecord
 90
    14877
  0
XRECORD
  5
314
102
{ACAD_REACTORS
330
30E
102
}
330
30E
100
AcDbXrecord
340
1C0
  0
XRECORD
  5
315
102
{ACAD_REACTORS
330
30E
102
}
330
30E
100
AcDbXrecord
340
1BD
  0
XRECORD
  5
31B
102
{ACAD_REACTORS
330
30E
102
}
330
30E
100
AcDbXrecord
 40
0.0
  0
XRECORD
  5
31E
102
{ACAD_REACTORS
330
30E
102
}
330
30E
100
AcDbXrecord
340
0
  0
XRECORD
  5
324
102
{ACAD_REACTORS
330
30E
102
}
330
30E
100
AcDbXrecord
 10
0.0
 20
0.0
 30
0.0
  0
XRECORD
  5
320
102
{ACAD_REACTORS
330
30E
102
}
330
30E
100
AcDbXrecord
 10
0.0
 20
0.0
 30
0.0
  0
XRECORD
  5
323
102
{ACAD_REACTORS
330
30E
102
}
330
30E
100
AcDbXrecord
 10
0.0
 20
0.0
 30
0.0
  0
XRECORD
  5
321
102
{ACAD_REACTORS
330
30E
102
}
330
30E
100
AcDbXrecord
 10
0.0
 20
0.0
 30
0.0
  0
XRECORD
  5
322
102
{ACAD_REACTORS
330
30E
102
}
330
30E
100
AcDbXrecord
 10
0.0
 20
0.0
 30
0.0
  0
XRECORD
  5
31F
102
{ACAD_REACTORS
330
30E
102
}
330
30E
100
AcDbXrecord
 10
0.0
 20
0.0
 30
0.0
  0
XRECORD
  5
31C
102
{ACAD_REACTORS
330
30E
102
}
330
30E
100
AcDbXrecord
340
0
  0
XRECORD
  5
31D
102
{ACAD_REACTORS
330
30E
102
}
330
30E
100
AcDbXrecord
 70
     0
  0
XRECORD
  5
312
102
{ACAD_REACTORS
330
30E
102
}
330
30E
100
AcDbXrecord
  1

  0
XRECORD
  5
30F
102
{ACAD_REACTORS
330
30E
102
}
330
30E
100
AcDbXrecord
 90
        1
  0
XRECORD
  5
310
102
{ACAD_REACTORS
330
30E
102
}
330
30E
100
AcDbXrecord
 90
       70
  0
XRECORD
  5
327
102
{ACAD_REACTORS
330
30E
102
}
330
30E
100
AcDbXrecord
340
0
  0
XRECORD
  5
32D
102
{ACAD_REACTORS
330
30E
102
}
330
30E
100
AcDbXrecord
 10
0.0
 20
0.0
 30
0.0
  0
XRECORD
  5
329
102
{ACAD_REACTORS
330
30E
102
}
330
30E
100
AcDbXrecord
 10
0.0
 20
0.0
 30
0.0
  0
XRECORD
  5
32C
102
{ACAD_REACTORS
330
30E
102
}
330
30E
100
AcDbXrecord
 10
0.0
 20
0.0
 30
0.0
  0
XRECORD
  5
32A
102
{ACAD_REACTORS
330
30E
102
}
330
30E
100
AcDbXrecord
 10
0.0
 20
0.0
 30
0.0
  0
XRECORD
  5
32B
102
{ACAD_REACTORS
330
30E
102
}
330
30E
100
AcDbXrecord
 10
0.0
 20
0.0
 30
0.0
  0
XRECORD
  5
328
102
{ACAD_REACTORS
330
30E
102
}
330
30E
100
AcDbXrecord
 10
0.0
 20
0.0
 30
0.0
  0
XRECORD
  5
325
102
{ACAD_REACTORS
330
30E
102
}
330
30E
100
AcDbXrecord
340
0
  0
XRECORD
  5
326
102
{ACAD_REACTORS
330
30E
102
}
330
30E
100
AcDbXrecord
 70
     0
  0
XRECORD
  5
31A
102
{ACAD_REACTORS
330
30E
102
}
330
30E
100
AcDbXrecord
  1
{60101189-289A-421D-89E2-674F459F1202}
  0
DICTIONARYVAR
  5
221
102
{ACAD_REACTORS
330
220
102
}
330
220
100
DictionaryVariables
280
     0
  1
1
  0
ENDSEC
  0
EOF
