  0
SECTION
  2
HEADER
  9
$ACADVER
  1
AC1014
  9
$ACADMAINTVER
 70
     9
  9
$DWGCODEPAGE
  3
ANSI_1252
  9
$INSBASE
 10
68.21843121641973
 20
5.921399076693107
 30
0.0
  9
$EXTMIN
 10
37.80863288331612
 20
4.022278824359971
 30
0.0
  9
$EXTMAX
 10
89.28629318345256
 20
30.0992011303481
 30
0.0
  9
$LIMMIN
 10
0.0
 20
0.0
  9
$LIMMAX
 10
36.0
 20
36.0
  9
$ORTHOMODE
 70
     1
  9
$REGENMODE
 70
     1
  9
$FILLMODE
 70
     1
  9
$QTEXTMODE
 70
     0
  9
$MIRRTEXT
 70
     1
  9
$DRAGMODE
 70
     0
  9
$LTSCALE
 40
1.0
  9
$OSMODE
 70
    37
  9
$ATTMODE
 70
     1
  9
$TEXTSIZE
 40
0.2
  9
$TRACEWID
 40
0.05
  9
$TEXTSTYLE
  7
STANDARD
  9
$CLAYER
  8
ADPDIM
  9
$CELTYPE
  6
BYLAYER
  9
$CECOLOR
 62
   256
  9
$CELTSCALE
 40
1.0
  9
$DELOBJ
 70
     1
  9
$DISPSILH
 70
     0
  9
$DIMSCALE
 40
1.0
  9
$DIMASZ
 40
0.125
  9
$DIMEXO
 40
0.0625
  9
$DIMDLI
 40
0.38
  9
$DIMRND
 40
0.0
  9
$DIMDLE
 40
0.0
  9
$DIMEXE
 40
0.18
  9
$DIMTP
 40
0.0
  9
$DIMTM
 40
0.0
  9
$DIMTXT
 40
0.125
  9
$DIMCEN
 40
0.1875
  9
$DIMTSZ
 40
0.125
  9
$DIMTOL
 70
     0
  9
$DIMLIM
 70
     0
  9
$DIMTIH
 70
     0
  9
$DIMTOH
 70
     0
  9
$DIMSE1
 70
     0
  9
$DIMSE2
 70
     0
  9
$DIMTAD
 70
     0
  9
$DIMZIN
 70
     3
  9
$DIMBLK
  1

  9
$DIMASO
 70
     1
  9
$DIMSHO
 70
     1
  9
$DIMPOST
  1

  9
$DIMAPOST
  1

  9
$DIMALT
 70
     0
  9
$DIMALTD
 70
     1
  9
$DIMALTF
 40
25.4
  9
$DIMLFAC
 40
1.0
  9
$DIMTOFL
 70
     0
  9
$DIMTVP
 40
0.0
  9
$DIMTIX
 70
     0
  9
$DIMSOXD
 70
     0
  9
$DIMSAH
 70
     0
  9
$DIMBLK1
  1

  9
$DIMBLK2
  1

  9
$DIMSTYLE
  2
STANDARD
  9
$DIMCLRD
 70
     0
  9
$DIMCLRE
 70
     0
  9
$DIMCLRT
 70
     0
  9
$DIMTFAC
 40
1.0
  9
$DIMGAP
 40
0.125
  9
$DIMJUST
 70
     0
  9
$DIMSD1
 70
     0
  9
$DIMSD2
 70
     0
  9
$DIMTOLJ
 70
     1
  9
$DIMTZIN
 70
     0
  9
$DIMALTZ
 70
     0
  9
$DIMALTTZ
 70
     0
  9
$DIMFIT
 70
     3
  9
$DIMUPT
 70
     0
  9
$DIMUNIT
 70
     2
  9
$DIMDEC
 70
     4
  9
$DIMTDEC
 70
     4
  9
$DIMALTU
 70
     2
  9
$DIMALTTD
 70
     2
  9
$DIMTXSTY
  7
STANDARD
  9
$DIMAUNIT
 70
     0
  9
$LUNITS
 70
     5
  9
$LUPREC
 70
     4
  9
$SKETCHINC
 40
0.1
  9
$FILLETRAD
 40
0.062
  9
$AUNITS
 70
     0
  9
$AUPREC
 70
     0
  9
$MENU
  1
acad
  9
$ELEVATION
 40
0.0
  9
$PELEVATION
 40
0.0
  9
$THICKNESS
 40
0.0
  9
$LIMCHECK
 70
     0
  9
$BLIPMODE
 70
     0
  9
$CHAMFERA
 40
0.0
  9
$CHAMFERB
 40
0.0
  9
$CHAMFERC
 40
0.0
  9
$CHAMFERD
 40
0.0
  9
$SKPOLY
 70
     0
  9
$TDCREATE
 40
2450408.668089884
  9
$TDUPDATE
 40
2452297.072836007
  9
$TDINDWG
 40
0.0174444444
  9
$TDUSRTIMER
 40
0.0174444444
  9
$USRTIMER
 70
     1
  9
$ANGBASE
 50
0.0
  9
$ANGDIR
 70
     0
  9
$PDMODE
 70
     0
  9
$PDSIZE
 40
0.0
  9
$PLINEWID
 40
0.0
  9
$COORDS
 70
     2
  9
$SPLFRAME
 70
     0
  9
$SPLINETYPE
 70
     6
  9
$SPLINESEGS
 70
     8
  9
$ATTDIA
 70
     0
  9
$ATTREQ
 70
     1
  9
$HANDLING
 70
 22529
  9
$HANDSEED
  5
4E5
  9
$SURFTAB1
 70
     6
  9
$SURFTAB2
 70
     6
  9
$SURFTYPE
 70
     6
  9
$SURFU
 70
     6
  9
$SURFV
 70
     6
  9
$UCSNAME
  2

  9
$UCSORG
 10
0.0
 20
0.0
 30
0.0
  9
$UCSXDIR
 10
1.0
 20
0.0
 30
0.0
  9
$UCSYDIR
 10
0.0
 20
1.0
 30
0.0
  9
$PUCSNAME
  2

  9
$PUCSORG
 10
0.0
 20
0.0
 30
0.0
  9
$PUCSXDIR
 10
1.0
 20
0.0
 30
0.0
  9
$PUCSYDIR
 10
0.0
 20
1.0
 30
0.0
  9
$USERI1
 70
     0
  9
$USERI2
 70
     0
  9
$USERI3
 70
     0
  9
$USERI4
 70
     0
  9
$USERI5
 70
     0
  9
$USERR1
 40
0.0
  9
$USERR2
 40
0.0
  9
$USERR3
 40
0.0
  9
$USERR4
 40
0.0
  9
$USERR5
 40
0.0
  9
$WORLDVIEW
 70
     1
  9
$SHADEDGE
 70
     3
  9
$SHADEDIF
 70
    70
  9
$TILEMODE
 70
     1
  9
$MAXACTVP
 70
    15
  9
$PINSBASE
 10
0.0
 20
0.0
 30
0.0
  9
$PLIMCHECK
 70
     0
  9
$PEXTMIN
 10
1.000000000000000E+20
 20
1.000000000000000E+20
 30
1.000000000000000E+20
  9
$PEXTMAX
 10
-1.000000000000000E+20
 20
-1.000000000000000E+20
 30
-1.000000000000000E+20
  9
$PLIMMIN
 10
0.0
 20
0.0
  9
$PLIMMAX
 10
12.0
 20
9.0
  9
$UNITMODE
 70
     0
  9
$VISRETAIN
 70
     0
  9
$PLINEGEN
 70
     0
  9
$PSLTSCALE
 70
     1
  9
$TREEDEPTH
 70
  3020
  9
$PICKSTYLE
 70
     1
  9
$CMLSTYLE
  2
STANDARD
  9
$CMLJUST
 70
     0
  9
$CMLSCALE
 40
1.0
  9
$PROXYGRAPHICS
 70
     1
  9
$MEASUREMENT
 70
     0
  0
ENDSEC
  0
SECTION
  2
CLASSES
  0
CLASS
  1
ACDBDICTIONARYWDFLT
  2
AcDbDictionaryWithDefault
  3
AutoCAD 2000
 90
        0
280
     0
281
     0
  0
CLASS
  1
ACDBPLACEHOLDER
  2
AcDbPlaceHolder
  3
AutoCAD 2000
 90
        0
280
     0
281
     0
  0
CLASS
  1
LAYOUT
  2
AcDbLayout
  3
AutoCAD 2000
 90
        0
280
     0
281
     0
  0
CLASS
  1
DICTIONARYVAR
  2
AcDbDictionaryVar
  3
AutoCAD 2000
 90
        0
280
     0
281
     0
  0
CLASS
  1
LONG_TRANSACTION
  2
AcDbLongTransaction
  3
AutoCAD 2000
 90
        0
280
     0
281
     0
  0
CLASS
  1
LWPOLYLINE
  2
AcDbPolyline
  3
AutoCAD 2000
 90
        0
280
     0
281
     1
  0
CLASS
  1
HATCH
  2
AcDbHatch
  3
AutoCAD 2000
 90
        0
280
     0
281
     1
  0
CLASS
  1
XRECORD
  2
AcDbXrecord
  3
AutoCAD 2000
 90
        0
280
     0
281
     0
  0
CLASS
  1
LONG_TRANSACTION
  2
AcDbLongTransaction
  3
AutoCAD 2000
 90
        0
280
     0
281
     0
  0
CLASS
  1
LWPOLYLINE
  2
AcDbPolyline
  3
AutoCAD 2000
 90
        0
280
     0
281
     1
  0
CLASS
  1
HATCH
  2
AcDbHatch
  3
AutoCAD 2000
 90
        0
280
     0
281
     1
  0
CLASS
  1
XRECORD
  2
AcDbXrecord
  3
AutoCAD 2000
 90
        0
280
     0
281
     0
  0
CLASS
  1
LONG_TRANSACTION
  2
AcDbLongTransaction
  3
AutoCAD 2000
 90
        0
280
     0
281
     0
  0
CLASS
  1
LWPOLYLINE
  2
AcDbPolyline
  3
AutoCAD 2000
 90
        0
280
     0
281
     1
  0
CLASS
  1
HATCH
  2
AcDbHatch
  3
AutoCAD 2000
 90
        0
280
     0
281
     1
  0
CLASS
  1
XRECORD
  2
AcDbXrecord
  3
AutoCAD 2000
 90
        0
280
     0
281
     0
  0
CLASS
  1
LONG_TRANSACTION
  2
AcDbLongTransaction
  3
AutoCAD 2000
 90
        0
280
     0
281
     0
  0
CLASS
  1
LWPOLYLINE
  2
AcDbPolyline
  3
AutoCAD 2000
 90
        0
280
     0
281
     1
  0
CLASS
  1
HATCH
  2
AcDbHatch
  3
AutoCAD 2000
 90
        0
280
     0
281
     1
  0
CLASS
  1
XRECORD
  2
AcDbXrecord
  3
AutoCAD 2000
 90
        0
280
     0
281
     0
  0
CLASS
  1
LONG_TRANSACTION
  2
AcDbLongTransaction
  3
AutoCAD 2000
 90
        0
280
     0
281
     0
  0
CLASS
  1
LWPOLYLINE
  2
AcDbPolyline
  3
AutoCAD 2000
 90
        0
280
     0
281
     1
  0
CLASS
  1
HATCH
  2
AcDbHatch
  3
AutoCAD 2000
 90
        0
280
     0
281
     1
  0
CLASS
  1
XRECORD
  2
AcDbXrecord
  3
AutoCAD 2000
 90
        0
280
     0
281
     0
  0
CLASS
  1
LONG_TRANSACTION
  2
AcDbLongTransaction
  3
AutoCAD 2000
 90
        0
280
     0
281
     0
  0
CLASS
  1
LWPOLYLINE
  2
AcDbPolyline
  3
AutoCAD 2000
 90
        0
280
     0
281
     1
  0
CLASS
  1
HATCH
  2
AcDbHatch
  3
AutoCAD 2000
 90
        0
280
     0
281
     1
  0
CLASS
  1
XRECORD
  2
AcDbXrecord
  3
AutoCAD 2000
 90
        0
280
     0
281
     0
  0
ENDSEC
  0
SECTION
  2
TABLES
  0
TABLE
  2
VPORT
  5
8
330
0
100
AcDbSymbolTable
 70
     2
  0
VPORT
  5
4C2
330
8
100
AcDbSymbolTableRecord
100
AcDbViewportTableRecord
  2
*ACTIVE
 70
     0
 10
0.0
 20
0.0
 11
1.0
 21
1.0
 12
63.59006252442997
 22
17.06079280411402
 13
0.0
 23
0.0
 14
0.5740882589684922
 24
0.5740882589684922
 15
0.5
 25
0.5
 16
0.0
 26
0.0
 36
1.0
 17
0.0
 27
0.0
 37
0.0
 40
32.99379459086099
 41
1.570528967254408
 42
50.0
 43
0.0
 44
0.0
 50
0.0
 51
0.0
 71
     0
 72
   100
 73
     1
 74
     0
 75
     0
 76
     0
 77
     0
 78
     0
  0
ENDTAB
  0
TABLE
  2
LTYPE
  5
5
330
0
100
AcDbSymbolTable
 70
     1
  0
LTYPE
  5
12
330
5
100
AcDbSymbolTableRecord
100
AcDbLinetypeTableRecord
  2
BYBLOCK
 70
     0
  3

 72
    65
 73
     0
 40
0.0
  0
LTYPE
  5
13
330
5
100
AcDbSymbolTableRecord
100
AcDbLinetypeTableRecord
  2
BYLAYER
 70
     0
  3

 72
    65
 73
     0
 40
0.0
  0
LTYPE
  5
14
330
5
100
AcDbSymbolTableRecord
100
AcDbLinetypeTableRecord
  2
CONTINUOUS
 70
     0
  3
Solid line
 72
    65
 73
     0
 40
0.0
  0
ENDTAB
  0
TABLE
  2
LAYER
  5
2
330
0
100
AcDbSymbolTable
 70
     4
  0
LAYER
  5
F
330
2
100
AcDbSymbolTableRecord
100
AcDbLayerTableRecord
  2
0
 70
     0
 62
     7
  6
CONTINUOUS
  0
LAYER
  5
9A
330
2
100
AcDbSymbolTableRecord
100
AcDbLayerTableRecord
  2
ADP1DETAIL
 70
     0
 62
     7
  6
CONTINUOUS
  0
LAYER
  5
9C
330
2
100
AcDbSymbolTableRecord
100
AcDbLayerTableRecord
  2
DEFPOINTS
 70
     0
 62
     7
  6
CONTINUOUS
  0
LAYER
  5
9D
330
2
100
AcDbSymbolTableRecord
100
AcDbLayerTableRecord
  2
ADPDIM
 70
     0
 62
     3
  6
CONTINUOUS
  0
ENDTAB
  0
TABLE
  2
STYLE
  5
3
330
0
100
AcDbSymbolTable
 70
     2
  0
STYLE
  5
10
330
3
100
AcDbSymbolTableRecord
100
AcDbTextStyleTableRecord
  2
STANDARD
 70
     0
 40
0.0
 41
1.0
 50
0.0
 71
     0
 42
0.2
  3
txt
  4

  0
STYLE
  5
37A
330
3
100
AcDbSymbolTableRecord
100
AcDbTextStyleTableRecord
  2
ARIAL_WIDE
 70
     0
 40
0.0
 41
1.25
 50
0.0
 71
     0
 42
0.2
  3
ARIAL.TTF
  4

1001
ACAD
1000
Arial
1071
       34
  0
ENDTAB
  0
TABLE
  2
VIEW
  5
6
330
0
100
AcDbSymbolTable
 70
     0
  0
ENDTAB
  0
TABLE
  2
UCS
  5
7
330
0
100
AcDbSymbolTable
 70
     0
  0
ENDTAB
  0
TABLE
  2
APPID
  5
9
330
0
100
AcDbSymbolTable
 70
     1
  0
APPID
  5
11
330
9
100
AcDbSymbolTableRecord
100
AcDbRegAppTableRecord
  2
ACAD
 70
     0
  0
ENDTAB
  0
TABLE
  2
DIMSTYLE
  5
A
330
0
100
AcDbSymbolTable
 70
     1
  0
DIMSTYLE
105
36E
330
A
100
AcDbSymbolTableRecord
100
AcDbDimStyleTableRecord
  2
STANDARD
 70
     0
  3

  4

  5

  6

  7

 40
1.0
 41
0.18
 42
0.0625
 43
0.38
 44
0.18
 45
0.0
 46
0.0
 47
0.0
 48
0.0
140
0.18
141
0.09
142
0.0
143
25.4
144
1.0
145
0.0
146
1.0
147
0.09
 71
     0
 72
     0
 73
     1
 74
     1
 75
     0
 76
     0
 77
     0
 78
     0
170
     0
171
     2
172
     0
173
     0
174
     0
175
     0
176
     0
177
     0
178
     0
270
     2
271
     4
272
     4
273
     2
274
     2
340
10
275
     0
280
     0
281
     0
282
     0
283
     1
284
     0
285
     0
286
     0
287
     3
288
     0
  0
ENDTAB
  0
TABLE
  2
BLOCK_RECORD
  5
1
330
0
100
AcDbSymbolTable
 70
     2
  0
BLOCK_RECORD
  5
18
102
{ACAD_XDICTIONARY
360
3CF
102
}
330
1
100
AcDbSymbolTableRecord
100
AcDbBlockTableRecord
  2
*MODEL_SPACE
  0
BLOCK_RECORD
  5
15
102
{ACAD_XDICTIONARY
360
3CD
102
}
330
1
100
AcDbSymbolTableRecord
100
AcDbBlockTableRecord
  2
*PAPER_SPACE
  0
BLOCK_RECORD
  5
94
330
1
100
AcDbSymbolTableRecord
100
AcDbBlockTableRecord
  2
*D0
  0
BLOCK_RECORD
  5
96
330
1
100
AcDbSymbolTableRecord
100
AcDbBlockTableRecord
  2
*D1
  0
ENDTAB
  0
ENDSEC
  0
SECTION
  2
BLOCKS
  0
BLOCK
  5
A0
330
18
100
AcDbEntity
  8
0
100
AcDbBlockBegin
  2
*MODEL_SPACE
 70
     0
 10
0.0
 20
0.0
 30
0.0
  3
*MODEL_SPACE
  1

  0
ENDBLK
  5
A1
330
18
100
AcDbEntity
  8
0
100
AcDbBlockEnd
  0
BLOCK
  5
9E
330
15
100
AcDbEntity
 67
     1
  8
0
100
AcDbBlockBegin
  2
*PAPER_SPACE
 70
     0
 10
0.0
 20
0.0
 30
0.0
  3
*PAPER_SPACE
  1

  0
ENDBLK
  5
9F
330
15
100
AcDbEntity
 67
     1
  8
0
100
AcDbBlockEnd
  0
BLOCK
  5
A3
330
94
100
AcDbEntity
  8
0
100
AcDbBlockBegin
  2
*D0
 70
     1
 10
0.0
 20
0.0
 30
0.0
  3
*D0
  1

  0
LINE
  5
A4
330
94
100
AcDbEntity
  8
0
  6
BYBLOCK
 62
     0
100
AcDbLine
 10
68.28093121641973
 20
5.921399076693107
 30
0.0
 11
69.49717303423418
 21
5.921399076693107
 31
0.0
  0
LINE
  5
A5
330
94
100
AcDbEntity
  8
0
  6
BYBLOCK
 62
     0
100
AcDbLine
 10
68.19696833667842
 20
28.83963579463338
 30
0.0
 11
69.49717303423418
 21
28.83963579463338
 31
0.0
  0
LINE
  5
A6
330
94
100
AcDbEntity
  8
0
  6
BYBLOCK
 62
     0
100
AcDbLine
 10
69.31717303423417
 20
5.921399076693107
 30
0.0
 11
69.31717303423417
 21
16.81801743566324
 31
0.0
  0
LINE
  5
A7
330
94
100
AcDbEntity
  8
0
  6
BYBLOCK
 62
     0
100
AcDbLine
 10
69.31717303423417
 20
28.83963579463338
 30
0.0
 11
69.31717303423417
 21
17.94301743566324
 31
0.0
  0
LINE
  5
A8
330
94
100
AcDbEntity
  8
0
  6
BYBLOCK
 62
     0
100
AcDbLine
 10
69.44217303423418
 20
5.796399076693107
 30
0.0
 11
69.19217303423417
 21
6.046399076693107
 31
0.0
  0
LINE
  5
A9
330
94
100
AcDbEntity
  8
0
  6
BYBLOCK
 62
     0
100
AcDbLine
 10
69.44217303423418
 20
28.71463579463338
 30
0.0
 11
69.19217303423417
 21
28.96463579463338
 31
0.0
  0
TEXT
  5
AA
330
94
100
AcDbEntity
  8
0
  6
BYBLOCK
 62
     0
100
AcDbText
 10
69.37967303423417
 20
16.94301743566324
 30
0.0
 40
0.125
  1
22 15/16
 50
90.0
 72
     1
 11
69.31717303423417
 21
17.38051743566324
 31
0.0
100
AcDbText
 73
     2
  0
POINT
  5
AB
330
94
100
AcDbEntity
  8
DEFPOINTS
  6
BYBLOCK
 62
     0
100
AcDbPoint
 10
68.21843121641973
 20
5.921399076693107
 30
0.0
  0
POINT
  5
AC
330
94
100
AcDbEntity
  8
DEFPOINTS
  6
BYBLOCK
 62
     0
100
AcDbPoint
 10
68.13446833667843
 20
28.83963579463338
 30
0.0
  0
POINT
  5
AD
330
94
100
AcDbEntity
  8
DEFPOINTS
  6
BYBLOCK
 62
     0
100
AcDbPoint
 10
69.31717303423417
 20
28.83963579463338
 30
0.0
  0
ENDBLK
  5
AE
330
94
100
AcDbEntity
  8
0
100
AcDbBlockEnd
  0
BLOCK
  5
AF
330
96
100
AcDbEntity
  8
0
100
AcDbBlockBegin
  2
*D1
 70
     1
 10
0.0
 20
0.0
 30
0.0
  3
*D1
  1

  0
LINE
  5
B0
330
96
100
AcDbEntity
  8
0
  6
BYBLOCK
 62
     0
100
AcDbLine
 10
68.13446833667843
 20
26.73372920213812
 30
0.0
 11
68.13446833667843
 21
27.85029928878106
 31
0.0
  0
LINE
  5
B1
330
96
100
AcDbEntity
  8
0
  6
BYBLOCK
 62
     0
100
AcDbLine
 10
58.88446833667842
 20
17.68579272042233
 30
0.0
 11
58.88446833667842
 21
27.85029928878106
 31
0.0
  0
LINE
  5
B2
330
96
100
AcDbEntity
  8
0
  6
BYBLOCK
 62
     0
100
AcDbLine
 10
68.13446833667843
 20
27.67029928878106
 30
0.0
 11
63.90530167001176
 21
27.67029928878106
 31
0.0
  0
LINE
  5
B3
330
96
100
AcDbEntity
  8
0
  6
BYBLOCK
 62
     0
100
AcDbLine
 10
58.88446833667842
 20
27.67029928878106
 30
0.0
 11
63.11363500334508
 21
27.67029928878106
 31
0.0
  0
LINE
  5
B4
330
96
100
AcDbEntity
  8
0
  6
BYBLOCK
 62
     0
100
AcDbLine
 10
68.00946833667842
 20
27.54529928878106
 30
0.0
 11
68.25946833667842
 21
27.79529928878106
 31
0.0
  0
LINE
  5
B5
330
96
100
AcDbEntity
  8
0
  6
BYBLOCK
 62
     0
100
AcDbLine
 10
58.75946833667843
 20
27.54529928878106
 30
0.0
 11
59.00946833667842
 21
27.79529928878106
 31
0.0
  0
TEXT
  5
B6
330
96
100
AcDbEntity
  8
0
  6
BYBLOCK
 62
     0
100
AcDbText
 10
63.23863500334509
 20
27.60779928878106
 30
0.0
 40
0.125
  1
9 1/4
 72
     1
 11
63.50946833667842
 21
27.67029928878106
 31
0.0
100
AcDbText
 73
     2
  0
POINT
  5
B7
330
96
100
AcDbEntity
  8
DEFPOINTS
  6
BYBLOCK
 62
     0
100
AcDbPoint
 10
68.13446833667843
 20
26.67122920213812
 30
0.0
  0
POINT
  5
B8
330
96
100
AcDbEntity
  8
DEFPOINTS
  6
BYBLOCK
 62
     0
100
AcDbPoint
 10
58.88446833667842
 20
17.62329272042233
 30
0.0
  0
POINT
  5
B9
330
96
100
AcDbEntity
  8
DEFPOINTS
  6
BYBLOCK
 62
     0
100
AcDbPoint
 10
58.88446833667842
 20
27.67029928878106
 30
0.0
  0
ENDBLK
  5
BA
330
96
100
AcDbEntity
  8
0
100
AcDbBlockEnd
  0
ENDSEC
  0
SECTION
  2
ENTITIES
  0
DIMENSION
  5
BB
330
18
100
AcDbEntity
  8
ADPDIM
100
AcDbDimension
  2
*D0
 10
69.31717303423417
 20
28.83963579463338
 30
0.0
 11
69.31717303423417
 21
17.38051743566324
 31
0.0
100
AcDbAlignedDimension
 13
68.21843121641973
 23
5.921399076693107
 33
0.0
 14
68.13446833667843
 24
28.83963579463338
 34
0.0
 50
90.0
100
AcDbRotatedDimension
  0
LWPOLYLINE
  5
BC
330
18
100
AcDbEntity
  8
ADP1DETAIL
100
AcDbPolyline
 90
       11
 70
     0
 43
0.0
 10
62.50385332713273
 20
18.84187780508409
 42
0.5252472378089888
 10
63.19549526439577
 20
19.31527542436602
 42
0.0298470202968452
 10
62.98421498791594
 20
18.50607516838978
 42
0.2145593965891893
 10
63.19549526439577
 20
17.59132696287213
 42
0.640672310577235
 10
63.51241574296598
 20
17.66169223494609
 42
-0.0811545314128353
 10
63.65326921805224
 20
18.15424897374189
 42
0.4637370716939876
 10
64.85052407553769
 20
16.14883950681313
 42
-0.0020765911978958
 10
64.78009740184503
 20
17.23950076822424
 42
0.1315933169485875
 10
64.56881712536518
 20
17.87278796830701
 42
-0.2045171901947427
 10
64.28711004749176
 20
18.43570989631582
 42
0.4680606749603763
 10
65.09701775271434
 20
18.04870110706143
 42
-0.4708390928940695
  0
LWPOLYLINE
  5
C9
330
18
100
AcDbEntity
  8
ADP1DETAIL
100
AcDbPolyline
 90
        8
 70
     0
 43
0.0
 10
61.42497182665071
 20
21.41278102812486
 42
-0.2241009311921175
 10
63.20753963196743
 20
21.20229796864493
 42
-0.1545130113325617
 10
63.7261048418798
 20
20.10130941531019
 42
0.0022159277855087
 10
64.24467005179216
 20
17.57551228724623
 42
0.0209989329833626
 10
63.61266875408997
 20
19.92320833311142
 42
0.0856971689007608
 10
63.04548805973897
 20
21.07276989379838
 42
0.1659709102908935
 10
62.28384542763347
 20
21.34801699070159
 42
0.0767751106882017
 10
61.57081827996659
 20
21.25087097599715
 42
6.880381777035154
  0
LWPOLYLINE
  5
D3
330
18
100
AcDbEntity
  8
ADP1DETAIL
100
AcDbPolyline
 90
        8
 70
     0
 43
0.0
 10
65.3304159560555
 20
17.79570996476879
 42
-0.0051063168497426
 10
65.36282619388064
 20
17.34236178566681
 42
0.9627757837077879
 10
66.05964822263494
 20
17.35855273287692
 42
0.0828336706329043
 10
66.09205846046008
 20
17.87666503226312
 42
1.028129201309601
 10
66.10826370707357
 20
18.21667616658961
 42
0.2771801270736323
 10
65.18456937503869
 20
18.15191212916634
 42
0.5149835834528093
 10
65.31421070944201
 20
17.79570996476879
 42
-0.0078461213554644
 10
66.09205846046008
 20
17.87666503226312
 42
-0.0440336527973264
  0
LWPOLYLINE
  5
DD
330
18
100
AcDbEntity
  8
ADP1DETAIL
100
AcDbPolyline
 90
        3
 70
     0
 43
0.0
 10
60.27106460231561
 20
16.96074633589226
 42
-0.2344176396026226
 10
59.88543764211192
 20
19.24491015229206
 42
-0.0044416674924831
 10
59.90237035300996
 20
19.30001883754666
 42
-0.3715220596233035
  0
LWPOLYLINE
  5
E2
330
18
100
AcDbEntity
  8
ADP1DETAIL
100
AcDbPolyline
 90
        7
 70
     0
 43
0.0
 10
63.23070866509256
 20
24.45193813138022
 42
0.5279202133168632
 10
63.1602819913999
 20
24.97967746478253
 42
0.6764618866858795
 10
62.63208123634983
 20
24.80376432602811
 42
0.0585044678172707
 10
62.31516088548054
 20
23.50200733125607
 42
-0.0773350649734287
 10
61.47003977956117
 20
22.34098088063194
 42
-0.0120447947365399
 10
59.92065104280872
 20
21.0040412912534
 42
0.2819476077965128
 10
59.23142976919741
 20
17.08043759406025
 42
1.179719327406276
  0
ARC
  5
EB
330
18
100
AcDbEntity
  8
ADP1DETAIL
100
AcDbCircle
 10
62.21597309012915
 20
17.9964542506593
 30
0.0
 40
3.121952169666467
100
AcDbArc
 50
197.0623081393052
 51
227.0214469615767
  0
LWPOLYLINE
  5
EC
330
18
100
AcDbEntity
  8
ADP1DETAIL
100
AcDbPolyline
 90
        4
 70
     0
 43
0.0
 10
60.20083420153522
 20
14.01148113754615
 42
0.092860397596836
 10
59.63365363488515
 20
13.96290813019393
 42
0.8263033838828885
 10
59.68226911932378
 20
13.36384084617434
 42
0.0076381721412642
 10
60.20083420153522
 20
13.31526783882212
 42
-25.58876489117468
  0
LWPOLYLINE
  5
F2
330
18
100
AcDbEntity
  8
ADP1DETAIL
100
AcDbPolyline
 90
        5
 70
     0
 43
0.0
 10
60.14761995160371
 20
10.61605193524953
 10
59.72505952634495
 20
10.61605193524953
 42
-0.5015593717565436
 10
61.5913684862658
 20
11.77707838587366
 42
-0.1167269245724715
 10
60.78146078104324
 20
12.02335679670204
 42
-0.2906494752336713
 10
62.57734319497234
 20
12.1289046633825
 42
0.0515695156103976
  0
ARC
  5
F9
330
18
100
AcDbEntity
  8
ADP1DETAIL
100
AcDbCircle
 10
63.19252044558658
 20
8.705406010203869
 30
0.0
 40
3.204134351970568
100
AcDbArc
 50
96.56716495350551
 51
178.089528343173
  0
LWPOLYLINE
  5
FA
330
18
100
AcDbEntity
  8
ADP1DETAIL
100
AcDbPolyline
 90
       18
 70
     0
 43
0.0
 10
62.01392903922548
 20
7.871807484418492
 42
-0.2030619424300753
 10
62.61255659566913
 20
8.681007740394729
 42
0.1403039845215659
 10
63.24639729740773
 20
9.349477535084
 42
-0.4280981857257073
 10
61.90828896483601
 20
9.279112345870995
 42
-0.2655931415366426
 10
62.75341007075538
 20
10.26422574060165
 42
0.2331128819202912
 10
63.73938465176099
 20
10.72159980193
 42
-0.0826912555479062
 10
63.10554382232147
 20
10.65123452985604
 42
-0.9469844374405161
 10
63.10554382232147
 20
10.86233026321696
 42
-0.3359406907769745
 10
65.67612054077634
 20
11.31970432454531
 42
0.2358834980687734
 10
64.23237200611426
 20
11.6715305191932
 42
0.3954404708262052
 10
63.17597062371506
 20
11.28452172993881
 42
0.131894135615494
 10
62.82383674444805
 20
10.44013879649511
 42
-0.7277903899369117
 10
62.43648959218516
 20
10.36977360728211
 42
-0.2744530361341614
 10
62.47170299288196
 20
11.17897386325835
 42
-0.1422062583822267
 10
61.62658188696259
 20
9.630938540518883
 42
-0.5956155495976622
 10
61.02795445821986
 20
9.80685159641235
 42
-0.1608116997816398
 10
60.04197987721425
 20
8.681007740394729
 42
-0.4290764222131374
 10
60.46454043017394
 20
10.86233026321696
 42
11.81421850821591
  0
ARC
  5
10E
330
18
100
AcDbEntity
  8
ADP1DETAIL
100
AcDbCircle
 10
63.26323768047938
 20
8.535721909007284
 30
0.0
 40
3.267251854097064
100
AcDbArc
 50
94.8302523469494
 51
175.4302257637186
  0
LWPOLYLINE
  5
10F
330
18
100
AcDbEntity
  8
ADP1DETAIL
100
AcDbPolyline
 90
       20
 70
     0
 43
0.0
 10
61.80514531571091
 20
15.7763009294628
 42
0.1595796164947435
 10
61.17314401800872
 20
16.55346929568116
 42
-0.1789801569638446
 10
60.39529613928973
 20
17.16872760977181
 42
0.2468910942361552
 10
60.10360323265796
 20
15.71153697490048
 42
0.2352509333259836
 10
61.35140070914975
 20
14.75626752648335
 42
-0.0908454564201984
 10
60.54114259260562
 20
14.99913264610539
 42
0.1687234296127578
 10
59.76329484158755
 20
15.03151462338656
 42
0.7030016868912634
 10
59.74708972267497
 20
14.72388546634123
 42
0.2615890344076796
 10
61.22175950244736
 20
13.99529019033604
 42
0.0283637699693872
 10
60.68698904592151
 20
13.8819530626996
 42
0.3131554852595458
 10
60.73560465806107
 20
13.52575089830205
 42
0.1620396609267158
 10
61.96719688793938
 20
13.29907680875106
 42
0.0062059026258523
 10
62.38853112897448
 20
13.39622290631645
 42
0.2248755189945384
 10
61.90237628458818
 20
12.92668369714341
 42
0.3943803787430974
 10
62.015812372378
 20
12.65143651737925
 42
0.1730650742090596
 10
62.97191694223804
 20
12.76477356215475
 42
-0.0697307645122031
 10
63.11776339555392
 20
12.81334665236792
 42
-0.5924731950805852
 10
63.06914791111529
 20
12.65143651737925
 42
0.2993804299513177
 10
62.69642915451882
 20
12.05236923335966
 42
0.2384573155763299
 10
63.70114920881748
 20
11.69616706896212
 42
15.66896641716418
  0
ARC
  5
125
330
18
100
AcDbEntity
  8
ADP1DETAIL
100
AcDbCircle
 10
64.22094259485652
 20
8.001798739633532
 30
0.0
 40
3.244982722189709
100
AcDbArc
 50
27.03575634062563
 51
60.53802094240111
  0
LWPOLYLINE
  5
126
330
18
100
AcDbEntity
  8
ADP1DETAIL
100
AcDbPolyline
 90
        4
 70
     0
 43
0.0
 10
67.11132343981427
 20
9.476794142477601
 42
0.0357388386996197
 10
66.61807840283619
 20
9.670348286604788
 42
0.2476085139177584
 10
66.18053904288853
 20
9.589393219110453
 42
0.1678468195243086
 10
65.64576871406359
 20
9.233191054712911
 42
-0.4955688403897888
  0
LWPOLYLINE
  5
12C
330
18
100
AcDbEntity
  8
ADP1DETAIL
100
AcDbPolyline
 90
        4
 70
     0
 43
0.0
 10
67.31421664102022
 20
8.982394753616759
 42
0.1444512633856264
 10
66.73151449062602
 20
9.395101189701577
 42
0.2307598148326154
 10
66.21294940841458
 20
9.330337152278302
 42
0.0004234023164998
 10
65.79161516737949
 20
9.055089972514139
 42
-0.298151952946277
  0
ARC
  5
132
330
18
100
AcDbEntity
  8
ADP1DETAIL
100
AcDbCircle
 10
94.2665386037901
 20
43.50910776383947
 30
0.0
 40
42.48226009538032
100
AcDbArc
 50
227.8295182841884
 51
230.589848416494
  0
LINE
  5
133
330
18
100
AcDbEntity
  8
ADP1DETAIL
100
AcDbLine
 10
63.96043187762412
 20
7.808382479983693
 30
0.0
 11
63.58771312102764
 21
9.314146122207244
 31
0.0
  0
ARC
  5
134
330
18
100
AcDbEntity
  8
ADP1DETAIL
100
AcDbCircle
 10
57.3548717605635
 20
6.824934525399589
 30
0.0
 40
7.011361282545799
100
AcDbArc
 50
11.21390684966844
 51
18.05230985653356
  0
LWPOLYLINE
  5
135
330
18
100
AcDbEntity
  8
ADP1DETAIL
100
AcDbPolyline
 90
        8
 70
     0
 43
0.0
 10
65.1434086230638
 20
9.119854009937416
 42
0.1570700119643601
 10
64.7382796286422
 20
8.650314800764379
 42
0.4521988498680026
 10
64.94894668530929
 20
8.213157651733453
 42
0.0563102669538406
 10
65.67817895188873
 20
8.536977755988882
 42
0.7805118863299933
 10
65.95366673960795
 20
8.715078838187652
 42
0.17973707155316
 10
65.38648604525696
 20
9.378910159630521
 42
0.5641991281442479
 10
65.12720350415124
 20
9.119854009937416
 42
-0.1414138533418129
 10
65.67817895188873
 20
8.536977755988882
 42
-1.641170460725209
  0
LINE
  5
13F
330
18
100
AcDbEntity
  8
ADP1DETAIL
100
AcDbLine
 10
61.35140070914975
 20
8.352400261761689
 30
0.0
 11
61.10832328695662
 21
8.093344194929535
 31
0.0
  0
LINE
  5
140
330
18
100
AcDbEntity
  8
ADP1DETAIL
100
AcDbLine
 10
61.10832328695662
 20
8.546692374031517
 30
0.0
 11
60.88145111137695
 21
8.271445277128307
 31
0.0
  0
LINE
  5
141
330
18
100
AcDbEntity
  8
ADP1DETAIL
100
AcDbLine
 10
61.01109231807935
 20
8.158108232352812
 30
0.0
 11
61.23796462135993
 21
8.498119366679297
 31
0.0
  0
LINE
  5
142
330
18
100
AcDbEntity
  8
ADP1DETAIL
100
AcDbLine
 10
60.94627171472815
 20
8.239063216986192
 30
0.0
 11
61.27037498688599
 21
8.400973269113908
 31
0.0
  0
LINE
  5
143
330
18
100
AcDbEntity
  8
ADP1DETAIL
100
AcDbLine
 10
61.02729756469284
 20
8.660029418807011
 30
0.0
 11
61.01109231807935
 21
8.158108232352812
 31
0.0
  0
LINE
  5
144
330
18
100
AcDbEntity
  8
ADP1DETAIL
100
AcDbLine
 10
60.88145111137695
 20
8.271445277128307
 30
0.0
 11
60.88145111137695
 21
8.757175433511449
 31
0.0
  0
LINE
  5
145
330
18
100
AcDbEntity
  8
ADP1DETAIL
100
AcDbLine
 10
60.93006659581559
 20
8.708602426159231
 30
0.0
 11
60.94627171472815
 21
8.239063216986192
 31
0.0
  0
LINE
  5
146
330
18
100
AcDbEntity
  8
ADP1DETAIL
100
AcDbLine
 10
61.10832328695662
 20
8.093344194929535
 30
0.0
 11
61.10832328695662
 21
8.546692374031517
 31
0.0
  0
LINE
  5
147
330
18
100
AcDbEntity
  8
ADP1DETAIL
100
AcDbLine
 10
61.23796462135993
 20
8.498119366679297
 30
0.0
 11
61.1893491369213
 21
8.044771187577316
 31
0.0
  0
LINE
  5
148
330
18
100
AcDbEntity
  8
ADP1DETAIL
100
AcDbLine
 10
61.27037498688599
 20
8.400973269113908
 30
0.0
 11
61.22175950244736
 21
8.077153164858479
 31
0.0
  0
LWPOLYLINE
  5
149
330
18
100
AcDbEntity
  8
ADP1DETAIL
100
AcDbPolyline
 90
        2
 70
     0
 43
0.0
 10
61.69170910022017
 20
7.980007150154041
 42
-0.2313218136939458
 10
62.0320176189915
 20
9.161950688122164
 42
2.251939904072175
  0
LWPOLYLINE
  5
14D
330
18
100
AcDbEntity
  8
ADP1DETAIL
100
AcDbPolyline
 90
        3
 70
     0
 43
0.0
 10
61.91858140350075
 20
9.259096702826601
 42
0.2468873062880131
 10
61.46483692464051
 20
8.481928336608241
 42
-0.0711212139578066
 10
61.31899047132463
 20
7.963816120082984
 42
-0.6511722507840421
  0
LWPOLYLINE
  5
152
330
18
100
AcDbEntity
  8
ADP1DETAIL
100
AcDbPolyline
 90
        8
 70
     0
 43
0.0
 10
65.79161516737949
 20
11.09515694419495
 42
0.2241009311921175
 10
64.00904736206275
 20
10.88467388471502
 42
0.1545130113325617
 10
63.49048215215039
 20
9.783685331380281
 42
-0.0022159277855087
 10
62.97191694223804
 20
7.257888203316321
 42
-0.0209989329833626
 10
63.60391823994023
 20
9.605584249181511
 42
-0.0856971689007608
 10
64.1710989342912
 20
10.75514580986847
 42
-0.1659709102908935
 10
64.93274156639671
 20
11.03039290677168
 42
-0.0767751106882017
 10
65.64576871406359
 20
10.93324689206724
 42
-6.880381777035154
  0
LWPOLYLINE
  5
15C
330
18
100
AcDbEntity
  8
ADP1DETAIL
100
AcDbPolyline
 90
        8
 70
     0
 43
0.0
 10
61.10832328695662
 20
8.02858015750626
 42
0.0622642335161501
 10
60.81663038032483
 20
7.704759970389878
 42
-0.6811906819846162
 10
60.21703944814871
 20
8.093344194929535
 42
-0.0779901490674937
 10
60.44391162372837
 20
8.498119366679297
 42
-0.6323726278725262
 10
60.54114259260562
 20
8.902894538429059
 42
-0.1804898076858503
 10
61.35140070914975
 20
8.368591291832744
 42
-0.61804823297088
 10
61.09211816804403
 20
8.02858015750626
 42
0.1015881538241403
 10
60.46011687034185
 20
8.514310396750355
 42
0.230344829379505
  0
ARC
  5
166
330
18
100
AcDbEntity
  8
ADP1DETAIL
100
AcDbCircle
 10
62.11607261608084
 20
7.340555692644769
 30
0.0
 40
1.529903003861269
100
AcDbArc
 50
279.4044574119832
 51
18.92006935211834
  0
LINE
  5
167
330
18
100
AcDbEntity
  8
ADP1DETAIL
100
AcDbLine
 10
61.36760595576325
 20
7.980007150154041
 30
0.0
 11
61.56206789351776
 21
7.559040948333221
 31
0.0
  0
LINE
  5
168
330
18
100
AcDbEntity
  8
ADP1DETAIL
100
AcDbLine
 10
61.6755039813076
 20
7.526658888191108
 30
0.0
 11
61.48104204355308
 21
7.963816120082984
 31
0.0
  0
LWPOLYLINE
  5
169
330
18
100
AcDbEntity
  8
ADP1DETAIL
100
AcDbPolyline
 90
        8
 70
     0
 43
0.0
 10
61.88617103797469
 20
7.478085880838889
 42
0.0051063168497426
 10
61.85376080014955
 20
7.024737701736906
 42
-0.9627757837077879
 10
61.15693877139524
 20
7.040928648947013
 42
-0.0828336706329043
 10
61.1245285335701
 20
7.559040948333221
 42
-1.028129201309601
 10
61.10832328695662
 20
7.899052082659707
 42
-0.2771801270736323
 10
62.0320176189915
 20
7.83428804523643
 42
-0.5149835834528093
 10
61.90237628458818
 20
7.478085880838889
 42
0.0078461213554644
 10
61.1245285335701
 20
7.559040948333221
 42
0.0440336527973264
  0
LINE
  5
173
330
18
100
AcDbEntity
  8
ADP1DETAIL
100
AcDbLine
 10
61.02729756469284
 20
7.575231895543327
 30
0.0
 11
61.1245285335701
 21
7.882861052588649
 31
0.0
  0
LINE
  5
174
330
18
100
AcDbEntity
  8
ADP1DETAIL
100
AcDbLine
 10
61.14073365248266
 20
7.559040948333221
 30
0.0
 11
61.01109231807935
 21
7.83428804523643
 31
0.0
  0
LINE
  5
175
330
18
100
AcDbEntity
  8
ADP1DETAIL
100
AcDbLine
 10
61.2541697402725
 20
7.915243112730765
 30
0.0
 11
61.14073365248266
 21
7.559040948333221
 31
0.0
  0
LINE
  5
176
330
18
100
AcDbEntity
  8
ADP1DETAIL
100
AcDbLine
 10
61.40001619358839
 20
7.510467940981001
 30
0.0
 11
61.2541697402725
 21
7.915243112730765
 31
0.0
  0
LINE
  5
177
330
18
100
AcDbEntity
  8
ADP1DETAIL
100
AcDbLine
 10
61.48104204355308
 20
7.963816120082984
 30
0.0
 11
61.40001619358839
 21
7.510467940981001
 31
0.0
  0
LINE
  5
178
330
18
100
AcDbEntity
  8
ADP1DETAIL
100
AcDbLine
 10
61.2541697402725
 20
7.542849918262165
 30
0.0
 11
61.36760595576325
 21
7.980007150154041
 31
0.0
  0
LINE
  5
179
330
18
100
AcDbEntity
  8
ADP1DETAIL
100
AcDbLine
 10
61.1245285335701
 20
7.882861052588649
 30
0.0
 11
61.2541697402725
 21
7.542849918262165
 31
0.0
  0
ARC
  5
17A
330
18
100
AcDbEntity
  8
ADP1DETAIL
100
AcDbCircle
 10
-68.90243909954039
 20
14.85514912047378
 30
0.0
 40
131.5783074881145
100
AcDbArc
 50
356.0674407613778
 51
356.5433597229416
  0
ARC
  5
17B
330
18
100
AcDbEntity
  8
ADP1DETAIL
100
AcDbCircle
 10
62.36310032759125
 20
8.262396852146277
 30
0.0
 40
0.584472540575466
100
AcDbArc
 50
245.3755887966263
 51
345.7053718386213
  0
ARC
  5
17C
330
18
100
AcDbEntity
  8
ADP1DETAIL
100
AcDbCircle
 10
63.72440992909338
 20
6.844082362301876
 30
0.0
 40
1.290267705073664
100
AcDbArc
 50
146.5566919508892
 51
176.5433597229416
  0
LINE
  5
17D
330
18
100
AcDbEntity
  8
ADP1DETAIL
100
AcDbLine
 10
61.9509917690268
 20
7.850479075307488
 30
0.0
 11
61.98340213455287
 21
7.542849918262165
 31
0.0
  0
LINE
  5
17E
330
18
100
AcDbEntity
  8
ADP1DETAIL
100
AcDbLine
 10
61.56206789351776
 20
7.559040948333221
 30
0.0
 11
61.64309361578154
 21
7.931434059940869
 31
0.0
  0
LINE
  5
17F
330
18
100
AcDbEntity
  8
ADP1DETAIL
100
AcDbLine
 10
61.78894006909743
 20
7.882861052588649
 30
0.0
 11
61.6755039813076
 21
7.526658888191108
 31
0.0
  0
LINE
  5
180
330
18
100
AcDbEntity
  8
ADP1DETAIL
100
AcDbLine
 10
61.85376080014955
 20
7.478085880838889
 30
0.0
 11
61.78894006909743
 21
7.882861052588649
 31
0.0
  0
LINE
  5
181
330
18
100
AcDbEntity
  8
ADP1DETAIL
100
AcDbLine
 10
61.64309361578154
 20
7.931434059940869
 30
0.0
 11
61.74032458465879
 21
7.526658888191108
 31
0.0
  0
LINE
  5
182
330
18
100
AcDbEntity
  8
ADP1DETAIL
100
AcDbLine
 10
62.06442785681664
 20
7.753332977742098
 30
0.0
 11
61.85376080014955
 21
7.478085880838889
 31
0.0
  0
LINE
  5
183
330
18
100
AcDbEntity
  8
ADP1DETAIL
100
AcDbLine
 10
61.74032458465879
 20
7.526658888191108
 30
0.0
 11
61.9509917690268
 21
7.850479075307488
 31
0.0
  0
ARC
  5
184
330
18
100
AcDbEntity
  8
ADP1DETAIL
100
AcDbCircle
 10
62.12929443654627
 20
8.166577597691379
 30
0.0
 40
0.8016504865210528
100
AcDbArc
 50
310.2977594142562
 51
356.5320649807799
  0
ARC
  5
185
330
18
100
AcDbEntity
  8
ADP1DETAIL
100
AcDbCircle
 10
63.10995386407263
 20
7.965923179229555
 30
0.0
 40
1.144264459900054
100
AcDbArc
 50
322.7749122503709
 51
11.21390684966844
  0
LINE
  5
186
330
18
100
AcDbEntity
  8
ADP1DETAIL
100
AcDbLine
 10
63.8307905432208
 20
7.808382479983693
 30
0.0
 11
63.79838017769474
 21
8.116011554168064
 31
0.0
  0
ARC
  5
187
330
18
100
AcDbEntity
  8
ADP1DETAIL
100
AcDbCircle
 10
63.87881881059752
 20
7.381792122580185
 30
0.0
 40
0.1786753146954165
100
AcDbArc
 50
192.1886641400845
 51
322.7749122503708
  0
ARC
  5
188
330
18
100
AcDbEntity
  8
ADP1DETAIL
100
AcDbCircle
 10
62.12639574616757
 20
7.15929909922199
 30
0.0
 40
1.588557567843464
100
AcDbArc
 50
6.679331996804803
 51
25.23790923796361
  0
ARC
  5
189
330
18
100
AcDbEntity
  8
ADP1DETAIL
100
AcDbCircle
 10
63.80803847074979
 20
8.812617170954982
 30
0.0
 40
4.359001816726753
100
AcDbArc
 50
95.24638921019175
 51
115.4512722102566
  0
LWPOLYLINE
  5
18A
330
18
100
AcDbEntity
  8
ADP1DETAIL
100
AcDbPolyline
 90
        4
 70
     0
 43
0.0
 10
63.97663699653669
 20
14.59435739149468
 42
0.1851334087787158
 10
63.52289251767645
 20
15.59819984726403
 42
0.4392125910105804
 10
63.18258399890512
 20
15.58200890005393
 42
0.3696986248941714
 10
63.19878924551861
 20
14.30291926452041
 42
-2.209838656223311
  0
ARC
  5
190
330
18
100
AcDbEntity
  8
ADP1DETAIL
100
AcDbCircle
 10
68.24017872629844
 20
15.59478549140286
 30
0.0
 40
4.799570981777068
100
AcDbArc
 50
181.3123374759451
 51
208.575435394915
  0
ARC
  5
191
330
18
100
AcDbEntity
  8
ADP1DETAIL
100
AcDbCircle
 10
63.79524708952683
 20
10.27879895550033
 30
0.0
 40
2.619393323182029
100
AcDbArc
 50
93.12321340466819
 51
104.6228258439047
  0
LINE
  5
192
330
18
100
AcDbEntity
  8
ADP1DETAIL
100
AcDbLine
 10
63.5553027555016
 20
10.0913144884256
 30
0.0
 11
62.82607048892214
 21
9.70273026388595
 31
0.0
  0
LWPOLYLINE
  5
193
330
18
100
AcDbEntity
  8
ADP1DETAIL
100
AcDbPolyline
 90
        3
 70
     0
 43
0.0
 10
65.54853774518633
 20
12.16570627813516
 42
-0.0560132526918293
 10
61.22175950244736
 20
15.6467729374772
 42
-0.1949935822350919
 10
60.37909102037716
 20
17.15253657970076
 42
0.8821628545857743
  0
LWPOLYLINE
  5
198
330
18
100
AcDbEntity
  8
ADP1DETAIL
100
AcDbPolyline
 90
        2
 70
     0
 43
0.0
 10
65.6295634674501
 20
11.92284124137406
 42
-0.0671226209197632
 10
61.22175950244736
 20
15.66296388468731
 42
0.4451819816668898
  0
ARC
  5
19C
330
18
100
AcDbEntity
  8
ADP1DETAIL
100
AcDbCircle
 10
67.51273121294345
 20
7.095620868674933
 30
0.0
 40
6.716119349505466
100
AcDbArc
 50
136.2158340620825
 51
155.1952794999466
  0
LINE
  5
19D
330
18
100
AcDbEntity
  8
ADP1DETAIL
100
AcDbLine
 10
62.33991564453585
 20
11.8237523030611
 30
0.0
 11
61.2541697402725
 21
12.06661742268314
 31
0.0
  0
ARC
  5
19E
330
18
100
AcDbEntity
  8
ADP1DETAIL
100
AcDbCircle
 10
62.86799494974338
 20
7.983746953936366
 30
0.0
 40
1.755168540845134
100
AcDbArc
 50
119.047037942883
 51
161.2925700490533
  0
ARC
  5
19F
330
18
100
AcDbEntity
  8
ADP1DETAIL
100
AcDbCircle
 10
64.20288504684558
 20
6.502075838957303
 30
0.0
 40
3.898750152876799
100
AcDbArc
 50
122.4136975311033
 51
144.9519516855815
  0
LINE
  5
1A0
330
18
100
AcDbEntity
  8
ADP1DETAIL
100
AcDbLine
 10
60.88145111137695
 20
8.757175433511449
 30
0.0
 11
60.63837356148288
 21
8.449546359327079
 31
0.0
  0
LINE
  5
1A1
330
18
100
AcDbEntity
  8
ADP1DETAIL
100
AcDbLine
 10
60.60596332365775
 20
8.449546359327079
 30
0.0
 11
60.93006659581559
 21
8.708602426159231
 31
0.0
  0
LINE
  5
1A2
330
18
100
AcDbEntity
  8
ADP1DETAIL
100
AcDbLine
 10
60.47632198925443
 20
8.498119366679297
 30
0.0
 11
60.73560465806107
 21
8.821939470934726
 31
0.0
  0
LINE
  5
1A3
330
18
100
AcDbEntity
  8
ADP1DETAIL
100
AcDbLine
 10
60.63837356148288
 20
8.821939470934726
 30
0.0
 11
60.60596332365775
 21
8.449546359327079
 31
0.0
  0
LINE
  5
1A4
330
18
100
AcDbEntity
  8
ADP1DETAIL
100
AcDbLine
 10
60.57355295813168
 20
8.838130501005784
 30
0.0
 11
60.37909102037716
 21
8.579074351312678
 31
0.0
  0
LINE
  5
1A5
330
18
100
AcDbEntity
  8
ADP1DETAIL
100
AcDbLine
 10
60.49252710816699
 20
8.870512561147897
 30
0.0
 11
60.47632198925443
 21
8.498119366679297
 31
0.0
  0
LINE
  5
1A6
330
18
100
AcDbEntity
  8
ADP1DETAIL
100
AcDbLine
 10
60.63837356148288
 20
8.449546359327079
 30
0.0
 11
60.57355295813168
 21
8.838130501005784
 31
0.0
  0
LINE
  5
1A7
330
18
100
AcDbEntity
  8
ADP1DETAIL
100
AcDbLine
 10
60.37909102037716
 20
8.579074351312678
 30
0.0
 11
60.63837356148288
 21
8.821939470934726
 31
0.0
  0
ARC
  5
1A8
330
18
100
AcDbEntity
  8
ADP1DETAIL
100
AcDbCircle
 10
62.08467095015094
 20
9.638162117235797
 30
0.0
 40
1.069668160252191
100
AcDbArc
 50
138.2545873056904
 51
171.3045863578277
  0
LINE
  5
1A9
330
18
100
AcDbEntity
  8
ADP1DETAIL
100
AcDbLine
 10
60.73560465806107
 20
8.821939470934726
 30
0.0
 11
60.75180977697363
 21
8.352400261761689
 31
0.0
  0
LINE
  5
1AA
330
18
100
AcDbEntity
  8
ADP1DETAIL
100
AcDbLine
 10
60.75180977697363
 20
8.352400261761689
 30
0.0
 11
61.02729756469284
 21
8.660029418807011
 31
0.0
  0
ARC
  5
1AB
330
18
100
AcDbEntity
  8
ADP1DETAIL
100
AcDbCircle
 10
61.4004694729168
 20
8.476111548427692
 30
0.0
 40
2.818026926930949
100
AcDbArc
 50
93.30586274891926
 51
124.3129854478339
  0
LINE
  5
1AC
330
18
100
AcDbEntity
  8
ADP1DETAIL
100
AcDbLine
 10
60.58975807704425
 20
11.19230295889939
 30
0.0
 11
60.31427041702596
 21
11.27325802639372
 31
0.0
  0
LINE
  5
1AD
330
18
100
AcDbEntity
  8
ADP1DETAIL
100
AcDbLine
 10
62.97191694223804
 20
9.832258338732501
 30
0.0
 11
62.74504463895745
 21
9.783685331380281
 31
0.0
  0
LINE
  5
1AE
330
18
100
AcDbEntity
  8
ADP1DETAIL
100
AcDbLine
 10
63.31222533330844
 20
9.006516965161919
 30
0.0
 11
62.80986537000957
 21
8.342685643719054
 31
0.0
  0
LINE
  5
1AF
330
18
100
AcDbEntity
  8
ADP1DETAIL
100
AcDbLine
 10
61.93478652241331
 20
11.90470728769448
 30
0.0
 11
61.86996591906211
 21
12.06661742268314
 31
0.0
  0
LINE
  5
1B0
330
18
100
AcDbEntity
  8
ADP1DETAIL
100
AcDbLine
 10
61.91858140350075
 20
10.85229182457291
 30
0.0
 11
61.65929886239503
 21
10.75514580986847
 31
0.0
  0
ARC
  5
1B1
330
18
100
AcDbEntity
  8
ADP1DETAIL
100
AcDbCircle
 10
63.77315562927627
 20
10.8439782476145
 30
0.0
 40
0.9957353311872264
100
AcDbArc
 50
117.5746844543527
 51
179.5216214673398
  0
ARC
  5
1B2
330
18
100
AcDbEntity
  8
ADP1DETAIL
100
AcDbCircle
 10
58.37378041800582
 20
-0.8681741950469303
 30
0.0
 40
15.63258750581911
100
AcDbArc
 50
74.19473068080389
 51
82.39030613531758
  0
LINE
  5
1B3
330
18
100
AcDbEntity
  8
ADP1DETAIL
100
AcDbLine
 10
60.68698904592151
 20
13.89814409277065
 30
0.0
 11
60.60596332365775
 21
13.8819530626996
 31
0.0
  0
LINE
  5
1B4
330
18
100
AcDbEntity
  8
ADP1DETAIL
100
AcDbLine
 10
60.73560465806107
 20
13.50955995109195
 30
0.0
 11
60.57355295813168
 21
13.50955995109195
 31
0.0
  0
LINE
  5
1B5
330
18
100
AcDbEntity
  8
ADP1DETAIL
100
AcDbLine
 10
60.44391162372837
 20
14.12481818232164
 30
0.0
 11
60.21703944814871
 21
14.0276721676172
 31
0.0
  0
LINE
  5
1B6
330
18
100
AcDbEntity
  8
ADP1DETAIL
100
AcDbLine
 10
60.50873235478048
 20
14.0276721676172
 30
0.0
 11
60.31427041702596
 21
14.09243620504048
 31
0.0
  0
LINE
  5
1B7
330
18
100
AcDbEntity
  8
ADP1DETAIL
100
AcDbLine
 10
60.54114259260562
 20
13.752425070714
 30
0.0
 11
60.24944968597385
 21
13.8819530626996
 31
0.0
  0
LINE
  5
1B8
330
18
100
AcDbEntity
  8
ADP1DETAIL
100
AcDbLine
 10
60.52493747369306
 20
13.81718910813727
 30
0.0
 11
60.24944968597385
 21
13.752425070714
 31
0.0
  0
LINE
  5
1B9
330
18
100
AcDbEntity
  8
ADP1DETAIL
100
AcDbLine
 10
60.54114259260562
 20
13.38003187624539
 30
0.0
 11
60.26565493258734
 21
13.55813295844416
 31
0.0
  0
LINE
  5
1BA
330
18
100
AcDbEntity
  8
ADP1DETAIL
100
AcDbLine
 10
60.55734783921912
 20
13.50955995109195
 30
0.0
 11
60.26565493258734
 21
13.6552789731486
 31
0.0
  0
LINE
  5
1BB
330
18
100
AcDbEntity
  8
ADP1DETAIL
100
AcDbLine
 10
60.55734783921912
 20
13.72004301057188
 30
0.0
 11
60.29806517041247
 21
13.68766103329072
 31
0.0
  0
LINE
  5
1BC
330
18
100
AcDbEntity
  8
ADP1DETAIL
100
AcDbLine
 10
60.52493747369306
 20
13.59051493572533
 30
0.0
 11
60.2818600514999
 21
13.54194192837311
 31
0.0
  0
LINE
  5
1BD
330
18
100
AcDbEntity
  8
ADP1DETAIL
100
AcDbLine
 10
60.50873235478048
 20
13.47717789094983
 30
0.0
 11
60.26565493258734
 21
13.44479591366867
 31
0.0
  0
LINE
  5
1BE
330
18
100
AcDbEntity
  8
ADP1DETAIL
100
AcDbLine
 10
60.50873235478048
 20
13.31526783882212
 30
0.0
 11
60.24944968597385
 21
13.36384084617434
 31
0.0
  0
LINE
  5
1BF
330
18
100
AcDbEntity
  8
ADP1DETAIL
100
AcDbLine
 10
60.52493747369306
 20
13.99529019033604
 30
0.0
 11
60.23324456706127
 21
13.94671710012287
 31
0.0
  0
LINE
  5
1C0
330
18
100
AcDbEntity
  8
ADP1DETAIL
100
AcDbLine
 10
60.54114259260562
 20
13.89814409277065
 30
0.0
 11
60.26565493258734
 21
13.84957108541843
 31
0.0
  0
LINE
  5
1C1
330
18
100
AcDbEntity
  8
ADP1DETAIL
100
AcDbLine
 10
60.58975807704425
 20
13.6552789731486
 30
0.0
 11
60.26565493258734
 21
13.78480704799516
 31
0.0
  0
LINE
  5
1C2
330
18
100
AcDbEntity
  8
ADP1DETAIL
100
AcDbLine
 10
60.36288590146459
 20
13.21812182411768
 30
0.0
 11
60.21703944814871
 21
13.33145886889318
 31
0.0
  0
LINE
  5
1C3
330
18
100
AcDbEntity
  8
ADP1DETAIL
100
AcDbLine
 10
60.49252710816699
 20
13.23431277132779
 30
0.0
 11
60.24944968597385
 21
13.47717789094983
 31
0.0
  0
LWPOLYLINE
  5
1C4
330
18
100
AcDbEntity
  8
ADP1DETAIL
100
AcDbPolyline
 90
        7
 70
     0
 43
0.0
 10
60.21703944814871
 20
14.0276721676172
 42
-0.4894977777801546
 10
60.23324456706127
 20
14.12481818232164
 42
-0.0515447619743542
 10
60.47632198925443
 20
14.17339127253481
 42
-0.1992600791300944
 10
60.50873235478048
 20
13.20193079404662
 42
-0.6920778004633723
 10
60.39529613928973
 20
13.20193079404662
 42
-0.8196625824544614
 10
60.20083420153522
 20
13.28288586154096
 42
0.191570422075309
 10
60.18462908262264
 20
14.06005414489837
 42
0.6633410429895252
  0
LINE
  5
1CD
330
18
100
AcDbEntity
  8
ADP1DETAIL
100
AcDbLine
 10
60.55734783921912
 20
13.89814409277065
 30
0.0
 11
60.21703944814871
 21
14.04386319768826
 31
0.0
  0
ARC
  5
1CE
330
18
100
AcDbEntity
  8
ADP1DETAIL
100
AcDbCircle
 10
71.76730099640661
 20
17.37744471909614
 30
0.0
 40
9.550206883992219
100
AcDbArc
 50
188.5693549983393
 51
196.9427754871341
  0
LWPOLYLINE
  5
1CF
330
18
100
AcDbEntity
  8
ADP1DETAIL
100
AcDbPolyline
 90
        4
 70
     0
 43
0.0
 10
62.95571182332547
 20
15.06389660066772
 42
0.0798193710460087
 10
62.59919818564156
 20
16.2620311687069
 42
0.4742249310987435
 10
62.12924858786876
 20
16.37536821348239
 42
0.4284120392867955
 10
61.99960725346544
 20
15.22580673565639
 42
-2.141940727854286
  0
ARC
  5
1D5
330
18
100
AcDbEntity
  8
ADP1DETAIL
100
AcDbCircle
 10
62.64781373393066
 20
9.665712254091983
 30
0.0
 40
3.781306674300579
100
AcDbArc
 50
84.34324099074403
 51
91.96475828223212
  0
LINE
  5
1D6
330
18
100
AcDbEntity
  8
ADP1DETAIL
100
AcDbLine
 10
66.21294940841458
 20
12.70000952473147
 30
0.0
 11
66.09951319292384
 21
13.10478477934219
 31
0.0
  0
LINE
  5
1D7
330
18
100
AcDbEntity
  8
ADP1DETAIL
100
AcDbLine
 10
66.29397513067836
 20
13.05621168912901
 30
0.0
 11
66.24535964623973
 21
12.70000952473147
 31
0.0
  0
LINE
  5
1D8
330
18
100
AcDbEntity
  8
ADP1DETAIL
100
AcDbLine
 10
66.39120609955561
 20
12.70000952473147
 30
0.0
 11
66.19674416180109
 21
13.05621168912901
 31
0.0
  0
LINE
  5
1D9
330
18
100
AcDbEntity
  8
ADP1DETAIL
100
AcDbLine
 10
66.45602683060772
 20
12.74858261494464
 30
0.0
 11
66.39120609955561
 21
13.04002074191891
 31
0.0
  0
LINE
  5
1DA
330
18
100
AcDbEntity
  8
ADP1DETAIL
100
AcDbLine
 10
66.01848747066006
 20
12.73239158487359
 30
0.0
 11
65.87264101734418
 21
13.07240271920007
 31
0.0
  0
LINE
  5
1DB
330
18
100
AcDbEntity
  8
ADP1DETAIL
100
AcDbLine
 10
65.82402553290555
 20
13.05621168912901
 30
0.0
 11
65.77541004846692
 21
12.68381857752137
 31
0.0
  0
LINE
  5
1DC
330
18
100
AcDbEntity
  8
ADP1DETAIL
100
AcDbLine
 10
65.96987198622143
 20
13.07240271920007
 30
0.0
 11
65.95366673960795
 21
12.70000952473147
 31
0.0
  0
LINE
  5
1DD
330
18
100
AcDbEntity
  8
ADP1DETAIL
100
AcDbLine
 10
65.90505125516931
 20
12.70000952473147
 30
0.0
 11
65.75920480185343
 21
13.05621168912901
 31
0.0
  0
LWPOLYLINE
  5
1DE
330
18
100
AcDbEntity
  8
ADP1DETAIL
100
AcDbPolyline
 90
        7
 70
     0
 43
0.0
 10
65.67817895188873
 20
12.65143651737925
 42
-0.5657654071699404
 10
65.53233249857284
 20
12.71620055480253
 42
-0.1979962081220284
 10
65.56474286409891
 20
13.02382971184785
 42
-0.1404315437883087
 10
66.50464231504635
 20
13.02382971184785
 42
-0.5946173569000935
 10
66.5370525528715
 20
12.87811060693024
 42
-0.0911243232191416
 10
66.43982158399424
 20
12.66762754745031
 42
0.1138440539258381
 10
65.59715322962496
 20
12.63524557016915
 42
-0.133342481991471
  0
LINE
  5
1E7
330
18
100
AcDbEntity
  8
ADP1DETAIL
100
AcDbLine
 10
66.14812867736246
 20
13.05621168912901
 30
0.0
 11
66.08330807401127
 21
12.71620055480253
 31
0.0
  0
LWPOLYLINE
  5
1E8
330
18
100
AcDbEntity
  8
ADP1DETAIL
100
AcDbPolyline
 90
        3
 70
     0
 43
0.0
 10
64.96515193192277
 20
12.95906567442457
 42
-0.1396074917867189
 10
65.15961386967728
 20
13.55813295844416
 42
-0.7092321697293258
 10
65.88884613625674
 20
13.10478477934219
 42
-0.8017340675006801
  0
ARC
  5
1ED
330
18
100
AcDbEntity
  8
ADP1DETAIL
100
AcDbCircle
 10
69.05477387257732
 20
15.31954201387326
 30
0.0
 40
4.670032184826634
100
AcDbArc
 50
207.2068522980102
 51
224.895536045677
  0
ARC
  5
1EE
330
18
100
AcDbEntity
  8
ADP1DETAIL
100
AcDbCircle
 10
65.27076545169293
 20
10.56320575090123
 30
0.0
 40
0.2004089108503341
100
AcDbArc
 50
142.0625895926704
 51
254.8373795262742
  0
ARC
  5
1EF
330
18
100
AcDbEntity
  8
ADP1DETAIL
100
AcDbCircle
 10
65.54646767306586
 20
10.34828817007974
 30
0.0
 40
0.549981909544628
100
AcDbArc
 50
60.53802094240111
 51
142.0625895926703
  0
ARC
  5
1F0
330
18
100
AcDbEntity
  8
ADP1DETAIL
100
AcDbCircle
 10
65.51504441331829
 20
10.65915619579242
 30
0.0
 40
1.197837135837032
100
AcDbArc
 50
206.5635509521714
 51
257.3909642763636
  0
ARC
  5
1F1
330
18
100
AcDbEntity
  8
ADP1DETAIL
100
AcDbCircle
 10
65.17372533375064
 20
10.51375303459646
 30
0.0
 40
0.5832070526438802
100
AcDbArc
 50
104.2697117975126
 51
213.9013789774121
  0
ARC
  5
1F2
330
18
100
AcDbEntity
  8
ADP1DETAIL
100
AcDbCircle
 10
64.53007132765752
 20
8.999330050911849
 30
0.0
 40
0.5089823663670671
100
AcDbArc
 50
180.1889715754792
 51
291.0312778718335
  0
LINE
  5
1F3
330
18
100
AcDbEntity
  8
ADP1DETAIL
100
AcDbLine
 10
64.59243317532631
 20
8.763651845539872
 30
0.0
 11
64.21971441872983
 21
9.573202271900349
 31
0.0
  0
ARC
  5
1F4
330
18
100
AcDbEntity
  8
ADP1DETAIL
100
AcDbCircle
 10
44.56017024135369
 20
0.7449116766900099
 30
0.0
 40
21.98432821174014
100
AcDbArc
 50
21.55475355801418
 51
25.25217942327846
  0
ARC
  5
1F5
330
18
100
AcDbEntity
  8
ADP1DETAIL
100
AcDbCircle
 10
64.35745831258945
 20
7.248304399625983
 30
0.0
 40
5.082161253094063
100
AcDbArc
 50
81.8425239912517
 51
98.1574760087483
  0
ARC
  5
1F6
330
18
100
AcDbEntity
  8
ADP1DETAIL
100
AcDbCircle
 10
65.1461544765844
 20
10.10337572157826
 30
0.0
 40
0.2760064026993704
100
AcDbArc
 50
334.0882542532097
 51
74.83737952627416
  0
LINE
  5
1F7
330
18
100
AcDbEntity
  8
ADP1DETAIL
100
AcDbLine
 10
65.7105893174148
 20
8.514310396750355
 30
0.0
 11
65.82402553290555
 21
8.967658575852336
 31
0.0
  0
LINE
  5
1F8
330
18
100
AcDbEntity
  8
ADP1DETAIL
100
AcDbLine
 10
65.82402553290555
 20
8.514310396750355
 30
0.0
 11
65.90505125516931
 21
8.773366463582506
 31
0.0
  0
LINE
  5
1F9
330
18
100
AcDbEntity
  8
ADP1DETAIL
100
AcDbLine
 10
65.6295634674501
 20
8.62764744152585
 30
0.0
 11
65.90505125516931
 21
8.821939470934726
 31
0.0
  0
LINE
  5
1FA
330
18
100
AcDbEntity
  8
ADP1DETAIL
100
AcDbLine
 10
65.82402553290555
 20
8.967658575852336
 30
0.0
 11
65.51612737966028
 21
8.838130501005784
 31
0.0
  0
LINE
  5
1FB
330
18
100
AcDbEntity
  8
ADP1DETAIL
100
AcDbLine
 10
65.6295634674501
 20
9.178141635332268
 30
0.0
 11
65.6295634674501
 21
8.62764744152585
 31
0.0
  0
LINE
  5
1FC
330
18
100
AcDbEntity
  8
ADP1DETAIL
100
AcDbLine
 10
65.37028092634439
 20
8.951467545781277
 30
0.0
 11
65.6295634674501
 21
9.178141635332268
 31
0.0
  0
LINE
  5
1FD
330
18
100
AcDbEntity
  8
ADP1DETAIL
100
AcDbLine
 10
65.35407580743181
 20
9.35624271753104
 30
0.0
 11
65.37028092634439
 21
8.951467545781277
 31
0.0
  0
LINE
  5
1FE
330
18
100
AcDbEntity
  8
ADP1DETAIL
100
AcDbLine
 10
65.51612737966028
 20
8.838130501005784
 30
0.0
 11
65.4999222607477
 21
9.259096702826601
 31
0.0
  0
LINE
  5
1FF
330
18
100
AcDbEntity
  8
ADP1DETAIL
100
AcDbLine
 10
65.24063959194108
 20
9.064804590556773
 30
0.0
 11
65.20822935411593
 21
9.291478680107763
 31
0.0
  0
LINE
  5
200
330
18
100
AcDbEntity
  8
ADP1DETAIL
100
AcDbLine
 10
65.4999222607477
 20
9.259096702826601
 30
0.0
 11
65.24063959194108
 21
9.064804590556773
 31
0.0
  0
ARC
  5
201
330
18
100
AcDbEntity
  8
ADP1DETAIL
100
AcDbCircle
 10
65.07792348355042
 20
9.806851637842827
 30
0.0
 40
0.3620929781708615
100
AcDbArc
 50
299.0163463902343
 51
29.0664072791011
  0
LWPOLYLINE
  5
202
330
18
100
AcDbEntity
  8
ADP1DETAIL
100
AcDbPolyline
 90
        5
 70
     0
 43
0.0
 10
66.40741134616909
 20
12.63524557016915
 42
-0.0780180490764785
 10
66.32638549620441
 20
12.16570627813516
 42
-0.2820868675894945
 10
66.03469258957264
 20
11.92284124137406
 42
-0.4688294318649443
 10
65.7105893174148
 20
12.21427936834833
 42
0.0562547951692886
 10
65.67817895188873
 20
12.65143651737925
 42
0.8290428263493394
  0
LINE
  5
209
330
18
100
AcDbEntity
  8
ADP1DETAIL
100
AcDbLine
 10
65.66197383297616
 20
13.02382971184785
 30
0.0
 11
65.61335834853753
 21
12.68381857752137
 31
0.0
  0
LINE
  5
20A
330
18
100
AcDbEntity
  8
ADP1DETAIL
100
AcDbLine
 10
65.72679443632736
 20
12.70000952473147
 30
0.0
 11
65.59715322962496
 21
13.00763868177679
 31
0.0
  0
LINE
  5
20B
330
18
100
AcDbEntity
  8
ADP1DETAIL
100
AcDbLine
 10
66.52084743395893
 20
12.87811060693024
 30
0.0
 11
66.37500098064304
 21
12.70000952473147
 31
0.0
  0
LINE
  5
20C
330
18
100
AcDbEntity
  8
ADP1DETAIL
100
AcDbLine
 10
65.17581898858987
 20
14.31911029459147
 30
0.0
 11
64.98135705083534
 21
13.97909916026499
 31
0.0
  0
LWPOLYLINE
  5
20D
330
18
100
AcDbEntity
  8
ADP1DETAIL
100
AcDbPolyline
 90
        7
 70
     0
 43
0.0
 10
65.64576871406359
 20
14.30291926452041
 42
0.1960575823705784
 10
65.64576871406359
 20
14.83722251111673
 42
0.1552108642384289
 10
65.48371701413421
 20
15.03151462338656
 42
-0.4260796813920109
 10
65.46751189522165
 20
15.11246969088089
 42
-0.1338463445280729
 10
65.37028092634439
 20
15.06389660066772
 42
0.1991873810680819
 10
65.04617765418655
 20
14.93436860868212
 42
0.1600901209834562
 10
64.83551059751945
 20
14.52959343693236
 42
0.1074678302137674
  0
LWPOLYLINE
  5
216
330
18
100
AcDbEntity
  8
ADP1DETAIL
100
AcDbPolyline
 90
        5
 70
     0
 43
0.0
 10
65.64576871406359
 20
14.31911029459147
 42
-0.20543231633186
 10
65.67817895188873
 20
13.97909916026499
 42
-0.3801286185262753
 10
64.57622805641374
 20
14.2543462571682
 42
-0.6014756442524604
 10
64.81930547860689
 20
14.54578438414246
 42
0.2375908369989276
 10
65.6295634674501
 20
14.30291926452041
 42
11.37879307949738
  0
LWPOLYLINE
  5
21D
330
18
100
AcDbEntity
  8
ADP1DETAIL
100
AcDbPolyline
 90
        3
 70
     0
 43
0.0
 10
64.8031002319934
 20
13.31526783882212
 42
-0.268701166676212
 10
65.2892550763797
 20
13.84957108541843
 42
-0.5937861096581228
 10
66.08330807401127
 20
13.08859374927113
 42
-0.7647789887839488
  0
ARC
  5
222
330
18
100
AcDbEntity
  8
ADP1DETAIL
100
AcDbCircle
 10
64.28514279996071
 20
14.46821659345596
 30
0.0
 40
0.2998990457392275
100
AcDbArc
 50
3.42635891953501
 51
139.7337718737315
  0
ARC
  5
223
330
18
100
AcDbEntity
  8
ADP1DETAIL
100
AcDbCircle
 10
64.20135494357495
 20
14.37412762767046
 30
0.0
 40
0.3223983944028985
100
AcDbArc
 50
116.7378459770356
 51
228.0597619331655
  0
LINE
  5
224
330
18
100
AcDbEntity
  8
ADP1DETAIL
100
AcDbLine
 10
65.06238290080003
 20
14.38387433201475
 30
0.0
 11
64.85171571643203
 21
14.0276721676172
 31
0.0
  0
LINE
  5
225
330
18
100
AcDbEntity
  8
ADP1DETAIL
100
AcDbLine
 10
64.70586926311614
 20
14.5134024068613
 30
0.0
 11
64.70586926311614
 21
14.30291926452041
 31
0.0
  0
LINE
  5
226
330
18
100
AcDbEntity
  8
ADP1DETAIL
100
AcDbLine
 10
64.77068999416826
 20
14.5134024068613
 30
0.0
 11
64.64104865976494
 21
14.44863836943802
 31
0.0
  0
LINE
  5
227
330
18
100
AcDbEntity
  8
ADP1DETAIL
100
AcDbLine
 10
64.8031002319934
 20
14.49721137679024
 30
0.0
 11
64.78689511308083
 21
14.07624517496943
 31
0.0
  0
LINE
  5
228
330
18
100
AcDbEntity
  8
ADP1DETAIL
100
AcDbLine
 10
64.86792096304552
 20
14.46482939950908
 30
0.0
 11
64.67345902529101
 21
14.27053728723925
 31
0.0
  0
LINE
  5
229
330
18
100
AcDbEntity
  8
ADP1DETAIL
100
AcDbLine
 10
64.98135705083534
 20
14.38387433201475
 30
0.0
 11
64.72207450972963
 21
14.1410092123927
 31
0.0
  0
LINE
  5
22A
330
18
100
AcDbEntity
  8
ADP1DETAIL
100
AcDbLine
 10
64.94894668530929
 20
13.60670596579639
 30
0.0
 11
64.94894668530929
 21
13.94671710012287
 31
0.0
  0
ARC
  5
22B
330
18
100
AcDbEntity
  8
ADP1DETAIL
100
AcDbCircle
 10
59.19936633808422
 20
12.48564001362733
 30
0.0
 40
5.744713024390353
100
AcDbArc
 50
6.98632240327614
 51
20.37929231549806
  0
ARC
  5
22C
330
18
100
AcDbEntity
  8
ADP1DETAIL
100
AcDbCircle
 10
66.56596180185347
 20
14.17848019257463
 30
0.0
 40
2.254477256265622
100
AcDbArc
 50
176.0112923194353
 51
208.9097921374037
  0
LINE
  5
22D
330
18
100
AcDbEntity
  8
ADP1DETAIL
100
AcDbLine
 10
64.93274156639671
 20
14.43244733936697
 30
0.0
 11
64.91653644748414
 21
13.97909916026499
 31
0.0
  0
LINE
  5
22E
330
18
100
AcDbEntity
  8
ADP1DETAIL
100
AcDbLine
 10
65.07858801971261
 20
14.35149235473358
 30
0.0
 11
65.09479313862517
 21
13.93052615291276
 31
0.0
  0
LINE
  5
22F
330
18
100
AcDbEntity
  8
ADP1DETAIL
100
AcDbLine
 10
65.53233249857284
 20
14.2543462571682
 30
0.0
 11
65.67817895188873
 21
14.07624517496943
 31
0.0
  0
LINE
  5
230
330
18
100
AcDbEntity
  8
ADP1DETAIL
100
AcDbLine
 10
65.45130677630907
 20
14.27053728723925
 30
0.0
 11
65.33787056081833
 21
13.86576211548949
 31
0.0
  0
LINE
  5
231
330
18
100
AcDbEntity
  8
ADP1DETAIL
100
AcDbLine
 10
65.38648604525696
 20
14.27053728723925
 30
0.0
 11
65.41889641078302
 21
13.93052615291276
 31
0.0
  0
LINE
  5
232
330
18
100
AcDbEntity
  8
ADP1DETAIL
100
AcDbLine
 10
65.4999222607477
 20
14.2543462571682
 30
0.0
 11
65.4999222607477
 21
13.93052615291276
 31
0.0
  0
LINE
  5
233
330
18
100
AcDbEntity
  8
ADP1DETAIL
100
AcDbLine
 10
65.6295634674501
 20
14.28672831731031
 30
0.0
 11
65.58094798301147
 21
13.93052615291276
 31
0.0
  0
LINE
  5
234
330
18
100
AcDbEntity
  8
ADP1DETAIL
100
AcDbLine
 10
65.15961386967728
 20
13.78480704799516
 30
0.0
 11
65.1434086230638
 21
13.86576211548949
 31
0.0
  0
LINE
  5
235
330
18
100
AcDbEntity
  8
ADP1DETAIL
100
AcDbLine
 10
65.2892550763797
 20
14.2543462571682
 30
0.0
 11
65.15961386967728
 21
13.8819530626996
 31
0.0
  0
LINE
  5
236
330
18
100
AcDbEntity
  8
ADP1DETAIL
100
AcDbLine
 10
65.24063959194108
 20
14.28672831731031
 30
0.0
 11
65.25684483855456
 21
13.8819530626996
 31
0.0
  0
ARC
  5
237
330
18
100
AcDbEntity
  8
ADP1DETAIL
100
AcDbCircle
 10
49.34356595867007
 20
6.612265144340405
 30
0.0
 40
18.11496056579846
100
AcDbArc
 50
3.963405691310176
 51
7.859131636294307
  0
LINE
  5
238
330
18
100
AcDbEntity
  8
ADP1DETAIL
100
AcDbLine
 10
68.21843121641973
 20
8.497932933827794
 30
0.0
 11
68.21843121641973
 21
5.921399076693107
 31
0.0
  0
LINE
  5
239
330
18
100
AcDbEntity
  8
ADP1DETAIL
100
AcDbLine
 10
67.41520277815938
 20
5.921399076693107
 30
0.0
 11
68.21843121641973
 21
5.921399076693107
 31
0.0
  0
LINE
  5
23A
330
18
100
AcDbEntity
  8
ADP1DETAIL
100
AcDbLine
 10
67.41520277815938
 20
5.921399076693107
 30
0.0
 11
67.41520277815938
 21
7.822120704723145
 31
0.0
  0
ARC
  5
23B
330
18
100
AcDbEntity
  8
ADP1DETAIL
100
AcDbCircle
 10
64.43809082541665
 20
8.162071123953866
 30
0.0
 40
3.813082993026765
100
AcDbArc
 50
4.392390268763961
 51
41.45429006761079
  0
ARC
  5
23C
330
18
100
AcDbEntity
  8
ADP1DETAIL
100
AcDbCircle
 10
64.22094259485652
 20
8.001798739633532
 30
0.0
 40
3.244982722189709
100
AcDbArc
 50
16.57114023086177
 51
18.68253269293679
  0
DIMENSION
  5
23D
330
18
100
AcDbEntity
  8
ADPDIM
100
AcDbDimension
  2
*D1
 10
58.87536829712475
 20
29.9192011303481
 30
0.0
 11
63.50036829712475
 21
29.9192011303481
 31
0.0
 12
-0.0091000395536724
 22
2.24890184156704
 32
0.0
100
AcDbAlignedDimension
 13
68.12536829712475
 23
28.92013104370516
 33
0.0
 14
58.87536829712475
 24
19.87219456198937
 34
0.0
100
AcDbRotatedDimension
  0
LINE
  5
23E
330
18
100
AcDbEntity
  8
ADP1DETAIL
100
AcDbLine
 10
66.65923915481108
 20
24.03766709450179
 30
0.0
 11
66.9185218236177
 21
24.00528511722063
 31
0.0
  0
LINE
  5
23F
330
18
100
AcDbEntity
  8
ADP1DETAIL
100
AcDbLine
 10
66.7078546392497
 20
24.34529625154711
 30
0.0
 11
66.90231657700422
 21
24.41006028897039
 31
0.0
  0
LINE
  5
240
330
18
100
AcDbEntity
  8
ADP1DETAIL
100
AcDbLine
 10
66.69164952033714
 20
24.13481319206718
 30
0.0
 11
66.96713730805633
 21
24.07004915464391
 31
0.0
  0
LINE
  5
241
330
18
100
AcDbEntity
  8
ADP1DETAIL
100
AcDbLine
 10
66.69164952033714
 20
24.31291427426595
 30
0.0
 11
66.98334242696891
 21
24.26434118405278
 31
0.0
  0
LINE
  5
242
330
18
100
AcDbEntity
  8
ADP1DETAIL
100
AcDbLine
 10
66.77267537030182
 20
24.44244226625155
 30
0.0
 11
66.99954754588148
 21
24.34529625154711
 31
0.0
  0
LINE
  5
243
330
18
100
AcDbEntity
  8
ADP1DETAIL
100
AcDbLine
 10
66.65923915481108
 20
24.21576817670056
 30
0.0
 11
66.99954754588148
 21
24.36148728161817
 31
0.0
  0
LINE
  5
244
330
18
100
AcDbEntity
  8
ADP1DETAIL
100
AcDbLine
 10
66.67544440142456
 20
24.07004915464391
 30
0.0
 11
66.96713730805633
 21
24.19957714662951
 31
0.0
  0
LINE
  5
245
330
18
100
AcDbEntity
  8
ADP1DETAIL
100
AcDbLine
 10
66.67544440142456
 20
24.21576817670056
 30
0.0
 11
66.95093206144285
 21
24.16719516934834
 31
0.0
  0
LINE
  5
246
330
18
100
AcDbEntity
  8
ADP1DETAIL
100
AcDbLine
 10
66.62682891698593
 20
23.97290305707851
 30
0.0
 11
66.95093206144285
 21
24.10243113192507
 31
0.0
  0
LINE
  5
247
330
18
100
AcDbEntity
  8
ADP1DETAIL
100
AcDbLine
 10
66.62682891698593
 20
21.5099270428293
 30
0.0
 11
66.90231657700422
 21
21.59088211032363
 31
0.0
  0
LINE
  5
248
330
18
100
AcDbEntity
  8
ADP1DETAIL
100
AcDbLine
 10
66.67544440142456
 20
23.69765596017531
 30
0.0
 11
66.95093206144285
 21
23.87575704237407
 31
0.0
  0
LINE
  5
249
330
18
100
AcDbEntity
  8
ADP1DETAIL
100
AcDbLine
 10
66.72405988586318
 20
23.55193685525769
 30
0.0
 11
66.96713730805633
 21
23.79480197487974
 31
0.0
  0
LWPOLYLINE
  5
24A
330
18
100
AcDbEntity
  8
ADP1DETAIL
100
AcDbPolyline
 90
       18
 70
     0
 43
0.0
 10
65.20265795480471
 20
18.1894315683484
 42
0.2030619424300753
 10
64.60403039836106
 20
18.99863182432463
 42
-0.1403039845215659
 10
63.97018969662245
 20
19.6671016190139
 42
0.4280981857257073
 10
65.30829802919417
 20
19.5967364298009
 42
0.2655931415366426
 10
64.46317692327482
 20
20.58184982453156
 42
-0.2331128819202912
 10
63.47720234226919
 20
21.03922388585991
 42
0.0826912555479062
 10
64.11104317170871
 20
20.96885861378595
 42
0.9469844374405161
 10
64.11104317170871
 20
21.17995434714687
 42
0.3359406907769745
 10
61.54046645325385
 20
21.63732840847522
 42
-0.2358834980687734
 10
62.98421498791594
 20
21.98915460312311
 42
-0.3954404708262052
 10
64.04061637031514
 20
21.60214581386872
 42
-0.131894135615494
 10
64.39275024958213
 20
20.75776288042503
 42
0.7277903899369117
 10
64.78009740184503
 20
20.68739769121202
 42
0.2744530361341614
 10
64.74488400114823
 20
21.49659794718826
 42
0.1422062583822267
 10
65.59000510706759
 20
19.94856262444879
 42
0.5956155495976622
 10
66.18863253581031
 20
20.12447568034226
 42
0.1608116997816398
 10
67.17460711681593
 20
18.99863182432463
 42
0.4290764222131374
 10
66.75204656385625
 20
21.17995434714687
 42
-11.81421850821591
  0
ARC
  5
25E
330
18
100
AcDbEntity
  8
ADP1DETAIL
100
AcDbCircle
 10
63.9533493135508
 20
18.85334599293719
 30
0.0
 40
3.267251854097064
100
AcDbArc
 50
4.569774236281363
 51
85.16974765305059
  0
ARC
  5
25F
330
18
100
AcDbEntity
  8
ADP1DETAIL
100
AcDbCircle
 10
64.02406654844361
 20
19.02303009413377
 30
0.0
 40
3.204134351970568
100
AcDbArc
 50
1.910471656826997
 51
83.43283504649448
  0
LWPOLYLINE
  5
260
330
18
100
AcDbEntity
  8
ADP1DETAIL
100
AcDbPolyline
 90
        5
 70
     0
 43
0.0
 10
67.06896704242646
 20
20.93367601917945
 10
67.49152746768523
 20
20.93367601917945
 42
0.5015593717565436
 10
65.62521850776438
 20
22.09470246980357
 42
0.1167269245724715
 10
66.43512621298694
 20
22.34098088063194
 42
0.2906494752336713
 10
64.63924379905785
 20
22.44652874731241
 42
-0.0515695156103976
  0
LWPOLYLINE
  5
267
330
18
100
AcDbEntity
  8
ADP1DETAIL
100
AcDbPolyline
 90
        8
 70
     0
 43
0.0
 10
66.10826370707357
 20
18.34620424143617
 42
-0.0622642335161501
 10
66.39995661370535
 20
18.02238405431978
 42
0.6811906819846162
 10
66.99954754588148
 20
18.41096827885944
 42
0.0779901490674937
 10
66.77267537030182
 20
18.8157434506092
 42
0.6323726278725262
 10
66.67544440142456
 20
19.22051862235896
 42
0.1804898076858503
 10
65.86518628488042
 20
18.68621537576265
 42
0.61804823297088
 10
66.12446882598614
 20
18.34620424143617
 42
-0.1015881538241403
 10
66.75647012368833
 20
18.83193448068026
 42
-0.230344829379505
  0
ARC
  5
271
330
18
100
AcDbEntity
  8
ADP1DETAIL
100
AcDbCircle
 10
65.81611752111339
 20
18.7937356323576
 30
0.0
 40
2.818026926930949
100
AcDbArc
 50
55.6870145521661
 51
86.69413725108075
  0
LINE
  5
272
330
18
100
AcDbEntity
  8
ADP1DETAIL
100
AcDbLine
 10
66.7078546392497
 20
23.63289192275203
 30
0.0
 11
66.96713730805633
 21
23.68146493010424
 31
0.0
  0
LINE
  5
273
330
18
100
AcDbEntity
  8
ADP1DETAIL
100
AcDbLine
 10
66.8537010925656
 20
23.53574590804759
 30
0.0
 11
66.99954754588148
 21
23.64908295282308
 31
0.0
  0
LINE
  5
274
330
18
100
AcDbEntity
  8
ADP1DETAIL
100
AcDbLine
 10
66.7078546392497
 20
23.79480197487974
 30
0.0
 11
66.95093206144285
 21
23.76241999759858
 31
0.0
  0
LWPOLYLINE
  5
275
330
18
100
AcDbEntity
  8
ADP1DETAIL
100
AcDbPolyline
 90
        3
 70
     0
 43
0.0
 10
61.66804924884385
 20
22.48333036206507
 42
0.0560132526918293
 10
65.99482749158283
 20
25.96439702140711
 42
0.1949935822350919
 10
66.83749597365302
 20
27.47016066363066
 42
-0.8821628545857743
  0
LWPOLYLINE
  5
27A
330
18
100
AcDbEntity
  8
ADP1DETAIL
100
AcDbPolyline
 90
       20
 70
     0
 43
0.0
 10
65.41144167831927
 20
26.09392501339271
 42
-0.1595796164947435
 10
66.04344297602145
 20
26.87109337961107
 42
0.1789801569638446
 10
66.82129085474045
 20
27.48635169370172
 42
-0.2468910942361552
 10
67.11298376137223
 20
26.02916105883039
 42
-0.2352509333259836
 10
65.86518628488042
 20
25.07389161041325
 42
0.0908454564201984
 10
66.67544440142456
 20
25.3167567300353
 42
-0.1687234296127578
 10
67.45329215244264
 20
25.34913870731646
 42
-0.7030016868912634
 10
67.46949727135521
 20
25.04150955027114
 42
-0.2615890344076796
 10
65.99482749158283
 20
24.31291427426595
 42
-0.0283637699693872
 10
66.52959794810867
 20
24.19957714662951
 42
-0.3131554852595458
 10
66.48098233596913
 20
23.84337498223195
 42
-0.1620396609267158
 10
65.24939010609081
 20
23.61670089268097
 42
-0.0062059026258523
 10
64.82805586505572
 20
23.71384699024636
 42
-0.2248755189945384
 10
65.31421070944201
 20
23.24430778107332
 42
-0.3943803787430974
 10
65.20077462165218
 20
22.96906060130916
 42
-0.1730650742090596
 10
64.24467005179216
 20
23.08239764608465
 42
0.0697307645122031
 10
64.09882359847625
 20
23.13097073629783
 42
0.5924731950805852
 10
64.14743908291488
 20
22.96906060130916
 42
-0.2993804299513177
 10
64.52015783951136
 20
22.36999331728957
 42
-0.2384573155763299
 10
63.5154377852127
 20
22.01379115289202
 42
-15.66896641716418
  0
LWPOLYLINE
  5
290
330
18
100
AcDbEntity
  8
ADP1DETAIL
100
AcDbPolyline
 90
        7
 70
     0
 43
0.0
 10
66.99954754588148
 20
24.34529625154711
 42
0.4894977777801546
 10
66.98334242696891
 20
24.44244226625155
 42
0.0515447619743542
 10
66.74026500477577
 20
24.49101535646472
 42
0.1992600791300944
 10
66.7078546392497
 20
23.51955487797653
 42
0.6920778004633723
 10
66.82129085474045
 20
23.51955487797653
 42
0.8196625824544614
 10
67.01575279249496
 20
23.60050994547087
 42
-0.191570422075309
 10
67.03195791140754
 20
24.37767822882827
 42
-0.6633410429895252
  0
LINE
  5
299
330
18
100
AcDbEntity
  8
ADP1DETAIL
100
AcDbLine
 10
66.69164952033714
 20
23.90813901965523
 30
0.0
 11
66.93472694253028
 21
23.85956601230302
 31
0.0
  0
LINE
  5
29A
330
18
100
AcDbEntity
  8
ADP1DETAIL
100
AcDbLine
 10
66.65923915481108
 20
23.82718403502185
 30
0.0
 11
66.95093206144285
 21
23.97290305707851
 31
0.0
  0
LWPOLYLINE
  5
29B
330
18
100
AcDbEntity
  8
ADP1DETAIL
100
AcDbPolyline
 90
        4
 70
     0
 43
0.0
 10
63.23994999749349
 20
24.91198147542458
 42
-0.1851334087787158
 10
63.69369447635373
 20
25.91582393119394
 42
-0.4392125910105804
 10
64.03400299512506
 20
25.89963298398384
 42
-0.3696986248941714
 10
64.01779774851156
 20
24.62054334845032
 42
2.209838656223311
  0
ARC
  5
2A1
330
18
100
AcDbEntity
  8
ADP1DETAIL
100
AcDbCircle
 10
62.85912868144074
 20
17.56592848355589
 30
0.0
 40
5.082161253094063
100
AcDbArc
 50
81.84252399125169
 51
98.1574760087483
  0
LINE
  5
2A2
330
18
100
AcDbEntity
  8
ADP1DETAIL
100
AcDbLine
 10
63.25615511640606
 20
18.1260065639136
 30
0.0
 11
63.62887387300253
 21
19.63177020613715
 31
0.0
  0
LWPOLYLINE
  5
2A3
330
18
100
AcDbEntity
  8
ADP1DETAIL
100
AcDbPolyline
 90
        2
 70
     0
 43
0.0
 10
61.58702352658008
 20
22.24046532530397
 42
0.0671226209197632
 10
65.99482749158283
 20
25.98058796861721
 42
-0.4451819816668898
  0
ARC
  5
2A7
330
18
100
AcDbEntity
  8
ADP1DETAIL
100
AcDbCircle
 10
58.97640826773174
 20
25.91240957533276
 30
0.0
 40
4.799570981777068
100
AcDbArc
 50
331.4245646050849
 51
358.6876625240548
  0
LWPOLYLINE
  5
2A8
330
18
100
AcDbEntity
  8
ADP1DETAIL
100
AcDbPolyline
 90
        5
 70
     0
 43
0.0
 10
60.80917564786108
 20
22.95286965409905
 42
0.0780180490764785
 10
60.89020149782577
 20
22.48333036206507
 42
0.2820868675894945
 10
61.18189440445755
 20
22.24046532530397
 42
0.4688294318649443
 10
61.50599767661539
 20
22.53190345227824
 42
-0.0562547951692886
 10
61.53840804214145
 20
22.96906060130916
 42
-0.8290428263493394
  0
LINE
  5
2AF
330
18
100
AcDbEntity
  8
ADP1DETAIL
100
AcDbLine
 10
61.39256146112464
 20
19.28528265978224
 30
0.0
 11
61.70045961436991
 21
19.15575458493569
 31
0.0
  0
LINE
  5
2B0
330
18
100
AcDbEntity
  8
ADP1DETAIL
100
AcDbLine
 10
61.58702352658008
 20
18.94527152545576
 30
0.0
 11
61.31153573886087
 21
19.13956355486463
 31
0.0
  0
LWPOLYLINE
  5
2B1
330
18
100
AcDbEntity
  8
ADP1DETAIL
100
AcDbPolyline
 90
        8
 70
     0
 43
0.0
 10
62.07317837096638
 20
19.43747809386732
 42
-0.1570700119643601
 10
62.47830736538799
 20
18.96793888469428
 42
-0.4521988498680026
 10
62.26764030872089
 20
18.53078173566336
 42
-0.0563102669538406
 10
61.53840804214145
 20
18.85460183991879
 42
-0.7805118863299933
 10
61.26292025442224
 20
19.03270292211756
 42
-0.17973707155316
 10
61.83010094877324
 20
19.69653424356043
 42
-0.5641991281442479
 10
62.08938348987896
 20
19.43747809386732
 42
0.1414138533418129
 10
61.53840804214145
 20
18.85460183991879
 42
1.641170460725209
  0
LWPOLYLINE
  5
2BB
330
18
100
AcDbEntity
  8
ADP1DETAIL
100
AcDbPolyline
 90
        8
 70
     0
 43
0.0
 10
60.10526355421593
 20
19.79441822640751
 42
-0.14723142987899
 10
61.3996129781676
 20
21.14477175254037
 42
-0.3715220596233035
 10
62.10388060900069
 20
21.0040412912534
 42
-0.5360536786480353
 10
61.99824040691031
 20
20.68739769121202
 42
0.4702931728218599
 10
61.82217353112727
 20
20.30038881909667
 42
0.4144694943453898
 10
61.96302700621352
 20
19.80783216316182
 42
0.2254854243733637
 10
62.77293471143609
 20
20.44111928038364
 42
0.0143655422416099
 10
62.26716758944444
 20
19.28380120343067
 42
0.8345743786822888
  0
LWPOLYLINE
  5
2C5
330
18
100
AcDbEntity
  8
ADP1DETAIL
100
AcDbPolyline
 90
        4
 70
     0
 43
0.0
 10
60.10526355421593
 20
19.79441822640751
 42
-0.0357388386996197
 10
60.598508591194
 20
19.98797237053469
 42
-0.2476085139177584
 10
61.03604795114167
 20
19.90701730304036
 42
-0.1868591876898418
 10
61.6236601840493
 20
19.48033215995394
  0
LWPOLYLINE
  5
2CB
330
18
100
AcDbEntity
  8
ADP1DETAIL
100
AcDbPolyline
 90
        4
 70
     0
 43
0.0
 10
59.90237035300996
 20
19.30001883754666
 42
-0.1444512633856266
 10
60.48507250340417
 20
19.71272527363148
 42
-0.2307598148326154
 10
61.0036375856156
 20
19.64796123620821
 42
-0.0407510680112636
 10
61.47464542293064
 20
19.30854218973396
  0
LINE
  5
2D1
330
18
100
AcDbEntity
  8
ADP1DETAIL
100
AcDbLine
 10
61.50599767661539
 20
18.83193448068026
 30
0.0
 11
61.39256146112464
 21
19.28528265978224
 31
0.0
  0
LINE
  5
2D2
330
18
100
AcDbEntity
  8
ADP1DETAIL
100
AcDbLine
 10
61.39256146112464
 20
18.83193448068026
 30
0.0
 11
61.31153573886087
 21
19.09099054751241
 31
0.0
  0
LINE
  5
2D3
330
18
100
AcDbEntity
  8
ADP1DETAIL
100
AcDbLine
 10
61.97594740208912
 20
19.38242867448668
 30
0.0
 11
62.00835763991427
 21
19.60910276403767
 31
0.0
  0
LINE
  5
2D4
330
18
100
AcDbEntity
  8
ADP1DETAIL
100
AcDbLine
 10
61.8463060676858
 20
19.26909162971118
 30
0.0
 11
61.58702352658008
 21
19.49576571926217
 31
0.0
  0
LINE
  5
2D5
330
18
100
AcDbEntity
  8
ADP1DETAIL
100
AcDbLine
 10
61.70045961436991
 20
19.15575458493569
 30
0.0
 11
61.71666473328248
 21
19.57672078675651
 31
0.0
  0
LINE
  5
2D6
330
18
100
AcDbEntity
  8
ADP1DETAIL
100
AcDbLine
 10
61.58702352658008
 20
19.49576571926217
 30
0.0
 11
61.58702352658008
 21
18.94527152545576
 31
0.0
  0
LINE
  5
2D7
330
18
100
AcDbEntity
  8
ADP1DETAIL
100
AcDbLine
 10
61.86251118659837
 20
19.67386680146095
 30
0.0
 11
61.8463060676858
 21
19.26909162971118
 31
0.0
  0
LINE
  5
2D8
330
18
100
AcDbEntity
  8
ADP1DETAIL
100
AcDbLine
 10
61.71666473328248
 20
19.57672078675651
 30
0.0
 11
61.97594740208912
 21
19.38242867448668
 31
0.0
  0
LINE
  5
2D9
330
18
100
AcDbEntity
  8
ADP1DETAIL
100
AcDbLine
 10
62.62415381870387
 20
19.08127592946978
 30
0.0
 11
62.99687257530035
 21
19.89082635583026
 31
0.0
  0
ARC
  5
2DA
330
18
100
AcDbEntity
  8
ADP1DETAIL
100
AcDbCircle
 10
62.04286166027955
 20
20.83137711852637
 30
0.0
 40
0.5832070526438802
100
AcDbArc
 50
326.0986210225879
 51
75.73028820248736
  0
LINE
  5
2DB
330
18
100
AcDbEntity
  8
ADP1DETAIL
100
AcDbLine
 10
61.68425449545734
 20
24.5719703410981
 30
0.0
 11
61.53840804214145
 21
24.39386925889933
 31
0.0
  0
LWPOLYLINE
  5
2DC
330
18
100
AcDbEntity
  8
ADP1DETAIL
100
AcDbPolyline
 90
        7
 70
     0
 43
0.0
 10
61.57081827996659
 20
24.62054334845032
 42
-0.1960575823705784
 10
61.57081827996659
 20
25.15484659504664
 42
-0.1552108642384289
 10
61.73286997989596
 20
25.34913870731646
 42
0.4260796813920109
 10
61.74907509880854
 20
25.4300937748108
 42
0.1338463445280729
 10
61.8463060676858
 20
25.38152068459762
 42
-0.1991873810680819
 10
62.17040933984364
 20
25.25199269261202
 42
-0.1600901209834562
 10
62.38107639651072
 20
24.84721752086226
 42
-0.1074678302137674
  0
LWPOLYLINE
  5
2E5
330
18
100
AcDbEntity
  8
ADP1DETAIL
100
AcDbPolyline
 90
        5
 70
     0
 43
0.0
 10
61.57081827996659
 20
24.63673437852138
 42
0.20543231633186
 10
61.53840804214145
 20
24.29672324419489
 42
0.3801286185262753
 10
62.64035893761645
 20
24.5719703410981
 42
0.6014756442524604
 10
62.3972815154233
 20
24.86340846807237
 42
-0.2375908369989276
 10
61.58702352658008
 20
24.62054334845032
 42
-11.37879307949738
  0
LINE
  5
2EC
330
18
100
AcDbEntity
  8
ADP1DETAIL
100
AcDbLine
 10
61.48979255770282
 20
23.01763360866138
 30
0.0
 11
61.61943376440522
 21
23.3252627657067
 31
0.0
  0
LWPOLYLINE
  5
2ED
330
18
100
AcDbEntity
  8
ADP1DETAIL
100
AcDbPolyline
 90
        7
 70
     0
 43
0.0
 10
61.53840804214145
 20
22.96906060130916
 42
0.5657654071699404
 10
61.68425449545734
 20
23.03382463873244
 42
0.1979962081220284
 10
61.65184412993128
 20
23.34145379577776
 42
0.1404315437883087
 10
60.71194467898383
 20
23.34145379577776
 42
0.5946173569000935
 10
60.67953444115868
 20
23.19573469086015
 42
0.0911243232191416
 10
60.77676541003595
 20
22.98525163138022
 42
-0.1138440539258381
 10
61.61943376440522
 20
22.95286965409905
 42
0.133342481991471
  0
LWPOLYLINE
  5
2F6
330
18
100
AcDbEntity
  8
ADP1DETAIL
100
AcDbPolyline
 90
        3
 70
     0
 43
0.0
 10
62.2514350621074
 20
23.27668975835448
 42
0.1396074917867189
 10
62.05697312435289
 20
23.87575704237407
 42
0.7092321697293258
 10
61.32774085777345
 20
23.4224088632721
 42
0.8017340675006801
  0
LWPOLYLINE
  5
2FB
330
18
100
AcDbEntity
  8
ADP1DETAIL
100
AcDbPolyline
 90
        3
 70
     0
 43
0.0
 10
62.41348676203679
 20
23.63289192275203
 42
0.268701166676212
 10
61.92733191765049
 20
24.16719516934834
 42
0.5937861096581228
 10
61.13327892001892
 20
23.40621783320103
 42
0.7647789887839488
  0
LINE
  5
300
330
18
100
AcDbEntity
  8
ADP1DETAIL
100
AcDbLine
 10
61.31153573886087
 20
23.01763360866138
 30
0.0
 11
61.45738219217676
 21
23.37383577305892
 31
0.0
  0
LINE
  5
301
330
18
100
AcDbEntity
  8
ADP1DETAIL
100
AcDbLine
 10
61.39256146112464
 20
23.37383577305892
 30
0.0
 11
61.44117694556327
 21
23.00144266145128
 31
0.0
  0
LINE
  5
302
330
18
100
AcDbEntity
  8
ADP1DETAIL
100
AcDbLine
 10
61.24671500780875
 20
23.39002680312998
 30
0.0
 11
61.26292025442224
 21
23.01763360866138
 31
0.0
  0
LINE
  5
303
330
18
100
AcDbEntity
  8
ADP1DETAIL
100
AcDbLine
 10
61.06845831666772
 20
23.37383577305892
 30
0.0
 11
61.13327892001892
 21
23.03382463873244
 31
0.0
  0
LINE
  5
304
330
18
100
AcDbEntity
  8
ADP1DETAIL
100
AcDbLine
 10
61.19809952337012
 20
23.05001566880349
 30
0.0
 11
61.34394597668602
 21
23.39002680312998
 31
0.0
  0
LINE
  5
305
330
18
100
AcDbEntity
  8
ADP1DETAIL
100
AcDbLine
 10
60.92261186335183
 20
23.37383577305892
 30
0.0
 11
60.97122734779047
 21
23.01763360866138
 31
0.0
  0
LINE
  5
306
330
18
100
AcDbEntity
  8
ADP1DETAIL
100
AcDbLine
 10
60.69573956007126
 20
23.19573469086015
 30
0.0
 11
60.84158601338714
 21
23.01763360866138
 31
0.0
  0
LINE
  5
307
330
18
100
AcDbEntity
  8
ADP1DETAIL
100
AcDbLine
 10
60.76056016342246
 20
23.06620669887455
 30
0.0
 11
60.82538089447457
 21
23.35764482584882
 31
0.0
  0
LINE
  5
308
330
18
100
AcDbEntity
  8
ADP1DETAIL
100
AcDbLine
 10
61.0036375856156
 20
23.01763360866138
 30
0.0
 11
61.11707380110636
 21
23.4224088632721
 31
0.0
  0
LINE
  5
309
330
18
100
AcDbEntity
  8
ADP1DETAIL
100
AcDbLine
 10
60.82538089447457
 20
23.01763360866138
 30
0.0
 11
61.01984283222909
 21
23.37383577305892
 31
0.0
  0
LINE
  5
30A
330
18
100
AcDbEntity
  8
ADP1DETAIL
100
AcDbLine
 10
62.34866603098467
 20
24.78245348343898
 30
0.0
 11
62.54312796873919
 21
24.58816137116916
 31
0.0
  0
LINE
  5
30B
330
18
100
AcDbEntity
  8
ADP1DETAIL
100
AcDbLine
 10
62.23522994319484
 20
24.70149841594465
 30
0.0
 11
62.49451248430055
 21
24.45863329632261
 31
0.0
  0
LINE
  5
30C
330
18
100
AcDbEntity
  8
ADP1DETAIL
100
AcDbLine
 10
61.92733191765049
 20
24.5719703410981
 30
0.0
 11
62.05697312435289
 21
24.19957714662951
 31
0.0
  0
LINE
  5
30D
330
18
100
AcDbEntity
  8
ADP1DETAIL
100
AcDbLine
 10
62.05697312435289
 20
24.10243113192507
 30
0.0
 11
62.07317837096638
 21
24.18338619941939
 31
0.0
  0
LINE
  5
30E
330
18
100
AcDbEntity
  8
ADP1DETAIL
100
AcDbLine
 10
62.26764030872089
 20
23.92433004972629
 30
0.0
 11
62.26764030872089
 21
24.26434118405278
 31
0.0
  0
LINE
  5
30F
330
18
100
AcDbEntity
  8
ADP1DETAIL
100
AcDbLine
 10
61.97594740208912
 20
24.60435240124022
 30
0.0
 11
61.95974215547563
 21
24.19957714662951
 31
0.0
  0
LINE
  5
310
330
18
100
AcDbEntity
  8
ADP1DETAIL
100
AcDbLine
 10
62.13799897431758
 20
24.66911643866349
 30
0.0
 11
62.12179385540501
 21
24.24815023684267
 31
0.0
  0
LINE
  5
311
330
18
100
AcDbEntity
  8
ADP1DETAIL
100
AcDbLine
 10
62.28384542763347
 20
24.75007142329687
 30
0.0
 11
62.30005054654604
 21
24.29672324419489
 31
0.0
  0
LINE
  5
312
330
18
100
AcDbEntity
  8
ADP1DETAIL
100
AcDbLine
 10
62.41348676203679
 20
24.81483546072015
 30
0.0
 11
62.42969188094936
 21
24.39386925889933
 31
0.0
  0
LINE
  5
313
330
18
100
AcDbEntity
  8
ADP1DETAIL
100
AcDbLine
 10
62.15420409323015
 20
24.70149841594465
 30
0.0
 11
62.36487127759815
 21
24.34529625154711
 31
0.0
  0
LINE
  5
314
330
18
100
AcDbEntity
  8
ADP1DETAIL
100
AcDbLine
 10
62.04076800544033
 20
24.63673437852138
 30
0.0
 11
62.23522994319484
 21
24.29672324419489
 31
0.0
  0
LINE
  5
315
330
18
100
AcDbEntity
  8
ADP1DETAIL
100
AcDbLine
 10
61.83010094877324
 20
24.58816137116916
 30
0.0
 11
61.79769058324717
 21
24.24815023684267
 31
0.0
  0
LINE
  5
316
330
18
100
AcDbEntity
  8
ADP1DETAIL
100
AcDbLine
 10
61.71666473328248
 20
24.5719703410981
 30
0.0
 11
61.71666473328248
 21
24.24815023684267
 31
0.0
  0
LINE
  5
317
330
18
100
AcDbEntity
  8
ADP1DETAIL
100
AcDbLine
 10
61.58702352658008
 20
24.60435240124022
 30
0.0
 11
61.63563901101871
 21
24.24815023684267
 31
0.0
  0
LINE
  5
318
330
18
100
AcDbEntity
  8
ADP1DETAIL
100
AcDbLine
 10
61.76528021772111
 20
24.58816137116916
 30
0.0
 11
61.87871643321186
 21
24.18338619941939
 31
0.0
  0
LINE
  5
319
330
18
100
AcDbEntity
  8
ADP1DETAIL
100
AcDbLine
 10
61.55461316105402
 20
23.34145379577776
 30
0.0
 11
61.60322864549264
 21
23.00144266145128
 31
0.0
  0
LINE
  5
31A
330
18
100
AcDbEntity
  8
ADP1DETAIL
100
AcDbLine
 10
62.44589699986192
 20
24.83102649079121
 30
0.0
 11
62.57553833426524
 21
24.76626245336793
 31
0.0
  0
LINE
  5
31B
330
18
100
AcDbEntity
  8
ADP1DETAIL
100
AcDbLine
 10
62.51071773091405
 20
24.83102649079121
 30
0.0
 11
62.51071773091405
 21
24.62054334845032
 31
0.0
  0
ARC
  5
31C
330
18
100
AcDbEntity
  8
ADP1DETAIL
100
AcDbCircle
 10
60.65062519217671
 20
24.49610427650454
 30
0.0
 40
2.254477256265622
100
AcDbArc
 50
331.0902078625963
 51
3.988707680564692
  0
LINE
  5
31D
330
18
100
AcDbEntity
  8
ADP1DETAIL
100
AcDbLine
 10
64.87667134949434
 20
22.14137638699101
 30
0.0
 11
65.96241725375769
 21
22.38424150661305
 31
0.0
  0
ARC
  5
31E
330
18
100
AcDbEntity
  8
ADP1DETAIL
100
AcDbCircle
 10
59.70385578108673
 20
17.41324495260484
 30
0.0
 40
6.716119349505466
100
AcDbArc
 50
24.80472050005336
 51
43.78416593791743
  0
LINE
  5
31F
330
18
100
AcDbEntity
  8
ADP1DETAIL
100
AcDbLine
 10
63.6612842385286
 20
20.40893857235551
 30
0.0
 11
64.39051650510804
 21
20.02035434781585
 31
0.0
  0
LINE
  5
320
330
18
100
AcDbEntity
  8
ADP1DETAIL
100
AcDbLine
 10
63.90436166072174
 20
19.32414104909183
 30
0.0
 11
64.40672162402062
 21
18.66030972764896
 31
0.0
  0
LINE
  5
321
330
18
100
AcDbEntity
  8
ADP1DETAIL
100
AcDbLine
 10
63.38579645080938
 20
18.1260065639136
 30
0.0
 11
63.41820681633544
 21
18.43363563809797
 31
0.0
  0
LINE
  5
322
330
18
100
AcDbEntity
  8
ADP1DETAIL
100
AcDbLine
 10
64.24467005179216
 20
20.14988242266241
 30
0.0
 11
64.47154235507273
 21
20.10130941531019
 31
0.0
  0
ARC
  5
323
330
18
100
AcDbEntity
  8
ADP1DETAIL
100
AcDbCircle
 10
63.44343136475391
 20
21.16160233154441
 30
0.0
 40
0.9957353311872264
100
AcDbArc
 50
0.478378532660111
 51
62.42531554564721
  0
ARC
  5
324
330
18
100
AcDbEntity
  8
ADP1DETAIL
100
AcDbCircle
 10
65.13191604387926
 20
19.9557862011657
 30
0.0
 40
1.069668160252191
100
AcDbArc
 50
8.695413642172242
 51
41.74541269430954
  0
LINE
  5
325
330
18
100
AcDbEntity
  8
ADP1DETAIL
100
AcDbLine
 10
65.9462120071442
 20
18.71859735304381
 30
0.0
 11
65.99482749158283
 21
18.39477724878839
 31
0.0
  0
LINE
  5
326
330
18
100
AcDbEntity
  8
ADP1DETAIL
100
AcDbLine
 10
65.97862237267026
 20
18.8157434506092
 30
0.0
 11
66.02723785710889
 21
18.36239527150722
 31
0.0
  0
LINE
  5
327
330
18
100
AcDbEntity
  8
ADP1DETAIL
100
AcDbLine
 10
66.27031527930204
 20
18.5566873009161
 30
0.0
 11
65.9462120071442
 21
18.71859735304381
 31
0.0
  0
LINE
  5
328
330
18
100
AcDbEntity
  8
ADP1DETAIL
100
AcDbLine
 10
65.86518628488042
 20
18.67002434569159
 30
0.0
 11
66.10826370707357
 21
18.41096827885944
 31
0.0
  0
LINE
  5
329
330
18
100
AcDbEntity
  8
ADP1DETAIL
100
AcDbLine
 10
66.20549467595084
 20
18.47573231628271
 30
0.0
 11
65.97862237267026
 21
18.8157434506092
 31
0.0
  0
ARC
  5
32A
330
18
100
AcDbEntity
  8
ADP1DETAIL
100
AcDbCircle
 10
63.01370194718462
 20
16.81969992288721
 30
0.0
 40
3.898750152876799
100
AcDbArc
 50
35.04804831441849
 51
57.58630246889668
  0
ARC
  5
32B
330
18
100
AcDbEntity
  8
ADP1DETAIL
100
AcDbCircle
 10
64.3485920442868
 20
18.30137103786627
 30
0.0
 40
1.755168540845134
100
AcDbArc
 50
18.7074299509466
 51
60.95296205711699
  0
LINE
  5
32C
330
18
100
AcDbEntity
  8
ADP1DETAIL
100
AcDbLine
 10
66.09205846046008
 20
18.20048513651856
 30
0.0
 11
65.96241725375769
 21
17.86047400219207
 31
0.0
  0
LINE
  5
32D
330
18
100
AcDbEntity
  8
ADP1DETAIL
100
AcDbLine
 10
65.96241725375769
 20
18.23286719666067
 30
0.0
 11
66.07585334154752
 21
17.87666503226312
 31
0.0
  0
LWPOLYLINE
  5
32E
330
18
100
AcDbEntity
  8
ADP1DETAIL
100
AcDbPolyline
 90
        3
 70
     0
 43
0.0
 10
65.29800559052944
 20
19.57672078675651
 42
-0.2468873062880131
 10
65.75175006938967
 20
18.79955242053815
 42
0.0711212139578066
 10
65.89759652270557
 20
18.28144020401289
 42
0.6511722507840421
  0
LWPOLYLINE
  5
333
330
18
100
AcDbEntity
  8
ADP1DETAIL
100
AcDbPolyline
 90
        2
 70
     0
 43
0.0
 10
65.52487789381001
 20
18.29763123408395
 42
0.2313218136939458
 10
65.18456937503869
 20
19.47957477205207
 42
-2.251939904072175
  0
LINE
  5
337
330
18
100
AcDbEntity
  8
ADP1DETAIL
100
AcDbLine
 10
65.8165708004418
 20
17.82809202491091
 30
0.0
 11
65.96241725375769
 21
18.23286719666067
 31
0.0
  0
LINE
  5
338
330
18
100
AcDbEntity
  8
ADP1DETAIL
100
AcDbLine
 10
65.47626240937138
 20
17.84428297212101
 30
0.0
 11
65.26559522500338
 21
18.16810315923739
 31
0.0
  0
LINE
  5
339
330
18
100
AcDbEntity
  8
ADP1DETAIL
100
AcDbLine
 10
65.42764692493276
 20
18.20048513651856
 30
0.0
 11
65.54108301272258
 21
17.84428297212101
 31
0.0
  0
LINE
  5
33A
330
18
100
AcDbEntity
  8
ADP1DETAIL
100
AcDbLine
 10
65.36282619388064
 20
17.79570996476879
 30
0.0
 11
65.42764692493276
 21
18.20048513651856
 31
0.0
  0
LINE
  5
33B
330
18
100
AcDbEntity
  8
ADP1DETAIL
100
AcDbLine
 10
65.26559522500338
 20
18.16810315923739
 30
0.0
 11
65.23318485947732
 21
17.86047400219207
 31
0.0
  0
LINE
  5
33C
330
18
100
AcDbEntity
  8
ADP1DETAIL
100
AcDbLine
 10
65.15215913721355
 20
18.070957061672
 30
0.0
 11
65.36282619388064
 21
17.79570996476879
 31
0.0
  0
LINE
  5
33D
330
18
100
AcDbEntity
  8
ADP1DETAIL
100
AcDbLine
 10
65.57349337824864
 20
18.24905814387077
 30
0.0
 11
65.47626240937138
 21
17.84428297212101
 31
0.0
  0
LINE
  5
33E
330
18
100
AcDbEntity
  8
ADP1DETAIL
100
AcDbLine
 10
65.65451910051241
 20
17.87666503226312
 30
0.0
 11
65.57349337824864
 21
18.24905814387077
 31
0.0
  0
LINE
  5
33F
330
18
100
AcDbEntity
  8
ADP1DETAIL
100
AcDbLine
 10
65.84898103826694
 20
18.29763123408395
 30
0.0
 11
65.65451910051241
 21
17.87666503226312
 31
0.0
  0
LINE
  5
340
330
18
100
AcDbEntity
  8
ADP1DETAIL
100
AcDbLine
 10
65.96241725375769
 20
17.86047400219207
 30
0.0
 11
65.84898103826694
 21
18.29763123408395
 31
0.0
  0
LINE
  5
341
330
18
100
AcDbEntity
  8
ADP1DETAIL
100
AcDbLine
 10
65.7355449504771
 20
18.28144020401289
 30
0.0
 11
65.8165708004418
 21
17.82809202491091
 31
0.0
  0
LINE
  5
342
330
18
100
AcDbEntity
  8
ADP1DETAIL
100
AcDbLine
 10
65.54108301272258
 20
17.84428297212101
 30
0.0
 11
65.7355449504771
 21
18.28144020401289
 31
0.0
  0
LINE
  5
343
330
18
100
AcDbEntity
  8
ADP1DETAIL
100
AcDbLine
 10
66.10826370707357
 20
18.86431645796142
 30
0.0
 11
66.33513588265323
 21
18.58906936105821
 31
0.0
  0
LINE
  5
344
330
18
100
AcDbEntity
  8
ADP1DETAIL
100
AcDbLine
 10
66.10826370707357
 20
18.41096827885944
 30
0.0
 11
66.10826370707357
 21
18.86431645796142
 31
0.0
  0
LINE
  5
345
330
18
100
AcDbEntity
  8
ADP1DETAIL
100
AcDbLine
 10
66.2865203982146
 20
19.02622651008913
 30
0.0
 11
66.27031527930204
 21
18.5566873009161
 31
0.0
  0
LINE
  5
346
330
18
100
AcDbEntity
  8
ADP1DETAIL
100
AcDbLine
 10
66.61062367037245
 20
18.76717044325698
 30
0.0
 11
66.2865203982146
 21
19.02622651008913
 31
0.0
  0
LINE
  5
347
330
18
100
AcDbEntity
  8
ADP1DETAIL
100
AcDbLine
 10
66.5782134325473
 20
19.13956355486463
 30
0.0
 11
66.61062367037245
 21
18.76717044325698
 31
0.0
  0
LINE
  5
348
330
18
100
AcDbEntity
  8
ADP1DETAIL
100
AcDbLine
 10
66.5782134325473
 20
18.76717044325698
 30
0.0
 11
66.64303403589851
 21
19.15575458493569
 31
0.0
  0
LINE
  5
349
330
18
100
AcDbEntity
  8
ADP1DETAIL
100
AcDbLine
 10
66.33513588265323
 20
19.07479951744136
 30
0.0
 11
66.5782134325473
 21
18.76717044325698
 31
0.0
  0
LINE
  5
34A
330
18
100
AcDbEntity
  8
ADP1DETAIL
100
AcDbLine
 10
66.33513588265323
 20
18.58906936105821
 30
0.0
 11
66.33513588265323
 21
19.07479951744136
 31
0.0
  0
LINE
  5
34B
330
18
100
AcDbEntity
  8
ADP1DETAIL
100
AcDbLine
 10
66.18928942933735
 20
18.97765350273692
 30
0.0
 11
66.20549467595084
 21
18.47573231628271
 31
0.0
  0
LINE
  5
34C
330
18
100
AcDbEntity
  8
ADP1DETAIL
100
AcDbLine
 10
66.46477721705656
 20
18.67002434569159
 30
0.0
 11
66.18928942933735
 21
18.97765350273692
 31
0.0
  0
LINE
  5
34D
330
18
100
AcDbEntity
  8
ADP1DETAIL
100
AcDbLine
 10
66.48098233596913
 20
19.13956355486463
 30
0.0
 11
66.46477721705656
 21
18.67002434569159
 31
0.0
  0
LINE
  5
34E
330
18
100
AcDbEntity
  8
ADP1DETAIL
100
AcDbLine
 10
66.83749597365302
 20
18.89669843524258
 30
0.0
 11
66.5782134325473
 21
19.13956355486463
 31
0.0
  0
LINE
  5
34F
330
18
100
AcDbEntity
  8
ADP1DETAIL
100
AcDbLine
 10
66.64303403589851
 20
19.15575458493569
 30
0.0
 11
66.83749597365302
 21
18.89669843524258
 31
0.0
  0
LINE
  5
350
330
18
100
AcDbEntity
  8
ADP1DETAIL
100
AcDbLine
 10
66.74026500477577
 20
18.8157434506092
 30
0.0
 11
66.48098233596913
 21
19.13956355486463
 31
0.0
  0
LINE
  5
351
330
18
100
AcDbEntity
  8
ADP1DETAIL
100
AcDbLine
 10
66.72405988586318
 20
19.1881366450778
 30
0.0
 11
66.74026500477577
 21
18.8157434506092
 31
0.0
  0
LINE
  5
352
330
18
100
AcDbEntity
  8
ADP1DETAIL
100
AcDbLine
 10
66.18928942933735
 20
17.89285597947323
 30
0.0
 11
66.09205846046008
 21
18.20048513651856
 31
0.0
  0
LINE
  5
353
330
18
100
AcDbEntity
  8
ADP1DETAIL
100
AcDbLine
 10
66.07585334154752
 20
17.87666503226312
 30
0.0
 11
66.20549467595084
 21
18.15191212916634
 31
0.0
  0
LINE
  5
354
330
18
100
AcDbEntity
  8
ADP1DETAIL
100
AcDbLine
 10
65.28180047161687
 20
22.22233137162438
 30
0.0
 11
65.34662107496806
 21
22.38424150661305
 31
0.0
  0
LINE
  5
355
330
18
100
AcDbEntity
  8
ADP1DETAIL
100
AcDbLine
 10
65.29800559052944
 20
21.16991590850282
 30
0.0
 11
65.55728813163516
 21
21.07276989379838
 31
0.0
  0
ARC
  5
356
330
18
100
AcDbEntity
  8
ADP1DETAIL
100
AcDbCircle
 10
68.84280657602437
 20
9.449449888882979
 30
0.0
 40
15.63258750581911
100
AcDbArc
 50
97.60969386468241
 51
105.8052693191961
  0
LWPOLYLINE
  5
357
330
18
100
AcDbEntity
  8
ADP1DETAIL
100
AcDbPolyline
 90
        4
 70
     0
 43
0.0
 10
64.26087517070472
 20
25.38152068459762
 42
-0.0798193710460087
 10
64.61738880838862
 20
26.5796552526368
 42
-0.4742249310987435
 10
65.08733840616144
 20
26.69299229741231
 42
-0.4284120392867955
 10
65.21697974056475
 20
25.54343081958629
 42
2.141940727854286
  0
ARC
  5
35D
330
18
100
AcDbEntity
  8
ADP1DETAIL
100
AcDbCircle
 10
63.40854852328039
 20
19.13024125488489
 30
0.0
 40
4.359001816726753
100
AcDbArc
 50
64.54872778974335
 51
84.75361078980824
  0
ARC
  5
35E
330
18
100
AcDbEntity
  8
ADP1DETAIL
100
AcDbCircle
 10
55.44928599762357
 20
27.69506880302605
 30
0.0
 40
9.550206883992219
100
AcDbArc
 50
343.0572245128658
 51
351.4306450016607
  0
ARC
  5
35F
330
18
100
AcDbEntity
  8
ADP1DETAIL
100
AcDbCircle
 10
64.56877326009953
 20
19.98333633802189
 30
0.0
 40
3.781306674300579
100
AcDbArc
 50
88.03524171776787
 51
95.65675900925597
  0
ARC
  5
360
330
18
100
AcDbEntity
  8
ADP1DETAIL
100
AcDbCircle
 10
63.42133990450336
 20
20.59642303943025
 30
0.0
 40
2.619393323182029
100
AcDbArc
 50
75.37717415609522
 51
86.87678659533181
  0
LINE
  5
361
330
18
100
AcDbEntity
  8
ADP1DETAIL
100
AcDbLine
 10
66.52959794810867
 20
24.21576817670056
 30
0.0
 11
66.61062367037245
 21
24.19957714662951
 31
0.0
  0
LINE
  5
362
330
18
100
AcDbEntity
  8
ADP1DETAIL
100
AcDbLine
 10
66.48098233596913
 20
23.82718403502185
 30
0.0
 11
66.64303403589851
 21
23.82718403502185
 31
0.0
  0
ARC
  5
363
330
18
100
AcDbEntity
  8
ADP1DETAIL
100
AcDbCircle
 10
64.96749336523217
 20
28.32901486255224
 30
0.0
 40
3.158000791859608
100
AcDbArc
 50
314.3384875168166
 51
0.5115366584341797
  0
ARC
  5
364
330
18
100
AcDbEntity
  8
ADP1DETAIL
100
AcDbCircle
 10
66.14118205149566
 20
28.22426266955765
 30
0.0
 40
1.283647047228969
100
AcDbArc
 50
314.0543451076367
 51
4.367930205604109
  0
LWPOLYLINE
  5
365
330
18
100
AcDbEntity
  8
ADP1DETAIL
100
AcDbPolyline
 90
        4
 70
     0
 43
0.0
 10
67.01575279249496
 20
24.32910522147605
 42
-0.092860397596836
 10
67.58293335914505
 20
24.28053221412383
 42
-0.8263033838828885
 10
67.53431787470642
 20
23.68146493010424
 42
-0.0076381721412642
 10
67.01575279249496
 20
23.63289192275203
 42
25.58876489117468
  0
LINE
  5
36B
330
18
100
AcDbEntity
  8
ADP1DETAIL
100
AcDbLine
 10
67.42110079399257
 20
28.92013104370516
 30
0.0
 11
68.12536829712475
 21
28.92013104370516
 31
0.0
  0
LINE
  5
36C
330
18
100
AcDbEntity
  8
ADP1DETAIL
100
AcDbLine
 10
67.42110079399257
 20
28.32202643822889
 30
0.0
 11
67.42110079399257
 21
28.92013104370516
 31
0.0
  0
LINE
  5
36D
330
18
100
AcDbEntity
  8
ADP1DETAIL
100
AcDbLine
 10
68.12536829712475
 20
28.92013104370516
 30
0.0
 11
68.12536829712475
 21
28.35720911569635
 31
0.0
  0
TEXT
  5
37B
330
18
100
AcDbEntity
  8
ADPDIM
100
AcDbText
 10
37.80863288331612
 20
4.170300652463654
 30
0.0
 40
0.5
  1
J U L I U S  B L U M  &  C O . ,  I N C .      ( 8 0 0 )  5 2 6 - 6 2 9 3        W W W . J U L I U S B L U M . C O M        P A R T  N o .  5 5 5
 41
1.25
  7
ARIAL_WIDE
 72
     1
 11
63.54746303338433
 21
4.670300652463654
 31
0.0
100
AcDbText
 73
     3
  0
ENDSEC
  0
SECTION
  2
OBJECTS
  0
DICTIONARY
  5
C
330
0
100
AcDbDictionary
  3
ACAD_GROUP
350
D
  3
ACAD_LAYOUT
350
374
  3
ACAD_MLINESTYLE
350
E
  3
ACAD_PLOTSETTINGS
350
375
  3
ACAD_PLOTSTYLENAME
350
372
  3
ACDBHEADERROUNDTRIPXREC
350
4C3
  3
ACDBVARIABLEDICTIONARY
350
3D5
  0
DICTIONARY
  5
3CF
330
18
100
AcDbDictionary
280
     1
  3
ACAD_LAYOUTSELFREF
360
4E4
  0
DICTIONARY
  5
3CD
330
15
100
AcDbDictionary
280
     1
  3
ACAD_LAYOUTSELFREF
360
4E3
  0
DICTIONARY
  5
D
102
{ACAD_REACTORS
330
C
102
}
330
C
100
AcDbDictionary
  0
DICTIONARY
  5
374
102
{ACAD_REACTORS
330
C
102
}
330
C
100
AcDbDictionary
  0
DICTIONARY
  5
E
102
{ACAD_REACTORS
330
C
102
}
330
C
100
AcDbDictionary
  3
STANDARD
350
1B
  0
DICTIONARY
  5
375
102
{ACAD_REACTORS
330
C
102
}
330
C
100
AcDbDictionary
  0
ACDBDICTIONARYWDFLT
  5
372
102
{ACAD_REACTORS
330
C
102
}
330
C
100
AcDbDictionary
281
     1
  3
Normal
350
373
100
AcDbDictionaryWithDefault
340
373
  0
DICTIONARY
  5
4C3
102
{ACAD_REACTORS
330
C
102
}
330
C
100
AcDbDictionary
  3
CEPSNTYPE
350
4CD
  3
FINGERPRINTGUID
350
4CE
  3
HYPERLINKBASE
350
4C6
  3
INSUNITS
350
4CC
  3
LAYOUTDICT
350
4C8
  3
LWETCUNION
350
4CB
  3
PLOTSETDICT
350
4C9
  3
PLOTSTYLNAMDICT
350
4CA
  3
PSVPSCALE
350
4D0
  3
PUCSBASE
350
4D3
  3
PUCSORGBACK
350
4D9
  3
PUCSORGBOTTOM
350
4D5
  3
PUCSORGFRONT
350
4D8
  3
PUCSORGLEFT
350
4D6
  3
PUCSORGRIGHT
350
4D7
  3
PUCSORGTOP
350
4D4
  3
PUCSORTHOREF
350
4D1
  3
PUCSORTHOVIEW
350
4D2
  3
STYLESHEET
350
4C7
  3
TSTACKALIGN
350
4C4
  3
TSTACKSIZE
350
4C5
  3
UCSBASE
350
4DC
  3
UCSORGBACK
350
4E2
  3
UCSORGBOTTOM
350
4DE
  3
UCSORGFRONT
350
4E1
  3
UCSORGLEFT
350
4DF
  3
UCSORGRIGHT
350
4E0
  3
UCSORGTOP
350
4DD
  3
UCSORTHOREF
350
4DA
  3
UCSORTHOVIEW
350
4DB
  3
VERSIONGUID
350
4CF
  0
DICTIONARY
  5
3D5
102
{ACAD_REACTORS
330
C
102
}
330
C
100
AcDbDictionary
  3
DIMASSOC
350
3D6
  0
XRECORD
  5
4E4
102
{ACAD_REACTORS
330
3CF
102
}
330
3CF
100
AcDbXrecord
340
18
  0
XRECORD
  5
4E3
102
{ACAD_REACTORS
330
3CD
102
}
330
3CD
100
AcDbXrecord
340
15
  0
MLINESTYLE
  5
1B
102
{ACAD_REACTORS
330
E
102
}
330
E
100
AcDbMlineStyle
  2
STANDARD
 70
     0
  3

 62
     0
 51
90.0
 52
90.0
 71
     2
 49
0.5
 62
   256
  6
BYLAYER
 49
-0.5
 62
   256
  6
BYLAYER
  0
ACDBPLACEHOLDER
  5
373
102
{ACAD_REACTORS
330
372
102
}
330
372
100
AcDbPlaceHolder
280
     0
  0
XRECORD
  5
4CD
102
{ACAD_REACTORS
330
4C3
102
}
330
4C3
100
AcDbXrecord
 90
        0
  0
XRECORD
  5
4CE
102
{ACAD_REACTORS
330
4C3
102
}
330
4C3
100
AcDbXrecord
  1
{F630B07F-9401-4620-950A-F70369A4D6C4}
  0
XRECORD
  5
4C6
102
{ACAD_REACTORS
330
4C3
102
}
330
4C3
100
AcDbXrecord
  1

  0
XRECORD
  5
4CC
102
{ACAD_REACTORS
330
4C3
102
}
330
4C3
100
AcDbXrecord
 90
        0
  0
XRECORD
  5
4C8
102
{ACAD_REACTORS
330
4C3
102
}
330
4C3
100
AcDbXrecord
340
374
  0
XRECORD
  5
4CB
102
{ACAD_REACTORS
330
4C3
102
}
330
4C3
100
AcDbXrecord
 90
    14877
  0
XRECORD
  5
4C9
102
{ACAD_REACTORS
330
4C3
102
}
330
4C3
100
AcDbXrecord
340
375
  0
XRECORD
  5
4CA
102
{ACAD_REACTORS
330
4C3
102
}
330
4C3
100
AcDbXrecord
340
372
  0
XRECORD
  5
4D0
102
{ACAD_REACTORS
330
4C3
102
}
330
4C3
100
AcDbXrecord
 40
0.0
  0
XRECORD
  5
4D3
102
{ACAD_REACTORS
330
4C3
102
}
330
4C3
100
AcDbXrecord
340
0
  0
XRECORD
  5
4D9
102
{ACAD_REACTORS
330
4C3
102
}
330
4C3
100
AcDbXrecord
 10
0.0
 20
0.0
 30
0.0
  0
XRECORD
  5
4D5
102
{ACAD_REACTORS
330
4C3
102
}
330
4C3
100
AcDbXrecord
 10
0.0
 20
0.0
 30
0.0
  0
XRECORD
  5
4D8
102
{ACAD_REACTORS
330
4C3
102
}
330
4C3
100
AcDbXrecord
 10
0.0
 20
0.0
 30
0.0
  0
XRECORD
  5
4D6
102
{ACAD_REACTORS
330
4C3
102
}
330
4C3
100
AcDbXrecord
 10
0.0
 20
0.0
 30
0.0
  0
XRECORD
  5
4D7
102
{ACAD_REACTORS
330
4C3
102
}
330
4C3
100
AcDbXrecord
 10
0.0
 20
0.0
 30
0.0
  0
XRECORD
  5
4D4
102
{ACAD_REACTORS
330
4C3
102
}
330
4C3
100
AcDbXrecord
 10
0.0
 20
0.0
 30
0.0
  0
XRECORD
  5
4D1
102
{ACAD_REACTORS
330
4C3
102
}
330
4C3
100
AcDbXrecord
340
0
  0
XRECORD
  5
4D2
102
{ACAD_REACTORS
330
4C3
102
}
330
4C3
100
AcDbXrecord
 70
     0
  0
XRECORD
  5
4C7
102
{ACAD_REACTORS
330
4C3
102
}
330
4C3
100
AcDbXrecord
  1

  0
XRECORD
  5
4C4
102
{ACAD_REACTORS
330
4C3
102
}
330
4C3
100
AcDbXrecord
 90
        1
  0
XRECORD
  5
4C5
102
{ACAD_REACTORS
330
4C3
102
}
330
4C3
100
AcDbXrecord
 90
       70
  0
XRECORD
  5
4DC
102
{ACAD_REACTORS
330
4C3
102
}
330
4C3
100
AcDbXrecord
340
0
  0
XRECORD
  5
4E2
102
{ACAD_REACTORS
330
4C3
102
}
330
4C3
100
AcDbXrecord
 10
0.0
 20
0.0
 30
0.0
  0
XRECORD
  5
4DE
102
{ACAD_REACTORS
330
4C3
102
}
330
4C3
100
AcDbXrecord
 10
0.0
 20
0.0
 30
0.0
  0
XRECORD
  5
4E1
102
{ACAD_REACTORS
330
4C3
102
}
330
4C3
100
AcDbXrecord
 10
0.0
 20
0.0
 30
0.0
  0
XRECORD
  5
4DF
102
{ACAD_REACTORS
330
4C3
102
}
330
4C3
100
AcDbXrecord
 10
0.0
 20
0.0
 30
0.0
  0
XRECORD
  5
4E0
102
{ACAD_REACTORS
330
4C3
102
}
330
4C3
100
AcDbXrecord
 10
0.0
 20
0.0
 30
0.0
  0
XRECORD
  5
4DD
102
{ACAD_REACTORS
330
4C3
102
}
330
4C3
100
AcDbXrecord
 10
0.0
 20
0.0
 30
0.0
  0
XRECORD
  5
4DA
102
{ACAD_REACTORS
330
4C3
102
}
330
4C3
100
AcDbXrecord
340
0
  0
XRECORD
  5
4DB
102
{ACAD_REACTORS
330
4C3
102
}
330
4C3
100
AcDbXrecord
 70
     0
  0
XRECORD
  5
4CF
102
{ACAD_REACTORS
330
4C3
102
}
330
4C3
100
AcDbXrecord
  1
{575EA28C-F556-456D-8F73-43AC9E237A6E}
  0
DICTIONARYVAR
  5
3D6
102
{ACAD_REACTORS
330
3D5
102
}
330
3D5
100
DictionaryVariables
280
     0
  1
1
  0
ENDSEC
  0
EOF
