  0
SECTION
  2
HEADER
  9
$ACADVER
  1
AC1015
  9
$ACADMAINTVER
 70
    20
  9
$DWGCODEPAGE
  3
ANSI_1252
  9
$INSBASE
 10
0.0
 20
0.0
 30
0.0
  9
$EXTMIN
 10
17.98349056657689
 20
-9.730008654022588
 30
0.0
  9
$EXTMAX
 10
31.58075779031495
 20
-1.36047087624503
 30
0.0
  9
$LIMMIN
 10
0.0
 20
0.0
  9
$LIMMAX
 10
0.0
 20
0.0
  9
$ORTHOMODE
 70
     1
  9
$REGENMODE
 70
     1
  9
$FILLMODE
 70
     1
  9
$QTEXTMODE
 70
     0
  9
$MIRRTEXT
 70
     1
  9
$LTSCALE
 40
1.0
  9
$ATTMODE
 70
     1
  9
$TEXTSIZE
 40
0.0
  9
$TRACEWID
 40
0.05
  9
$TEXTSTYLE
  7
STANDARD
  9
$CLAYER
  8
0
  9
$CELTYPE
  6
CONTINUOUS
  9
$CECOLOR
 62
   256
  9
$CELTSCALE
 40
1.0
  9
$DISPSILH
 70
     0
  9
$DIMSCALE
 40
1.0
  9
$DIMASZ
 40
0.18
  9
$DIMEXO
 40
0.0625
  9
$DIMDLI
 40
0.38
  9
$DIMRND
 40
0.0
  9
$DIMDLE
 40
0.0
  9
$DIMEXE
 40
0.18
  9
$DIMTP
 40
0.0
  9
$DIMTM
 40
0.0
  9
$DIMTXT
 40
0.18
  9
$DIMCEN
 40
0.09
  9
$DIMTSZ
 40
0.0
  9
$DIMTOL
 70
     0
  9
$DIMLIM
 70
     0
  9
$DIMTIH
 70
     1
  9
$DIMTOH
 70
     1
  9
$DIMSE1
 70
     0
  9
$DIMSE2
 70
     0
  9
$DIMTAD
 70
     0
  9
$DIMZIN
 70
     0
  9
$DIMBLK
  1

  9
$DIMASO
 70
     1
  9
$DIMSHO
 70
     1
  9
$DIMPOST
  1

  9
$DIMAPOST
  1

  9
$DIMALT
 70
     0
  9
$DIMALTD
 70
     2
  9
$DIMALTF
 40
25.4
  9
$DIMLFAC
 40
1.0
  9
$DIMTOFL
 70
     0
  9
$DIMTVP
 40
0.0
  9
$DIMTIX
 70
     0
  9
$DIMSOXD
 70
     0
  9
$DIMSAH
 70
     0
  9
$DIMBLK1
  1

  9
$DIMBLK2
  1

  9
$DIMSTYLE
  2
STANDARD
  9
$DIMCLRD
 70
     0
  9
$DIMCLRE
 70
     0
  9
$DIMCLRT
 70
     0
  9
$DIMTFAC
 40
1.0
  9
$DIMGAP
 40
0.09
  9
$DIMJUST
 70
     0
  9
$DIMSD1
 70
     0
  9
$DIMSD2
 70
     0
  9
$DIMTOLJ
 70
     1
  9
$DIMTZIN
 70
     0
  9
$DIMALTZ
 70
     0
  9
$DIMALTTZ
 70
     0
  9
$DIMUPT
 70
     0
  9
$DIMDEC
 70
     4
  9
$DIMTDEC
 70
     4
  9
$DIMALTU
 70
     2
  9
$DIMALTTD
 70
     2
  9
$DIMTXSTY
  7
STANDARD
  9
$DIMAUNIT
 70
     0
  9
$DIMADEC
 70
     0
  9
$DIMALTRND
 40
0.0
  9
$DIMAZIN
 70
     0
  9
$DIMDSEP
 70
    46
  9
$DIMATFIT
 70
     3
  9
$DIMFRAC
 70
     0
  9
$DIMLDRBLK
  1

  9
$DIMLUNIT
 70
     2
  9
$DIMLWD
 70
    -2
  9
$DIMLWE
 70
    -2
  9
$DIMTMOVE
 70
     0
  9
$LUNITS
 70
     2
  9
$LUPREC
 70
     4
  9
$SKETCHINC
 40
0.1
  9
$FILLETRAD
 40
0.0
  9
$AUNITS
 70
     0
  9
$AUPREC
 70
     0
  9
$MENU
  1
acad
  9
$ELEVATION
 40
0.0
  9
$PELEVATION
 40
0.0
  9
$THICKNESS
 40
0.0
  9
$LIMCHECK
 70
     0
  9
$CHAMFERA
 40
0.0
  9
$CHAMFERB
 40
0.0
  9
$CHAMFERC
 40
0.0
  9
$CHAMFERD
 40
0.0
  9
$SKPOLY
 70
     0
  9
$TDCREATE
 40
2444971.791666667
  9
$TDUCREATE
 40
2444971.958333334
  9
$TDUPDATE
 40
2453961.989619699
  9
$TDUUPDATE
 40
2453962.156286366
  9
$TDINDWG
 40
0.0527447685
  9
$TDUSRTIMER
 40
0.0527447685
  9
$USRTIMER
 70
     1
  9
$ANGBASE
 50
0.0
  9
$ANGDIR
 70
     0
  9
$PDMODE
 70
     0
  9
$PDSIZE
 40
0.0
  9
$PLINEWID
 40
0.0
  9
$SPLFRAME
 70
     0
  9
$SPLINETYPE
 70
     6
  9
$SPLINESEGS
 70
     8
  9
$HANDSEED
  5
3FF
  9
$SURFTAB1
 70
     6
  9
$SURFTAB2
 70
     6
  9
$SURFTYPE
 70
     6
  9
$SURFU
 70
     6
  9
$SURFV
 70
     6
  9
$UCSBASE
  2

  9
$UCSNAME
  2

  9
$UCSORG
 10
0.0
 20
0.0
 30
0.0
  9
$UCSXDIR
 10
1.0
 20
0.0
 30
0.0
  9
$UCSYDIR
 10
0.0
 20
1.0
 30
0.0
  9
$UCSORTHOREF
  2

  9
$UCSORTHOVIEW
 70
     0
  9
$UCSORGTOP
 10
0.0
 20
0.0
 30
0.0
  9
$UCSORGBOTTOM
 10
0.0
 20
0.0
 30
0.0
  9
$UCSORGLEFT
 10
0.0
 20
0.0
 30
0.0
  9
$UCSORGRIGHT
 10
0.0
 20
0.0
 30
0.0
  9
$UCSORGFRONT
 10
0.0
 20
0.0
 30
0.0
  9
$UCSORGBACK
 10
0.0
 20
0.0
 30
0.0
  9
$PUCSBASE
  2

  9
$PUCSNAME
  2

  9
$PUCSORG
 10
0.0
 20
0.0
 30
0.0
  9
$PUCSXDIR
 10
1.0
 20
0.0
 30
0.0
  9
$PUCSYDIR
 10
0.0
 20
1.0
 30
0.0
  9
$PUCSORTHOREF
  2

  9
$PUCSORTHOVIEW
 70
     0
  9
$PUCSORGTOP
 10
0.0
 20
0.0
 30
0.0
  9
$PUCSORGBOTTOM
 10
0.0
 20
0.0
 30
0.0
  9
$PUCSORGLEFT
 10
0.0
 20
0.0
 30
0.0
  9
$PUCSORGRIGHT
 10
0.0
 20
0.0
 30
0.0
  9
$PUCSORGFRONT
 10
0.0
 20
0.0
 30
0.0
  9
$PUCSORGBACK
 10
0.0
 20
0.0
 30
0.0
  9
$USERI1
 70
     0
  9
$USERI2
 70
     0
  9
$USERI3
 70
     0
  9
$USERI4
 70
     0
  9
$USERI5
 70
     0
  9
$USERR1
 40
0.0
  9
$USERR2
 40
0.0
  9
$USERR3
 40
0.0
  9
$USERR4
 40
0.0
  9
$USERR5
 40
0.0
  9
$WORLDVIEW
 70
     1
  9
$SHADEDGE
 70
     3
  9
$SHADEDIF
 70
    70
  9
$TILEMODE
 70
     1
  9
$MAXACTVP
 70
    16
  9
$PINSBASE
 10
0.0
 20
0.0
 30
0.0
  9
$PLIMCHECK
 70
     0
  9
$PEXTMIN
 10
1.000000000000000E+20
 20
1.000000000000000E+20
 30
1.000000000000000E+20
  9
$PEXTMAX
 10
-1.000000000000000E+20
 20
-1.000000000000000E+20
 30
-1.000000000000000E+20
  9
$PLIMMIN
 10
0.0
 20
0.0
  9
$PLIMMAX
 10
12.0
 20
9.0
  9
$UNITMODE
 70
     0
  9
$VISRETAIN
 70
     0
  9
$PLINEGEN
 70
     0
  9
$PSLTSCALE
 70
     0
  9
$TREEDEPTH
 70
  3020
  9
$CMLSTYLE
  2
STANDARD
  9
$CMLJUST
 70
     0
  9
$CMLSCALE
 40
1.0
  9
$PROXYGRAPHICS
 70
     1
  9
$MEASUREMENT
 70
     0
  9
$CELWEIGHT
370
    -1
  9
$ENDCAPS
280
     0
  9
$JOINSTYLE
280
     0
  9
$LWDISPLAY
290
     0
  9
$INSUNITS
 70
     0
  9
$HYPERLINKBASE
  1

  9
$STYLESHEET
  1

  9
$XEDIT
290
     1
  9
$CEPSNTYPE
380
     0
  9
$PSTYLEMODE
290
     1
  9
$FINGERPRINTGUID
  2
{02F6CE53-2FA9-4FE9-ACE1-BC6B922BA3BB}
  9
$VERSIONGUID
  2
{15593563-9022-47A9-B7B6-9B937BBF80B6}
  9
$EXTNAMES
290
     1
  9
$PSVPSCALE
 40
0.0
  9
$OLESTARTUP
290
     0
  0
ENDSEC
  0
SECTION
  2
CLASSES
  0
CLASS
  1
IMAGE
  2
AcDbRasterImage
  3
ISM
 90
    34943
280
     0
281
     1
  0
CLASS
  1
DICTIONARYVAR
  2
AcDbDictionaryVar
  3
ObjectDBX Classes
 90
        0
280
     0
281
     0
  0
CLASS
  1
RASTERVARIABLES
  2
AcDbRasterVariables
  3
ISM
 90
    32768
280
     0
281
     0
  0
CLASS
  1
IMAGEDEF
  2
AcDbRasterImageDef
  3
ISM
 90
    32768
280
     0
281
     0
  0
CLASS
  1
IMAGEDEF_REACTOR
  2
AcDbRasterImageDefReactor
  3
ISM
 90
    32769
280
     0
281
     0
  0
CLASS
  1
IDBUFFER
  2
AcDbIdBuffer
  3
ObjectDBX Classes
 90
    32768
280
     0
281
     0
  0
CLASS
  1
SPATIAL_FILTER
  2
AcDbSpatialFilter
  3
ObjectDBX Classes
 90
    32768
280
     0
281
     0
  0
CLASS
  1
SORTENTSTABLE
  2
AcDbSortentsTable
  3
ObjectDBX Classes
 90
    32768
280
     0
281
     0
  0
CLASS
  1
LAYER_INDEX
  2
AcDbLayerIndex
  3
ObjectDBX Classes
 90
    32768
280
     0
281
     0
  0
CLASS
  1
SPATIAL_INDEX
  2
AcDbSpatialIndex
  3
ObjectDBX Classes
 90
    32768
280
     0
281
     0
  0
CLASS
  1
OBJECT_PTR
  2
CAseDLPNTableRecord
  3
ASE-LPNTableRecord
 90
    32769
280
     0
281
     0
  0
CLASS
  1
ACDBDICTIONARYWDFLT
  2
AcDbDictionaryWithDefault
  3
ObjectDBX Classes
 90
        0
280
     0
281
     0
  0
CLASS
  1
ACDBPLACEHOLDER
  2
AcDbPlaceHolder
  3
ObjectDBX Classes
 90
        0
280
     0
281
     0
  0
CLASS
  1
LAYOUT
  2
AcDbLayout
  3
ObjectDBX Classes
 90
        0
280
     0
281
     0
  0
CLASS
  1
MATERIAL
  2
AcDbMaterial
  3
ObjectDBX Classes
 90
     1024
280
     0
281
     0
  0
CLASS
  1
VISUALSTYLE
  2
AcDbVisualStyle
  3
ObjectDBX Classes
 90
     4095
280
     0
281
     0
  0
CLASS
  1
TABLESTYLE
  2
AcDbTableStyle
  3
ObjectDBX Classes
 90
     4095
280
     0
281
     0
  0
ENDSEC
  0
SECTION
  2
TABLES
  0
TABLE
  2
VPORT
  5
7
330
0
100
AcDbSymbolTable
 70
     2
  0
VPORT
  5
2E
330
7
100
AcDbSymbolTableRecord
100
AcDbViewportTableRecord
  2
DCADVPORT
 70
     0
 10
20.11987808018057
 20
-9.081119560280875
 11
29.32661807735525
 21
-1.722743897039075
 12
6.209999999999999
 22
9.019999999999999
 13
0.0
 23
0.0
 14
1.0
 24
1.0
 15
0.0
 25
0.0
 16
0.0
 26
0.0
 36
1.0
 17
0.0
 27
0.0
 37
0.0
 40
18.04
 41
0.688564
 42
50.0
 43
1.0
 44
1.0
 50
0.0
 51
0.0
 71
     0
 72
   100
 73
     1
 74
     1
 75
     0
 76
     0
 77
     0
 78
     0
281
     0
 65
     1
110
0.0
120
0.0
130
0.0
111
1.0
121
0.0
131
0.0
112
0.0
122
1.0
132
0.0
 79
     0
146
0.0
  0
VPORT
  5
216
330
7
100
AcDbSymbolTableRecord
100
AcDbViewportTableRecord
  2
*Active
 70
     0
 10
0.0
 20
0.0
 11
1.0
 21
1.0
 12
27.30840803779236
 22
-3.41478712453598
 13
0.0
 23
0.0
 14
1.0
 24
1.0
 15
0.0
 25
0.0
 16
0.0
 26
0.0
 36
1.0
 17
0.0
 27
0.0
 37
0.0
 40
4.300209870039765
 41
1.726930320150659
 42
50.0
 43
0.0
 44
0.0
 50
0.0
 51
0.0
 71
     0
 72
   100
 73
     1
 74
     1
 75
     0
 76
     0
 77
     0
 78
     0
281
     0
 65
     1
110
0.0
120
0.0
130
0.0
111
1.0
121
0.0
131
0.0
112
0.0
122
1.0
132
0.0
 79
     0
146
0.0
  0
ENDTAB
  0
TABLE
  2
LTYPE
  5
4
330
0
100
AcDbSymbolTable
 70
     2
  0
LTYPE
  5
11
330
4
100
AcDbSymbolTableRecord
100
AcDbLinetypeTableRecord
  2
BYBLOCK
 70
     0
  3

 72
    65
 73
     0
 40
0.0
  0
LTYPE
  5
12
330
4
100
AcDbSymbolTableRecord
100
AcDbLinetypeTableRecord
  2
BYLAYER
 70
     0
  3

 72
    65
 73
     0
 40
0.0
  0
LTYPE
  5
13
330
4
100
AcDbSymbolTableRecord
100
AcDbLinetypeTableRecord
  2
CONTINUOUS
 70
     0
  3
Solid line
 72
    65
 73
     0
 40
0.0
  0
LTYPE
  5
1E
330
4
100
AcDbSymbolTableRecord
100
AcDbLinetypeTableRecord
  2
CONTINUOUS
 70
     0
  3
Solid line
 72
    65
 73
     0
 40
0.0
  0
ENDTAB
  0
TABLE
  2
LAYER
  5
2
330
0
100
AcDbSymbolTable
 70
     5
  0
LAYER
  5
14
330
2
100
AcDbSymbolTableRecord
100
AcDbLayerTableRecord
  2
0
 70
     0
 62
     7
  6
CONTINUOUS
370
    -3
390
E1
  0
LAYER
  5
2A
330
2
100
AcDbSymbolTableRecord
100
AcDbLayerTableRecord
  2
ADP1DETAIL
 70
     0
 62
   250
  6
CONTINUOUS
370
    -3
390
E1
  0
LAYER
  5
2B
330
2
100
AcDbSymbolTableRecord
100
AcDbLayerTableRecord
  2
ADP3DETAIL
 70
     0
 62
   250
  6
CONTINUOUS
370
    -3
390
E1
  0
LAYER
  5
2C
330
2
100
AcDbSymbolTableRecord
100
AcDbLayerTableRecord
  2
DEFPOINTS
 70
     0
 62
   250
  6
CONTINUOUS
290
     0
370
    -3
390
E1
  0
LAYER
  5
2D
330
2
100
AcDbSymbolTableRecord
100
AcDbLayerTableRecord
  2
ADPDIM
 70
     0
 62
     3
  6
CONTINUOUS
370
    -3
390
E1
  0
ENDTAB
  0
TABLE
  2
STYLE
  5
3
330
0
100
AcDbSymbolTable
 70
     2
  0
STYLE
  5
17
330
3
100
AcDbSymbolTableRecord
100
AcDbTextStyleTableRecord
  2
STANDARD
 70
     0
 40
0.0
 41
1.0
 50
0.0
 71
     0
 42
0.0
  3
txt
  4

  0
STYLE
  5
E9
330
3
100
AcDbSymbolTableRecord
100
AcDbTextStyleTableRecord
  2
ARIAL_WIDE
 70
     0
 40
0.0
 41
1.25
 50
0.0
 71
     0
 42
0.2
  3
ARIAL.TTF
  4

1001
ACAD
1000
Arial
1071
       34
  0
ENDTAB
  0
TABLE
  2
VIEW
  5
5
330
0
100
AcDbSymbolTable
 70
     0
  0
ENDTAB
  0
TABLE
  2
UCS
  5
6
330
0
100
AcDbSymbolTable
 70
     0
  0
ENDTAB
  0
TABLE
  2
APPID
  5
8
330
0
100
AcDbSymbolTable
 70
     2
  0
APPID
  5
16
330
8
100
AcDbSymbolTableRecord
100
AcDbRegAppTableRecord
  2
ACAD
 70
     0
  0
APPID
  5
3D1
330
8
100
AcDbSymbolTableRecord
100
AcDbRegAppTableRecord
  2
DCO15
 70
     0
  0
ENDTAB
  0
TABLE
  2
DIMSTYLE
  5
9
330
0
100
AcDbSymbolTable
 70
     1
100
AcDbDimStyleTable
 71
     0
  0
DIMSTYLE
105
18
102
{ACAD_REACTORS
330
369
330
389
102
}
330
9
100
AcDbSymbolTableRecord
100
AcDbDimStyleTableRecord
  2
STANDARD
 70
     0
289
     0
340
17
  0
ENDTAB
  0
TABLE
  2
BLOCK_RECORD
  5
1
330
0
100
AcDbSymbolTable
 70
     7
  0
BLOCK_RECORD
  5
A
102
{ACAD_XDICTIONARY
360
140
102
}
330
1
100
AcDbSymbolTableRecord
100
AcDbBlockTableRecord
  2
*MODEL_SPACE
340
E4
  0
BLOCK_RECORD
  5
B
102
{ACAD_XDICTIONARY
360
142
102
}
330
1
100
AcDbSymbolTableRecord
100
AcDbBlockTableRecord
  2
*PAPER_SPACE
340
E5
  0
BLOCK_RECORD
  5
318
330
1
100
AcDbSymbolTableRecord
100
AcDbBlockTableRecord
  2
*D0
340
0
  0
BLOCK_RECORD
  5
325
330
1
100
AcDbSymbolTableRecord
100
AcDbBlockTableRecord
  2
*D1
340
0
  0
BLOCK_RECORD
  5
332
330
1
100
AcDbSymbolTableRecord
100
AcDbBlockTableRecord
  2
*D2
340
0
  0
BLOCK_RECORD
  5
38A
330
1
100
AcDbSymbolTableRecord
100
AcDbBlockTableRecord
  2
*D4
340
0
  0
BLOCK_RECORD
  5
397
330
1
100
AcDbSymbolTableRecord
100
AcDbBlockTableRecord
  2
*D5
340
0
  0
BLOCK_RECORD
  5
3A4
330
1
100
AcDbSymbolTableRecord
100
AcDbBlockTableRecord
  2
*D6
340
0
  0
ENDTAB
  0
ENDSEC
  0
SECTION
  2
BLOCKS
  0
BLOCK
  5
D
330
A
100
AcDbEntity
  8
0
100
AcDbBlockBegin
  2
*MODEL_SPACE
 70
     0
 10
0.0
 20
0.0
 30
0.0
  3
*MODEL_SPACE
  1

  0
ENDBLK
  5
E
330
A
100
AcDbEntity
  8
0
100
AcDbBlockEnd
  0
BLOCK
  5
F
330
B
100
AcDbEntity
 67
     1
  8
0
100
AcDbBlockBegin
  2
*PAPER_SPACE
 70
     0
 10
0.0
 20
0.0
 30
0.0
  3
*PAPER_SPACE
  1

  0
ENDBLK
  5
10
330
B
100
AcDbEntity
 67
     1
  8
0
100
AcDbBlockEnd
  0
BLOCK
  5
319
330
318
100
AcDbEntity
  8
0
100
AcDbBlockBegin
  2
*D0
 70
     1
 10
0.0
 20
0.0
 30
0.0
  3
*D0
  1

  0
LINE
  5
31A
330
318
100
AcDbEntity
  8
0
  6
ByBlock
 62
     0
100
AcDbLine
 10
-5.570875322096235
 20
16.34418086125946
 30
0.0
 11
-5.570875322096235
 21
16.98468491484248
 31
0.0
  0
LINE
  5
31B
330
318
100
AcDbEntity
  8
0
  6
ByBlock
 62
     0
100
AcDbLine
 10
-3.633375322096235
 20
16.34418086125946
 30
0.0
 11
-3.633375322096235
 21
16.98468491484248
 31
0.0
  0
LINE
  5
31C
330
318
100
AcDbEntity
  8
0
  6
ByBlock
 62
     0
100
AcDbLine
 10
-5.570875322096235
 20
16.80468491484248
 30
0.0
 11
-5.081291988762902
 21
16.80468491484248
 31
0.0
  0
LINE
  5
31D
330
318
100
AcDbEntity
  8
0
  6
ByBlock
 62
     0
100
AcDbLine
 10
-3.633375322096235
 20
16.80468491484248
 30
0.0
 11
-4.122958655429568
 21
16.80468491484248
 31
0.0
  0
LINE
  5
31E
330
318
100
AcDbEntity
  8
0
  6
ByBlock
 62
     0
100
AcDbLine
 10
-5.695875322096235
 20
16.67968491484248
 30
0.0
 11
-5.445875322096235
 21
16.92968491484248
 31
0.0
  0
LINE
  5
31F
330
318
100
AcDbEntity
  8
0
  6
ByBlock
 62
     0
100
AcDbLine
 10
-3.758375322096235
 20
16.67968491484248
 30
0.0
 11
-3.508375322096235
 21
16.92968491484248
 31
0.0
  0
TEXT
  5
320
330
318
100
AcDbEntity
  8
0
  6
ByBlock
 62
     0
100
AcDbText
 10
-4.956291988762902
 20
16.7527214007672
 30
0.0
 40
0.125
  1
1 15/16
 72
     1
 11
-4.602125322096235
 21
16.8152214007672
 31
0.0
100
AcDbText
 73
     2
  0
POINT
  5
321
330
318
100
AcDbEntity
  8
DEFPOINTS
  6
ByBlock
 62
     0
100
AcDbPoint
 10
-5.570875322096235
 20
16.28168086125947
 30
0.0
  0
POINT
  5
322
330
318
100
AcDbEntity
  8
DEFPOINTS
  6
ByBlock
 62
     0
100
AcDbPoint
 10
-3.633375322096235
 20
16.28168086125947
 30
0.0
  0
POINT
  5
323
330
318
100
AcDbEntity
  8
DEFPOINTS
  6
ByBlock
 62
     0
100
AcDbPoint
 10
-3.633375322096235
 20
16.80468491484248
 30
0.0
  0
ENDBLK
  5
324
330
318
100
AcDbEntity
  8
0
100
AcDbBlockEnd
  0
BLOCK
  5
326
330
325
100
AcDbEntity
  8
0
100
AcDbBlockBegin
  2
*D1
 70
     1
 10
0.0
 20
0.0
 30
0.0
  3
*D1
  1

  0
LINE
  5
327
330
325
100
AcDbEntity
  8
ADPDIM
 62
     0
370
    -2
100
AcDbLine
 10
-5.265947791234616
 20
15.84049617173728
 30
0.0
 11
-5.265947791234616
 21
15.32809385277579
 31
0.0
  0
LINE
  5
328
330
325
100
AcDbEntity
  8
ADPDIM
 62
     0
370
    -2
100
AcDbLine
 10
-3.95294779123462
 20
15.84049617173728
 30
0.0
 11
-3.95294779123462
 21
15.32809385277579
 31
0.0
  0
LINE
  5
329
330
325
100
AcDbEntity
  8
ADPDIM
 62
     0
370
    -2
100
AcDbLine
 10
-5.265947791234616
 20
15.50809385277579
 30
0.0
 11
-5.064937090113353
 21
15.50809385277579
 31
0.0
  0
LINE
  5
32A
330
325
100
AcDbEntity
  8
ADPDIM
 62
     0
370
    -2
100
AcDbLine
 10
-3.95294779123462
 20
15.50809385277579
 30
0.0
 11
-4.189937090113353
 21
15.50809385277579
 31
0.0
  0
LINE
  5
32B
330
325
100
AcDbEntity
  8
ADPDIM
 62
     0
370
    -2
100
AcDbLine
 10
-4.07794779123462
 20
15.38309385277579
 30
0.0
 11
-3.82794779123462
 21
15.63309385277579
 31
0.0
  0
LINE
  5
32C
330
325
100
AcDbEntity
  8
ADPDIM
 62
     0
370
    -2
100
AcDbLine
 10
-5.390947791234616
 20
15.38309385277579
 30
0.0
 11
-5.140947791234616
 21
15.63309385277579
 31
0.0
  0
MTEXT
  5
32D
330
325
100
AcDbEntity
  8
ADPDIM
 62
     0
100
AcDbMText
 10
-4.627437090113353
 20
15.50809385277579
 30
0.0
 40
0.125
 41
0.0
 71
     5
 72
     1
  1
\A1;1 5/16
 73
     1
 44
1.0
1001
ACAD
1000
MTEXTBEGIN
1070
    73
1070
     1
1070
    44
1040
1.0
1070
    74
1070
     0
1000
MTEXTEND
  0
POINT
  5
32E
330
325
100
AcDbEntity
  8
DEFPOINTS
 62
     0
100
AcDbPoint
 10
-5.265947791234616
 20
15.90299617173728
 30
0.0
  0
POINT
  5
32F
330
325
100
AcDbEntity
  8
DEFPOINTS
 62
     0
100
AcDbPoint
 10
-3.95294779123462
 20
15.90299617173728
 30
0.0
  0
POINT
  5
330
330
325
100
AcDbEntity
  8
DEFPOINTS
 62
     0
100
AcDbPoint
 10
-3.95294779123462
 20
15.50809385277579
 30
0.0
  0
ENDBLK
  5
331
330
325
100
AcDbEntity
  8
0
100
AcDbBlockEnd
  0
BLOCK
  5
333
330
332
100
AcDbEntity
  8
0
100
AcDbBlockBegin
  2
*D2
 70
     1
 10
0.0
 20
0.0
 30
0.0
  3
*D2
  1

  0
LINE
  5
334
330
332
100
AcDbEntity
  8
ADPDIM
 62
     0
370
    -2
100
AcDbLine
 10
-5.144793915370303
 20
16.01302392359524
 30
0.0
 11
-5.144793915370303
 21
15.7214102646498
 31
0.0
  0
LINE
  5
335
330
332
100
AcDbEntity
  8
ADPDIM
 62
     0
370
    -2
100
AcDbLine
 10
-4.082293915370303
 20
16.01302392359524
 30
0.0
 11
-4.082293915370303
 21
15.7214102646498
 31
0.0
  0
LINE
  5
336
330
332
100
AcDbEntity
  8
ADPDIM
 62
     0
370
    -2
100
AcDbLine
 10
-5.144793915370303
 20
15.9014102646498
 30
0.0
 11
-5.03021058203697
 21
15.9014102646498
 31
0.0
  0
LINE
  5
337
330
332
100
AcDbEntity
  8
ADPDIM
 62
     0
370
    -2
100
AcDbLine
 10
-4.082293915370303
 20
15.9014102646498
 30
0.0
 11
-4.196877248703636
 21
15.9014102646498
 31
0.0
  0
LINE
  5
338
330
332
100
AcDbEntity
  8
ADPDIM
 62
     0
370
    -2
100
AcDbLine
 10
-4.207293915370303
 20
15.7764102646498
 30
0.0
 11
-3.957293915370303
 21
16.0264102646498
 31
0.0
  0
LINE
  5
339
330
332
100
AcDbEntity
  8
ADPDIM
 62
     0
370
    -2
100
AcDbLine
 10
-5.269793915370303
 20
15.7764102646498
 30
0.0
 11
-5.019793915370303
 21
16.0264102646498
 31
0.0
  0
MTEXT
  5
33A
330
332
100
AcDbEntity
  8
ADPDIM
 62
     0
100
AcDbMText
 10
-4.613543915370303
 20
15.9014102646498
 30
0.0
 40
0.125
 41
0.0
 71
     5
 72
     1
  1
\A1;1 1/16
 73
     1
 44
1.0
1001
ACAD
1000
MTEXTBEGIN
1070
    73
1070
     1
1070
    44
1040
1.0
1070
    74
1070
     0
1000
MTEXTEND
  0
POINT
  5
33B
330
332
100
AcDbEntity
  8
DEFPOINTS
 62
     0
100
AcDbPoint
 10
-5.144793915370303
 20
16.07552392359524
 30
0.0
  0
POINT
  5
33C
330
332
100
AcDbEntity
  8
DEFPOINTS
 62
     0
100
AcDbPoint
 10
-4.082293915370303
 20
16.07552392359524
 30
0.0
  0
POINT
  5
33D
330
332
100
AcDbEntity
  8
DEFPOINTS
 62
     0
100
AcDbPoint
 10
-4.082293915370303
 20
15.9014102646498
 30
0.0
  0
ENDBLK
  5
33E
330
332
100
AcDbEntity
  8
0
100
AcDbBlockEnd
  0
BLOCK
  5
395
330
38A
100
AcDbEntity
  8
0
100
AcDbBlockBegin
  2
*D4
 70
     1
 10
0.0
 20
0.0
 30
0.0
  3
*D4
  1

  0
LINE
  5
3B1
330
38A
100
AcDbEntity
  8
ADPDIM
 62
     0
370
    -2
100
AcDbLine
 10
27.58059027860248
 20
-2.82559533385352
 30
0.0
 11
27.58059027860248
 21
-3.33799765281501
 31
0.0
  0
LINE
  5
3B2
330
38A
100
AcDbEntity
  8
ADPDIM
 62
     0
370
    -2
100
AcDbLine
 10
28.89359027860248
 20
-2.82559533385352
 30
0.0
 11
28.89359027860248
 21
-3.33799765281501
 31
0.0
  0
LINE
  5
3B3
330
38A
100
AcDbEntity
  8
ADPDIM
 62
     0
370
    -2
100
AcDbLine
 10
27.58059027860248
 20
-3.15799765281501
 30
0.0
 11
27.78160097972374
 21
-3.15799765281501
 31
0.0
  0
LINE
  5
3B4
330
38A
100
AcDbEntity
  8
ADPDIM
 62
     0
370
    -2
100
AcDbLine
 10
28.89359027860248
 20
-3.15799765281501
 30
0.0
 11
28.65660097972374
 21
-3.15799765281501
 31
0.0
  0
LINE
  5
3B5
330
38A
100
AcDbEntity
  8
ADPDIM
 62
     0
370
    -2
100
AcDbLine
 10
28.76859027860247
 20
-3.28299765281501
 30
0.0
 11
29.01859027860247
 21
-3.03299765281501
 31
0.0
  0
LINE
  5
3B6
330
38A
100
AcDbEntity
  8
ADPDIM
 62
     0
370
    -2
100
AcDbLine
 10
27.45559027860248
 20
-3.28299765281501
 30
0.0
 11
27.70559027860248
 21
-3.03299765281501
 31
0.0
  0
MTEXT
  5
3B7
330
38A
100
AcDbEntity
  8
ADPDIM
 62
     0
100
AcDbMText
 10
28.21910097972374
 20
-3.15799765281501
 30
0.0
 40
0.125
 41
0.0
 71
     5
 72
     1
  1
\A1;1 5/16
 73
     1
 44
1.0
1001
ACAD
1000
MTEXTBEGIN
1070
    73
1070
     1
1070
    44
1040
1.0
1070
    74
1070
     0
1000
MTEXTEND
  0
POINT
  5
3B8
330
38A
100
AcDbEntity
  8
DEFPOINTS
 62
     0
100
AcDbPoint
 10
27.58059027860248
 20
-2.76309533385352
 30
0.0
  0
POINT
  5
3B9
330
38A
100
AcDbEntity
  8
DEFPOINTS
 62
     0
100
AcDbPoint
 10
28.89359027860248
 20
-2.76309533385352
 30
0.0
  0
POINT
  5
3BA
330
38A
100
AcDbEntity
  8
DEFPOINTS
 62
     0
100
AcDbPoint
 10
28.89359027860248
 20
-3.15799765281501
 30
0.0
  0
ENDBLK
  5
396
330
38A
100
AcDbEntity
  8
0
100
AcDbBlockEnd
  0
BLOCK
  5
3A2
330
397
100
AcDbEntity
  8
0
100
AcDbBlockBegin
  2
*D5
 70
     1
 10
0.0
 20
0.0
 30
0.0
  3
*D5
  1

  0
LINE
  5
3BB
330
397
100
AcDbEntity
  8
ADPDIM
 62
     0
370
    -2
100
AcDbLine
 10
27.27566274774086
 20
-2.321910644331332
 30
0.0
 11
27.27566274774086
 21
-1.670870104823599
 31
0.0
  0
LINE
  5
3BC
330
397
100
AcDbEntity
  8
ADPDIM
 62
     0
370
    -2
100
AcDbLine
 10
29.21316274774086
 20
-2.321910644331332
 30
0.0
 11
29.21316274774086
 21
-1.670870104823599
 31
0.0
  0
LINE
  5
3BD
330
397
100
AcDbEntity
  8
ADPDIM
 62
     0
370
    -2
100
AcDbLine
 10
27.45566274774086
 20
-1.850870104823599
 30
0.0
 11
27.73441274774086
 21
-1.850870104823599
 31
0.0
  0
LINE
  5
3BE
330
397
100
AcDbEntity
  8
ADPDIM
 62
     0
370
    -2
100
AcDbLine
 10
29.03316274774086
 20
-1.850870104823599
 30
0.0
 11
28.75441274774086
 21
-1.850870104823599
 31
0.0
  0
SOLID
  5
3BF
330
397
100
AcDbEntity
  8
ADPDIM
 62
     0
100
AcDbTrace
 10
27.45566274774086
 20
-1.820870104823599
 30
0.0
 11
27.45566274774086
 21
-1.880870104823599
 31
0.0
 12
27.27566274774086
 22
-1.850870104823599
 32
0.0
 13
27.27566274774086
 23
-1.850870104823599
 33
0.0
  0
SOLID
  5
3C0
330
397
100
AcDbEntity
  8
ADPDIM
 62
     0
100
AcDbTrace
 10
29.03316274774086
 20
-1.820870104823599
 30
0.0
 11
29.03316274774086
 21
-1.880870104823599
 31
0.0
 12
29.21316274774086
 22
-1.850870104823599
 32
0.0
 13
29.21316274774086
 23
-1.850870104823599
 33
0.0
  0
MTEXT
  5
3C1
330
397
100
AcDbEntity
  8
ADPDIM
 62
     0
100
AcDbMText
 10
28.24441274774086
 20
-1.850870104823599
 30
0.0
 40
0.18
 41
0.0
 71
     5
 72
     1
  1
\A1;1.9375
 73
     1
 44
1.0
1001
ACAD
1000
MTEXTBEGIN
1070
    73
1070
     1
1070
    44
1040
1.0
1070
    74
1070
     0
1000
MTEXTEND
  0
POINT
  5
3C2
330
397
100
AcDbEntity
  8
DEFPOINTS
 62
     0
100
AcDbPoint
 10
27.27566274774086
 20
-2.384410644331332
 30
0.0
  0
POINT
  5
3C3
330
397
100
AcDbEntity
  8
DEFPOINTS
 62
     0
100
AcDbPoint
 10
29.21316274774086
 20
-2.384410644331332
 30
0.0
  0
POINT
  5
3C4
330
397
100
AcDbEntity
  8
DEFPOINTS
 62
     0
100
AcDbPoint
 10
29.21316274774086
 20
-1.850870104823599
 30
0.0
  0
ENDBLK
  5
3A3
330
397
100
AcDbEntity
  8
0
100
AcDbBlockEnd
  0
BLOCK
  5
3AF
330
3A4
100
AcDbEntity
  8
0
100
AcDbBlockBegin
  2
*D6
 70
     1
 10
0.0
 20
0.0
 30
0.0
  3
*D6
  1

  0
LINE
  5
3C5
330
3A4
100
AcDbEntity
  8
ADPDIM
 62
     0
370
    -2
100
AcDbLine
 10
27.70174415446679
 20
-2.653067581995554
 30
0.0
 11
27.70174415446679
 21
-2.944681240940998
 31
0.0
  0
LINE
  5
3C6
330
3A4
100
AcDbEntity
  8
ADPDIM
 62
     0
370
    -2
100
AcDbLine
 10
28.76424415446679
 20
-2.653067581995554
 30
0.0
 11
28.76424415446679
 21
-2.944681240940998
 31
0.0
  0
LINE
  5
3C7
330
3A4
100
AcDbEntity
  8
ADPDIM
 62
     0
370
    -2
100
AcDbLine
 10
27.70174415446679
 20
-2.764681240940998
 30
0.0
 11
27.81632748780012
 21
-2.764681240940998
 31
0.0
  0
LINE
  5
3C8
330
3A4
100
AcDbEntity
  8
ADPDIM
 62
     0
370
    -2
100
AcDbLine
 10
28.76424415446679
 20
-2.764681240940998
 30
0.0
 11
28.64966082113346
 21
-2.764681240940998
 31
0.0
  0
LINE
  5
3C9
330
3A4
100
AcDbEntity
  8
ADPDIM
 62
     0
370
    -2
100
AcDbLine
 10
28.63924415446679
 20
-2.889681240940998
 30
0.0
 11
28.88924415446679
 21
-2.639681240940998
 31
0.0
  0
LINE
  5
3CA
330
3A4
100
AcDbEntity
  8
ADPDIM
 62
     0
370
    -2
100
AcDbLine
 10
27.57674415446679
 20
-2.889681240940998
 30
0.0
 11
27.82674415446679
 21
-2.639681240940998
 31
0.0
  0
MTEXT
  5
3CB
330
3A4
100
AcDbEntity
  8
ADPDIM
 62
     0
100
AcDbMText
 10
28.23299415446679
 20
-2.764681240940998
 30
0.0
 40
0.125
 41
0.0
 71
     5
 72
     1
  1
\A1;1 1/16
 73
     1
 44
1.0
1001
ACAD
1000
MTEXTBEGIN
1070
    73
1070
     1
1070
    44
1040
1.0
1070
    74
1070
     0
1000
MTEXTEND
  0
POINT
  5
3CC
330
3A4
100
AcDbEntity
  8
DEFPOINTS
 62
     0
100
AcDbPoint
 10
27.70174415446679
 20
-2.590567581995554
 30
0.0
  0
POINT
  5
3CD
330
3A4
100
AcDbEntity
  8
DEFPOINTS
 62
     0
100
AcDbPoint
 10
28.76424415446679
 20
-2.590567581995554
 30
0.0
  0
POINT
  5
3CE
330
3A4
100
AcDbEntity
  8
DEFPOINTS
 62
     0
100
AcDbPoint
 10
28.76424415446679
 20
-2.764681240940998
 30
0.0
  0
ENDBLK
  5
3B0
330
3A4
100
AcDbEntity
  8
0
100
AcDbBlockEnd
  0
ENDSEC
  0
SECTION
  2
ENTITIES
  0
ARC
  5
2F
330
A
100
AcDbEntity
  8
ADP3DETAIL
  6
Continuous
 62
     1
100
AcDbCircle
 10
-23.86128117922999
 20
-3.991933792469392
 30
0.0
 40
4.374999999999999
210
0.0
220
0.0
230
-1.0
100
AcDbArc
 50
179.9053130054389
 51
225.0986898046576
  0
ARC
  5
30
330
A
100
AcDbEntity
  8
ADP1DETAIL
  6
Continuous
 62
     7
100
AcDbCircle
 10
-23.92258659622703
 20
-4.004076658527748
 30
0.0
 40
3.344987143663371
210
0.0
220
0.0
230
-1.0
100
AcDbArc
 50
179.6955841228318
 51
225.6956851670307
  0
ARC
  5
31
330
A
100
AcDbEntity
  8
ADP1DETAIL
  6
Continuous
 62
     7
100
AcDbCircle
 10
-24.48679896122218
 20
-4.645262829840956
 30
0.0
 40
4.444573764985928
210
0.0
220
0.0
230
-1.0
100
AcDbArc
 50
233.064734278313
 51
336.4109627893825
  0
ARC
  5
32
330
A
100
AcDbEntity
  8
ADP1DETAIL
  6
Continuous
 62
     7
100
AcDbCircle
 10
-24.11121887193921
 20
-4.100179807366922
 30
0.0
 40
3.326058997557623
210
0.0
220
0.0
230
-1.0
100
AcDbArc
 50
178.8471909387974
 51
233.4304746336953
  0
ARC
  5
33
330
A
100
AcDbEntity
  8
ADP1DETAIL
  6
Continuous
 62
     7
100
AcDbCircle
 10
-24.47999961276822
 20
-4.610652226007621
 30
0.0
 40
4.285331513962377
210
0.0
220
0.0
230
-1.0
100
AcDbArc
 50
233.2613773858752
 51
335.9633526900332
  0
ARC
  5
34
330
A
100
AcDbEntity
  8
ADP3DETAIL
  6
Continuous
 62
     1
100
AcDbCircle
 10
-23.69657748968672
 20
-5.026563486876276
 30
0.0
 40
2.616141278644823
210
0.0
220
0.0
230
-1.0
100
AcDbArc
 50
337.5991485264462
 51
41.43558677842769
  0
CIRCLE
  5
35
330
A
100
AcDbEntity
  8
ADP1DETAIL
  6
Continuous
 62
     7
100
AcDbCircle
 10
-23.86128117922999
 20
-3.991933792469392
 30
0.0
 40
0.9375
210
0.0
220
0.0
230
-1.0
  0
ARC
  5
36
330
A
100
AcDbEntity
  8
ADP1DETAIL
  6
Continuous
 62
     7
100
AcDbCircle
 10
-23.64618762125053
 20
-5.00252247928372
 30
0.0
 40
3.53125
210
0.0
220
0.0
230
-1.0
100
AcDbArc
 50
336.2651980356843
 51
43.03115183437233
  0
ARC
  5
37
330
A
100
AcDbEntity
  8
ADP1DETAIL
  6
Continuous
 62
     7
100
AcDbCircle
 10
-23.86128117922999
 20
-3.991933792469392
 30
0.0
 40
1.908842742289585
210
0.0
220
0.0
230
-1.0
100
AcDbArc
 50
153.2321519767738
 51
338.618857773046
  0
ARC
  5
38
330
A
100
AcDbEntity
  8
ADP1DETAIL
  6
Continuous
 62
     7
100
AcDbCircle
 10
-23.70723067481141
 20
-5.036829197513667
 30
0.0
 40
3.406796090711348
210
0.0
220
0.0
230
-1.0
100
AcDbArc
 50
337.2156623131694
 51
42.68739787587061
  0
ARC
  5
39
330
A
100
AcDbEntity
  8
ADP1DETAIL
  6
Continuous
 62
     7
100
AcDbCircle
 10
-23.87180915160723
 20
-3.99567825188547
 30
0.0
 40
1.705891285932344
210
0.0
220
0.0
230
-1.0
100
AcDbArc
 50
152.9606084022235
 51
357.2423107178199
  0
ARC
  5
3A
330
A
100
AcDbEntity
  8
ADP3DETAIL
  6
Continuous
 62
     1
100
AcDbCircle
 10
-24.48000092585274
 20
-4.610650568930501
 30
0.0
 40
3.500001870270733
210
0.0
220
0.0
230
-1.0
100
AcDbArc
 50
225.1233966053681
 51
336.1915277648302
  0
ARC
  5
3B
330
A
100
AcDbEntity
  8
ADP1DETAIL
  6
Continuous
 62
     7
100
AcDbCircle
 10
-24.48276608367808
 20
-4.619700419044033
 30
0.0
 40
2.51332251903173
210
0.0
220
0.0
230
-1.0
100
AcDbArc
 50
225.0321162522229
 51
336.8160591539201
  0
ARC
  5
3C
330
A
100
AcDbEntity
  8
ADP1DETAIL
  6
Continuous
 62
     7
100
AcDbCircle
 10
-24.48159602874023
 20
-4.618817034693075
 30
0.0
 40
2.6888784305599
210
0.0
220
0.0
230
-1.0
100
AcDbArc
 50
233.1845693627063
 51
335.667431208571
  0
ARC
  5
3D
330
A
100
AcDbEntity
  8
ADP1DETAIL
  6
Continuous
 62
     7
100
AcDbCircle
 10
-23.64618762125053
 20
-5.00252247928372
 30
0.0
 40
1.59375
210
0.0
220
0.0
230
-1.0
100
AcDbArc
 50
337.6271160549892
 51
11.38771012666099
  0
ARC
  5
3E
330
A
100
AcDbEntity
  8
ADP1DETAIL
  6
Continuous
 62
     7
100
AcDbCircle
 10
-23.62073169815662
 20
-5.027978402377626
 30
0.0
 40
1.735992110458608
210
0.0
220
0.0
230
-1.0
100
AcDbArc
 50
336.2651980356843
 51
33.18661288293645
  0
ARC
  5
3F
330
A
100
AcDbEntity
  8
ADP3DETAIL
  6
Continuous
 62
     1
100
AcDbCircle
 10
-23.10998022421928
 20
-4.566458052183462
 30
0.0
 40
1.875000000000001
210
0.0
220
0.0
230
-1.0
100
AcDbArc
 50
42.76435997148874
 51
147.9510012183967
  0
ARC
  5
40
330
A
100
AcDbEntity
  8
ADP1DETAIL
  6
Continuous
 62
     7
100
AcDbCircle
 10
-23.10998022421928
 20
-4.566458052183462
 30
0.0
 40
2.843749999999999
210
0.0
220
0.0
230
-1.0
100
AcDbArc
 50
43.98307854056024
 51
149.7123225654701
  0
ARC
  5
41
330
A
100
AcDbEntity
  8
ADP1DETAIL
  6
Continuous
 62
     7
100
AcDbCircle
 10
-23.10998022421928
 20
-4.566458052183462
 30
0.0
 40
2.646059182017186
210
0.0
220
0.0
230
-1.0
100
AcDbArc
 50
43.98307854056022
 51
149.7123225654701
  0
ARC
  5
42
330
A
100
AcDbEntity
  8
ADP1DETAIL
  6
Continuous
 62
     7
100
AcDbCircle
 10
-23.86128117923
 20
-3.991933792469394
 30
0.0
 40
5.343749999999995
210
0.0
220
0.0
230
-1.0
100
AcDbArc
 50
179.9053130054389
 51
231.9131952546512
  0
ARC
  5
43
330
A
100
AcDbEntity
  8
ADP1DETAIL
  6
Continuous
 62
     7
100
AcDbCircle
 10
-23.82667536656917
 20
-3.984003373263528
 30
0.0
 40
5.180441814593351
210
0.0
220
0.0
230
-1.0
100
AcDbArc
 50
179.9936560167903
 51
231.616344863378
  0
LWPOLYLINE
  5
44
330
A
100
AcDbEntity
  8
ADP1DETAIL
  6
Continuous
 62
     7
100
AcDbPolyline
 90
        2
 70
   128
 43
0.0
 10
27.26752652784996
 20
-3.986304626915555
 10
29.20502388211086
 20
-3.983102716233556
  0
LWPOLYLINE
  5
48
330
A
100
AcDbEntity
  8
ADPDIM
  6
Continuous
 62
     3
 48
0.125
100
AcDbPolyline
 90
        2
 70
   128
 43
0.0
 10
27.26148553378779
 20
-2.371789628927894
 10
27.26148553378779
 20
-1.36047087624503
  0
LWPOLYLINE
  5
4C
330
A
100
AcDbEntity
  8
ADPDIM
  6
Continuous
 62
     3
 48
0.125
100
AcDbPolyline
 90
        2
 70
   128
 43
0.0
 10
29.19352855660608
 20
-2.371789628927895
 10
29.19352855660608
 20
-1.36047087624503
  0
LWPOLYLINE
  5
50
330
A
100
AcDbEntity
  8
ADPDIM
  6
Continuous
 62
     3
 48
0.125
100
AcDbPolyline
 90
        2
 70
   128
 43
0.0
 10
27.26148553378779
 20
-1.54047087624503
 10
27.74834037853027
 20
-1.54047087624503
  0
LWPOLYLINE
  5
54
330
A
100
AcDbEntity
  8
ADPDIM
  6
Continuous
 62
     3
 48
0.125
100
AcDbPolyline
 90
        2
 70
   128
 43
0.0
 10
29.19352855660608
 20
-1.54047087624503
 10
28.70667371186361
 20
-1.54047087624503
  0
LWPOLYLINE
  5
58
330
A
100
AcDbEntity
  8
ADPDIM
  6
Continuous
 62
     3
 48
0.125
100
AcDbPolyline
 90
        2
 70
   128
 43
0.0
 10
27.13648553378779
 20
-1.66547087624503
 10
27.38648553378779
 20
-1.41547087624503
  0
LWPOLYLINE
  5
5C
330
A
100
AcDbEntity
  8
ADPDIM
  6
Continuous
 62
     3
 48
0.125
100
AcDbPolyline
 90
        2
 70
   128
 43
0.0
 10
29.06852855660608
 20
-1.66547087624503
 10
29.31852855660608
 20
-1.41547087624503
  0
TEXT
  5
60
330
A
100
AcDbEntity
  8
ADPDIM
 62
     3
 48
0.0
100
AcDbText
 10
27.87334037853027
 20
-1.60297087624503
 30
0.0
 40
0.125
  1
1 15/16
 72
     5
 11
28.58167371186361
 21
-1.60297087624503
 31
0.0
100
AcDbText
  0
LWPOLYLINE
  5
D5
330
A
100
AcDbEntity
  8
DEFPOINTS
  6
Continuous
 62
     3
 48
0.125
100
AcDbPolyline
 90
        2
 70
   128
 43
0.0
 10
29.19352855660608
 20
-1.54047087624503
 10
29.19352855660608
 20
-1.54047087624503
  0
LWPOLYLINE
  5
D9
330
A
100
AcDbEntity
  8
DEFPOINTS
  6
Continuous
 62
     3
 48
0.125
100
AcDbPolyline
 90
        2
 70
   128
 43
0.0
 10
29.19352855660608
 20
-1.54047087624503
 10
29.19352855660608
 20
-1.54047087624503
  0
TEXT
  5
EA
330
A
100
AcDbEntity
  8
ADPDIM
100
AcDbText
 10
17.98349056657689
 20
-9.693003196996667
 30
0.0
 40
0.125
  1
J U L I U S  B L U M  &  C O . ,  I N C .      ( 8 0 0 )  5 2 6 - 6 2 9 3        W W W . J U L I U S B L U M . C O M        P A R T  N o .  5 5 3 4 - G L
 41
1.25
  7
ARIAL_WIDE
 72
     1
 11
24.78212417844593
 21
-9.568003196996667
 31
0.0
100
AcDbText
 73
     3
  0
ARC
  5
367
330
A
100
AcDbEntity
  8
0
100
AcDbCircle
 10
28.95493157353796
 20
-1.479583718360338
 30
0.0
 40
0.75
100
AcDbArc
 50
237.1983482620581
 51
268.8764813422996
  0
LINE
  5
368
330
A
100
AcDbEntity
  8
0
100
AcDbLine
 10
28.76809027860248
 20
-2.406380667725247
 30
0.0
 11
28.23593157353796
 21
-2.406380667725247
 31
0.0
  0
DIMENSION
  5
369
330
A
100
AcDbEntity
  8
ADPDIM
100
AcDbDimension
  2
*D4
 10
28.89359027860248
 20
-3.15799765281501
 30
0.0
 11
28.21910097972374
 21
-3.15799765281501
 31
0.0
 70
   160
 71
     5
 42
1.312999999999995
  3
STANDARD
100
AcDbAlignedDimension
 13
27.58059027860248
 23
-2.76309533385352
 33
0.0
 14
28.89359027860248
 24
-2.76309533385352
 34
0.0
100
AcDbRotatedDimension
1001
ACAD
1000
DSTYLE
1002
{
1070
   276
1070
     2
1070
   277
1070
     5
1070
    41
1040
0.125
1070
    73
1070
     0
1070
    74
1070
     0
1070
    78
1070
     3
1070
   140
1040
0.125
1070
   141
1040
0.1875
1070
   142
1040
0.125
1070
   147
1040
0.125
1070
   171
1070
     1
1002
}
  0
ARC
  5
36B
330
A
100
AcDbEntity
  8
0
100
AcDbCircle
 10
27.519248983667
 20
-1.479583718360341
 30
0.0
 40
0.7499999999999969
100
AcDbArc
 50
271.1235186577002
 51
302.8016517379419
  0
LINE
  5
36C
330
A
100
AcDbEntity
  8
0
100
AcDbLine
 10
27.59559027860248
 20
-2.59438066772525
 30
0.0
 11
27.69109027860248
 21
-2.59438066772525
 31
0.0
  0
LINE
  5
36D
330
A
100
AcDbEntity
  8
0
100
AcDbLine
 10
27.58059027860248
 20
-2.76309533385352
 30
0.0
 11
27.58059027860248
 21
-2.609380667725247
 31
0.0
  0
ARC
  5
36E
330
A
100
AcDbEntity
  8
0
100
AcDbCircle
 10
27.23135476526423
 20
-2.771056439524818
 30
0.0
 40
0.2196970135271751
100
AcDbArc
 50
358.1639806528344
 51
66.74166570965843
  0
ARC
  5
36F
330
A
100
AcDbEntity
  8
0
100
AcDbCircle
 10
27.56559027860248
 20
-2.76309533385352
 30
0.0
 40
0.015
100
AcDbArc
 50
270.0
 51
0.0000000000003053
  0
LINE
  5
370
330
A
100
AcDbEntity
  8
0
100
AcDbLine
 10
27.4509389899239
 20
-2.778095333853521
 30
0.0
 11
27.56559027860248
 21
-2.778095333853521
 31
0.0
  0
LINE
  5
371
330
A
100
AcDbEntity
  8
0
100
AcDbLine
 10
27.519248983667
 20
-2.280149695063688
 30
0.0
 11
27.519248983667
 21
-2.244436645399257
 31
0.0
  0
ARC
  5
372
330
A
100
AcDbEntity
  8
0
100
AcDbCircle
 10
27.534248983667
 20
-2.244436645399257
 30
0.0
 40
0.015
100
AcDbArc
 50
91.12351865770264
 51
180.0
  0
ARC
  5
373
330
A
100
AcDbEntity
  8
0
100
AcDbCircle
 10
27.504248983667
 20
-2.280149695063688
 30
0.0
 40
0.015
100
AcDbArc
 50
270.0
 51
0.0
  0
LINE
  5
374
330
A
100
AcDbEntity
  8
0
100
AcDbLine
 10
27.504248983667
 20
-2.295149695063685
 30
0.0
 11
27.4429533484368
 21
-2.295149695063685
 31
0.0
  0
ARC
  5
375
330
A
100
AcDbEntity
  8
0
100
AcDbCircle
 10
27.59559027860248
 20
-2.609380667725247
 30
0.0
 40
0.015
100
AcDbArc
 50
90.0
 51
180.0
  0
ARC
  5
376
330
A
100
AcDbEntity
  8
0
100
AcDbCircle
 10
27.41762703226843
 20
-2.449080126458326
 30
0.0
 40
0.1559999999999998
100
AcDbArc
 50
80.65678061822477
 51
230.3615138867189
  0
LINE
  5
377
330
A
100
AcDbEntity
  8
0
100
AcDbLine
 10
27.70609027860248
 20
-2.406380667725247
 30
0.0
 11
28.238248983667
 21
-2.406380667725247
 31
0.0
  0
ARC
  5
378
330
A
100
AcDbEntity
  8
0
100
AcDbCircle
 10
28.238248983667
 20
-2.791699453554461
 30
0.0
 40
0.7499999999999986
100
AcDbArc
 50
90.08851858174326
 51
114.6411830056756
  0
ARC
  5
379
330
A
100
AcDbEntity
  8
0
100
AcDbCircle
 10
27.69109027860248
 20
-2.579380667725249
 30
0.0
 40
0.015
100
AcDbArc
 50
270.0
 51
0.0
  0
LINE
  5
37A
330
A
100
AcDbEntity
  8
0
100
AcDbLine
 10
27.70609027860248
 20
-2.579380667725249
 30
0.0
 11
27.70609027860248
 21
-2.406380667725247
 31
0.0
  0
ARC
  5
37B
330
A
100
AcDbEntity
  8
0
100
AcDbCircle
 10
28.23593157353796
 20
-2.791699453554464
 30
0.0
 40
0.7500000000000019
100
AcDbArc
 50
65.35881699432437
 51
89.91148141825673
  0
ARC
  5
37C
330
A
100
AcDbEntity
  8
0
100
AcDbCircle
 10
29.24282579194073
 20
-2.771056439524823
 30
0.0
 40
0.2196970135271803
100
AcDbArc
 50
113.258334290342
 51
181.8360193471643
  0
LINE
  5
37D
330
A
100
AcDbEntity
  8
0
100
AcDbLine
 10
28.89359027860248
 20
-2.76309533385352
 30
0.0
 11
28.89359027860248
 21
-2.609380667725247
 31
0.0
  0
LINE
  5
37E
330
A
100
AcDbEntity
  8
0
100
AcDbLine
 10
29.02324156728106
 20
-2.778095333853521
 30
0.0
 11
28.90859027860248
 21
-2.778095333853521
 31
0.0
  0
ARC
  5
37F
330
A
100
AcDbEntity
  8
0
100
AcDbCircle
 10
28.90859027860248
 20
-2.76309533385352
 30
0.0
 40
0.015
100
AcDbArc
 50
179.9999999999997
 51
270.0
  0
LINE
  5
380
330
A
100
AcDbEntity
  8
0
100
AcDbLine
 10
28.96993157353796
 20
-2.295149695063685
 30
0.0
 11
29.03122720876816
 21
-2.295149695063685
 31
0.0
  0
LINE
  5
381
330
A
100
AcDbEntity
  8
0
100
AcDbLine
 10
28.95493157353796
 20
-2.280149695063688
 30
0.0
 11
28.95493157353796
 21
-2.244436645399257
 31
0.0
  0
ARC
  5
382
330
A
100
AcDbEntity
  8
0
100
AcDbCircle
 10
28.96993157353796
 20
-2.280149695063688
 30
0.0
 40
0.015
100
AcDbArc
 50
180.0
 51
270.0
  0
ARC
  5
383
330
A
100
AcDbEntity
  8
0
100
AcDbCircle
 10
28.93993157353796
 20
-2.244436645399257
 30
0.0
 40
0.015
100
AcDbArc
 50
0.0
 51
88.87648134229735
  0
LINE
  5
384
330
A
100
AcDbEntity
  8
0
100
AcDbLine
 10
28.87859027860248
 20
-2.59438066772525
 30
0.0
 11
28.78309027860248
 21
-2.59438066772525
 31
0.0
  0
ARC
  5
385
330
A
100
AcDbEntity
  8
0
100
AcDbCircle
 10
28.78309027860248
 20
-2.579380667725249
 30
0.0
 40
0.015
100
AcDbArc
 50
180.0
 51
270.0
  0
ARC
  5
386
330
A
100
AcDbEntity
  8
0
100
AcDbCircle
 10
28.87859027860248
 20
-2.609380667725247
 30
0.0
 40
0.015
100
AcDbArc
 50
0.0
 51
90.0
  0
ARC
  5
387
330
A
100
AcDbEntity
  8
0
100
AcDbCircle
 10
29.05655352493652
 20
-2.449080126458326
 30
0.0
 40
0.1559999999999996
100
AcDbArc
 50
309.6384861132801
 51
99.34321938177587
  0
LINE
  5
388
330
A
100
AcDbEntity
  8
0
100
AcDbLine
 10
28.76809027860248
 20
-2.579380667725249
 30
0.0
 11
28.76809027860248
 21
-2.406380667725247
 31
0.0
  0
DIMENSION
  5
389
330
A
100
AcDbEntity
  8
ADPDIM
100
AcDbDimension
  2
*D6
 10
28.76424415446679
 20
-2.764681240940998
 30
0.0
 11
28.23299415446679
 21
-2.764681240940998
 31
0.0
 70
   160
 71
     5
 42
1.0625
  3
STANDARD
100
AcDbAlignedDimension
 13
27.70174415446679
 23
-2.590567581995554
 33
0.0
 14
28.76424415446679
 24
-2.590567581995554
 34
0.0
100
AcDbRotatedDimension
1001
ACAD
1000
DSTYLE
1002
{
1070
   276
1070
     2
1070
   277
1070
     5
1070
    41
1040
0.125
1070
    73
1070
     0
1070
    74
1070
     0
1070
    78
1070
     3
1070
   140
1040
0.125
1070
   141
1040
0.1875
1070
   142
1040
0.125
1070
   147
1040
0.125
1070
   171
1070
     1
1002
}
  0
ENDSEC
  0
SECTION
  2
OBJECTS
  0
DICTIONARY
  5
19
330
0
100
AcDbDictionary
281
     1
  3
ACAD_COLOR
350
25B
  3
ACAD_GROUP
350
1A
  3
ACAD_LAYOUT
350
E2
  3
ACAD_MATERIAL
350
246
  3
ACAD_MLINESTYLE
350
1B
  3
ACAD_PLOTSETTINGS
350
E3
  3
ACAD_PLOTSTYLENAME
350
E0
  3
ACAD_TABLESTYLE
350
25C
  3
ACAD_VISUALSTYLE
350
24A
  3
AcDbVariableDictionary
350
14C
  3
ASE_INDEX_DICTIONARY
350
3D0
  3
DWGPROPS
350
3F2
  0
DICTIONARY
  5
140
330
A
100
AcDbDictionary
280
     1
281
     1
  3
ACAD_LAYOUTSELFREF
360
239
  0
DICTIONARY
  5
142
330
B
100
AcDbDictionary
280
     1
281
     1
  3
ACAD_LAYOUTSELFREF
360
23A
  0
DICTIONARY
  5
25B
102
{ACAD_REACTORS
330
19
102
}
330
19
100
AcDbDictionary
281
     1
  0
DICTIONARY
  5
1A
102
{ACAD_REACTORS
330
19
102
}
330
19
100
AcDbDictionary
281
     1
  0
DICTIONARY
  5
E2
102
{ACAD_REACTORS
330
19
102
}
330
19
100
AcDbDictionary
281
     1
  3
Layout1
350
E5
  3
Model
350
E4
  0
DICTIONARY
  5
246
102
{ACAD_REACTORS
330
19
102
}
330
19
100
AcDbDictionary
281
     1
  3
ByBlock
350
248
  3
ByLayer
350
247
  3
Global
350
249
  0
DICTIONARY
  5
1B
102
{ACAD_REACTORS
330
19
102
}
330
19
100
AcDbDictionary
281
     1
  3
STANDARD
350
1C
  0
DICTIONARY
  5
E3
102
{ACAD_REACTORS
330
19
102
}
330
19
100
AcDbDictionary
281
     1
  0
ACDBDICTIONARYWDFLT
  5
E0
102
{ACAD_REACTORS
330
19
102
}
330
19
100
AcDbDictionary
281
     1
  3
Normal
350
E1
100
AcDbDictionaryWithDefault
340
E1
  0
DICTIONARY
  5
25C
102
{ACAD_REACTORS
330
19
102
}
330
19
100
AcDbDictionary
281
     1
  3
Standard
350
25D
  0
DICTIONARY
  5
24A
102
{ACAD_REACTORS
330
19
102
}
330
19
100
AcDbDictionary
281
     1
  3
2dWireframe
350
250
  3
3D Hidden
350
252
  3
3dWireframe
350
251
  3
Basic
350
24F
  3
Brighten
350
256
  3
ColorChange
350
25A
  3
Conceptual
350
253
  3
Dim
350
255
  3
Facepattern
350
259
  3
Flat
350
24B
  3
FlatWithEdges
350
24C
  3
Gouraud
350
24D
  3
GouraudWithEdges
350
24E
  3
Linepattern
350
258
  3
Realistic
350
254
  3
Thicken
350
257
  0
DICTIONARY
  5
14C
102
{ACAD_REACTORS
330
19
102
}
330
19
100
AcDbDictionary
281
     1
  3
CTABLESTYLE
350
3EF
  3
DIMASSOC
350
14D
  3
INDEXCTL
350
3F1
  3
SORTENTS
350
3F0
  0
DICTIONARY
  5
3D0
102
{ACAD_REACTORS
330
19
102
}
330
19
100
AcDbDictionary
281
     1
  3
ASEBlockHierarchyIndexRecord
350
3D2
1001
DCO15
1040
1568918399.142
  0
XRECORD
  5
3F2
102
{ACAD_REACTORS
330
19
102
}
330
19
100
AcDbXrecord
280
     1
  1
DWGPROPS COOKIE
  2

  3

  4

  6

  7

  8
Yu Hu
  9

300
=
301
=
302
=
303
=
304
=
305
=
306
=
307
=
308
=
309
=
 40
0.0527447685185185
 41
2444971.791666667
 42
2453961.989619699
  1

 90
        0
  0
XRECORD
  5
239
102
{ACAD_REACTORS
330
140
102
}
330
140
100
AcDbXrecord
280
     1
340
A
  0
XRECORD
  5
23A
102
{ACAD_REACTORS
330
142
102
}
330
142
100
AcDbXrecord
280
     1
340
B
  0
LAYOUT
  5
E5
102
{ACAD_XDICTIONARY
360
3F5
102
}
102
{ACAD_REACTORS
330
E2
102
}
330
E2
100
AcDbPlotSettings
  1

  2
Fax
  4

  6

 40
0.0
 41
0.0
 42
0.0
 43
0.0
 44
0.0
 45
0.0
 46
0.0
 47
0.0
 48
0.0
 49
0.0
140
0.0
141
0.0
142
1.0
143
1.0
 70
   688
 72
     0
 73
     0
 74
     5
  7
Default R14 pen assignments.ctb
 75
    16
147
1.0
148
0.0
149
0.0
100
AcDbLayout
  1
Layout1
 70
     0
 71
     1
 10
0.0
 20
0.0
 11
12.0
 21
9.0
 12
0.0
 22
0.0
 32
0.0
 14
1.000000000000000E+20
 24
1.000000000000000E+20
 34
1.000000000000000E+20
 15
-1.000000000000000E+20
 25
-1.000000000000000E+20
 35
-1.000000000000000E+20
146
0.0
 13
0.0
 23
0.0
 33
0.0
 16
1.0
 26
0.0
 36
0.0
 17
0.0
 27
1.0
 37
0.0
 76
     0
330
B
  0
LAYOUT
  5
E4
102
{ACAD_XDICTIONARY
360
3F3
102
}
102
{ACAD_REACTORS
330
E2
102
}
330
E2
100
AcDbPlotSettings
  1

  2
Fax
  4

  6

 40
0.0
 41
0.0
 42
0.0
 43
0.0
 44
0.0
 45
0.0
 46
0.0
 47
0.0
 48
0.0
 49
0.0
140
0.0
141
0.0
142
1.0
143
1.0
 70
  1712
 72
     0
 73
     0
 74
     0
  7
Default R14 pen assignments.ctb
 75
     0
147
1.0
148
0.0
149
0.0
100
AcDbLayout
  1
Model
 70
     1
 71
     0
 10
0.0
 20
0.0
 11
12.0
 21
9.0
 12
0.0
 22
0.0
 32
0.0
 14
0.0
 24
0.0
 34
0.0
 15
0.0
 25
0.0
 35
0.0
146
0.0
 13
0.0
 23
0.0
 33
0.0
 16
1.0
 26
0.0
 36
0.0
 17
0.0
 27
1.0
 37
0.0
 76
     0
330
A
331
216
  0
MATERIAL
  5
248
102
{ACAD_XDICTIONARY
360
3F9
102
}
102
{ACAD_REACTORS
330
246
102
}
330
246
100
AcDbMaterial
  1
ByBlock
  0
MATERIAL
  5
247
102
{ACAD_XDICTIONARY
360
3F7
102
}
102
{ACAD_REACTORS
330
246
102
}
330
246
100
AcDbMaterial
  1
ByLayer
  0
MATERIAL
  5
249
102
{ACAD_XDICTIONARY
360
3FB
102
}
102
{ACAD_REACTORS
330
246
102
}
330
246
100
AcDbMaterial
  1
Global
  0
MLINESTYLE
  5
1C
102
{ACAD_REACTORS
330
1B
102
}
330
1B
100
AcDbMlineStyle
  2
STANDARD
 70
     0
  3

 62
     0
 51
90.00000000000019
 52
90.00000000000019
 71
     2
 49
0.5
 62
   256
  6
BYLAYER
 49
-0.5
 62
   256
  6
BYLAYER
  0
ACDBPLACEHOLDER
  5
E1
102
{ACAD_REACTORS
330
E0
102
}
330
E0
  0
TABLESTYLE
  5
25D
102
{ACAD_XDICTIONARY
360
3FD
102
}
102
{ACAD_REACTORS
330
25C
102
}
330
25C
100
AcDbTableStyle
  3
Standard
 70
     0
 71
     0
 40
0.06
 41
0.06
280
     0
281
     0
  7
STANDARD
140
0.18
170
     2
 62
     0
 63
     7
283
     0
274
    -2
284
     1
 64
     0
275
    -2
285
     1
 65
     0
276
    -2
286
     1
 66
     0
277
    -2
287
     1
 67
     0
278
    -2
288
     1
 68
     0
279
    -2
289
     1
 69
     0
  7
STANDARD
140
0.25
170
     5
 62
     0
 63
     7
283
     0
274
    -2
284
     1
 64
     0
275
    -2
285
     1
 65
     0
276
    -2
286
     1
 66
     0
277
    -2
287
     1
 67
     0
278
    -2
288
     1
 68
     0
279
    -2
289
     1
 69
     0
  7
STANDARD
140
0.18
170
     5
 62
     0
 63
     7
283
     0
274
    -2
284
     1
 64
     0
275
    -2
285
     1
 65
     0
276
    -2
286
     1
 66
     0
277
    -2
287
     1
 67
     0
278
    -2
288
     1
 68
     0
279
    -2
289
     1
 69
     0
  0
VISUALSTYLE
  5
250
102
{ACAD_REACTORS
330
24A
102
}
330
24A
100
AcDbVisualStyle
  2
2dWireframe
 70
     4
 71
     0
 72
     2
 73
     0
 90
        0
 40
-0.6
 41
-30.0
 62
     5
 63
     7
 74
     1
 91
        4
 64
     7
 65
   257
 75
     1
175
     1
 42
1.0
 92
        0
 66
   257
 43
1.0
 76
     1
 77
     6
 78
     2
 67
     7
 79
     5
170
     0
171
     0
290
     0
174
     0
 93
        1
 44
0.0
173
     0
291
     0
 45
0.0
1001
ACAD
1000
AcDbSavedByObjectVersion
1070
     0
  0
VISUALSTYLE
  5
252
102
{ACAD_REACTORS
330
24A
102
}
330
24A
100
AcDbVisualStyle
  2
3D Hidden
 70
     6
 71
     1
 72
     2
 73
     2
 90
        0
 40
-0.6
 41
-30.0
 62
     5
 63
     7
 74
     2
 91
        2
 64
     7
 65
   257
 75
     2
175
     1
 42
40.0
 92
        0
 66
   257
 43
1.0
 76
     1
 77
     6
 78
     2
 67
     7
 79
     3
170
     0
171
     0
290
     0
174
     0
 93
        1
 44
0.0
173
     0
291
     0
 45
0.0
1001
ACAD
1000
AcDbSavedByObjectVersion
1070
     0
  0
VISUALSTYLE
  5
251
102
{ACAD_REACTORS
330
24A
102
}
330
24A
100
AcDbVisualStyle
  2
3dWireframe
 70
     5
 71
     0
 72
     2
 73
     0
 90
        0
 40
-0.6
 41
-30.0
 62
     5
 63
     7
 74
     1
 91
        4
 64
     7
 65
   257
 75
     1
175
     1
 42
1.0
 92
        0
 66
   257
 43
1.0
 76
     1
 77
     6
 78
     2
 67
     7
 79
     5
170
     0
171
     0
290
     0
174
     0
 93
        1
 44
0.0
173
     0
291
     0
 45
0.0
1001
ACAD
1000
AcDbSavedByObjectVersion
1070
     0
  0
VISUALSTYLE
  5
24F
102
{ACAD_REACTORS
330
24A
102
}
330
24A
100
AcDbVisualStyle
  2
Basic
 70
     7
 71
     1
 72
     0
 73
     1
 90
        0
 40
-0.6
 41
-30.0
 62
     5
 63
     7
 74
     0
 91
        4
 64
     7
 65
   257
 75
     1
175
     1
 42
1.0
 92
        8
 66
     7
 43
1.0
 76
     1
 77
     6
 78
     2
 67
     7
 79
     5
170
     0
171
     0
290
     0
174
     0
 93
        1
 44
0.0
173
     0
291
     1
 45
0.0
1001
ACAD
1000
AcDbSavedByObjectVersion
1070
     0
  0
VISUALSTYLE
  5
256
102
{ACAD_REACTORS
330
24A
102
}
330
24A
100
AcDbVisualStyle
  2
Brighten
 70
    12
 71
     2
 72
     2
 73
     0
 90
        0
 40
-0.6
 41
-30.0
 62
     5
 63
     7
 74
     1
 91
        4
 64
     7
 65
   257
 75
     1
175
     1
 42
1.0
 92
        8
 66
     7
 43
1.0
 76
     1
 77
     6
 78
     2
 67
     7
 79
     5
170
     0
171
     0
290
     0
174
     0
 93
        1
 44
50.0
173
     0
291
     1
 45
0.0
1001
ACAD
1000
AcDbSavedByObjectVersion
1070
     0
  0
VISUALSTYLE
  5
25A
102
{ACAD_REACTORS
330
24A
102
}
330
24A
100
AcDbVisualStyle
  2
ColorChange
 70
    16
 71
     2
 72
     2
 73
     3
 90
        0
 40
-0.6
 41
-30.0
 62
     5
 63
     8
 74
     1
 91
        4
 64
     7
 65
   257
 75
     1
175
     1
 42
1.0
 92
        8
 66
     8
 43
1.0
 76
     1
 77
     6
 78
     2
 67
     7
 79
     5
170
     0
171
     0
290
     0
174
     0
 93
        1
 44
0.0
173
     0
291
     1
 45
0.0
1001
ACAD
1000
AcDbSavedByObjectVersion
1070
     0
  0
VISUALSTYLE
  5
253
102
{ACAD_REACTORS
330
24A
102
}
330
24A
100
AcDbVisualStyle
  2
Conceptual
 70
     9
 71
     3
 72
     2
 73
     0
 90
        0
 40
-0.6
 41
-30.0
 62
     5
 63
     7
 74
     2
 91
        2
 64
     7
 65
   257
 75
     1
175
     1
 42
40.0
 92
        8
 66
     7
 43
1.0
 76
     1
 77
     6
 78
     2
 67
     7
 79
     3
170
     0
171
     0
290
     0
174
     0
 93
        1
 44
0.0
173
     0
291
     0
 45
0.0
1001
ACAD
1000
AcDbSavedByObjectVersion
1070
     0
  0
VISUALSTYLE
  5
255
102
{ACAD_REACTORS
330
24A
102
}
330
24A
100
AcDbVisualStyle
  2
Dim
 70
    11
 71
     2
 72
     2
 73
     0
 90
        0
 40
-0.6
 41
-30.0
 62
     5
 63
     7
 74
     1
 91
        4
 64
     7
 65
   257
 75
     1
175
     1
 42
1.0
 92
        8
 66
     7
 43
1.0
 76
     1
 77
     6
 78
     2
 67
     7
 79
     5
170
     0
171
     0
290
     0
174
     0
 93
        1
 44
-50.0
173
     0
291
     1
 45
0.0
1001
ACAD
1000
AcDbSavedByObjectVersion
1070
     0
  0
VISUALSTYLE
  5
259
102
{ACAD_REACTORS
330
24A
102
}
330
24A
100
AcDbVisualStyle
  2
Facepattern
 70
    15
 71
     2
 72
     2
 73
     0
 90
        0
 40
-0.6
 41
-30.0
 62
     5
 63
     7
 74
     1
 91
        4
 64
     7
 65
   257
 75
     1
175
     1
 42
1.0
 92
        8
 66
     7
 43
1.0
 76
     1
 77
     6
 78
     2
 67
     7
 79
     5
170
     0
171
     0
290
     0
174
     0
 93
        1
 44
0.0
173
     0
291
     1
 45
0.0
1001
ACAD
1000
AcDbSavedByObjectVersion
1070
     0
  0
VISUALSTYLE
  5
24B
102
{ACAD_REACTORS
330
24A
102
}
330
24A
100
AcDbVisualStyle
  2
Flat
 70
     0
 71
     2
 72
     1
 73
     1
 90
        2
 40
-0.6
 41
30.0
 62
     5
 63
     7
 74
     0
 91
        4
 64
     7
 65
   257
 75
     1
175
     1
 42
1.0
 92
        8
 66
     7
 43
1.0
 76
     1
 77
     6
 78
     2
 67
     7
 79
     5
170
     0
171
     0
290
     0
174
     0
 93
       13
 44
0.0
173
     0
291
     1
 45
0.0
1001
ACAD
1000
AcDbSavedByObjectVersion
1070
     0
  0
VISUALSTYLE
  5
24C
102
{ACAD_REACTORS
330
24A
102
}
330
24A
100
AcDbVisualStyle
  2
FlatWithEdges
 70
     1
 71
     2
 72
     1
 73
     1
 90
        2
 40
-0.6
 41
30.0
 62
     5
 63
     7
 74
     1
 91
        4
 64
     7
 65
   257
 75
     1
175
     1
 42
1.0
 92
        0
 66
   257
 43
1.0
 76
     1
 77
     6
 78
     2
 67
     7
 79
     5
170
     0
171
     0
290
     0
174
     0
 93
       13
 44
0.0
173
     0
291
     1
 45
0.0
1001
ACAD
1000
AcDbSavedByObjectVersion
1070
     0
  0
VISUALSTYLE
  5
24D
102
{ACAD_REACTORS
330
24A
102
}
330
24A
100
AcDbVisualStyle
  2
Gouraud
 70
     2
 71
     2
 72
     2
 73
     1
 90
        2
 40
-0.6
 41
30.0
 62
     5
 63
     7
 74
     0
 91
        4
 64
     7
 65
   257
 75
     1
175
     1
 42
1.0
 92
        0
 66
     7
 43
1.0
 76
     1
 77
     6
 78
     2
 67
     7
 79
     5
170
     0
171
     0
290
     0
174
     0
 93
       13
 44
0.0
173
     0
291
     1
 45
0.0
1001
ACAD
1000
AcDbSavedByObjectVersion
1070
     0
  0
VISUALSTYLE
  5
24E
102
{ACAD_REACTORS
330
24A
102
}
330
24A
100
AcDbVisualStyle
  2
GouraudWithEdges
 70
     3
 71
     2
 72
     2
 73
     1
 90
        2
 40
-0.6
 41
30.0
 62
     5
 63
     7
 74
     1
 91
        4
 64
     7
 65
   257
 75
     1
175
     1
 42
1.0
 92
        0
 66
   257
 43
1.0
 76
     1
 77
     6
 78
     2
 67
     7
 79
     5
170
     0
171
     0
290
     0
174
     0
 93
       13
 44
0.0
173
     0
291
     1
 45
0.0
1001
ACAD
1000
AcDbSavedByObjectVersion
1070
     0
  0
VISUALSTYLE
  5
258
102
{ACAD_REACTORS
330
24A
102
}
330
24A
100
AcDbVisualStyle
  2
Linepattern
 70
    14
 71
     2
 72
     2
 73
     0
 90
        0
 40
-0.6
 41
-30.0
 62
     5
 63
     7
 74
     1
 91
        4
 64
     7
 65
   257
 75
     7
175
     7
 42
1.0
 92
        8
 66
     7
 43
1.0
 76
     1
 77
     6
 78
     2
 67
     7
 79
     5
170
     0
171
     0
290
     0
174
     0
 93
        1
 44
0.0
173
     0
291
     1
 45
0.0
1001
ACAD
1000
AcDbSavedByObjectVersion
1070
     0
  0
VISUALSTYLE
  5
254
102
{ACAD_REACTORS
330
24A
102
}
330
24A
100
AcDbVisualStyle
  2
Realistic
 70
     8
 71
     2
 72
     2
 73
     0
 90
        0
 40
-0.6
 41
-30.0
 62
     5
 63
     7
 74
     1
 91
        0
 64
     7
 65
   257
 75
     1
175
     1
 42
1.0
 92
        8
 66
     8
 43
1.0
 76
     1
 77
     6
 78
     2
 67
     7
 79
     5
170
     0
171
     0
290
     0
174
     0
 93
       13
 44
0.0
173
     0
291
     0
 45
0.0
1001
ACAD
1000
AcDbSavedByObjectVersion
1070
     0
  0
VISUALSTYLE
  5
257
102
{ACAD_REACTORS
330
24A
102
}
330
24A
100
AcDbVisualStyle
  2
Thicken
 70
    13
 71
     2
 72
     2
 73
     0
 90
        0
 40
-0.6
 41
-30.0
 62
     5
 63
     7
 74
     1
 91
        4
 64
     7
 65
   257
 75
     1
175
     1
 42
1.0
 92
       12
 66
     7
 43
1.0
 76
     1
 77
     6
 78
     2
 67
     7
 79
     5
170
     0
171
     0
290
     0
174
     0
 93
        1
 44
0.0
173
     0
291
     1
 45
0.0
1001
ACAD
1000
AcDbSavedByObjectVersion
1070
     0
  0
DICTIONARYVAR
  5
3EF
102
{ACAD_REACTORS
330
14C
102
}
330
14C
100
DictionaryVariables
280
     0
  1
STANDARD
  0
DICTIONARYVAR
  5
14D
102
{ACAD_REACTORS
330
14C
102
}
330
14C
100
DictionaryVariables
280
     0
  1
1
  0
DICTIONARYVAR
  5
3F1
102
{ACAD_REACTORS
330
14C
102
}
330
14C
100
DictionaryVariables
280
     0
  1
0
  0
DICTIONARYVAR
  5
3F0
102
{ACAD_REACTORS
330
14C
102
}
330
14C
100
DictionaryVariables
280
     0
  1
127
  0
XRECORD
  5
3D2
102
{ACAD_REACTORS
330
3D0
102
}
330
3D0
100
AcDbXrecord
280
     1
  0
DICTIONARY
  5
3F5
330
E5
100
AcDbDictionary
280
     1
281
     1
  3
ACAD_XREC_ROUNDTRIP
360
3F6
  0
DICTIONARY
  5
3F3
330
E4
100
AcDbDictionary
280
     1
281
     1
  3
ACAD_XREC_ROUNDTRIP
360
3F4
  0
DICTIONARY
  5
3F9
330
248
100
AcDbDictionary
280
     1
281
     1
  3
ACAD_XREC_ROUNDTRIP
360
3FA
  0
DICTIONARY
  5
3F7
330
247
100
AcDbDictionary
280
     1
281
     1
  3
ACAD_XREC_ROUNDTRIP
360
3F8
  0
DICTIONARY
  5
3FB
330
249
100
AcDbDictionary
280
     1
281
     1
  3
ACAD_XREC_ROUNDTRIP
360
3FC
  0
DICTIONARY
  5
3FD
330
25D
100
AcDbDictionary
280
     1
281
     1
  3
ACAD_XREC_ROUNDTRIP
360
3FE
  0
XRECORD
  5
3F6
102
{ACAD_REACTORS
330
3F5
102
}
330
3F5
100
AcDbXrecord
280
     1
102
SHADEPLOT
 70
     0
102
SHADEPLOTRESLEVEL
 70
     2
102
SHADEPLOTCUSTOMDPI
 70
   300
  0
XRECORD
  5
3F4
102
{ACAD_REACTORS
330
3F3
102
}
330
3F3
100
AcDbXrecord
280
     1
102
SHADEPLOT
 70
     0
102
SHADEPLOTRESLEVEL
 70
     2
102
SHADEPLOTCUSTOMDPI
 70
   300
  0
XRECORD
  5
3FA
102
{ACAD_REACTORS
330
3F9
102
}
330
3F9
100
AcDbXrecord
280
     1
102
MATERIAL
148
0.0
149
0.0
149
0.0
 93
        0
 94
       63
282
     0
 72
     1
 77
     1
171
     1
175
     1
179
     1
273
     0
  0
XRECORD
  5
3F8
102
{ACAD_REACTORS
330
3F7
102
}
330
3F7
100
AcDbXrecord
280
     1
102
MATERIAL
148
0.0
149
0.0
149
0.0
 93
        0
 94
       63
282
     0
 72
     1
 77
     1
171
     1
175
     1
179
     1
273
     0
  0
XRECORD
  5
3FC
102
{ACAD_REACTORS
330
3FB
102
}
330
3FB
100
AcDbXrecord
280
     1
102
MATERIAL
148
0.0
149
0.0
149
0.0
 93
        0
 94
       63
282
     0
 72
     1
 77
     1
171
     1
175
     1
179
     1
273
     0
  0
XRECORD
  5
3FE
102
{ACAD_REACTORS
330
3FD
102
}
330
3FD
100
AcDbXrecord
280
     1
102
ACAD_ROUNDTRIP_PRE2007_TABLESTYLE
 90
      512
 91
        0
  1

 92
      512
 93
        0
  2

 94
      512
 95
        0
  3

  0
ENDSEC
  0
EOF
