  0
SECTION
  2
HEADER
  9
$ACADVER
  1
AC1015
  9
$ACADMAINTVER
 70
    20
  9
$DWGCODEPAGE
  3
ANSI_1252
  9
$INSBASE
 10
0.0
 20
0.0
 30
0.0
  9
$EXTMIN
 10
-5.253106997161054
 20
17.6417810395244
 30
-0.0015258207003583
  9
$EXTMAX
 10
15.14403870544185
 20
29.47605044318203
 30
0.0000000349246037
  9
$LIMMIN
 10
0.0
 20
0.0
  9
$LIMMAX
 10
0.0
 20
0.0
  9
$ORTHOMODE
 70
     0
  9
$REGENMODE
 70
     1
  9
$FILLMODE
 70
     1
  9
$QTEXTMODE
 70
     0
  9
$MIRRTEXT
 70
     1
  9
$LTSCALE
 40
1.0
  9
$ATTMODE
 70
     1
  9
$TEXTSIZE
 40
0.0
  9
$TRACEWID
 40
0.05
  9
$TEXTSTYLE
  7
STANDARD
  9
$CLAYER
  8
0
  9
$CELTYPE
  6
CONTINUOUS
  9
$CECOLOR
 62
   256
  9
$CELTSCALE
 40
1.0
  9
$DISPSILH
 70
     0
  9
$DIMSCALE
 40
1.0
  9
$DIMASZ
 40
0.18
  9
$DIMEXO
 40
0.0625
  9
$DIMDLI
 40
0.38
  9
$DIMRND
 40
0.0
  9
$DIMDLE
 40
0.0
  9
$DIMEXE
 40
0.18
  9
$DIMTP
 40
0.0
  9
$DIMTM
 40
0.0
  9
$DIMTXT
 40
0.18
  9
$DIMCEN
 40
0.09
  9
$DIMTSZ
 40
0.0
  9
$DIMTOL
 70
     0
  9
$DIMLIM
 70
     0
  9
$DIMTIH
 70
     1
  9
$DIMTOH
 70
     1
  9
$DIMSE1
 70
     0
  9
$DIMSE2
 70
     0
  9
$DIMTAD
 70
     0
  9
$DIMZIN
 70
     0
  9
$DIMBLK
  1

  9
$DIMASO
 70
     1
  9
$DIMSHO
 70
     1
  9
$DIMPOST
  1

  9
$DIMAPOST
  1

  9
$DIMALT
 70
     0
  9
$DIMALTD
 70
     2
  9
$DIMALTF
 40
25.4
  9
$DIMLFAC
 40
1.0
  9
$DIMTOFL
 70
     0
  9
$DIMTVP
 40
0.0
  9
$DIMTIX
 70
     0
  9
$DIMSOXD
 70
     0
  9
$DIMSAH
 70
     0
  9
$DIMBLK1
  1

  9
$DIMBLK2
  1

  9
$DIMSTYLE
  2
STANDARD
  9
$DIMCLRD
 70
     0
  9
$DIMCLRE
 70
     0
  9
$DIMCLRT
 70
     0
  9
$DIMTFAC
 40
1.0
  9
$DIMGAP
 40
0.09
  9
$DIMJUST
 70
     0
  9
$DIMSD1
 70
     0
  9
$DIMSD2
 70
     0
  9
$DIMTOLJ
 70
     1
  9
$DIMTZIN
 70
     0
  9
$DIMALTZ
 70
     0
  9
$DIMALTTZ
 70
     0
  9
$DIMUPT
 70
     0
  9
$DIMDEC
 70
     4
  9
$DIMTDEC
 70
     4
  9
$DIMALTU
 70
     2
  9
$DIMALTTD
 70
     2
  9
$DIMTXSTY
  7
STANDARD
  9
$DIMAUNIT
 70
     0
  9
$DIMADEC
 70
     0
  9
$DIMALTRND
 40
0.0
  9
$DIMAZIN
 70
     0
  9
$DIMDSEP
 70
    46
  9
$DIMATFIT
 70
     3
  9
$DIMFRAC
 70
     0
  9
$DIMLDRBLK
  1

  9
$DIMLUNIT
 70
     2
  9
$DIMLWD
 70
    -2
  9
$DIMLWE
 70
    -2
  9
$DIMTMOVE
 70
     0
  9
$LUNITS
 70
     2
  9
$LUPREC
 70
     4
  9
$SKETCHINC
 40
0.1
  9
$FILLETRAD
 40
0.0
  9
$AUNITS
 70
     0
  9
$AUPREC
 70
     0
  9
$MENU
  1
acad
  9
$ELEVATION
 40
0.0
  9
$PELEVATION
 40
0.0
  9
$THICKNESS
 40
0.0
  9
$LIMCHECK
 70
     0
  9
$CHAMFERA
 40
0.0
  9
$CHAMFERB
 40
0.0
  9
$CHAMFERC
 40
0.0
  9
$CHAMFERD
 40
0.0
  9
$SKPOLY
 70
     0
  9
$TDCREATE
 40
2444971.791666667
  9
$TDUCREATE
 40
2444971.958333334
  9
$TDUPDATE
 40
2453963.962812812
  9
$TDUUPDATE
 40
2453964.129479479
  9
$TDINDWG
 40
0.0561653125
  9
$TDUSRTIMER
 40
0.0561653125
  9
$USRTIMER
 70
     1
  9
$ANGBASE
 50
0.0
  9
$ANGDIR
 70
     0
  9
$PDMODE
 70
     0
  9
$PDSIZE
 40
0.0
  9
$PLINEWID
 40
0.0
  9
$SPLFRAME
 70
     0
  9
$SPLINETYPE
 70
     6
  9
$SPLINESEGS
 70
     8
  9
$HANDSEED
  5
31E
  9
$SURFTAB1
 70
     6
  9
$SURFTAB2
 70
     6
  9
$SURFTYPE
 70
     6
  9
$SURFU
 70
     6
  9
$SURFV
 70
     6
  9
$UCSBASE
  2

  9
$UCSNAME
  2

  9
$UCSORG
 10
0.0
 20
0.0
 30
0.0
  9
$UCSXDIR
 10
1.0
 20
0.0
 30
0.0
  9
$UCSYDIR
 10
0.0
 20
1.0
 30
0.0
  9
$UCSORTHOREF
  2

  9
$UCSORTHOVIEW
 70
     0
  9
$UCSORGTOP
 10
0.0
 20
0.0
 30
0.0
  9
$UCSORGBOTTOM
 10
0.0
 20
0.0
 30
0.0
  9
$UCSORGLEFT
 10
0.0
 20
0.0
 30
0.0
  9
$UCSORGRIGHT
 10
0.0
 20
0.0
 30
0.0
  9
$UCSORGFRONT
 10
0.0
 20
0.0
 30
0.0
  9
$UCSORGBACK
 10
0.0
 20
0.0
 30
0.0
  9
$PUCSBASE
  2

  9
$PUCSNAME
  2

  9
$PUCSORG
 10
0.0
 20
0.0
 30
0.0
  9
$PUCSXDIR
 10
1.0
 20
0.0
 30
0.0
  9
$PUCSYDIR
 10
0.0
 20
1.0
 30
0.0
  9
$PUCSORTHOREF
  2

  9
$PUCSORTHOVIEW
 70
     0
  9
$PUCSORGTOP
 10
0.0
 20
0.0
 30
0.0
  9
$PUCSORGBOTTOM
 10
0.0
 20
0.0
 30
0.0
  9
$PUCSORGLEFT
 10
0.0
 20
0.0
 30
0.0
  9
$PUCSORGRIGHT
 10
0.0
 20
0.0
 30
0.0
  9
$PUCSORGFRONT
 10
0.0
 20
0.0
 30
0.0
  9
$PUCSORGBACK
 10
0.0
 20
0.0
 30
0.0
  9
$USERI1
 70
     0
  9
$USERI2
 70
     0
  9
$USERI3
 70
     0
  9
$USERI4
 70
     0
  9
$USERI5
 70
     0
  9
$USERR1
 40
0.0
  9
$USERR2
 40
0.0
  9
$USERR3
 40
0.0
  9
$USERR4
 40
0.0
  9
$USERR5
 40
0.0
  9
$WORLDVIEW
 70
     1
  9
$SHADEDGE
 70
     3
  9
$SHADEDIF
 70
    70
  9
$TILEMODE
 70
     1
  9
$MAXACTVP
 70
    16
  9
$PINSBASE
 10
0.0
 20
0.0
 30
0.0
  9
$PLIMCHECK
 70
     0
  9
$PEXTMIN
 10
1.000000000000000E+20
 20
1.000000000000000E+20
 30
1.000000000000000E+20
  9
$PEXTMAX
 10
-1.000000000000000E+20
 20
-1.000000000000000E+20
 30
-1.000000000000000E+20
  9
$PLIMMIN
 10
0.0
 20
0.0
  9
$PLIMMAX
 10
12.0
 20
9.0
  9
$UNITMODE
 70
     0
  9
$VISRETAIN
 70
     0
  9
$PLINEGEN
 70
     0
  9
$PSLTSCALE
 70
     0
  9
$TREEDEPTH
 70
  3020
  9
$CMLSTYLE
  2
STANDARD
  9
$CMLJUST
 70
     0
  9
$CMLSCALE
 40
1.0
  9
$PROXYGRAPHICS
 70
     1
  9
$MEASUREMENT
 70
     0
  9
$CELWEIGHT
370
    -1
  9
$ENDCAPS
280
     0
  9
$JOINSTYLE
280
     0
  9
$LWDISPLAY
290
     0
  9
$INSUNITS
 70
     0
  9
$HYPERLINKBASE
  1

  9
$STYLESHEET
  1

  9
$XEDIT
290
     1
  9
$CEPSNTYPE
380
     0
  9
$PSTYLEMODE
290
     1
  9
$FINGERPRINTGUID
  2
{C64FDFA1-C551-4CDD-9748-26DC086A5B01}
  9
$VERSIONGUID
  2
{672DADD3-B365-4859-AA53-814B92708130}
  9
$EXTNAMES
290
     1
  9
$PSVPSCALE
 40
0.0
  9
$OLESTARTUP
290
     0
  0
ENDSEC
  0
SECTION
  2
CLASSES
  0
CLASS
  1
IMAGE
  2
AcDbRasterImage
  3
ISM
 90
    34943
280
     0
281
     1
  0
CLASS
  1
DICTIONARYVAR
  2
AcDbDictionaryVar
  3
ObjectDBX Classes
 90
        0
280
     0
281
     0
  0
CLASS
  1
RASTERVARIABLES
  2
AcDbRasterVariables
  3
ISM
 90
    32768
280
     0
281
     0
  0
CLASS
  1
IMAGEDEF
  2
AcDbRasterImageDef
  3
ISM
 90
    32768
280
     0
281
     0
  0
CLASS
  1
IMAGEDEF_REACTOR
  2
AcDbRasterImageDefReactor
  3
ISM
 90
    32769
280
     0
281
     0
  0
CLASS
  1
IDBUFFER
  2
AcDbIdBuffer
  3
ObjectDBX Classes
 90
    32768
280
     0
281
     0
  0
CLASS
  1
SPATIAL_FILTER
  2
AcDbSpatialFilter
  3
ObjectDBX Classes
 90
    32768
280
     0
281
     0
  0
CLASS
  1
SORTENTSTABLE
  2
AcDbSortentsTable
  3
ObjectDBX Classes
 90
    32768
280
     0
281
     0
  0
CLASS
  1
LAYER_INDEX
  2
AcDbLayerIndex
  3
ObjectDBX Classes
 90
    32768
280
     0
281
     0
  0
CLASS
  1
SPATIAL_INDEX
  2
AcDbSpatialIndex
  3
ObjectDBX Classes
 90
    32768
280
     0
281
     0
  0
CLASS
  1
OBJECT_PTR
  2
CAseDLPNTableRecord
  3
ASE-LPNTableRecord
 90
    32769
280
     0
281
     0
  0
CLASS
  1
ACDBDICTIONARYWDFLT
  2
AcDbDictionaryWithDefault
  3
ObjectDBX Classes
 90
        0
280
     0
281
     0
  0
CLASS
  1
ACDBPLACEHOLDER
  2
AcDbPlaceHolder
  3
ObjectDBX Classes
 90
        0
280
     0
281
     0
  0
CLASS
  1
LAYOUT
  2
AcDbLayout
  3
ObjectDBX Classes
 90
        0
280
     0
281
     0
  0
CLASS
  1
MATERIAL
  2
AcDbMaterial
  3
ObjectDBX Classes
 90
     1024
280
     0
281
     0
  0
CLASS
  1
VISUALSTYLE
  2
AcDbVisualStyle
  3
ObjectDBX Classes
 90
     4095
280
     0
281
     0
  0
CLASS
  1
TABLESTYLE
  2
AcDbTableStyle
  3
ObjectDBX Classes
 90
     4095
280
     0
281
     0
  0
ENDSEC
  0
SECTION
  2
TABLES
  0
TABLE
  2
VPORT
  5
7
330
0
100
AcDbSymbolTable
 70
     2
  0
VPORT
  5
2E
330
7
100
AcDbSymbolTableRecord
100
AcDbViewportTableRecord
  2
DCADVPORT
 70
     0
 10
-1.276790910434867
 20
18.49697109850476
 11
12.03520077802579
 21
29.46574987063061
 12
6.209999999999999
 22
9.019999999999999
 13
0.0
 23
0.0
 14
1.0
 24
1.0
 15
0.0
 25
0.0
 16
0.0
 26
0.0
 36
1.0
 17
0.0
 27
0.0
 37
0.0
 40
18.04
 41
0.688564
 42
50.0
 43
1.0
 44
1.0
 50
0.0
 51
0.0
 71
     0
 72
   100
 73
     1
 74
     1
 75
     0
 76
     0
 77
     0
 78
     0
281
     0
 65
     1
110
0.0
120
0.0
130
0.0
111
1.0
121
0.0
131
0.0
112
0.0
122
1.0
132
0.0
 79
     0
146
0.0
  0
VPORT
  5
22A
330
7
100
AcDbSymbolTableRecord
100
AcDbViewportTableRecord
  2
*Active
 70
     0
 10
0.0
 20
0.0
 11
1.0
 21
1.0
 12
4.945465854140398
 22
23.55891574135322
 13
0.0
 23
0.0
 14
1.0
 24
1.0
 15
0.0
 25
0.0
 16
0.0
 26
0.0
 36
1.0
 17
0.0
 27
0.0
 37
0.0
 40
11.96773860745828
 41
1.726930320150659
 42
50.0
 43
0.0
 44
0.0
 50
0.0
 51
0.0
 71
     0
 72
   100
 73
     1
 74
     1
 75
     0
 76
     0
 77
     0
 78
     0
281
     0
 65
     1
110
0.0
120
0.0
130
0.0
111
1.0
121
0.0
131
0.0
112
0.0
122
1.0
132
0.0
 79
     0
146
0.0
  0
ENDTAB
  0
TABLE
  2
LTYPE
  5
4
330
0
100
AcDbSymbolTable
 70
     2
  0
LTYPE
  5
11
330
4
100
AcDbSymbolTableRecord
100
AcDbLinetypeTableRecord
  2
BYBLOCK
 70
     0
  3

 72
    65
 73
     0
 40
0.0
  0
LTYPE
  5
12
330
4
100
AcDbSymbolTableRecord
100
AcDbLinetypeTableRecord
  2
BYLAYER
 70
     0
  3

 72
    65
 73
     0
 40
0.0
  0
LTYPE
  5
13
330
4
100
AcDbSymbolTableRecord
100
AcDbLinetypeTableRecord
  2
CONTINUOUS
 70
     0
  3
Solid line
 72
    65
 73
     0
 40
0.0
  0
LTYPE
  5
1E
330
4
100
AcDbSymbolTableRecord
100
AcDbLinetypeTableRecord
  2
CONTINUOUS
 70
     0
  3
Solid line
 72
    65
 73
     0
 40
0.0
  0
ENDTAB
  0
TABLE
  2
LAYER
  5
2
330
0
100
AcDbSymbolTable
 70
     5
  0
LAYER
  5
14
330
2
100
AcDbSymbolTableRecord
100
AcDbLayerTableRecord
  2
0
 70
     0
 62
     7
  6
CONTINUOUS
370
    -3
390
F5
  0
LAYER
  5
2A
330
2
100
AcDbSymbolTableRecord
100
AcDbLayerTableRecord
  2
0
 70
     0
 62
   250
  6
CONTINUOUS
370
    -3
390
F5
  0
LAYER
  5
2B
330
2
100
AcDbSymbolTableRecord
100
AcDbLayerTableRecord
  2
ADPDIM
 70
     0
 62
     3
  6
CONTINUOUS
370
    -3
390
F5
  0
LAYER
  5
2C
330
2
100
AcDbSymbolTableRecord
100
AcDbLayerTableRecord
  2
ADP1DETAIL
 70
     0
 62
   250
  6
CONTINUOUS
370
    -3
390
F5
  0
LAYER
  5
2D
330
2
100
AcDbSymbolTableRecord
100
AcDbLayerTableRecord
  2
DEFPOINTS
 70
     0
 62
   250
  6
CONTINUOUS
290
     0
370
    -3
390
F5
  0
ENDTAB
  0
TABLE
  2
STYLE
  5
3
330
0
100
AcDbSymbolTable
 70
     2
  0
STYLE
  5
17
330
3
100
AcDbSymbolTableRecord
100
AcDbTextStyleTableRecord
  2
STANDARD
 70
     0
 40
0.0
 41
1.0
 50
0.0
 71
     0
 42
0.0
  3
txt
  4

  0
STYLE
  5
FD
330
3
100
AcDbSymbolTableRecord
100
AcDbTextStyleTableRecord
  2
ARIAL_WIDE
 70
     0
 40
0.0
 41
1.25
 50
0.0
 71
     0
 42
0.2
  3
ARIAL.TTF
  4

1001
ACAD
1000
Arial
1071
       34
  0
ENDTAB
  0
TABLE
  2
VIEW
  5
5
330
0
100
AcDbSymbolTable
 70
     0
  0
ENDTAB
  0
TABLE
  2
UCS
  5
6
330
0
100
AcDbSymbolTable
 70
     0
  0
ENDTAB
  0
TABLE
  2
APPID
  5
8
330
0
100
AcDbSymbolTable
 70
     2
  0
APPID
  5
16
330
8
100
AcDbSymbolTableRecord
100
AcDbRegAppTableRecord
  2
ACAD
 70
     0
  0
APPID
  5
29C
330
8
100
AcDbSymbolTableRecord
100
AcDbRegAppTableRecord
  2
DCO15
 70
     0
  0
ENDTAB
  0
TABLE
  2
DIMSTYLE
  5
9
330
0
100
AcDbSymbolTable
 70
     1
100
AcDbDimStyleTable
 71
     0
  0
DIMSTYLE
105
18
102
{ACAD_REACTORS
330
2A6
330
2A7
330
2A8
102
}
330
9
100
AcDbSymbolTableRecord
100
AcDbDimStyleTableRecord
  2
STANDARD
 70
     0
289
     0
340
17
  0
ENDTAB
  0
TABLE
  2
BLOCK_RECORD
  5
1
330
0
100
AcDbSymbolTable
 70
     7
  0
BLOCK_RECORD
  5
A
102
{ACAD_XDICTIONARY
360
154
102
}
330
1
100
AcDbSymbolTableRecord
100
AcDbBlockTableRecord
  2
*MODEL_SPACE
340
F8
  0
BLOCK_RECORD
  5
B
102
{ACAD_XDICTIONARY
360
156
102
}
330
1
100
AcDbSymbolTableRecord
100
AcDbBlockTableRecord
  2
*PAPER_SPACE
340
F9
  0
BLOCK_RECORD
  5
275
330
1
100
AcDbSymbolTableRecord
100
AcDbBlockTableRecord
  2
*D0
340
0
  0
BLOCK_RECORD
  5
282
330
1
100
AcDbSymbolTableRecord
100
AcDbBlockTableRecord
  2
*D1
340
0
  0
BLOCK_RECORD
  5
28F
330
1
100
AcDbSymbolTableRecord
100
AcDbBlockTableRecord
  2
*D2
340
0
  0
BLOCK_RECORD
  5
2AA
330
1
100
AcDbSymbolTableRecord
100
AcDbBlockTableRecord
  2
*D4
340
0
  0
BLOCK_RECORD
  5
2B7
330
1
100
AcDbSymbolTableRecord
100
AcDbBlockTableRecord
  2
*D5
340
0
  0
BLOCK_RECORD
  5
2C4
330
1
100
AcDbSymbolTableRecord
100
AcDbBlockTableRecord
  2
*D6
340
0
  0
ENDTAB
  0
ENDSEC
  0
SECTION
  2
BLOCKS
  0
BLOCK
  5
D
330
A
100
AcDbEntity
  8
0
100
AcDbBlockBegin
  2
*MODEL_SPACE
 70
     0
 10
0.0
 20
0.0
 30
0.0
  3
*MODEL_SPACE
  1

  0
ENDBLK
  5
E
330
A
100
AcDbEntity
  8
0
100
AcDbBlockEnd
  0
BLOCK
  5
F
330
B
100
AcDbEntity
 67
     1
  8
0
100
AcDbBlockBegin
  2
*PAPER_SPACE
 70
     0
 10
0.0
 20
0.0
 30
0.0
  3
*PAPER_SPACE
  1

  0
ENDBLK
  5
10
330
B
100
AcDbEntity
 67
     1
  8
0
100
AcDbBlockEnd
  0
BLOCK
  5
276
330
275
100
AcDbEntity
  8
0
100
AcDbBlockBegin
  2
*D0
 70
     1
 10
0.0
 20
0.0
 30
0.0
  3
*D0
  1

  0
LINE
  5
277
330
275
100
AcDbEntity
  8
ADPDIM
  6
Continuous
 62
     0
370
    -2
100
AcDbLine
 10
-7.371670728986597
 20
10.36726502248146
 30
0.0
 11
-7.371670728986597
 21
11.39369767262113
 31
0.0
  0
LINE
  5
278
330
275
100
AcDbEntity
  8
ADPDIM
  6
Continuous
 62
     0
370
    -2
100
AcDbLine
 10
-5.121670728986597
 20
10.36726502248146
 30
0.0
 11
-5.121670728986597
 21
11.39369767262113
 31
0.0
  0
LINE
  5
279
330
275
100
AcDbEntity
  8
ADPDIM
  6
Continuous
 62
     0
370
    -2
100
AcDbLine
 10
-7.191670728986597
 20
11.21369767262113
 30
0.0
 11
-6.553337395653263
 21
11.21369767262113
 31
0.0
  0
LINE
  5
27A
330
275
100
AcDbEntity
  8
ADPDIM
  6
Continuous
 62
     0
370
    -2
100
AcDbLine
 10
-5.301670728986596
 20
11.21369767262113
 30
0.0
 11
-5.94000406231993
 21
11.21369767262113
 31
0.0
  0
SOLID
  5
27B
330
275
100
AcDbEntity
  8
ADPDIM
  6
Continuous
 62
     0
100
AcDbTrace
 10
-7.191670728986597
 20
11.24369767262113
 30
0.0
 11
-7.191670728986597
 21
11.18369767262113
 31
0.0
 12
-7.371670728986597
 22
11.21369767262113
 32
0.0
 13
-7.371670728986597
 23
11.21369767262113
 33
0.0
  0
SOLID
  5
27C
330
275
100
AcDbEntity
  8
ADPDIM
  6
Continuous
 62
     0
100
AcDbTrace
 10
-5.301670728986596
 20
11.24369767262113
 30
0.0
 11
-5.301670728986596
 21
11.18369767262113
 31
0.0
 12
-5.121670728986597
 22
11.21369767262113
 32
0.0
 13
-5.121670728986597
 23
11.21369767262113
 33
0.0
  0
MTEXT
  5
27D
330
275
100
AcDbEntity
  8
ADPDIM
  6
Continuous
 62
     0
100
AcDbMText
 10
-6.246670728986597
 20
11.21369767262113
 30
0.0
 40
0.1
 41
0.0
 71
     5
 72
     1
  1
\A1;2 1/4
 73
     1
 44
1.0
1001
ACAD
1000
MTEXTBEGIN
1070
    73
1070
     1
1070
    44
1040
1.0
1070
    74
1070
     0
1000
MTEXTEND
  0
POINT
  5
27E
330
275
100
AcDbEntity
  8
DEFPOINTS
  6
Continuous
 62
     0
100
AcDbPoint
 10
-7.371670728986597
 20
10.30476502248146
 30
0.0
  0
POINT
  5
27F
330
275
100
AcDbEntity
  8
DEFPOINTS
  6
Continuous
 62
     0
100
AcDbPoint
 10
-5.121670728986597
 20
10.30476502248146
 30
0.0
  0
POINT
  5
280
330
275
100
AcDbEntity
  8
DEFPOINTS
  6
Continuous
 62
     0
100
AcDbPoint
 10
-5.121670728986597
 20
11.21369767262113
 30
0.0
  0
ENDBLK
  5
281
330
275
100
AcDbEntity
  8
0
100
AcDbBlockEnd
  0
BLOCK
  5
283
330
282
100
AcDbEntity
  8
0
100
AcDbBlockBegin
  2
*D1
 70
     1
 10
0.0
 20
0.0
 30
0.0
  3
*D1
  1

  0
LINE
  5
284
330
282
100
AcDbEntity
  8
ADPDIM
  6
Continuous
 62
     0
370
    -2
100
AcDbLine
 10
-6.904562002827443
 20
10.04688698465323
 30
0.0
 11
-6.904562002827443
 21
9.657556667977797
 31
0.0
  0
LINE
  5
285
330
282
100
AcDbEntity
  8
ADPDIM
  6
Continuous
 62
     0
370
    -2
100
AcDbLine
 10
-5.592062002827443
 20
10.04688698465323
 30
0.0
 11
-5.592062002827443
 21
9.657556667977797
 31
0.0
  0
LINE
  5
286
330
282
100
AcDbEntity
  8
ADPDIM
  6
Continuous
 62
     0
370
    -2
100
AcDbLine
 10
-6.724562002827443
 20
9.837556667977796
 30
0.0
 11
-6.588312002827443
 21
9.837556667977796
 31
0.0
  0
LINE
  5
287
330
282
100
AcDbEntity
  8
ADPDIM
  6
Continuous
 62
     0
370
    -2
100
AcDbLine
 10
-5.772062002827443
 20
9.837556667977796
 30
0.0
 11
-5.908312002827443
 21
9.837556667977796
 31
0.0
  0
SOLID
  5
288
330
282
100
AcDbEntity
  8
ADPDIM
  6
Continuous
 62
     0
100
AcDbTrace
 10
-6.724562002827443
 20
9.867556667977796
 30
0.0
 11
-6.724562002827443
 21
9.807556667977797
 31
0.0
 12
-6.904562002827443
 22
9.837556667977796
 32
0.0
 13
-6.904562002827443
 23
9.837556667977796
 33
0.0
  0
SOLID
  5
289
330
282
100
AcDbEntity
  8
ADPDIM
  6
Continuous
 62
     0
100
AcDbTrace
 10
-5.772062002827443
 20
9.867556667977796
 30
0.0
 11
-5.772062002827443
 21
9.807556667977797
 31
0.0
 12
-5.592062002827443
 22
9.837556667977796
 32
0.0
 13
-5.592062002827443
 23
9.837556667977796
 33
0.0
  0
MTEXT
  5
28A
330
282
100
AcDbEntity
  8
ADPDIM
  6
Continuous
 62
     0
100
AcDbMText
 10
-6.248312002827443
 20
9.837556667977796
 30
0.0
 40
0.1
 41
0.0
 71
     5
 72
     1
  1
\A1;1 5/16
 73
     1
 44
1.0
1001
ACAD
1000
MTEXTBEGIN
1070
    73
1070
     1
1070
    44
1040
1.0
1070
    74
1070
     0
1000
MTEXTEND
  0
POINT
  5
28B
330
282
100
AcDbEntity
  8
DEFPOINTS
  6
Continuous
 62
     0
100
AcDbPoint
 10
-6.904562002827443
 20
10.10938698465323
 30
0.0
  0
POINT
  5
28C
330
282
100
AcDbEntity
  8
DEFPOINTS
  6
Continuous
 62
     0
100
AcDbPoint
 10
-5.592062002827443
 20
10.10938698465323
 30
0.0
  0
POINT
  5
28D
330
282
100
AcDbEntity
  8
DEFPOINTS
  6
Continuous
 62
     0
100
AcDbPoint
 10
-5.592062002827443
 20
9.837556667977796
 30
0.0
  0
ENDBLK
  5
28E
330
282
100
AcDbEntity
  8
0
100
AcDbBlockEnd
  0
BLOCK
  5
290
330
28F
100
AcDbEntity
  8
0
 62
     3
100
AcDbBlockBegin
  2
*D2
 70
     1
 10
0.0
 20
0.0
 30
0.0
  3
*D2
  1

  0
LINE
  5
291
330
28F
100
AcDbEntity
  8
ADPDIM
  6
Continuous
 62
     0
370
    -2
100
AcDbLine
 10
-7.036010161461554
 20
9.862914940439942
 30
0.0
 11
-7.036010161461554
 21
9.169359713781506
 31
0.0
  0
LINE
  5
292
330
28F
100
AcDbEntity
  8
ADPDIM
  6
Continuous
 62
     0
370
    -2
100
AcDbLine
 10
-5.473510161461554
 20
9.862914940439942
 30
0.0
 11
-5.473510161461554
 21
9.169359713781506
 31
0.0
  0
LINE
  5
293
330
28F
100
AcDbEntity
  8
ADPDIM
  6
Continuous
 62
     0
370
    -2
100
AcDbLine
 10
-6.856010161461554
 20
9.349359713781506
 30
0.0
 11
-6.594760161461554
 21
9.349359713781506
 31
0.0
  0
LINE
  5
294
330
28F
100
AcDbEntity
  8
ADPDIM
  6
Continuous
 62
     0
370
    -2
100
AcDbLine
 10
-5.653510161461554
 20
9.349359713781506
 30
0.0
 11
-5.914760161461554
 21
9.349359713781506
 31
0.0
  0
SOLID
  5
295
330
28F
100
AcDbEntity
  8
ADPDIM
  6
Continuous
 62
     0
100
AcDbTrace
 10
-6.856010161461554
 20
9.379359713781505
 30
0.0
 11
-6.856010161461554
 21
9.319359713781507
 31
0.0
 12
-7.036010161461554
 22
9.349359713781506
 32
0.0
 13
-7.036010161461554
 23
9.349359713781506
 33
0.0
  0
SOLID
  5
296
330
28F
100
AcDbEntity
  8
ADPDIM
  6
Continuous
 62
     0
100
AcDbTrace
 10
-5.653510161461554
 20
9.379359713781505
 30
0.0
 11
-5.653510161461554
 21
9.319359713781507
 31
0.0
 12
-5.473510161461554
 22
9.349359713781506
 32
0.0
 13
-5.473510161461554
 23
9.349359713781506
 33
0.0
  0
MTEXT
  5
297
330
28F
100
AcDbEntity
  8
ADPDIM
  6
Continuous
 62
     0
100
AcDbMText
 10
-6.254760161461554
 20
9.349359713781506
 30
0.0
 40
0.1
 41
0.0
 71
     5
 72
     1
  1
\A1;1 9/16
 73
     1
 44
1.0
1001
ACAD
1000
MTEXTBEGIN
1070
    73
1070
     1
1070
    44
1040
1.0
1070
    74
1070
     0
1000
MTEXTEND
  0
POINT
  5
298
330
28F
100
AcDbEntity
  8
DEFPOINTS
  6
Continuous
 62
     0
100
AcDbPoint
 10
-7.036010161461554
 20
9.925414940439942
 30
0.0
  0
POINT
  5
299
330
28F
100
AcDbEntity
  8
DEFPOINTS
  6
Continuous
 62
     0
100
AcDbPoint
 10
-5.473510161461554
 20
9.925414940439942
 30
0.0
  0
POINT
  5
29A
330
28F
100
AcDbEntity
  8
DEFPOINTS
  6
Continuous
 62
     0
100
AcDbPoint
 10
-5.473510161461554
 20
9.349359713781506
 30
0.0
  0
ENDBLK
  5
29B
330
28F
100
AcDbEntity
  8
0
 62
     3
100
AcDbBlockEnd
  0
BLOCK
  5
2B5
330
2AA
100
AcDbEntity
  8
0
100
AcDbBlockBegin
  2
*D4
 70
     1
 10
0.0
 20
0.0
 30
0.0
  3
*D4
  1

  0
LINE
  5
2D1
330
2AA
100
AcDbEntity
  8
ADPDIM
  6
Continuous
 62
     0
370
    -2
100
AcDbLine
 10
9.708074440310394
 20
27.19286905389867
 30
0.0
 11
9.708074440310394
 21
28.21930170403833
 31
0.0
  0
LINE
  5
2D2
330
2AA
100
AcDbEntity
  8
ADPDIM
  6
Continuous
 62
     0
370
    -2
100
AcDbLine
 10
11.95807444031039
 20
27.19286905389867
 30
0.0
 11
11.95807444031039
 21
28.21930170403833
 31
0.0
  0
LINE
  5
2D3
330
2AA
100
AcDbEntity
  8
ADPDIM
  6
Continuous
 62
     0
370
    -2
100
AcDbLine
 10
9.888074440310393
 20
28.03930170403834
 30
0.0
 11
10.52640777364373
 21
28.03930170403834
 31
0.0
  0
LINE
  5
2D4
330
2AA
100
AcDbEntity
  8
ADPDIM
  6
Continuous
 62
     0
370
    -2
100
AcDbLine
 10
11.77807444031039
 20
28.03930170403834
 30
0.0
 11
11.13974110697706
 21
28.03930170403834
 31
0.0
  0
SOLID
  5
2D5
330
2AA
100
AcDbEntity
  8
ADPDIM
  6
Continuous
 62
     0
100
AcDbTrace
 10
9.888074440310393
 20
28.06930170403834
 30
0.0
 11
9.888074440310393
 21
28.00930170403833
 31
0.0
 12
9.708074440310394
 22
28.03930170403834
 32
0.0
 13
9.708074440310394
 23
28.03930170403834
 33
0.0
  0
SOLID
  5
2D6
330
2AA
100
AcDbEntity
  8
ADPDIM
  6
Continuous
 62
     0
100
AcDbTrace
 10
11.77807444031039
 20
28.06930170403834
 30
0.0
 11
11.77807444031039
 21
28.00930170403833
 31
0.0
 12
11.95807444031039
 22
28.03930170403834
 32
0.0
 13
11.95807444031039
 23
28.03930170403834
 33
0.0
  0
MTEXT
  5
2D7
330
2AA
100
AcDbEntity
  8
ADPDIM
  6
Continuous
 62
     0
100
AcDbMText
 10
10.83307444031039
 20
28.03930170403834
 30
0.0
 40
0.1
 41
0.0
 71
     5
 72
     1
  1
\A1;2 1/4
 73
     1
 44
1.0
1001
ACAD
1000
MTEXTBEGIN
1070
    73
1070
     1
1070
    44
1040
1.0
1070
    74
1070
     0
1000
MTEXTEND
  0
POINT
  5
2D8
330
2AA
100
AcDbEntity
  8
DEFPOINTS
  6
Continuous
 62
     0
100
AcDbPoint
 10
9.708074440310394
 20
27.13036905389867
 30
0.0
  0
POINT
  5
2D9
330
2AA
100
AcDbEntity
  8
DEFPOINTS
  6
Continuous
 62
     0
100
AcDbPoint
 10
11.95807444031039
 20
27.13036905389867
 30
0.0
  0
POINT
  5
2DA
330
2AA
100
AcDbEntity
  8
DEFPOINTS
  6
Continuous
 62
     0
100
AcDbPoint
 10
11.95807444031039
 20
28.03930170403834
 30
0.0
  0
ENDBLK
  5
2B6
330
2AA
100
AcDbEntity
  8
0
100
AcDbBlockEnd
  0
BLOCK
  5
2C2
330
2B7
100
AcDbEntity
  8
0
100
AcDbBlockBegin
  2
*D5
 70
     1
 10
0.0
 20
0.0
 30
0.0
  3
*D5
  1

  0
LINE
  5
2DB
330
2B7
100
AcDbEntity
  8
ADPDIM
  6
Continuous
 62
     0
370
    -2
100
AcDbLine
 10
10.17518316646955
 20
26.87249101607044
 30
0.0
 11
10.17518316646955
 21
26.483160699395
 31
0.0
  0
LINE
  5
2DC
330
2B7
100
AcDbEntity
  8
ADPDIM
  6
Continuous
 62
     0
370
    -2
100
AcDbLine
 10
11.48768316646955
 20
26.87249101607044
 30
0.0
 11
11.48768316646955
 21
26.483160699395
 31
0.0
  0
LINE
  5
2DD
330
2B7
100
AcDbEntity
  8
ADPDIM
  6
Continuous
 62
     0
370
    -2
100
AcDbLine
 10
10.35518316646955
 20
26.663160699395
 30
0.0
 11
10.49143316646955
 21
26.663160699395
 31
0.0
  0
LINE
  5
2DE
330
2B7
100
AcDbEntity
  8
ADPDIM
  6
Continuous
 62
     0
370
    -2
100
AcDbLine
 10
11.30768316646955
 20
26.663160699395
 30
0.0
 11
11.17143316646955
 21
26.663160699395
 31
0.0
  0
SOLID
  5
2DF
330
2B7
100
AcDbEntity
  8
ADPDIM
  6
Continuous
 62
     0
100
AcDbTrace
 10
10.35518316646955
 20
26.693160699395
 30
0.0
 11
10.35518316646955
 21
26.633160699395
 31
0.0
 12
10.17518316646955
 22
26.663160699395
 32
0.0
 13
10.17518316646955
 23
26.663160699395
 33
0.0
  0
SOLID
  5
2E0
330
2B7
100
AcDbEntity
  8
ADPDIM
  6
Continuous
 62
     0
100
AcDbTrace
 10
11.30768316646955
 20
26.693160699395
 30
0.0
 11
11.30768316646955
 21
26.633160699395
 31
0.0
 12
11.48768316646955
 22
26.663160699395
 32
0.0
 13
11.48768316646955
 23
26.663160699395
 33
0.0
  0
MTEXT
  5
2E1
330
2B7
100
AcDbEntity
  8
ADPDIM
  6
Continuous
 62
     0
100
AcDbMText
 10
10.83143316646955
 20
26.663160699395
 30
0.0
 40
0.1
 41
0.0
 71
     5
 72
     1
  1
\A1;1 5/16
 73
     1
 44
1.0
1001
ACAD
1000
MTEXTBEGIN
1070
    73
1070
     1
1070
    44
1040
1.0
1070
    74
1070
     0
1000
MTEXTEND
  0
POINT
  5
2E2
330
2B7
100
AcDbEntity
  8
DEFPOINTS
  6
Continuous
 62
     0
100
AcDbPoint
 10
10.17518316646955
 20
26.93499101607044
 30
0.0
  0
POINT
  5
2E3
330
2B7
100
AcDbEntity
  8
DEFPOINTS
  6
Continuous
 62
     0
100
AcDbPoint
 10
11.48768316646955
 20
26.93499101607044
 30
0.0
  0
POINT
  5
2E4
330
2B7
100
AcDbEntity
  8
DEFPOINTS
  6
Continuous
 62
     0
100
AcDbPoint
 10
11.48768316646955
 20
26.663160699395
 30
0.0
  0
ENDBLK
  5
2C3
330
2B7
100
AcDbEntity
  8
0
100
AcDbBlockEnd
  0
BLOCK
  5
2CF
330
2C4
100
AcDbEntity
  8
0
100
AcDbBlockBegin
  2
*D6
 70
     1
 10
0.0
 20
0.0
 30
0.0
  3
*D6
  1

  0
LINE
  5
2E5
330
2C4
100
AcDbEntity
  8
ADPDIM
  6
Continuous
 62
     0
370
    -2
100
AcDbLine
 10
10.04373500783543
 20
26.68851897185715
 30
0.0
 11
10.04373500783543
 21
25.99496374519871
 31
0.0
  0
LINE
  5
2E6
330
2C4
100
AcDbEntity
  8
ADPDIM
  6
Continuous
 62
     0
370
    -2
100
AcDbLine
 10
11.60623500783543
 20
26.68851897185715
 30
0.0
 11
11.60623500783543
 21
25.99496374519871
 31
0.0
  0
LINE
  5
2E7
330
2C4
100
AcDbEntity
  8
ADPDIM
  6
Continuous
 62
     0
370
    -2
100
AcDbLine
 10
10.22373500783543
 20
26.17496374519871
 30
0.0
 11
10.48498500783543
 21
26.17496374519871
 31
0.0
  0
LINE
  5
2E8
330
2C4
100
AcDbEntity
  8
ADPDIM
  6
Continuous
 62
     0
370
    -2
100
AcDbLine
 10
11.42623500783543
 20
26.17496374519871
 30
0.0
 11
11.16498500783543
 21
26.17496374519871
 31
0.0
  0
SOLID
  5
2E9
330
2C4
100
AcDbEntity
  8
ADPDIM
  6
Continuous
 62
     0
100
AcDbTrace
 10
10.22373500783543
 20
26.20496374519871
 30
0.0
 11
10.22373500783543
 21
26.14496374519871
 31
0.0
 12
10.04373500783543
 22
26.17496374519871
 32
0.0
 13
10.04373500783543
 23
26.17496374519871
 33
0.0
  0
SOLID
  5
2EA
330
2C4
100
AcDbEntity
  8
ADPDIM
  6
Continuous
 62
     0
100
AcDbTrace
 10
11.42623500783543
 20
26.20496374519871
 30
0.0
 11
11.42623500783543
 21
26.14496374519871
 31
0.0
 12
11.60623500783543
 22
26.17496374519871
 32
0.0
 13
11.60623500783543
 23
26.17496374519871
 33
0.0
  0
MTEXT
  5
2EB
330
2C4
100
AcDbEntity
  8
ADPDIM
  6
Continuous
 62
     0
100
AcDbMText
 10
10.82498500783543
 20
26.17496374519871
 30
0.0
 40
0.1
 41
0.0
 71
     5
 72
     1
  1
\A1;1 9/16
 73
     1
 44
1.0
1001
ACAD
1000
MTEXTBEGIN
1070
    73
1070
     1
1070
    44
1040
1.0
1070
    74
1070
     0
1000
MTEXTEND
  0
POINT
  5
2EC
330
2C4
100
AcDbEntity
  8
DEFPOINTS
  6
Continuous
 62
     0
100
AcDbPoint
 10
10.04373500783543
 20
26.75101897185715
 30
0.0
  0
POINT
  5
2ED
330
2C4
100
AcDbEntity
  8
DEFPOINTS
  6
Continuous
 62
     0
100
AcDbPoint
 10
11.60623500783543
 20
26.75101897185715
 30
0.0
  0
POINT
  5
2EE
330
2C4
100
AcDbEntity
  8
DEFPOINTS
  6
Continuous
 62
     0
100
AcDbPoint
 10
11.60623500783543
 20
26.17496374519871
 30
0.0
  0
ENDBLK
  5
2D0
330
2C4
100
AcDbEntity
  8
0
100
AcDbBlockEnd
  0
ENDSEC
  0
SECTION
  2
ENTITIES
  0
ARC
  5
2F
330
A
100
AcDbEntity
  8
ADP1DETAIL
  6
Continuous
 62
     7
100
AcDbCircle
 10
-4.70300415932186
 20
25.70364534202407
 30
0.0
 40
6.970403138445461
210
0.0
220
0.0
230
-1.0
100
AcDbArc
 50
179.3437425025471
 51
279.9406673699222
  0
ARC
  5
30
330
A
100
AcDbEntity
  8
ADP1DETAIL
  6
Continuous
 62
     7
100
AcDbCircle
 10
-4.636642590643587
 20
24.40267198804442
 30
0.0
 40
5.67973748493697
210
0.0
220
0.0
230
-1.0
100
AcDbArc
 50
281.5470444404394
 51
31.63275537128874
  0
ARC
  5
31
330
A
100
AcDbEntity
  8
ADP1DETAIL
  6
Continuous
 62
     7
100
AcDbCircle
 10
-3.333267589112955
 20
24.94854704588559
 30
0.0
 40
4.28929672433659
210
0.0
220
0.0
230
-1.0
100
AcDbArc
 50
34.55687924358024
 51
123.3523539458577
  0
ARC
  5
32
330
A
100
AcDbEntity
  8
ADP1DETAIL
  6
Continuous
 62
     7
100
AcDbCircle
 10
-3.294103265097621
 20
25.508480923275
 30
0.0
 40
3.858172777261336
210
0.0
220
0.0
230
-1.0
100
AcDbArc
 50
128.416401999465
 51
193.6549993931122
  0
ARC
  5
33
330
A
100
AcDbEntity
  8
ADP1DETAIL
  6
Continuous
 62
     7
100
AcDbCircle
 10
-4.356877081687924
 20
25.38148864467788
 30
0.0
 40
2.798364455045258
210
0.0
220
0.0
230
-1.0
100
AcDbArc
 50
196.26625872562
 51
242.3231160322468
  0
ARC
  5
34
330
A
100
AcDbEntity
  8
ADP1DETAIL
  6
Continuous
 62
     7
100
AcDbCircle
 10
-4.703004159321855
 20
25.70364534202408
 30
0.0
 40
7.206675442268044
210
0.0
220
0.0
230
-1.0
100
AcDbArc
 50
179.3437425025471
 51
279.9669528329664
  0
ARC
  5
35
330
A
100
AcDbEntity
  8
ADP1DETAIL
  6
Continuous
 62
     7
100
AcDbCircle
 10
-4.636642590643585
 20
24.40267198804442
 30
0.0
 40
5.916009788759549
210
0.0
220
0.0
230
-1.0
100
AcDbArc
 50
281.5149053567614
 51
31.69097087881477
  0
ARC
  5
36
330
A
100
AcDbEntity
  8
ADP1DETAIL
  6
Continuous
 62
     7
100
AcDbCircle
 10
-3.333267589112955
 20
24.94854704588558
 30
0.0
 40
4.525569028159169
210
0.0
220
0.0
230
-1.0
100
AcDbArc
 50
34.48028649882149
 51
123.4844334237561
  0
ARC
  5
37
330
A
100
AcDbEntity
  8
ADP1DETAIL
  6
Continuous
 62
     7
100
AcDbCircle
 10
-3.294103265097621
 20
25.508480923275
 30
0.0
 40
4.094445081083915
210
0.0
220
0.0
230
-1.0
100
AcDbArc
 50
128.2699900084977
 51
193.729945979089
  0
ARC
  5
38
330
A
100
AcDbEntity
  8
ADP1DETAIL
  6
Continuous
 62
     7
100
AcDbCircle
 10
-4.356877081687928
 20
25.38148864467788
 30
0.0
 40
3.034636758867834
210
0.0
220
0.0
230
-1.0
100
AcDbArc
 50
196.1640389914192
 51
242.3231160322468
  0
ARC
  5
39
330
A
100
AcDbEntity
  8
ADP1DETAIL
  6
Continuous
 62
     7
100
AcDbCircle
 10
-4.573856022304006
 20
24.52279974039973
 30
0.0
 40
2.183221106303583
210
0.0
220
0.0
230
-1.0
100
AcDbArc
 50
236.8905271302947
 51
93.32062600081867
  0
ARC
  5
3A
330
A
100
AcDbEntity
  8
ADP1DETAIL
  6
Continuous
 62
     7
100
AcDbCircle
 10
-4.703004159321963
 20
25.70364534202405
 30
0.0
 40
5.193162324561663
210
0.0
220
0.0
230
-1.0
100
AcDbArc
 50
179.0458634434198
 51
279.6064705534994
  0
ARC
  5
3B
330
A
100
AcDbEntity
  8
ADP1DETAIL
  6
Continuous
 62
     7
100
AcDbCircle
 10
-4.703004159321963
 20
25.70364534202405
 30
0.0
 40
4.956890020739085
210
0.0
220
0.0
230
-1.0
100
AcDbArc
 50
179.0458634434198
 51
279.6064705534994
  0
ARC
  5
3C
330
A
100
AcDbEntity
  8
ADP1DETAIL
  6
Continuous
 62
     7
100
AcDbCircle
 10
-4.636642590643582
 20
24.40267198804442
 30
0.0
 40
3.902496671053176
210
0.0
220
0.0
230
-1.0
100
AcDbArc
 50
281.9775340293811
 51
30.79003816300355
  0
ARC
  5
3D
330
A
100
AcDbEntity
  8
ADP1DETAIL
  6
Continuous
 62
     7
100
AcDbCircle
 10
-4.636642590643582
 20
24.40267198804442
 30
0.0
 40
3.666224367230598
210
0.0
220
0.0
230
-1.0
100
AcDbArc
 50
281.9775340293811
 51
30.79003816300355
  0
ARC
  5
3E
330
A
100
AcDbEntity
  8
ADP1DETAIL
  6
Continuous
 62
     7
100
AcDbCircle
 10
-4.573856022304006
 20
24.52279974039973
 30
0.0
 40
1.946948802481004
210
0.0
220
0.0
230
-1.0
100
AcDbArc
 50
236.8905271302947
 51
117.9474306393172
  0
ARC
  5
3F
330
A
100
AcDbEntity
  8
ADP1DETAIL
  6
Continuous
 62
     7
100
AcDbCircle
 10
-3.333267589112949
 20
24.94854704588559
 30
0.0
 40
2.512055910452794
210
0.0
220
0.0
230
-1.0
100
AcDbArc
 50
35.78771873523848
 51
148.9909544982578
  0
ARC
  5
40
330
A
100
AcDbEntity
  8
ADP1DETAIL
  6
Continuous
 62
     7
100
AcDbCircle
 10
-3.333267589112949
 20
24.94854704588559
 30
0.0
 40
2.275783606630217
210
0.0
220
0.0
230
-1.0
100
AcDbArc
 50
35.78771873523854
 51
121.0494230838214
  0
ARC
  5
41
330
A
100
AcDbEntity
  8
ADP1DETAIL
  6
Continuous
 62
     7
100
AcDbCircle
 10
-3.294103265097625
 20
25.50848092327507
 30
0.0
 40
1.844659659554967
210
0.0
220
0.0
230
-1.0
100
AcDbArc
 50
131.1135285934911
 51
139.6687419610071
  0
LWPOLYLINE
  5
42
330
A
100
AcDbEntity
  8
ADP1DETAIL
  6
Continuous
 62
     7
100
AcDbPolyline
 90
        2
 70
   128
 43
0.0
 10
11.90920688209673
 20
25.7861877460522
 10
9.659206882096716
 20
25.7861877460522
  0
TEXT
  5
FE
330
A
100
AcDbEntity
  8
ADPDIM
100
AcDbText
 10
-5.252484611151053
 20
17.6981933033406
 30
0.0
 40
0.1875
  1
J U L I U S  B L U M  &  C O . ,  I N C .      ( 8 0 0 )  5 2 6 - 6 2 9 3        W W W . J U L I U S B L U M . C O M        P A R T  N o .  5 5 3 0 - G L
 41
1.25
  7
ARIAL_WIDE
 72
     1
 11
4.945465806652493
 21
17.8856933033406
 31
0.0
100
AcDbText
 73
     3
  0
DIMENSION
  5
2A6
330
A
100
AcDbEntity
  8
ADPDIM
  6
Continuous
 62
     3
100
AcDbDimension
  2
*D4
 10
11.95807444031039
 20
28.03930170403834
 30
0.0
 11
10.83307444031039
 21
28.03930170403834
 31
0.0
 70
    32
 71
     5
 42
2.25
  3
STANDARD
100
AcDbAlignedDimension
 13
9.708074440310394
 23
27.13036905389867
 33
0.0
 14
11.95807444031039
 24
27.13036905389867
 34
0.0
100
AcDbRotatedDimension
1001
ACAD
1000
DSTYLE
1002
{
1070
   140
1040
0.1
1070
   276
1070
     2
1070
   277
1070
     5
1070
   289
1070
     3
1002
}
  0
DIMENSION
  5
2A7
330
A
100
AcDbEntity
  8
ADPDIM
  6
Continuous
 62
     3
100
AcDbDimension
  2
*D5
 10
11.48768316646955
 20
26.663160699395
 30
0.0
 11
10.83143316646955
 21
26.663160699395
 31
0.0
 70
    32
 71
     5
 42
1.3125
  3
STANDARD
100
AcDbAlignedDimension
 13
10.17518316646955
 23
26.93499101607044
 33
0.0
 14
11.48768316646955
 24
26.93499101607044
 34
0.0
100
AcDbRotatedDimension
1001
ACAD
1000
DSTYLE
1002
{
1070
   140
1040
0.1
1070
   276
1070
     2
1070
   277
1070
     5
1070
   289
1070
     3
1002
}
  0
DIMENSION
  5
2A8
330
A
100
AcDbEntity
  8
ADPDIM
  6
Continuous
 62
     3
100
AcDbDimension
  2
*D6
 10
11.60623500783543
 20
26.17496374519871
 30
0.0
 11
10.82498500783543
 21
26.17496374519871
 31
0.0
 70
    32
 71
     5
 42
1.5625
  3
STANDARD
100
AcDbAlignedDimension
 13
10.04373500783543
 23
26.75101897185715
 33
0.0
 14
11.60623500783543
 24
26.75101897185715
 34
0.0
100
AcDbRotatedDimension
1001
ACAD
1000
DSTYLE
1002
{
1070
   140
1040
0.1
1070
   276
1070
     2
1070
   277
1070
     5
1070
   289
1070
     3
1002
}
  0
SPLINE
  5
2A9
330
A
100
AcDbEntity
  8
ADPDIM
 62
     7
370
     0
100
AcDbSpline
210
0.0
220
0.0
230
1.0
 70
    11
 71
     3
 72
   116
 73
   112
 74
     0
 42
0.0000000001
 43
0.0000000001
 40
0.0
 40
0.0
 40
0.0
 40
0.0
 40
1.0
 40
1.0
 40
1.0
 40
2.0
 40
2.0
 40
2.0
 40
3.0
 40
3.0
 40
3.0
 40
4.0
 40
4.0
 40
4.0
 40
5.0
 40
5.0
 40
5.0
 40
6.0
 40
6.0
 40
6.0
 40
7.0
 40
7.0
 40
7.0
 40
8.0
 40
8.0
 40
8.0
 40
9.0
 40
9.0
 40
9.0
 40
10.0
 40
10.0
 40
10.0
 40
11.0
 40
11.0
 40
11.0
 40
12.0
 40
12.0
 40
12.0
 40
13.0
 40
13.0
 40
13.0
 40
14.0
 40
14.0
 40
14.0
 40
15.0
 40
15.0
 40
15.0
 40
16.0
 40
16.0
 40
16.0
 40
17.0
 40
17.0
 40
17.0
 40
18.0
 40
18.0
 40
18.0
 40
19.0
 40
19.0
 40
19.0
 40
20.0
 40
20.0
 40
20.0
 40
21.0
 40
21.0
 40
21.0
 40
22.0
 40
22.0
 40
22.0
 40
23.0
 40
23.0
 40
23.0
 40
24.0
 40
24.0
 40
24.0
 40
25.0
 40
25.0
 40
25.0
 40
26.0
 40
26.0
 40
26.0
 40
27.0
 40
27.0
 40
27.0
 40
28.0
 40
28.0
 40
28.0
 40
29.0
 40
29.0
 40
29.0
 40
30.0
 40
30.0
 40
30.0
 40
31.0
 40
31.0
 40
31.0
 40
32.0
 40
32.0
 40
32.0
 40
33.0
 40
33.0
 40
33.0
 40
34.0
 40
34.0
 40
34.0
 40
35.0
 40
35.0
 40
35.0
 40
36.0
 40
36.0
 40
36.0
 40
37.0
 40
37.0
 40
37.0
 40
37.0
 10
11.70607652288552
 20
26.73782697394471
 30
0.0
 10
11.70309804349879
 20
26.730780819549
 30
0.0
 10
11.69612584683052
 20
26.7258458221001
 30
0.0
 10
11.68799722024234
 20
26.7258458221001
 30
0.0
 10
11.68799722024234
 20
26.7258458221001
 30
0.0
 10
11.62117305178919
 20
26.7258458221001
 30
0.0
 10
11.62117305178919
 20
26.7258458221001
 30
0.0
 10
11.61034160643473
 20
26.7258458221001
 30
0.0
 10
11.6015540837294
 20
26.73462662137567
 30
0.0
 10
11.6015540837294
 20
26.7454647901599
 30
0.0
 10
11.6015540837294
 20
26.7454647901599
 30
0.0
 10
11.60182302092007
 20
26.90979213709255
 30
0.0
 10
11.60182302092007
 20
26.90979213709255
 30
0.0
 10
11.60182302092007
 20
26.90979213709255
 30
0.0
 10
11.48205184305263
 20
26.9093954547363
 30
0.0
 10
11.48205184305263
 20
26.9093954547363
 30
0.0
 10
11.48205184305263
 20
26.9093954547363
 30
0.0
 10
11.48205184305263
 20
27.08351211540954
 30
0.0
 10
11.48205184305263
 20
27.08351211540954
 30
0.0
 10
11.48205184305263
 20
27.08351211540954
 30
0.0
 10
10.18312555266741
 20
27.08351211540954
 30
0.0
 10
10.18312555266741
 20
27.08351211540954
 30
0.0
 10
10.18312555266741
 20
27.08351211540954
 30
0.0
 10
10.18312555266741
 20
26.9093954547363
 30
0.0
 10
10.18312555266741
 20
26.9093954547363
 30
0.0
 10
10.18312555266741
 20
26.9093954547363
 30
0.0
 10
10.0553669402369
 20
26.90979213709255
 30
0.0
 10
10.0553669402369
 20
26.90979213709255
 30
0.0
 10
10.0553669402369
 20
26.90979213709255
 30
0.0
 10
10.05562243056804
 20
26.7454647901599
 30
0.0
 10
10.05562243056804
 20
26.7454647901599
 30
0.0
 10
10.05562243056804
 20
26.73462662137567
 30
0.0
 10
10.04684835472225
 20
26.7258458221001
 30
0.0
 10
10.03600346250825
 20
26.7258458221001
 30
0.0
 10
10.03600346250825
 20
26.7258458221001
 30
0.0
 10
9.972621690095744
 20
26.7258458221001
 30
0.0
 10
9.972621690095744
 20
26.7258458221001
 30
0.0
 10
9.964493063507569
 20
26.7258458221001
 30
0.0
 10
9.957520866839303
 20
26.730780819549
 30
0.0
 10
9.954555834312103
 20
26.73782697394471
 30
0.0
 10
9.953554043276835
 20
26.74016672750359
 30
0.0
 10
9.952209357323456
 20
26.74791211859505
 30
0.0
 10
9.952209357323456
 20
26.74791211859505
 30
0.0
 10
9.929793442480633
 20
26.82758476133274
 30
0.0
 10
9.872442586569032
 20
26.8926406677572
 30
0.0
 10
9.797731834999311
 20
26.92550479245777
 30
0.0
 10
9.797731834999311
 20
26.92550479245777
 30
0.0
 10
9.797422557230033
 20
26.92481227919178
 30
0.0
 10
9.797422557230033
 20
26.92481227919178
 30
0.0
 10
9.748946628610731
 20
26.94542631485708
 30
0.0
 10
9.714979861428385
 20
26.9934719439713
 30
0.0
 10
9.714979861428385
 20
27.04945122021046
 30
0.0
 10
9.714979861428385
 20
27.11961020982799
 30
0.0
 10
9.768350446917986
 20
27.17731068408747
 30
0.0
 10
9.836700833928226
 20
27.1841484121604
 30
0.0
 10
9.836700833928226
 20
27.1841484121604
 30
0.0
 10
9.835981426943167
 20
27.1841484121604
 30
0.0
 10
9.835981426943167
 20
27.1841484121604
 30
0.0
 10
9.835981426943167
 20
27.1841484121604
 30
0.0
 10
9.835981426943167
 20
27.20696773278924
 30
0.0
 10
9.835981426943167
 20
27.20696773278924
 30
0.0
 10
9.835981426943167
 20
27.2177991781437
 30
0.0
 10
9.844768949648496
 20
27.22657997741927
 30
0.0
 10
9.855586948143429
 20
27.22657997741927
 30
0.0
 10
9.855586948143429
 20
27.22657997741927
 30
0.0
 10
9.937202662083748
 20
27.22684891460994
 30
0.0
 10
9.937202662083748
 20
27.22684891460994
 30
0.0
 10
10.11684598202537
 20
27.22684891460994
 30
0.0
 10
10.28142881928916
 20
27.29140728723165
 30
0.0
 10
10.4089790053969
 20
27.39859892800524
 30
0.0
 10
10.4089790053969
 20
27.39859892800524
 30
0.0
 10
10.40874368535505
 20
27.39890820577451
 30
0.0
 10
10.40874368535505
 20
27.39890820577451
 30
0.0
 10
10.52433288990749
 20
27.49124779019303
 30
0.0
 10
10.67087004167693
 20
27.54644042514946
 30
0.0
 10
10.83031617859881
 20
27.54644042514946
 30
0.0
 10
10.98974886866116
 20
27.54644042514946
 30
0.0
 10
11.13629946729013
 20
27.49124779019303
 30
0.0
 10
11.25187522498303
 20
27.39890820577451
 30
0.0
 10
11.25187522498303
 20
27.39890820577451
 30
0.0
 10
11.25162645808166
 20
27.39859892800524
 30
0.0
 10
11.25162645808166
 20
27.39859892800524
 30
0.0
 10
11.37919009104893
 20
27.29140728723165
 30
0.0
 10
11.54375948145318
 20
27.22684891460994
 30
0.0
 10
11.72341624825434
 20
27.22684891460994
 30
0.0
 10
11.72341624825434
 20
27.22684891460994
 30
0.0
 10
11.80503196219466
 20
27.22657997741927
 30
0.0
 10
11.80503196219466
 20
27.22657997741927
 30
0.0
 10
11.81586340754913
 20
27.22657997741927
 30
0.0
 10
11.82463075996516
 20
27.2177991781437
 30
0.0
 10
11.82463075996516
 20
27.20696773278924
 30
0.0
 10
11.82463075996516
 20
27.20696773278924
 30
0.0
 10
11.82463075996516
 20
27.1841484121604
 30
0.0
 10
11.82463075996516
 20
27.1841484121604
 30
0.0
 10
11.82463075996516
 20
27.1841484121604
 30
0.0
 10
11.82391807640986
 20
27.1841484121604
 30
0.0
 10
11.82391807640986
 20
27.1841484121604
 30
0.0
 10
11.89226846342011
 20
27.17731068408747
 30
0.0
 10
11.94565249576924
 20
27.11961020982799
 30
0.0
 10
11.94565249576924
 20
27.04945122021046
 30
0.0
 10
11.94565249576924
 20
26.9934719439713
 30
0.0
 10
11.91167228172736
 20
26.94542631485708
 30
0.0
 10
11.86320979996759
 20
26.92481227919178
 30
0.0
 10
11.86320979996759
 20
26.92481227919178
 30
0.0
 10
11.86290052219831
 20
26.92550479245777
 30
0.0
 10
11.86290052219831
 20
26.92550479245777
 30
0.0
 10
11.78818977062859
 20
26.8926406677572
 30
0.0
 10
11.73082546785746
 20
26.82758476133274
 30
0.0
 10
11.7083961061551
 20
26.74791211859505
 30
0.0
 10
11.7083961061551
 20
26.74791211859505
 30
0.0
 10
11.70706486706126
 20
26.74016672750359
 30
0.0
 10
11.70607652288552
 20
26.73782697394471
 30
0.0
  0
ENDSEC
  0
SECTION
  2
OBJECTS
  0
DICTIONARY
  5
19
330
0
100
AcDbDictionary
281
     1
  3
ACAD_COLOR
350
26F
  3
ACAD_GROUP
350
1A
  3
ACAD_LAYOUT
350
F6
  3
ACAD_MATERIAL
350
25A
  3
ACAD_MLINESTYLE
350
1B
  3
ACAD_PLOTSETTINGS
350
F7
  3
ACAD_PLOTSTYLENAME
350
F4
  3
ACAD_TABLESTYLE
350
270
  3
ACAD_VISUALSTYLE
350
25E
  3
AcDbVariableDictionary
350
160
  3
ASE_INDEX_DICTIONARY
350
2F0
  3
DWGPROPS
350
311
  0
DICTIONARY
  5
154
330
A
100
AcDbDictionary
280
     1
281
     1
  3
ACAD_LAYOUTSELFREF
360
24D
  0
DICTIONARY
  5
156
330
B
100
AcDbDictionary
280
     1
281
     1
  3
ACAD_LAYOUTSELFREF
360
24E
  0
DICTIONARY
  5
26F
102
{ACAD_REACTORS
330
19
102
}
330
19
100
AcDbDictionary
281
     1
  0
DICTIONARY
  5
1A
102
{ACAD_REACTORS
330
19
102
}
330
19
100
AcDbDictionary
281
     1
  0
DICTIONARY
  5
F6
102
{ACAD_REACTORS
330
19
102
}
330
19
100
AcDbDictionary
281
     1
  3
Layout1
350
F9
  3
Model
350
F8
  0
DICTIONARY
  5
25A
102
{ACAD_REACTORS
330
19
102
}
330
19
100
AcDbDictionary
281
     1
  3
ByBlock
350
25C
  3
ByLayer
350
25B
  3
Global
350
25D
  0
DICTIONARY
  5
1B
102
{ACAD_REACTORS
330
19
102
}
330
19
100
AcDbDictionary
281
     1
  3
STANDARD
350
1C
  0
DICTIONARY
  5
F7
102
{ACAD_REACTORS
330
19
102
}
330
19
100
AcDbDictionary
281
     1
  0
ACDBDICTIONARYWDFLT
  5
F4
102
{ACAD_REACTORS
330
19
102
}
330
19
100
AcDbDictionary
281
     1
  3
Normal
350
F5
100
AcDbDictionaryWithDefault
340
F5
  0
DICTIONARY
  5
270
102
{ACAD_REACTORS
330
19
102
}
330
19
100
AcDbDictionary
281
     1
  3
Standard
350
271
  0
DICTIONARY
  5
25E
102
{ACAD_REACTORS
330
19
102
}
330
19
100
AcDbDictionary
281
     1
  3
2dWireframe
350
264
  3
3D Hidden
350
266
  3
3dWireframe
350
265
  3
Basic
350
263
  3
Brighten
350
26A
  3
ColorChange
350
26E
  3
Conceptual
350
267
  3
Dim
350
269
  3
Facepattern
350
26D
  3
Flat
350
25F
  3
FlatWithEdges
350
260
  3
Gouraud
350
261
  3
GouraudWithEdges
350
262
  3
Linepattern
350
26C
  3
Realistic
350
268
  3
Thicken
350
26B
  0
DICTIONARY
  5
160
102
{ACAD_REACTORS
330
19
102
}
330
19
100
AcDbDictionary
281
     1
  3
CTABLESTYLE
350
30E
  3
DIMASSOC
350
161
  3
INDEXCTL
350
310
  3
SORTENTS
350
30F
  0
DICTIONARY
  5
2F0
102
{ACAD_REACTORS
330
19
102
}
330
19
100
AcDbDictionary
281
     1
  3
ASEBlockHierarchyIndexRecord
350
2F1
1001
DCO15
1040
1569088883.027
  0
XRECORD
  5
311
102
{ACAD_REACTORS
330
19
102
}
330
19
100
AcDbXrecord
280
     1
  1
DWGPROPS COOKIE
  2

  3

  4

  6

  7

  8
Yu Hu
  9

300
=
301
=
302
=
303
=
304
=
305
=
306
=
307
=
308
=
309
=
 40
0.0561651967592593
 41
2444971.791666667
 42
2453963.962812812
  1

 90
        0
  0
XRECORD
  5
24D
102
{ACAD_REACTORS
330
154
102
}
330
154
100
AcDbXrecord
280
     1
340
A
  0
XRECORD
  5
24E
102
{ACAD_REACTORS
330
156
102
}
330
156
100
AcDbXrecord
280
     1
340
B
  0
LAYOUT
  5
F9
102
{ACAD_XDICTIONARY
360
314
102
}
102
{ACAD_REACTORS
330
F6
102
}
330
F6
100
AcDbPlotSettings
  1

  2
Fax
  4

  6

 40
0.0
 41
0.0
 42
0.0
 43
0.0
 44
0.0
 45
0.0
 46
0.0
 47
0.0
 48
0.0
 49
0.0
140
0.0
141
0.0
142
1.0
143
1.0
 70
   688
 72
     0
 73
     0
 74
     5
  7
Default R14 pen assignments.ctb
 75
    16
147
1.0
148
0.0
149
0.0
100
AcDbLayout
  1
Layout1
 70
     0
 71
     1
 10
0.0
 20
0.0
 11
12.0
 21
9.0
 12
0.0
 22
0.0
 32
0.0
 14
1.000000000000000E+20
 24
1.000000000000000E+20
 34
1.000000000000000E+20
 15
-1.000000000000000E+20
 25
-1.000000000000000E+20
 35
-1.000000000000000E+20
146
0.0
 13
0.0
 23
0.0
 33
0.0
 16
1.0
 26
0.0
 36
0.0
 17
0.0
 27
1.0
 37
0.0
 76
     0
330
B
  0
LAYOUT
  5
F8
102
{ACAD_XDICTIONARY
360
312
102
}
102
{ACAD_REACTORS
330
F6
102
}
330
F6
100
AcDbPlotSettings
  1

  2
Fax
  4

  6

 40
0.0
 41
0.0
 42
0.0
 43
0.0
 44
0.0
 45
0.0
 46
0.0
 47
0.0
 48
0.0
 49
0.0
140
0.0
141
0.0
142
1.0
143
1.0
 70
  1712
 72
     0
 73
     0
 74
     0
  7
Default R14 pen assignments.ctb
 75
     0
147
1.0
148
0.0
149
0.0
100
AcDbLayout
  1
Model
 70
     1
 71
     0
 10
0.0
 20
0.0
 11
12.0
 21
9.0
 12
0.0
 22
0.0
 32
0.0
 14
0.0
 24
0.0
 34
0.0
 15
0.0
 25
0.0
 35
0.0
146
0.0
 13
0.0
 23
0.0
 33
0.0
 16
1.0
 26
0.0
 36
0.0
 17
0.0
 27
1.0
 37
0.0
 76
     0
330
A
331
22A
  0
MATERIAL
  5
25C
102
{ACAD_XDICTIONARY
360
318
102
}
102
{ACAD_REACTORS
330
25A
102
}
330
25A
100
AcDbMaterial
  1
ByBlock
  0
MATERIAL
  5
25B
102
{ACAD_XDICTIONARY
360
316
102
}
102
{ACAD_REACTORS
330
25A
102
}
330
25A
100
AcDbMaterial
  1
ByLayer
  0
MATERIAL
  5
25D
102
{ACAD_XDICTIONARY
360
31A
102
}
102
{ACAD_REACTORS
330
25A
102
}
330
25A
100
AcDbMaterial
  1
Global
  0
MLINESTYLE
  5
1C
102
{ACAD_REACTORS
330
1B
102
}
330
1B
100
AcDbMlineStyle
  2
STANDARD
 70
     0
  3

 62
     0
 51
90.00000000000019
 52
90.00000000000019
 71
     2
 49
0.5
 62
   256
  6
BYLAYER
 49
-0.5
 62
   256
  6
BYLAYER
  0
ACDBPLACEHOLDER
  5
F5
102
{ACAD_REACTORS
330
F4
102
}
330
F4
  0
TABLESTYLE
  5
271
102
{ACAD_XDICTIONARY
360
31C
102
}
102
{ACAD_REACTORS
330
270
102
}
330
270
100
AcDbTableStyle
  3
Standard
 70
     0
 71
     0
 40
0.06
 41
0.06
280
     0
281
     0
  7
STANDARD
140
0.18
170
     2
 62
     0
 63
     7
283
     0
274
    -2
284
     1
 64
     0
275
    -2
285
     1
 65
     0
276
    -2
286
     1
 66
     0
277
    -2
287
     1
 67
     0
278
    -2
288
     1
 68
     0
279
    -2
289
     1
 69
     0
  7
STANDARD
140
0.25
170
     5
 62
     0
 63
     7
283
     0
274
    -2
284
     1
 64
     0
275
    -2
285
     1
 65
     0
276
    -2
286
     1
 66
     0
277
    -2
287
     1
 67
     0
278
    -2
288
     1
 68
     0
279
    -2
289
     1
 69
     0
  7
STANDARD
140
0.18
170
     5
 62
     0
 63
     7
283
     0
274
    -2
284
     1
 64
     0
275
    -2
285
     1
 65
     0
276
    -2
286
     1
 66
     0
277
    -2
287
     1
 67
     0
278
    -2
288
     1
 68
     0
279
    -2
289
     1
 69
     0
  0
VISUALSTYLE
  5
264
102
{ACAD_REACTORS
330
25E
102
}
330
25E
100
AcDbVisualStyle
  2
2dWireframe
 70
     4
 71
     0
 72
     2
 73
     0
 90
        0
 40
-0.6
 41
-30.0
 62
     5
 63
     7
 74
     1
 91
        4
 64
     7
 65
   257
 75
     1
175
     1
 42
1.0
 92
        0
 66
   257
 43
1.0
 76
     1
 77
     6
 78
     2
 67
     7
 79
     5
170
     0
171
     0
290
     0
174
     0
 93
        1
 44
0.0
173
     0
291
     0
 45
0.0
1001
ACAD
1000
AcDbSavedByObjectVersion
1070
     0
  0
VISUALSTYLE
  5
266
102
{ACAD_REACTORS
330
25E
102
}
330
25E
100
AcDbVisualStyle
  2
3D Hidden
 70
     6
 71
     1
 72
     2
 73
     2
 90
        0
 40
-0.6
 41
-30.0
 62
     5
 63
     7
 74
     2
 91
        2
 64
     7
 65
   257
 75
     2
175
     1
 42
40.0
 92
        0
 66
   257
 43
1.0
 76
     1
 77
     6
 78
     2
 67
     7
 79
     3
170
     0
171
     0
290
     0
174
     0
 93
        1
 44
0.0
173
     0
291
     0
 45
0.0
1001
ACAD
1000
AcDbSavedByObjectVersion
1070
     0
  0
VISUALSTYLE
  5
265
102
{ACAD_REACTORS
330
25E
102
}
330
25E
100
AcDbVisualStyle
  2
3dWireframe
 70
     5
 71
     0
 72
     2
 73
     0
 90
        0
 40
-0.6
 41
-30.0
 62
     5
 63
     7
 74
     1
 91
        4
 64
     7
 65
   257
 75
     1
175
     1
 42
1.0
 92
        0
 66
   257
 43
1.0
 76
     1
 77
     6
 78
     2
 67
     7
 79
     5
170
     0
171
     0
290
     0
174
     0
 93
        1
 44
0.0
173
     0
291
     0
 45
0.0
1001
ACAD
1000
AcDbSavedByObjectVersion
1070
     0
  0
VISUALSTYLE
  5
263
102
{ACAD_REACTORS
330
25E
102
}
330
25E
100
AcDbVisualStyle
  2
Basic
 70
     7
 71
     1
 72
     0
 73
     1
 90
        0
 40
-0.6
 41
-30.0
 62
     5
 63
     7
 74
     0
 91
        4
 64
     7
 65
   257
 75
     1
175
     1
 42
1.0
 92
        8
 66
     7
 43
1.0
 76
     1
 77
     6
 78
     2
 67
     7
 79
     5
170
     0
171
     0
290
     0
174
     0
 93
        1
 44
0.0
173
     0
291
     1
 45
0.0
1001
ACAD
1000
AcDbSavedByObjectVersion
1070
     0
  0
VISUALSTYLE
  5
26A
102
{ACAD_REACTORS
330
25E
102
}
330
25E
100
AcDbVisualStyle
  2
Brighten
 70
    12
 71
     2
 72
     2
 73
     0
 90
        0
 40
-0.6
 41
-30.0
 62
     5
 63
     7
 74
     1
 91
        4
 64
     7
 65
   257
 75
     1
175
     1
 42
1.0
 92
        8
 66
     7
 43
1.0
 76
     1
 77
     6
 78
     2
 67
     7
 79
     5
170
     0
171
     0
290
     0
174
     0
 93
        1
 44
50.0
173
     0
291
     1
 45
0.0
1001
ACAD
1000
AcDbSavedByObjectVersion
1070
     0
  0
VISUALSTYLE
  5
26E
102
{ACAD_REACTORS
330
25E
102
}
330
25E
100
AcDbVisualStyle
  2
ColorChange
 70
    16
 71
     2
 72
     2
 73
     3
 90
        0
 40
-0.6
 41
-30.0
 62
     5
 63
     8
 74
     1
 91
        4
 64
     7
 65
   257
 75
     1
175
     1
 42
1.0
 92
        8
 66
     8
 43
1.0
 76
     1
 77
     6
 78
     2
 67
     7
 79
     5
170
     0
171
     0
290
     0
174
     0
 93
        1
 44
0.0
173
     0
291
     1
 45
0.0
1001
ACAD
1000
AcDbSavedByObjectVersion
1070
     0
  0
VISUALSTYLE
  5
267
102
{ACAD_REACTORS
330
25E
102
}
330
25E
100
AcDbVisualStyle
  2
Conceptual
 70
     9
 71
     3
 72
     2
 73
     0
 90
        0
 40
-0.6
 41
-30.0
 62
     5
 63
     7
 74
     2
 91
        2
 64
     7
 65
   257
 75
     1
175
     1
 42
40.0
 92
        8
 66
     7
 43
1.0
 76
     1
 77
     6
 78
     2
 67
     7
 79
     3
170
     0
171
     0
290
     0
174
     0
 93
        1
 44
0.0
173
     0
291
     0
 45
0.0
1001
ACAD
1000
AcDbSavedByObjectVersion
1070
     0
  0
VISUALSTYLE
  5
269
102
{ACAD_REACTORS
330
25E
102
}
330
25E
100
AcDbVisualStyle
  2
Dim
 70
    11
 71
     2
 72
     2
 73
     0
 90
        0
 40
-0.6
 41
-30.0
 62
     5
 63
     7
 74
     1
 91
        4
 64
     7
 65
   257
 75
     1
175
     1
 42
1.0
 92
        8
 66
     7
 43
1.0
 76
     1
 77
     6
 78
     2
 67
     7
 79
     5
170
     0
171
     0
290
     0
174
     0
 93
        1
 44
-50.0
173
     0
291
     1
 45
0.0
1001
ACAD
1000
AcDbSavedByObjectVersion
1070
     0
  0
VISUALSTYLE
  5
26D
102
{ACAD_REACTORS
330
25E
102
}
330
25E
100
AcDbVisualStyle
  2
Facepattern
 70
    15
 71
     2
 72
     2
 73
     0
 90
        0
 40
-0.6
 41
-30.0
 62
     5
 63
     7
 74
     1
 91
        4
 64
     7
 65
   257
 75
     1
175
     1
 42
1.0
 92
        8
 66
     7
 43
1.0
 76
     1
 77
     6
 78
     2
 67
     7
 79
     5
170
     0
171
     0
290
     0
174
     0
 93
        1
 44
0.0
173
     0
291
     1
 45
0.0
1001
ACAD
1000
AcDbSavedByObjectVersion
1070
     0
  0
VISUALSTYLE
  5
25F
102
{ACAD_REACTORS
330
25E
102
}
330
25E
100
AcDbVisualStyle
  2
Flat
 70
     0
 71
     2
 72
     1
 73
     1
 90
        2
 40
-0.6
 41
30.0
 62
     5
 63
     7
 74
     0
 91
        4
 64
     7
 65
   257
 75
     1
175
     1
 42
1.0
 92
        8
 66
     7
 43
1.0
 76
     1
 77
     6
 78
     2
 67
     7
 79
     5
170
     0
171
     0
290
     0
174
     0
 93
       13
 44
0.0
173
     0
291
     1
 45
0.0
1001
ACAD
1000
AcDbSavedByObjectVersion
1070
     0
  0
VISUALSTYLE
  5
260
102
{ACAD_REACTORS
330
25E
102
}
330
25E
100
AcDbVisualStyle
  2
FlatWithEdges
 70
     1
 71
     2
 72
     1
 73
     1
 90
        2
 40
-0.6
 41
30.0
 62
     5
 63
     7
 74
     1
 91
        4
 64
     7
 65
   257
 75
     1
175
     1
 42
1.0
 92
        0
 66
   257
 43
1.0
 76
     1
 77
     6
 78
     2
 67
     7
 79
     5
170
     0
171
     0
290
     0
174
     0
 93
       13
 44
0.0
173
     0
291
     1
 45
0.0
1001
ACAD
1000
AcDbSavedByObjectVersion
1070
     0
  0
VISUALSTYLE
  5
261
102
{ACAD_REACTORS
330
25E
102
}
330
25E
100
AcDbVisualStyle
  2
Gouraud
 70
     2
 71
     2
 72
     2
 73
     1
 90
        2
 40
-0.6
 41
30.0
 62
     5
 63
     7
 74
     0
 91
        4
 64
     7
 65
   257
 75
     1
175
     1
 42
1.0
 92
        0
 66
     7
 43
1.0
 76
     1
 77
     6
 78
     2
 67
     7
 79
     5
170
     0
171
     0
290
     0
174
     0
 93
       13
 44
0.0
173
     0
291
     1
 45
0.0
1001
ACAD
1000
AcDbSavedByObjectVersion
1070
     0
  0
VISUALSTYLE
  5
262
102
{ACAD_REACTORS
330
25E
102
}
330
25E
100
AcDbVisualStyle
  2
GouraudWithEdges
 70
     3
 71
     2
 72
     2
 73
     1
 90
        2
 40
-0.6
 41
30.0
 62
     5
 63
     7
 74
     1
 91
        4
 64
     7
 65
   257
 75
     1
175
     1
 42
1.0
 92
        0
 66
   257
 43
1.0
 76
     1
 77
     6
 78
     2
 67
     7
 79
     5
170
     0
171
     0
290
     0
174
     0
 93
       13
 44
0.0
173
     0
291
     1
 45
0.0
1001
ACAD
1000
AcDbSavedByObjectVersion
1070
     0
  0
VISUALSTYLE
  5
26C
102
{ACAD_REACTORS
330
25E
102
}
330
25E
100
AcDbVisualStyle
  2
Linepattern
 70
    14
 71
     2
 72
     2
 73
     0
 90
        0
 40
-0.6
 41
-30.0
 62
     5
 63
     7
 74
     1
 91
        4
 64
     7
 65
   257
 75
     7
175
     7
 42
1.0
 92
        8
 66
     7
 43
1.0
 76
     1
 77
     6
 78
     2
 67
     7
 79
     5
170
     0
171
     0
290
     0
174
     0
 93
        1
 44
0.0
173
     0
291
     1
 45
0.0
1001
ACAD
1000
AcDbSavedByObjectVersion
1070
     0
  0
VISUALSTYLE
  5
268
102
{ACAD_REACTORS
330
25E
102
}
330
25E
100
AcDbVisualStyle
  2
Realistic
 70
     8
 71
     2
 72
     2
 73
     0
 90
        0
 40
-0.6
 41
-30.0
 62
     5
 63
     7
 74
     1
 91
        0
 64
     7
 65
   257
 75
     1
175
     1
 42
1.0
 92
        8
 66
     8
 43
1.0
 76
     1
 77
     6
 78
     2
 67
     7
 79
     5
170
     0
171
     0
290
     0
174
     0
 93
       13
 44
0.0
173
     0
291
     0
 45
0.0
1001
ACAD
1000
AcDbSavedByObjectVersion
1070
     0
  0
VISUALSTYLE
  5
26B
102
{ACAD_REACTORS
330
25E
102
}
330
25E
100
AcDbVisualStyle
  2
Thicken
 70
    13
 71
     2
 72
     2
 73
     0
 90
        0
 40
-0.6
 41
-30.0
 62
     5
 63
     7
 74
     1
 91
        4
 64
     7
 65
   257
 75
     1
175
     1
 42
1.0
 92
       12
 66
     7
 43
1.0
 76
     1
 77
     6
 78
     2
 67
     7
 79
     5
170
     0
171
     0
290
     0
174
     0
 93
        1
 44
0.0
173
     0
291
     1
 45
0.0
1001
ACAD
1000
AcDbSavedByObjectVersion
1070
     0
  0
DICTIONARYVAR
  5
30E
102
{ACAD_REACTORS
330
160
102
}
330
160
100
DictionaryVariables
280
     0
  1
STANDARD
  0
DICTIONARYVAR
  5
161
102
{ACAD_REACTORS
330
160
102
}
330
160
100
DictionaryVariables
280
     0
  1
1
  0
DICTIONARYVAR
  5
310
102
{ACAD_REACTORS
330
160
102
}
330
160
100
DictionaryVariables
280
     0
  1
0
  0
DICTIONARYVAR
  5
30F
102
{ACAD_REACTORS
330
160
102
}
330
160
100
DictionaryVariables
280
     0
  1
127
  0
XRECORD
  5
2F1
102
{ACAD_REACTORS
330
2F0
102
}
330
2F0
100
AcDbXrecord
280
     1
  0
DICTIONARY
  5
314
330
F9
100
AcDbDictionary
280
     1
281
     1
  3
ACAD_XREC_ROUNDTRIP
360
315
  0
DICTIONARY
  5
312
330
F8
100
AcDbDictionary
280
     1
281
     1
  3
ACAD_XREC_ROUNDTRIP
360
313
  0
DICTIONARY
  5
318
330
25C
100
AcDbDictionary
280
     1
281
     1
  3
ACAD_XREC_ROUNDTRIP
360
319
  0
DICTIONARY
  5
316
330
25B
100
AcDbDictionary
280
     1
281
     1
  3
ACAD_XREC_ROUNDTRIP
360
317
  0
DICTIONARY
  5
31A
330
25D
100
AcDbDictionary
280
     1
281
     1
  3
ACAD_XREC_ROUNDTRIP
360
31B
  0
DICTIONARY
  5
31C
330
271
100
AcDbDictionary
280
     1
281
     1
  3
ACAD_XREC_ROUNDTRIP
360
31D
  0
XRECORD
  5
315
102
{ACAD_REACTORS
330
314
102
}
330
314
100
AcDbXrecord
280
     1
102
SHADEPLOT
 70
     0
102
SHADEPLOTRESLEVEL
 70
     2
102
SHADEPLOTCUSTOMDPI
 70
   300
  0
XRECORD
  5
313
102
{ACAD_REACTORS
330
312
102
}
330
312
100
AcDbXrecord
280
     1
102
SHADEPLOT
 70
     0
102
SHADEPLOTRESLEVEL
 70
     2
102
SHADEPLOTCUSTOMDPI
 70
   300
  0
XRECORD
  5
319
102
{ACAD_REACTORS
330
318
102
}
330
318
100
AcDbXrecord
280
     1
102
MATERIAL
148
0.0
149
0.0
149
0.0
 93
        0
 94
       63
282
     0
 72
     1
 77
     1
171
     1
175
     1
179
     1
273
     0
  0
XRECORD
  5
317
102
{ACAD_REACTORS
330
316
102
}
330
316
100
AcDbXrecord
280
     1
102
MATERIAL
148
0.0
149
0.0
149
0.0
 93
        0
 94
       63
282
     0
 72
     1
 77
     1
171
     1
175
     1
179
     1
273
     0
  0
XRECORD
  5
31B
102
{ACAD_REACTORS
330
31A
102
}
330
31A
100
AcDbXrecord
280
     1
102
MATERIAL
148
0.0
149
0.0
149
0.0
 93
        0
 94
       63
282
     0
 72
     1
 77
     1
171
     1
175
     1
179
     1
273
     0
  0
XRECORD
  5
31D
102
{ACAD_REACTORS
330
31C
102
}
330
31C
100
AcDbXrecord
280
     1
102
ACAD_ROUNDTRIP_PRE2007_TABLESTYLE
 90
      512
 91
        0
  1

 92
      512
 93
        0
  2

 94
      512
 95
        0
  3

  0
ENDSEC
  0
EOF
