  0
SECTION
  2
HEADER
  9
$ACADVER
  1
AC1015
  9
$ACADMAINTVER
 70
    20
  9
$DWGCODEPAGE
  3
ANSI_1252
  9
$INSBASE
 10
-4.976225504742852
 20
11.59924663640899
 30
0.0
  9
$EXTMIN
 10
-13.75700501932614
 20
8.247990218529627
 30
0.0
  9
$EXTMAX
 10
6.347605741246844
 20
17.72424663640899
 30
0.0
  9
$LIMMIN
 10
0.0
 20
0.0
  9
$LIMMAX
 10
36.0
 20
36.0
  9
$ORTHOMODE
 70
     1
  9
$REGENMODE
 70
     1
  9
$FILLMODE
 70
     1
  9
$QTEXTMODE
 70
     0
  9
$MIRRTEXT
 70
     1
  9
$LTSCALE
 40
1.0
  9
$ATTMODE
 70
     1
  9
$TEXTSIZE
 40
0.2
  9
$TRACEWID
 40
0.05
  9
$TEXTSTYLE
  7
STANDARD
  9
$CLAYER
  8
ADP1DETAIL
  9
$CELTYPE
  6
BYLAYER
  9
$CECOLOR
 62
   256
  9
$CELTSCALE
 40
1.0
  9
$DISPSILH
 70
     0
  9
$DIMSCALE
 40
1.0
  9
$DIMASZ
 40
0.125
  9
$DIMEXO
 40
0.0625
  9
$DIMDLI
 40
0.38
  9
$DIMRND
 40
0.0
  9
$DIMDLE
 40
0.0
  9
$DIMEXE
 40
0.18
  9
$DIMTP
 40
0.0
  9
$DIMTM
 40
0.0
  9
$DIMTXT
 40
0.125
  9
$DIMCEN
 40
0.1875
  9
$DIMTSZ
 40
0.125
  9
$DIMTOL
 70
     0
  9
$DIMLIM
 70
     0
  9
$DIMTIH
 70
     0
  9
$DIMTOH
 70
     0
  9
$DIMSE1
 70
     0
  9
$DIMSE2
 70
     0
  9
$DIMTAD
 70
     0
  9
$DIMZIN
 70
     3
  9
$DIMBLK
  1

  9
$DIMASO
 70
     1
  9
$DIMSHO
 70
     1
  9
$DIMPOST
  1

  9
$DIMAPOST
  1

  9
$DIMALT
 70
     0
  9
$DIMALTD
 70
     1
  9
$DIMALTF
 40
25.4
  9
$DIMLFAC
 40
1.0
  9
$DIMTOFL
 70
     0
  9
$DIMTVP
 40
0.0
  9
$DIMTIX
 70
     0
  9
$DIMSOXD
 70
     0
  9
$DIMSAH
 70
     0
  9
$DIMBLK1
  1

  9
$DIMBLK2
  1

  9
$DIMSTYLE
  2
STANDARD
  9
$DIMCLRD
 70
     0
  9
$DIMCLRE
 70
     0
  9
$DIMCLRT
 70
     0
  9
$DIMTFAC
 40
1.0
  9
$DIMGAP
 40
0.125
  9
$DIMJUST
 70
     0
  9
$DIMSD1
 70
     0
  9
$DIMSD2
 70
     0
  9
$DIMTOLJ
 70
     1
  9
$DIMTZIN
 70
     0
  9
$DIMALTZ
 70
     0
  9
$DIMALTTZ
 70
     0
  9
$DIMUPT
 70
     0
  9
$DIMDEC
 70
     4
  9
$DIMTDEC
 70
     4
  9
$DIMALTU
 70
     2
  9
$DIMALTTD
 70
     2
  9
$DIMTXSTY
  7
STANDARD
  9
$DIMAUNIT
 70
     0
  9
$DIMADEC
 70
     0
  9
$DIMALTRND
 40
0.0
  9
$DIMAZIN
 70
     0
  9
$DIMDSEP
 70
    46
  9
$DIMATFIT
 70
     3
  9
$DIMFRAC
 70
     0
  9
$DIMLDRBLK
  1

  9
$DIMLUNIT
 70
     2
  9
$DIMLWD
 70
    -2
  9
$DIMLWE
 70
    -2
  9
$DIMTMOVE
 70
     0
  9
$LUNITS
 70
     5
  9
$LUPREC
 70
     4
  9
$SKETCHINC
 40
0.1
  9
$FILLETRAD
 40
0.062
  9
$AUNITS
 70
     0
  9
$AUPREC
 70
     0
  9
$MENU
  1
acad
  9
$ELEVATION
 40
0.0
  9
$PELEVATION
 40
0.0
  9
$THICKNESS
 40
0.0
  9
$LIMCHECK
 70
     0
  9
$CHAMFERA
 40
0.0
  9
$CHAMFERB
 40
0.0
  9
$CHAMFERC
 40
0.0
  9
$CHAMFERD
 40
0.0
  9
$SKPOLY
 70
     0
  9
$TDCREATE
 40
2450406.632633287
  9
$TDUCREATE
 40
2450406.799299953
  9
$TDUPDATE
 40
2453963.962167327
  9
$TDUUPDATE
 40
2453964.128833993
  9
$TDINDWG
 40
0.0570277431
  9
$TDUSRTIMER
 40
0.0570277431
  9
$USRTIMER
 70
     1
  9
$ANGBASE
 50
0.0
  9
$ANGDIR
 70
     0
  9
$PDMODE
 70
     0
  9
$PDSIZE
 40
0.0
  9
$PLINEWID
 40
0.0
  9
$SPLFRAME
 70
     0
  9
$SPLINETYPE
 70
     6
  9
$SPLINESEGS
 70
     8
  9
$HANDSEED
  5
313
  9
$SURFTAB1
 70
     6
  9
$SURFTAB2
 70
     6
  9
$SURFTYPE
 70
     6
  9
$SURFU
 70
     6
  9
$SURFV
 70
     6
  9
$UCSBASE
  2

  9
$UCSNAME
  2

  9
$UCSORG
 10
0.0
 20
0.0
 30
0.0
  9
$UCSXDIR
 10
1.0
 20
0.0
 30
0.0
  9
$UCSYDIR
 10
0.0
 20
1.0
 30
0.0
  9
$UCSORTHOREF
  2

  9
$UCSORTHOVIEW
 70
     0
  9
$UCSORGTOP
 10
0.0
 20
0.0
 30
0.0
  9
$UCSORGBOTTOM
 10
0.0
 20
0.0
 30
0.0
  9
$UCSORGLEFT
 10
0.0
 20
0.0
 30
0.0
  9
$UCSORGRIGHT
 10
0.0
 20
0.0
 30
0.0
  9
$UCSORGFRONT
 10
0.0
 20
0.0
 30
0.0
  9
$UCSORGBACK
 10
0.0
 20
0.0
 30
0.0
  9
$PUCSBASE
  2

  9
$PUCSNAME
  2

  9
$PUCSORG
 10
0.0
 20
0.0
 30
0.0
  9
$PUCSXDIR
 10
1.0
 20
0.0
 30
0.0
  9
$PUCSYDIR
 10
0.0
 20
1.0
 30
0.0
  9
$PUCSORTHOREF
  2

  9
$PUCSORTHOVIEW
 70
     0
  9
$PUCSORGTOP
 10
0.0
 20
0.0
 30
0.0
  9
$PUCSORGBOTTOM
 10
0.0
 20
0.0
 30
0.0
  9
$PUCSORGLEFT
 10
0.0
 20
0.0
 30
0.0
  9
$PUCSORGRIGHT
 10
0.0
 20
0.0
 30
0.0
  9
$PUCSORGFRONT
 10
0.0
 20
0.0
 30
0.0
  9
$PUCSORGBACK
 10
0.0
 20
0.0
 30
0.0
  9
$USERI1
 70
     0
  9
$USERI2
 70
     0
  9
$USERI3
 70
     0
  9
$USERI4
 70
     0
  9
$USERI5
 70
     0
  9
$USERR1
 40
0.0
  9
$USERR2
 40
0.0
  9
$USERR3
 40
0.0
  9
$USERR4
 40
0.0
  9
$USERR5
 40
0.0
  9
$WORLDVIEW
 70
     1
  9
$SHADEDGE
 70
     3
  9
$SHADEDIF
 70
    70
  9
$TILEMODE
 70
     1
  9
$MAXACTVP
 70
    15
  9
$PINSBASE
 10
0.0008545028977096
 20
1.250283272183907
 30
0.0
  9
$PLIMCHECK
 70
     0
  9
$PEXTMIN
 10
1.000000000000000E+20
 20
1.000000000000000E+20
 30
1.000000000000000E+20
  9
$PEXTMAX
 10
-1.000000000000000E+20
 20
-1.000000000000000E+20
 30
-1.000000000000000E+20
  9
$PLIMMIN
 10
0.0
 20
0.0
  9
$PLIMMAX
 10
12.0
 20
9.0
  9
$UNITMODE
 70
     0
  9
$VISRETAIN
 70
     0
  9
$PLINEGEN
 70
     0
  9
$PSLTSCALE
 70
     1
  9
$TREEDEPTH
 70
  3020
  9
$CMLSTYLE
  2
STANDARD
  9
$CMLJUST
 70
     0
  9
$CMLSCALE
 40
1.0
  9
$PROXYGRAPHICS
 70
     1
  9
$MEASUREMENT
 70
     0
  9
$CELWEIGHT
370
    -1
  9
$ENDCAPS
280
     0
  9
$JOINSTYLE
280
     0
  9
$LWDISPLAY
290
     0
  9
$INSUNITS
 70
     0
  9
$HYPERLINKBASE
  1

  9
$STYLESHEET
  1

  9
$XEDIT
290
     1
  9
$CEPSNTYPE
380
     0
  9
$PSTYLEMODE
290
     1
  9
$FINGERPRINTGUID
  2
{AF772FA5-5F8E-4B17-AB4B-812720D48F53}
  9
$VERSIONGUID
  2
{948222B8-CF46-4622-8E1A-771EBEC9DB3F}
  9
$EXTNAMES
290
     1
  9
$PSVPSCALE
 40
0.0
  9
$OLESTARTUP
290
     0
  0
ENDSEC
  0
SECTION
  2
CLASSES
  0
CLASS
  1
ACDBDICTIONARYWDFLT
  2
AcDbDictionaryWithDefault
  3
ObjectDBX Classes
 90
        0
280
     0
281
     0
  0
CLASS
  1
ACDBPLACEHOLDER
  2
AcDbPlaceHolder
  3
ObjectDBX Classes
 90
        0
280
     0
281
     0
  0
CLASS
  1
LAYOUT
  2
AcDbLayout
  3
ObjectDBX Classes
 90
        0
280
     0
281
     0
  0
CLASS
  1
DICTIONARYVAR
  2
AcDbDictionaryVar
  3
ObjectDBX Classes
 90
        0
280
     0
281
     0
  0
CLASS
  1
MATERIAL
  2
AcDbMaterial
  3
ObjectDBX Classes
 90
     1024
280
     0
281
     0
  0
CLASS
  1
VISUALSTYLE
  2
AcDbVisualStyle
  3
ObjectDBX Classes
 90
     4095
280
     0
281
     0
  0
CLASS
  1
TABLESTYLE
  2
AcDbTableStyle
  3
ObjectDBX Classes
 90
     4095
280
     0
281
     0
  0
ENDSEC
  0
SECTION
  2
TABLES
  0
TABLE
  2
VPORT
  5
8
330
0
100
AcDbSymbolTable
 70
     1
  0
VPORT
  5
223
330
8
100
AcDbSymbolTableRecord
100
AcDbViewportTableRecord
  2
*Active
 70
     0
 10
0.0
 20
0.0
 11
1.0
 21
1.0
 12
-5.636011970834545
 22
9.192027550089276
 13
0.0
 23
0.0
 14
0.5740882589684922
 24
0.5740882589684922
 15
0.5
 25
0.5
 16
0.0
 26
0.0
 36
1.0
 17
0.0
 27
0.0
 37
0.0
 40
6.357727234956453
 41
1.726930320150659
 42
50.0
 43
0.0
 44
0.0
 50
0.0
 51
0.0
 71
     0
 72
   100
 73
     1
 74
     0
 75
     0
 76
     0
 77
     0
 78
     0
281
     0
 65
     1
110
0.0
120
0.0
130
0.0
111
1.0
121
0.0
131
0.0
112
0.0
122
1.0
132
0.0
 79
     0
146
0.0
  0
ENDTAB
  0
TABLE
  2
LTYPE
  5
5
330
0
100
AcDbSymbolTable
 70
     2
  0
LTYPE
  5
12
330
5
100
AcDbSymbolTableRecord
100
AcDbLinetypeTableRecord
  2
BYBLOCK
 70
     0
  3

 72
    65
 73
     0
 40
0.0
  0
LTYPE
  5
13
330
5
100
AcDbSymbolTableRecord
100
AcDbLinetypeTableRecord
  2
BYLAYER
 70
     0
  3

 72
    65
 73
     0
 40
0.0
  0
LTYPE
  5
14
330
5
100
AcDbSymbolTableRecord
100
AcDbLinetypeTableRecord
  2
CONTINUOUS
 70
     0
  3
Solid line
 72
    65
 73
     0
 40
0.0
  0
LTYPE
  5
94
330
5
100
AcDbSymbolTableRecord
100
AcDbLinetypeTableRecord
  2
CENTER2
 70
     0
  3
___ _ ___ _ ___ _ ___ _ ___ _ ___ _ ___ _ ___ _
 72
    65
 73
     4
 40
1.125
 49
0.75
 74
     0
 49
-0.125
 74
     0
 49
0.125
 74
     0
 49
-0.125
 74
     0
  0
ENDTAB
  0
TABLE
  2
LAYER
  5
2
330
0
100
AcDbSymbolTable
 70
     5
  0
LAYER
  5
F
330
2
100
AcDbSymbolTableRecord
100
AcDbLayerTableRecord
  2
0
 70
     0
 62
     7
  6
CONTINUOUS
370
    -3
390
107
  0
LAYER
  5
98
330
2
100
AcDbSymbolTableRecord
100
AcDbLayerTableRecord
  2
ADP1DETAIL
 70
     0
 62
     7
  6
CONTINUOUS
370
    -3
390
107
  0
LAYER
  5
99
330
2
100
AcDbSymbolTableRecord
100
AcDbLayerTableRecord
  2
ADP3DETAIL
 70
     0
 62
     1
  6
CONTINUOUS
370
    -3
390
107
  0
LAYER
  5
9A
330
2
100
AcDbSymbolTableRecord
100
AcDbLayerTableRecord
  2
DEFPOINTS
 70
     0
 62
     7
  6
CONTINUOUS
290
     0
370
    -3
390
107
  0
LAYER
  5
9B
330
2
100
AcDbSymbolTableRecord
100
AcDbLayerTableRecord
  2
ADPDIM
 70
     0
 62
     3
  6
CONTINUOUS
370
    -3
390
107
  0
ENDTAB
  0
TABLE
  2
STYLE
  5
3
330
0
100
AcDbSymbolTable
 70
     2
  0
STYLE
  5
10
330
3
100
AcDbSymbolTableRecord
100
AcDbTextStyleTableRecord
  2
STANDARD
 70
     0
 40
0.0
 41
1.0
 50
0.0
 71
     0
 42
0.2
  3
txt
  4

  0
STYLE
  5
10E
330
3
100
AcDbSymbolTableRecord
100
AcDbTextStyleTableRecord
  2
ARIAL_WIDE
 70
     0
 40
0.0
 41
1.25
 50
0.0
 71
     0
 42
0.2
  3
ARIAL.TTF
  4

1001
ACAD
1000
Arial
1071
       34
  0
ENDTAB
  0
TABLE
  2
VIEW
  5
6
330
0
100
AcDbSymbolTable
 70
     0
  0
ENDTAB
  0
TABLE
  2
UCS
  5
7
330
0
100
AcDbSymbolTable
 70
     0
  0
ENDTAB
  0
TABLE
  2
APPID
  5
9
330
0
100
AcDbSymbolTable
 70
     2
  0
APPID
  5
11
330
9
100
AcDbSymbolTableRecord
100
AcDbRegAppTableRecord
  2
ACAD
 70
     0
  0
APPID
  5
291
330
9
100
AcDbSymbolTableRecord
100
AcDbRegAppTableRecord
  2
DCO15
 70
     0
  0
ENDTAB
  0
TABLE
  2
DIMSTYLE
  5
A
330
0
100
AcDbSymbolTable
 70
     1
100
AcDbDimStyleTable
 71
     0
  0
DIMSTYLE
105
102
102
{ACAD_REACTORS
330
29B
330
29C
330
29D
102
}
330
A
100
AcDbSymbolTableRecord
100
AcDbDimStyleTableRecord
  2
STANDARD
 70
     0
340
10
  0
ENDTAB
  0
TABLE
  2
BLOCK_RECORD
  5
1
330
0
100
AcDbSymbolTable
 70
    12
  0
BLOCK_RECORD
  5
18
102
{ACAD_XDICTIONARY
360
163
102
}
330
1
100
AcDbSymbolTableRecord
100
AcDbBlockTableRecord
  2
*MODEL_SPACE
340
10A
  0
BLOCK_RECORD
  5
15
102
{ACAD_XDICTIONARY
360
161
102
}
330
1
100
AcDbSymbolTableRecord
100
AcDbBlockTableRecord
  2
*PAPER_SPACE
340
10B
  0
BLOCK_RECORD
  5
26
330
1
100
AcDbSymbolTableRecord
100
AcDbBlockTableRecord
  2
6930
340
0
  0
BLOCK_RECORD
  5
7D
330
1
100
AcDbSymbolTableRecord
100
AcDbBlockTableRecord
  2
*D1
340
0
  0
BLOCK_RECORD
  5
7E
330
1
100
AcDbSymbolTableRecord
100
AcDbBlockTableRecord
  2
*D2
340
0
  0
BLOCK_RECORD
  5
92
330
1
100
AcDbSymbolTableRecord
100
AcDbBlockTableRecord
  2
*D3
340
0
  0
BLOCK_RECORD
  5
93
330
1
100
AcDbSymbolTableRecord
100
AcDbBlockTableRecord
  2
*D4
340
0
  0
BLOCK_RECORD
  5
26A
330
1
100
AcDbSymbolTableRecord
100
AcDbBlockTableRecord
  2
*D5
340
0
  0
BLOCK_RECORD
  5
277
330
1
100
AcDbSymbolTableRecord
100
AcDbBlockTableRecord
  2
*D6
340
0
  0
BLOCK_RECORD
  5
284
330
1
100
AcDbSymbolTableRecord
100
AcDbBlockTableRecord
  2
*D7
340
0
  0
BLOCK_RECORD
  5
29F
330
1
100
AcDbSymbolTableRecord
100
AcDbBlockTableRecord
  2
*D9
340
0
  0
BLOCK_RECORD
  5
2AC
330
1
100
AcDbSymbolTableRecord
100
AcDbBlockTableRecord
  2
*D10
340
0
  0
BLOCK_RECORD
  5
2B9
330
1
100
AcDbSymbolTableRecord
100
AcDbBlockTableRecord
  2
*D11
340
0
  0
ENDTAB
  0
ENDSEC
  0
SECTION
  2
BLOCKS
  0
BLOCK
  5
9E
330
18
100
AcDbEntity
  8
0
100
AcDbBlockBegin
  2
*MODEL_SPACE
 70
     0
 10
0.0
 20
0.0
 30
0.0
  3
*MODEL_SPACE
  1

  0
ENDBLK
  5
9F
330
18
100
AcDbEntity
  8
0
100
AcDbBlockEnd
  0
BLOCK
  5
9C
330
15
100
AcDbEntity
 67
     1
  8
0
100
AcDbBlockBegin
  2
*PAPER_SPACE
 70
     0
 10
0.0
 20
0.0
 30
0.0
  3
*PAPER_SPACE
  1

  0
ENDBLK
  5
9D
330
15
100
AcDbEntity
 67
     1
  8
0
100
AcDbBlockEnd
  0
BLOCK
  5
A1
330
26
100
AcDbEntity
  8
0
100
AcDbBlockBegin
  2
6930
 70
     0
 10
0.0
 20
0.0
 30
0.0
  3
6930
  1

  0
ARC
  5
A2
330
26
100
AcDbEntity
  8
0
100
AcDbCircle
 10
1.916004595070203
 20
1.154034446878586
 30
0.0
 40
0.6249999999999996
100
AcDbArc
 50
241.5979749409373
 51
278.6350146347775
  0
LINE
  5
A3
330
26
100
AcDbEntity
  8
0
100
AcDbLine
 10
1.628889981986613
 20
0.1910078476348804
 30
0.0
 11
1.723889981986614
 21
0.1910078476348804
 31
0.0
  0
ARC
  5
A4
330
26
100
AcDbEntity
  8
0
100
AcDbCircle
 10
0.5744515959357948
 20
0.3640078476348822
 30
0.0
 40
0.0149999999999993
100
AcDbArc
 50
90.0
 51
180.0000000000034
  0
ARC
  5
A5
330
26
100
AcDbEntity
  8
0
100
AcDbCircle
 10
1.0899904044311
 20
0.0790216194753146
 30
0.0
 40
0.75
100
AcDbArc
 50
90.25360076942181
 51
135.5469981948047
  0
ARC
  5
A6
330
26
100
AcDbEntity
  8
0
100
AcDbCircle
 10
0.0730405475278051
 20
0.3829926413857265
 30
0.0
 40
0.1089999999999999
100
AcDbArc
 50
90.0
 51
282.7068037043093
  0
LINE
  5
A7
330
26
100
AcDbEntity
  8
0
100
AcDbLine
 10
0.4344515959357942
 20
0.1760078476348799
 30
0.0
 11
0.434451595935796
 21
0.0030078476348816
 31
0.0
  0
ARC
  5
A8
330
26
100
AcDbEntity
  8
0
100
AcDbCircle
 10
0.043990404431101
 20
0.0170216194753152
 30
0.0
 40
0.2649999999999998
100
AcDbArc
 50
0.0
 51
78.45730220113806
  0
ARC
  5
A9
330
26
100
AcDbEntity
  8
0
100
AcDbCircle
 10
0.3239579477838799
 20
0.0180078476348804
 30
0.0
 40
0.015
100
AcDbArc
 50
183.7698334967862
 51
270.0
  0
LINE
  5
AA
330
26
100
AcDbEntity
  8
0
100
AcDbLine
 10
0.434451595935796
 20
0.0030078476348816
 30
0.0
 11
0.3239579477838799
 21
0.0030078476348816
 31
0.0
  0
ARC
  5
AB
330
26
100
AcDbEntity
  8
0
100
AcDbCircle
 10
0.4494515959357948
 20
0.1760078476348799
 30
0.0
 40
0.0150000000000001
100
AcDbArc
 50
90.0
 51
180.0
  0
LINE
  5
AC
330
26
100
AcDbEntity
  8
0
100
AcDbLine
 10
0.5444515959357954
 20
0.1910078476348804
 30
0.0
 11
0.4494515959357948
 21
0.1910078476348804
 31
0.0
  0
ARC
  5
AD
330
26
100
AcDbEntity
  8
0
100
AcDbCircle
 10
0.5444515959357954
 20
0.206007847634881
 30
0.0
 40
0.0150000000000006
100
AcDbArc
 50
270.0
 51
359.9999999999983
  0
LINE
  5
AE
330
26
100
AcDbEntity
  8
0
100
AcDbLine
 10
0.559451595935796
 20
0.3640078476348805
 30
0.0
 11
0.559451595935796
 21
0.206007847634881
 31
0.0
  0
ARC
  5
AF
330
26
100
AcDbEntity
  8
0
100
AcDbCircle
 10
0.2573369828522054
 20
1.154034446878586
 30
0.0
 40
0.6249999999999996
100
AcDbArc
 50
261.3649853652225
 51
298.4020250590626
  0
LINE
  5
B0
330
26
100
AcDbEntity
  8
0
100
AcDbLine
 10
0.0730405475278051
 20
0.4919926413857266
 30
0.0
 11
0.0725168683823032
 21
0.5352503637390971
 31
0.0
  0
LINE
  5
B1
330
26
100
AcDbEntity
  8
0
100
AcDbLine
 10
0.0730405475278051
 20
0.5361189392037318
 30
0.0
 11
0.1601431620933216
 21
0.5364500494334763
 31
0.0
  0
LINE
  5
B2
330
26
100
AcDbEntity
  8
0
100
AcDbLine
 10
1.075437184232006
 20
0.378125029195246
 30
0.0
 11
1.598889981986614
 21
0.379007847634881
 31
0.0
  0
LINE
  5
B3
330
26
100
AcDbEntity
  8
0
100
AcDbLine
 10
1.074451595935794
 20
0.379007847634881
 30
0.0
 11
0.5744515959357948
 21
0.379007847634881
 31
0.0
  0
ARC
  5
B4
330
26
100
AcDbEntity
  8
0
100
AcDbCircle
 10
1.598889981986614
 20
0.3640078476348805
 30
0.0
 40
0.0150000000000006
100
AcDbArc
 50
0.0
 51
90.0
  0
ARC
  5
B5
330
26
100
AcDbEntity
  8
0
100
AcDbCircle
 10
1.628889981986615
 20
0.206007847634881
 30
0.0
 40
0.0150000000000006
100
AcDbArc
 50
179.9999999999966
 51
269.9999999999932
  0
LINE
  5
B6
330
26
100
AcDbEntity
  8
0
100
AcDbLine
 10
1.613889981986615
 20
0.3640078476348805
 30
0.0
 11
1.613889981986615
 21
0.206007847634881
 31
0.0
  0
ARC
  5
B7
330
26
100
AcDbEntity
  8
0
100
AcDbCircle
 10
1.083351173491308
 20
0.0790216194753182
 30
0.0
 40
0.749999999999996
100
AcDbArc
 50
44.45300180519512
 51
89.74639923057827
  0
ARC
  5
B8
330
26
100
AcDbEntity
  8
0
100
AcDbCircle
 10
2.100301030394604
 20
0.3829926413857265
 30
0.0
 40
0.1089999999999999
100
AcDbArc
 50
257.2931962956907
 51
90.0
  0
LINE
  5
B9
330
26
100
AcDbEntity
  8
0
100
AcDbLine
 10
1.738889981986615
 20
0.1760078476348799
 30
0.0
 11
1.738889981986615
 21
0.0030078476348816
 31
0.0
  0
ARC
  5
BA
330
26
100
AcDbEntity
  8
0
100
AcDbCircle
 10
2.129351173491306
 20
0.0170216194753152
 30
0.0
 40
0.2649999999999998
100
AcDbArc
 50
101.5426977988619
 51
180.0
  0
ARC
  5
BB
330
26
100
AcDbEntity
  8
0
100
AcDbCircle
 10
1.849383630138531
 20
0.0180078476348804
 30
0.0
 40
0.015
100
AcDbArc
 50
270.0
 51
356.2301665032137
  0
LINE
  5
BC
330
26
100
AcDbEntity
  8
0
100
AcDbLine
 10
1.738889981986615
 20
0.0030078476348816
 30
0.0
 11
1.849383630138531
 21
0.0030078476348816
 31
0.0
  0
ARC
  5
BD
330
26
100
AcDbEntity
  8
0
100
AcDbCircle
 10
1.723889981986614
 20
0.1760078476348799
 30
0.0
 40
0.0150000000000006
100
AcDbArc
 50
0.0
 51
90.0
  0
LINE
  5
BE
330
26
100
AcDbEntity
  8
0
100
AcDbLine
 10
2.100301030394604
 20
0.4919926413857266
 30
0.0
 11
2.100824709540104
 21
0.5352503637390971
 31
0.0
  0
LINE
  5
BF
330
26
100
AcDbEntity
  8
0
100
AcDbLine
 10
2.100301030394604
 20
0.5361189392037318
 30
0.0
 11
2.013198415829085
 21
0.5364500494334763
 31
0.0
  0
ENDBLK
  5
C0
330
26
100
AcDbEntity
  8
0
100
AcDbBlockEnd
  0
BLOCK
  5
C1
330
7D
100
AcDbEntity
  8
0
100
AcDbBlockBegin
  2
*D1
 70
     1
 10
0.0
 20
0.0
 30
0.0
  3
*D1
  1

  0
LINE
  5
C2
330
7D
100
AcDbEntity
  8
0
  6
ByBlock
 62
     0
100
AcDbLine
 10
-5.372997024834083
 20
15.86299992998312
 30
0.0
 11
-3.599833905436717
 21
14.09786133484403
 31
0.0
  0
LINE
  5
C3
330
7D
100
AcDbEntity
  8
0
  6
ByBlock
 62
     0
100
AcDbLine
 10
-5.549773265517351
 20
15.86259901865727
 30
0.0
 11
-5.196220784150814
 21
15.86340084130898
 31
0.0
  0
TEXT
  5
C4
330
7D
100
AcDbEntity
  8
0
  6
ByBlock
 62
     0
100
AcDbText
 10
-3.555339161771508
 20
13.96537938216305
 30
0.0
 40
0.125
  1
R2 1/2
 50
315.1299410342688
 72
     1
 11
-3.275009126753324
 21
13.77450656435544
 31
0.0
100
AcDbText
 73
     2
  0
POINT
  5
C5
330
7D
100
AcDbEntity
  8
DEFPOINTS
  6
ByBlock
 62
     0
100
AcDbPoint
 10
-5.372997024834083
 20
15.86299992998312
 30
0.0
  0
POINT
  5
C6
330
7D
100
AcDbEntity
  8
DEFPOINTS
  6
ByBlock
 62
     0
100
AcDbPoint
 10
-3.601225504742848
 20
14.09924663640899
 30
0.0
  0
ENDBLK
  5
C7
330
7D
100
AcDbEntity
  8
0
100
AcDbBlockEnd
  0
BLOCK
  5
C8
330
7E
100
AcDbEntity
  8
0
100
AcDbBlockBegin
  2
*D2
 70
     1
 10
0.0
 20
0.0
 30
0.0
  3
*D2
  1

  0
LINE
  5
C9
330
7E
100
AcDbEntity
  8
0
  6
ByBlock
 62
     0
100
AcDbLine
 10
-3.662333905436716
 20
14.09786133484403
 30
0.0
 11
-4.427579450427606
 21
14.09786133484403
 31
0.0
  0
LINE
  5
CA
330
7E
100
AcDbEntity
  8
0
  6
ByBlock
 62
     0
100
AcDbLine
 10
-4.975725504742853
 20
11.59924663640899
 30
0.0
 11
-4.067579450427607
 21
11.59924663640899
 31
0.0
  0
LINE
  5
CB
330
7E
100
AcDbEntity
  8
0
  6
ByBlock
 62
     0
100
AcDbLine
 10
-4.247579450427607
 20
14.09786133484403
 30
0.0
 11
-4.247579450427607
 21
13.24438731895985
 31
0.0
  0
LINE
  5
CC
330
7E
100
AcDbEntity
  8
0
  6
ByBlock
 62
     0
100
AcDbLine
 10
-4.247579450427607
 20
11.59924663640899
 30
0.0
 11
-4.247579450427607
 21
12.45272065229318
 31
0.0
  0
LINE
  5
CD
330
7E
100
AcDbEntity
  8
0
  6
ByBlock
 62
     0
100
AcDbLine
 10
-4.122579450427607
 20
13.97286133484404
 30
0.0
 11
-4.372579450427607
 21
14.22286133484403
 31
0.0
  0
LINE
  5
CE
330
7E
100
AcDbEntity
  8
0
  6
ByBlock
 62
     0
100
AcDbLine
 10
-4.122579450427607
 20
11.47424663640899
 30
0.0
 11
-4.372579450427607
 21
11.72424663640899
 31
0.0
  0
TEXT
  5
CF
330
7E
100
AcDbEntity
  8
0
  6
ByBlock
 62
     0
100
AcDbText
 10
-4.185079450427607
 20
12.57772065229318
 30
0.0
 40
0.125
  1
2 1/2
 50
90.0
 72
     1
 11
-4.247579450427607
 21
12.84855398562651
 31
0.0
100
AcDbText
 73
     2
  0
POINT
  5
D0
330
7E
100
AcDbEntity
  8
DEFPOINTS
  6
ByBlock
 62
     0
100
AcDbPoint
 10
-3.599833905436716
 20
14.09786133484403
 30
0.0
  0
POINT
  5
D1
330
7E
100
AcDbEntity
  8
DEFPOINTS
  6
ByBlock
 62
     0
100
AcDbPoint
 10
-5.038225504742853
 20
11.59924663640899
 30
0.0
  0
POINT
  5
D2
330
7E
100
AcDbEntity
  8
DEFPOINTS
  6
ByBlock
 62
     0
100
AcDbPoint
 10
-4.247579450427607
 20
11.59924663640899
 30
0.0
  0
ENDBLK
  5
D3
330
7E
100
AcDbEntity
  8
0
100
AcDbBlockEnd
  0
BLOCK
  5
D4
330
92
100
AcDbEntity
  8
0
100
AcDbBlockBegin
  2
*D3
 70
     1
 10
0.0
 20
0.0
 30
0.0
  3
*D3
  1

  0
LINE
  5
D5
330
92
100
AcDbEntity
  8
0
  6
ByBlock
 62
     0
100
AcDbLine
 10
-7.223186295119043
 20
9.937236302852658
 30
0.0
 11
-7.223186295119043
 21
10.70403177724833
 31
0.0
  0
LINE
  5
D6
330
92
100
AcDbEntity
  8
0
  6
ByBlock
 62
     0
100
AcDbLine
 10
-4.979264714366663
 20
9.937236302852658
 30
0.0
 11
-4.979264714366663
 21
10.70403177724833
 31
0.0
  0
LINE
  5
D7
330
92
100
AcDbEntity
  8
0
  6
ByBlock
 62
     0
100
AcDbLine
 10
-7.223186295119043
 20
10.52403177724833
 30
0.0
 11
-6.497058838076186
 21
10.52403177724833
 31
0.0
  0
LINE
  5
D8
330
92
100
AcDbEntity
  8
0
  6
ByBlock
 62
     0
100
AcDbLine
 10
-4.979264714366663
 20
10.52403177724833
 30
0.0
 11
-5.70539217140952
 21
10.52403177724833
 31
0.0
  0
LINE
  5
D9
330
92
100
AcDbEntity
  8
0
  6
ByBlock
 62
     0
100
AcDbLine
 10
-7.348186295119043
 20
10.39903177724833
 30
0.0
 11
-7.098186295119043
 21
10.64903177724833
 31
0.0
  0
LINE
  5
DA
330
92
100
AcDbEntity
  8
0
  6
ByBlock
 62
     0
100
AcDbLine
 10
-5.104264714366663
 20
10.39903177724833
 30
0.0
 11
-4.854264714366663
 21
10.64903177724833
 31
0.0
  0
TEXT
  5
DB
330
92
100
AcDbEntity
  8
0
  6
ByBlock
 62
     0
100
AcDbText
 10
-6.372058838076186
 20
10.46153177724833
 30
0.0
 40
0.125
  1
2 1/4
 72
     1
 11
-6.101225504742853
 21
10.52403177724833
 31
0.0
100
AcDbText
 73
     2
  0
POINT
  5
DC
330
92
100
AcDbEntity
  8
DEFPOINTS
  6
ByBlock
 62
     0
100
AcDbPoint
 10
-7.223186295119043
 20
9.874736302852658
 30
0.0
  0
POINT
  5
DD
330
92
100
AcDbEntity
  8
DEFPOINTS
  6
ByBlock
 62
     0
100
AcDbPoint
 10
-4.979264714366663
 20
9.874736302852658
 30
0.0
  0
POINT
  5
DE
330
92
100
AcDbEntity
  8
DEFPOINTS
  6
ByBlock
 62
     0
100
AcDbPoint
 10
-4.979264714366663
 20
10.52403177724833
 30
0.0
  0
ENDBLK
  5
DF
330
92
100
AcDbEntity
  8
0
100
AcDbBlockEnd
  0
BLOCK
  5
E0
330
93
100
AcDbEntity
  8
0
100
AcDbBlockBegin
  2
*D4
 70
     1
 10
0.0
 20
0.0
 30
0.0
  3
*D4
  1

  0
LINE
  5
E1
330
93
100
AcDbEntity
  8
0
  6
ByBlock
 62
     0
100
AcDbLine
 10
-6.753444697768263
 20
9.530813522439297
 30
0.0
 11
-6.753444697768263
 21
9.136309740565815
 31
0.0
  0
LINE
  5
E2
330
93
100
AcDbEntity
  8
0
  6
ByBlock
 62
     0
100
AcDbLine
 10
-5.449006311717442
 20
9.530813522439297
 30
0.0
 11
-5.449006311717442
 21
9.136309740565815
 31
0.0
  0
LINE
  5
E3
330
93
100
AcDbEntity
  8
0
  6
ByBlock
 62
     0
100
AcDbLine
 10
-6.753444697768263
 20
9.316309740565815
 30
0.0
 11
-7.003444697768263
 21
9.316309740565815
 31
0.0
  0
LINE
  5
E4
330
93
100
AcDbEntity
  8
0
  6
ByBlock
 62
     0
100
AcDbLine
 10
-5.449006311717442
 20
9.316309740565815
 30
0.0
 11
-5.199006311717442
 21
9.316309740565815
 31
0.0
  0
LINE
  5
E5
330
93
100
AcDbEntity
  8
0
  6
ByBlock
 62
     0
100
AcDbLine
 10
-6.878444697768263
 20
9.191309740565815
 30
0.0
 11
-6.628444697768263
 21
9.441309740565815
 31
0.0
  0
LINE
  5
E6
330
93
100
AcDbEntity
  8
0
  6
ByBlock
 62
     0
100
AcDbLine
 10
-5.574006311717442
 20
9.191309740565815
 30
0.0
 11
-5.324006311717442
 21
9.441309740565815
 31
0.0
  0
TEXT
  5
E7
330
93
100
AcDbEntity
  8
0
  6
ByBlock
 62
     0
100
AcDbText
 10
-5.074006311717442
 20
9.253809740565815
 30
0.0
 40
0.125
  1
1 5/16
 72
     1
 11
-4.761506311717442
 21
9.316309740565815
 31
0.0
100
AcDbText
 73
     2
  0
POINT
  5
E8
330
93
100
AcDbEntity
  8
DEFPOINTS
  6
ByBlock
 62
     0
100
AcDbPoint
 10
-6.753444697768263
 20
9.593313522439297
 30
0.0
  0
POINT
  5
E9
330
93
100
AcDbEntity
  8
DEFPOINTS
  6
ByBlock
 62
     0
100
AcDbPoint
 10
-5.449006311717442
 20
9.593313522439297
 30
0.0
  0
POINT
  5
EA
330
93
100
AcDbEntity
  8
DEFPOINTS
  6
ByBlock
 62
     0
100
AcDbPoint
 10
-5.449006311717442
 20
9.316309740565815
 30
0.0
  0
ENDBLK
  5
EB
330
93
100
AcDbEntity
  8
0
100
AcDbBlockEnd
  0
BLOCK
  5
26B
330
26A
100
AcDbEntity
  8
0
100
AcDbBlockBegin
  2
*D5
 70
     1
 10
0.0
 20
0.0
 30
0.0
  3
*D5
  1

  0
LINE
  5
26C
330
26A
100
AcDbEntity
  8
ADPDIM
  6
Continuous
 62
     0
370
    -2
100
AcDbLine
 10
-7.371670728986597
 20
10.36726502248146
 30
0.0
 11
-7.371670728986597
 21
11.39369767262113
 31
0.0
  0
LINE
  5
26D
330
26A
100
AcDbEntity
  8
ADPDIM
  6
Continuous
 62
     0
370
    -2
100
AcDbLine
 10
-5.121670728986597
 20
10.36726502248146
 30
0.0
 11
-5.121670728986597
 21
11.39369767262113
 31
0.0
  0
LINE
  5
26E
330
26A
100
AcDbEntity
  8
ADPDIM
  6
Continuous
 62
     0
370
    -2
100
AcDbLine
 10
-7.191670728986597
 20
11.21369767262113
 30
0.0
 11
-6.553337395653263
 21
11.21369767262113
 31
0.0
  0
LINE
  5
26F
330
26A
100
AcDbEntity
  8
ADPDIM
  6
Continuous
 62
     0
370
    -2
100
AcDbLine
 10
-5.301670728986596
 20
11.21369767262113
 30
0.0
 11
-5.94000406231993
 21
11.21369767262113
 31
0.0
  0
SOLID
  5
270
330
26A
100
AcDbEntity
  8
ADPDIM
  6
Continuous
 62
     0
100
AcDbTrace
 10
-7.191670728986597
 20
11.24369767262113
 30
0.0
 11
-7.191670728986597
 21
11.18369767262113
 31
0.0
 12
-7.371670728986597
 22
11.21369767262113
 32
0.0
 13
-7.371670728986597
 23
11.21369767262113
 33
0.0
  0
SOLID
  5
271
330
26A
100
AcDbEntity
  8
ADPDIM
  6
Continuous
 62
     0
100
AcDbTrace
 10
-5.301670728986596
 20
11.24369767262113
 30
0.0
 11
-5.301670728986596
 21
11.18369767262113
 31
0.0
 12
-5.121670728986597
 22
11.21369767262113
 32
0.0
 13
-5.121670728986597
 23
11.21369767262113
 33
0.0
  0
MTEXT
  5
272
330
26A
100
AcDbEntity
  8
ADPDIM
  6
Continuous
 62
     0
100
AcDbMText
 10
-6.246670728986597
 20
11.21369767262113
 30
0.0
 40
0.1
 41
0.0
 71
     5
 72
     1
  1
\A1;2 1/4
 73
     1
 44
1.0
1001
ACAD
1000
MTEXTBEGIN
1070
    73
1070
     1
1070
    44
1040
1.0
1070
    74
1070
     0
1000
MTEXTEND
  0
POINT
  5
273
330
26A
100
AcDbEntity
  8
DEFPOINTS
  6
Continuous
 62
     0
100
AcDbPoint
 10
-7.371670728986597
 20
10.30476502248146
 30
0.0
  0
POINT
  5
274
330
26A
100
AcDbEntity
  8
DEFPOINTS
  6
Continuous
 62
     0
100
AcDbPoint
 10
-5.121670728986597
 20
10.30476502248146
 30
0.0
  0
POINT
  5
275
330
26A
100
AcDbEntity
  8
DEFPOINTS
  6
Continuous
 62
     0
100
AcDbPoint
 10
-5.121670728986597
 20
11.21369767262113
 30
0.0
  0
ENDBLK
  5
276
330
26A
100
AcDbEntity
  8
0
100
AcDbBlockEnd
  0
BLOCK
  5
278
330
277
100
AcDbEntity
  8
0
100
AcDbBlockBegin
  2
*D6
 70
     1
 10
0.0
 20
0.0
 30
0.0
  3
*D6
  1

  0
LINE
  5
279
330
277
100
AcDbEntity
  8
ADPDIM
  6
Continuous
 62
     0
370
    -2
100
AcDbLine
 10
-6.904562002827443
 20
10.04688698465323
 30
0.0
 11
-6.904562002827443
 21
9.657556667977797
 31
0.0
  0
LINE
  5
27A
330
277
100
AcDbEntity
  8
ADPDIM
  6
Continuous
 62
     0
370
    -2
100
AcDbLine
 10
-5.592062002827443
 20
10.04688698465323
 30
0.0
 11
-5.592062002827443
 21
9.657556667977797
 31
0.0
  0
LINE
  5
27B
330
277
100
AcDbEntity
  8
ADPDIM
  6
Continuous
 62
     0
370
    -2
100
AcDbLine
 10
-6.724562002827443
 20
9.837556667977796
 30
0.0
 11
-6.588312002827443
 21
9.837556667977796
 31
0.0
  0
LINE
  5
27C
330
277
100
AcDbEntity
  8
ADPDIM
  6
Continuous
 62
     0
370
    -2
100
AcDbLine
 10
-5.772062002827443
 20
9.837556667977796
 30
0.0
 11
-5.908312002827443
 21
9.837556667977796
 31
0.0
  0
SOLID
  5
27D
330
277
100
AcDbEntity
  8
ADPDIM
  6
Continuous
 62
     0
100
AcDbTrace
 10
-6.724562002827443
 20
9.867556667977796
 30
0.0
 11
-6.724562002827443
 21
9.807556667977797
 31
0.0
 12
-6.904562002827443
 22
9.837556667977796
 32
0.0
 13
-6.904562002827443
 23
9.837556667977796
 33
0.0
  0
SOLID
  5
27E
330
277
100
AcDbEntity
  8
ADPDIM
  6
Continuous
 62
     0
100
AcDbTrace
 10
-5.772062002827443
 20
9.867556667977796
 30
0.0
 11
-5.772062002827443
 21
9.807556667977797
 31
0.0
 12
-5.592062002827443
 22
9.837556667977796
 32
0.0
 13
-5.592062002827443
 23
9.837556667977796
 33
0.0
  0
MTEXT
  5
27F
330
277
100
AcDbEntity
  8
ADPDIM
  6
Continuous
 62
     0
100
AcDbMText
 10
-6.248312002827443
 20
9.837556667977796
 30
0.0
 40
0.1
 41
0.0
 71
     5
 72
     1
  1
\A1;1 5/16
 73
     1
 44
1.0
1001
ACAD
1000
MTEXTBEGIN
1070
    73
1070
     1
1070
    44
1040
1.0
1070
    74
1070
     0
1000
MTEXTEND
  0
POINT
  5
280
330
277
100
AcDbEntity
  8
DEFPOINTS
  6
Continuous
 62
     0
100
AcDbPoint
 10
-6.904562002827443
 20
10.10938698465323
 30
0.0
  0
POINT
  5
281
330
277
100
AcDbEntity
  8
DEFPOINTS
  6
Continuous
 62
     0
100
AcDbPoint
 10
-5.592062002827443
 20
10.10938698465323
 30
0.0
  0
POINT
  5
282
330
277
100
AcDbEntity
  8
DEFPOINTS
  6
Continuous
 62
     0
100
AcDbPoint
 10
-5.592062002827443
 20
9.837556667977796
 30
0.0
  0
ENDBLK
  5
283
330
277
100
AcDbEntity
  8
0
100
AcDbBlockEnd
  0
BLOCK
  5
285
330
284
100
AcDbEntity
  8
0
 62
     3
100
AcDbBlockBegin
  2
*D7
 70
     1
 10
0.0
 20
0.0
 30
0.0
  3
*D7
  1

  0
LINE
  5
286
330
284
100
AcDbEntity
  8
ADPDIM
  6
Continuous
 62
     0
370
    -2
100
AcDbLine
 10
-7.036010161461554
 20
9.862914940439942
 30
0.0
 11
-7.036010161461554
 21
9.169359713781506
 31
0.0
  0
LINE
  5
287
330
284
100
AcDbEntity
  8
ADPDIM
  6
Continuous
 62
     0
370
    -2
100
AcDbLine
 10
-5.473510161461554
 20
9.862914940439942
 30
0.0
 11
-5.473510161461554
 21
9.169359713781506
 31
0.0
  0
LINE
  5
288
330
284
100
AcDbEntity
  8
ADPDIM
  6
Continuous
 62
     0
370
    -2
100
AcDbLine
 10
-6.856010161461554
 20
9.349359713781506
 30
0.0
 11
-6.594760161461554
 21
9.349359713781506
 31
0.0
  0
LINE
  5
289
330
284
100
AcDbEntity
  8
ADPDIM
  6
Continuous
 62
     0
370
    -2
100
AcDbLine
 10
-5.653510161461554
 20
9.349359713781506
 30
0.0
 11
-5.914760161461554
 21
9.349359713781506
 31
0.0
  0
SOLID
  5
28A
330
284
100
AcDbEntity
  8
ADPDIM
  6
Continuous
 62
     0
100
AcDbTrace
 10
-6.856010161461554
 20
9.379359713781505
 30
0.0
 11
-6.856010161461554
 21
9.319359713781507
 31
0.0
 12
-7.036010161461554
 22
9.349359713781506
 32
0.0
 13
-7.036010161461554
 23
9.349359713781506
 33
0.0
  0
SOLID
  5
28B
330
284
100
AcDbEntity
  8
ADPDIM
  6
Continuous
 62
     0
100
AcDbTrace
 10
-5.653510161461554
 20
9.379359713781505
 30
0.0
 11
-5.653510161461554
 21
9.319359713781507
 31
0.0
 12
-5.473510161461554
 22
9.349359713781506
 32
0.0
 13
-5.473510161461554
 23
9.349359713781506
 33
0.0
  0
MTEXT
  5
28C
330
284
100
AcDbEntity
  8
ADPDIM
  6
Continuous
 62
     0
100
AcDbMText
 10
-6.254760161461554
 20
9.349359713781506
 30
0.0
 40
0.1
 41
0.0
 71
     5
 72
     1
  1
\A1;1 9/16
 73
     1
 44
1.0
1001
ACAD
1000
MTEXTBEGIN
1070
    73
1070
     1
1070
    44
1040
1.0
1070
    74
1070
     0
1000
MTEXTEND
  0
POINT
  5
28D
330
284
100
AcDbEntity
  8
DEFPOINTS
  6
Continuous
 62
     0
100
AcDbPoint
 10
-7.036010161461554
 20
9.925414940439942
 30
0.0
  0
POINT
  5
28E
330
284
100
AcDbEntity
  8
DEFPOINTS
  6
Continuous
 62
     0
100
AcDbPoint
 10
-5.473510161461554
 20
9.925414940439942
 30
0.0
  0
POINT
  5
28F
330
284
100
AcDbEntity
  8
DEFPOINTS
  6
Continuous
 62
     0
100
AcDbPoint
 10
-5.473510161461554
 20
9.349359713781506
 30
0.0
  0
ENDBLK
  5
290
330
284
100
AcDbEntity
  8
0
 62
     3
100
AcDbBlockEnd
  0
BLOCK
  5
2AA
330
29F
100
AcDbEntity
  8
0
100
AcDbBlockBegin
  2
*D9
 70
     1
 10
0.0
 20
0.0
 30
0.0
  3
*D9
  1

  0
LINE
  5
2C6
330
29F
100
AcDbEntity
  8
ADPDIM
  6
Continuous
 62
     0
370
    -2
100
AcDbLine
 10
-7.20876232295647
 20
9.977636593031249
 30
0.0
 11
-7.20876232295647
 21
11.00406924317091
 31
0.0
  0
LINE
  5
2C7
330
29F
100
AcDbEntity
  8
ADPDIM
  6
Continuous
 62
     0
370
    -2
100
AcDbLine
 10
-4.95876232295647
 20
9.977636593031249
 30
0.0
 11
-4.95876232295647
 21
11.00406924317091
 31
0.0
  0
LINE
  5
2C8
330
29F
100
AcDbEntity
  8
ADPDIM
  6
Continuous
 62
     0
370
    -2
100
AcDbLine
 10
-7.02876232295647
 20
10.82406924317091
 30
0.0
 11
-6.390428989623137
 21
10.82406924317091
 31
0.0
  0
LINE
  5
2C9
330
29F
100
AcDbEntity
  8
ADPDIM
  6
Continuous
 62
     0
370
    -2
100
AcDbLine
 10
-5.13876232295647
 20
10.82406924317091
 30
0.0
 11
-5.777095656289803
 21
10.82406924317091
 31
0.0
  0
SOLID
  5
2CA
330
29F
100
AcDbEntity
  8
ADPDIM
  6
Continuous
 62
     0
100
AcDbTrace
 10
-7.02876232295647
 20
10.85406924317091
 30
0.0
 11
-7.02876232295647
 21
10.79406924317091
 31
0.0
 12
-7.20876232295647
 22
10.82406924317091
 32
0.0
 13
-7.20876232295647
 23
10.82406924317091
 33
0.0
  0
SOLID
  5
2CB
330
29F
100
AcDbEntity
  8
ADPDIM
  6
Continuous
 62
     0
100
AcDbTrace
 10
-5.13876232295647
 20
10.85406924317091
 30
0.0
 11
-5.13876232295647
 21
10.79406924317091
 31
0.0
 12
-4.95876232295647
 22
10.82406924317091
 32
0.0
 13
-4.95876232295647
 23
10.82406924317091
 33
0.0
  0
MTEXT
  5
2CC
330
29F
100
AcDbEntity
  8
ADPDIM
  6
Continuous
 62
     0
100
AcDbMText
 10
-6.08376232295647
 20
10.82406924317091
 30
0.0
 40
0.1
 41
0.0
 71
     5
 72
     1
  1
\A1;2 1/4
 73
     1
 44
1.0
1001
ACAD
1000
MTEXTBEGIN
1070
    73
1070
     1
1070
    44
1040
1.0
1070
    74
1070
     0
1000
MTEXTEND
  0
POINT
  5
2CD
330
29F
100
AcDbEntity
  8
DEFPOINTS
  6
Continuous
 62
     0
100
AcDbPoint
 10
-7.20876232295647
 20
9.915136593031249
 30
0.0
  0
POINT
  5
2CE
330
29F
100
AcDbEntity
  8
DEFPOINTS
  6
Continuous
 62
     0
100
AcDbPoint
 10
-4.95876232295647
 20
9.915136593031249
 30
0.0
  0
POINT
  5
2CF
330
29F
100
AcDbEntity
  8
DEFPOINTS
  6
Continuous
 62
     0
100
AcDbPoint
 10
-4.95876232295647
 20
10.82406924317091
 30
0.0
  0
ENDBLK
  5
2AB
330
29F
100
AcDbEntity
  8
0
100
AcDbBlockEnd
  0
BLOCK
  5
2B7
330
2AC
100
AcDbEntity
  8
0
100
AcDbBlockBegin
  2
*D10
 70
     1
 10
0.0
 20
0.0
 30
0.0
  3
*D10
  1

  0
LINE
  5
2D0
330
2AC
100
AcDbEntity
  8
ADPDIM
  6
Continuous
 62
     0
370
    -2
100
AcDbLine
 10
-6.741653596797316
 20
9.657258555203014
 30
0.0
 11
-6.741653596797316
 21
9.267928238527581
 31
0.0
  0
LINE
  5
2D1
330
2AC
100
AcDbEntity
  8
ADPDIM
  6
Continuous
 62
     0
370
    -2
100
AcDbLine
 10
-5.429153596797316
 20
9.657258555203014
 30
0.0
 11
-5.429153596797316
 21
9.267928238527581
 31
0.0
  0
LINE
  5
2D2
330
2AC
100
AcDbEntity
  8
ADPDIM
  6
Continuous
 62
     0
370
    -2
100
AcDbLine
 10
-6.561653596797317
 20
9.44792823852758
 30
0.0
 11
-6.425403596797316
 21
9.44792823852758
 31
0.0
  0
LINE
  5
2D3
330
2AC
100
AcDbEntity
  8
ADPDIM
  6
Continuous
 62
     0
370
    -2
100
AcDbLine
 10
-5.609153596797316
 20
9.44792823852758
 30
0.0
 11
-5.745403596797316
 21
9.44792823852758
 31
0.0
  0
SOLID
  5
2D4
330
2AC
100
AcDbEntity
  8
ADPDIM
  6
Continuous
 62
     0
100
AcDbTrace
 10
-6.561653596797317
 20
9.47792823852758
 30
0.0
 11
-6.561653596797317
 21
9.417928238527581
 31
0.0
 12
-6.741653596797316
 22
9.44792823852758
 32
0.0
 13
-6.741653596797316
 23
9.44792823852758
 33
0.0
  0
SOLID
  5
2D5
330
2AC
100
AcDbEntity
  8
ADPDIM
  6
Continuous
 62
     0
100
AcDbTrace
 10
-5.609153596797316
 20
9.47792823852758
 30
0.0
 11
-5.609153596797316
 21
9.417928238527581
 31
0.0
 12
-5.429153596797316
 22
9.44792823852758
 32
0.0
 13
-5.429153596797316
 23
9.44792823852758
 33
0.0
  0
MTEXT
  5
2D6
330
2AC
100
AcDbEntity
  8
ADPDIM
  6
Continuous
 62
     0
100
AcDbMText
 10
-6.085403596797316
 20
9.44792823852758
 30
0.0
 40
0.1
 41
0.0
 71
     5
 72
     1
  1
\A1;1 5/16
 73
     1
 44
1.0
1001
ACAD
1000
MTEXTBEGIN
1070
    73
1070
     1
1070
    44
1040
1.0
1070
    74
1070
     0
1000
MTEXTEND
  0
POINT
  5
2D7
330
2AC
100
AcDbEntity
  8
DEFPOINTS
  6
Continuous
 62
     0
100
AcDbPoint
 10
-6.741653596797316
 20
9.719758555203014
 30
0.0
  0
POINT
  5
2D8
330
2AC
100
AcDbEntity
  8
DEFPOINTS
  6
Continuous
 62
     0
100
AcDbPoint
 10
-5.429153596797316
 20
9.719758555203014
 30
0.0
  0
POINT
  5
2D9
330
2AC
100
AcDbEntity
  8
DEFPOINTS
  6
Continuous
 62
     0
100
AcDbPoint
 10
-5.429153596797316
 20
9.44792823852758
 30
0.0
  0
ENDBLK
  5
2B8
330
2AC
100
AcDbEntity
  8
0
100
AcDbBlockEnd
  0
BLOCK
  5
2C4
330
2B9
100
AcDbEntity
  8
0
100
AcDbBlockBegin
  2
*D11
 70
     1
 10
0.0
 20
0.0
 30
0.0
  3
*D11
  1

  0
LINE
  5
2DA
330
2B9
100
AcDbEntity
  8
ADPDIM
  6
Continuous
 62
     0
370
    -2
100
AcDbLine
 10
-6.873101755431427
 20
9.473286510989726
 30
0.0
 11
-6.873101755431427
 21
8.77973128433129
 31
0.0
  0
LINE
  5
2DB
330
2B9
100
AcDbEntity
  8
ADPDIM
  6
Continuous
 62
     0
370
    -2
100
AcDbLine
 10
-5.310601755431427
 20
9.473286510989726
 30
0.0
 11
-5.310601755431427
 21
8.77973128433129
 31
0.0
  0
LINE
  5
2DC
330
2B9
100
AcDbEntity
  8
ADPDIM
  6
Continuous
 62
     0
370
    -2
100
AcDbLine
 10
-6.693101755431428
 20
8.95973128433129
 30
0.0
 11
-6.431851755431427
 21
8.95973128433129
 31
0.0
  0
LINE
  5
2DD
330
2B9
100
AcDbEntity
  8
ADPDIM
  6
Continuous
 62
     0
370
    -2
100
AcDbLine
 10
-5.490601755431427
 20
8.95973128433129
 30
0.0
 11
-5.751851755431427
 21
8.95973128433129
 31
0.0
  0
SOLID
  5
2DE
330
2B9
100
AcDbEntity
  8
ADPDIM
  6
Continuous
 62
     0
100
AcDbTrace
 10
-6.693101755431428
 20
8.989731284331289
 30
0.0
 11
-6.693101755431428
 21
8.929731284331291
 31
0.0
 12
-6.873101755431427
 22
8.95973128433129
 32
0.0
 13
-6.873101755431427
 23
8.95973128433129
 33
0.0
  0
SOLID
  5
2DF
330
2B9
100
AcDbEntity
  8
ADPDIM
  6
Continuous
 62
     0
100
AcDbTrace
 10
-5.490601755431427
 20
8.989731284331289
 30
0.0
 11
-5.490601755431427
 21
8.929731284331291
 31
0.0
 12
-5.310601755431427
 22
8.95973128433129
 32
0.0
 13
-5.310601755431427
 23
8.95973128433129
 33
0.0
  0
MTEXT
  5
2E0
330
2B9
100
AcDbEntity
  8
ADPDIM
  6
Continuous
 62
     0
100
AcDbMText
 10
-6.091851755431427
 20
8.95973128433129
 30
0.0
 40
0.1
 41
0.0
 71
     5
 72
     1
  1
\A1;1 9/16
 73
     1
 44
1.0
1001
ACAD
1000
MTEXTBEGIN
1070
    73
1070
     1
1070
    44
1040
1.0
1070
    74
1070
     0
1000
MTEXTEND
  0
POINT
  5
2E1
330
2B9
100
AcDbEntity
  8
DEFPOINTS
  6
Continuous
 62
     0
100
AcDbPoint
 10
-6.873101755431427
 20
9.535786510989726
 30
0.0
  0
POINT
  5
2E2
330
2B9
100
AcDbEntity
  8
DEFPOINTS
  6
Continuous
 62
     0
100
AcDbPoint
 10
-5.310601755431427
 20
9.535786510989726
 30
0.0
  0
POINT
  5
2E3
330
2B9
100
AcDbEntity
  8
DEFPOINTS
  6
Continuous
 62
     0
100
AcDbPoint
 10
-5.310601755431427
 20
8.95973128433129
 30
0.0
  0
ENDBLK
  5
2C5
330
2B9
100
AcDbEntity
  8
0
100
AcDbBlockEnd
  0
ENDSEC
  0
SECTION
  2
ENTITIES
  0
ARC
  5
EF
330
18
100
AcDbEntity
  8
ADP1DETAIL
  6
Continuous
100
AcDbCircle
 10
-3.601225504742848
 20
14.09924663640899
 30
0.0
 40
1.375
100
AcDbArc
 50
90.0
 51
180.0
  0
ARC
  5
F0
330
18
100
AcDbEntity
  8
ADP1DETAIL
  6
Continuous
100
AcDbCircle
 10
-3.601225504742848
 20
14.09924663640899
 30
0.0
 40
1.5
100
AcDbArc
 50
90.0
 51
180.0
  0
ARC
  5
F1
330
18
100
AcDbEntity
  8
ADP1DETAIL
  6
Continuous
100
AcDbCircle
 10
-3.601225504742848
 20
14.09924663640899
 30
0.0
 40
3.625
100
AcDbArc
 50
90.0
 51
180.0
  0
ARC
  5
F2
330
18
100
AcDbEntity
  8
ADP1DETAIL
  6
Continuous
100
AcDbCircle
 10
-3.601225504742848
 20
14.09924663640899
 30
0.0
 40
3.5
100
AcDbArc
 50
90.0
 51
180.0
  0
ARC
  5
F3
330
18
100
AcDbEntity
  8
ADP3DETAIL
  6
CENTER2
100
AcDbCircle
 10
-3.601225504742848
 20
14.09924663640899
 30
0.0
 40
2.5
100
AcDbArc
 50
90.0
 51
180.0
  0
DIMENSION
  5
F4
330
18
100
AcDbEntity
  8
ADPDIM
100
AcDbDimension
  2
*D2
 10
-4.247579450427607
 20
11.59924663640899
 30
0.0
 11
-4.247579450427607
 21
12.84855398562651
 31
0.0
 71
     5
 42
-1.0
100
AcDbAlignedDimension
 13
-3.599833905436716
 23
14.09786133484403
 33
0.0
 14
-5.038225504742853
 24
11.59924663640899
 34
0.0
 50
90.0
100
AcDbRotatedDimension
  0
DIMENSION
  5
F5
330
18
100
AcDbEntity
  8
ADPDIM
100
AcDbDimension
  2
*D1
 10
-3.601225504742848
 20
14.09924663640899
 30
0.0
 11
-3.275009126753324
 21
13.77450656435544
 31
0.0
 70
     4
 71
     5
 42
-1.0
100
AcDbRadialDimension
 15
-5.372997024834083
 25
15.86299992998312
 35
0.0
 40
-2.501963570486308
  0
LINE
  5
F6
330
18
100
AcDbEntity
  8
ADP1DETAIL
  6
Continuous
100
AcDbLine
 10
-4.976225504742852
 20
11.59924663640899
 30
0.0
 11
-7.226225504742852
 21
11.59924663640899
 31
0.0
  0
LINE
  5
F7
330
18
100
AcDbEntity
  8
ADP1DETAIL
  6
Continuous
100
AcDbLine
 10
-7.226225504742852
 20
11.59924663640899
 30
0.0
 11
-7.226225504742848
 21
14.09924663640899
 31
0.0
  0
LINE
  5
F8
330
18
100
AcDbEntity
  8
ADP1DETAIL
  6
Continuous
100
AcDbLine
 10
-7.101225504742852
 20
11.59924663640899
 30
0.0
 11
-7.101225504742848
 21
14.09924663640899
 31
0.0
  0
LINE
  5
F9
330
18
100
AcDbEntity
  8
ADP3DETAIL
  6
CENTER2
100
AcDbLine
 10
-6.101225504742852
 20
11.13786477154462
 30
0.0
 11
-6.101225504742848
 21
14.09924663640899
 31
0.0
  0
LINE
  5
FA
330
18
100
AcDbEntity
  8
ADP1DETAIL
  6
Continuous
100
AcDbLine
 10
-4.976225504742852
 20
11.59924663640899
 30
0.0
 11
-4.976225504742848
 21
14.09924663640899
 31
0.0
  0
LINE
  5
FB
330
18
100
AcDbEntity
  8
ADP1DETAIL
  6
Continuous
100
AcDbLine
 10
-5.101225504742852
 20
11.59924663640899
 30
0.0
 11
-5.101225504742848
 21
14.09924663640899
 31
0.0
  0
LINE
  5
FC
330
18
100
AcDbEntity
  8
ADP1DETAIL
  6
Continuous
100
AcDbLine
 10
-1.101225504742848
 20
17.72424663640899
 30
0.0
 11
-3.601225504742848
 21
17.72424663640899
 31
0.0
  0
LINE
  5
FD
330
18
100
AcDbEntity
  8
ADP1DETAIL
  6
Continuous
100
AcDbLine
 10
-1.101225504742848
 20
17.59924663640899
 30
0.0
 11
-3.601225504742848
 21
17.59924663640899
 31
0.0
  0
LINE
  5
FE
330
18
100
AcDbEntity
  8
ADP1DETAIL
  6
Continuous
100
AcDbLine
 10
-1.101225504742852
 20
15.47424663640899
 30
0.0
 11
-3.601225504742848
 21
15.47424663640899
 31
0.0
  0
LINE
  5
FF
330
18
100
AcDbEntity
  8
ADP1DETAIL
  6
Continuous
100
AcDbLine
 10
-1.101225504742852
 20
15.59924663640899
 30
0.0
 11
-3.601225504742848
 21
15.59924663640899
 31
0.0
  0
LINE
  5
100
330
18
100
AcDbEntity
  8
ADP3DETAIL
  6
CENTER2
100
AcDbLine
 10
-0.3906038042486477
 20
16.59924663640899
 30
0.0
 11
-3.601225504742848
 21
16.59924663640899
 31
0.0
  0
LINE
  5
101
330
18
100
AcDbEntity
  8
ADP1DETAIL
  6
Continuous
100
AcDbLine
 10
-1.101225504742848
 20
17.72424663640899
 30
0.0
 11
-1.101225504742852
 21
15.47424663640899
 31
0.0
  0
TEXT
  5
10F
330
18
100
AcDbEntity
  8
ADPDIM
100
AcDbText
 10
-13.75700501932614
 20
8.303498404068509
 30
0.0
 40
0.1875
  1
J U L I U S  B L U M  &  C O . ,  I N C .      ( 8 0 0 )  5 2 6 - 6 2 9 3        W W W . J U L I U S B L U M . C O M        P A R T  N o .  5 5 3 0 - C
 41
1.25
  7
ARIAL_WIDE
 72
     1
 11
-3.704699639039645
 21
8.490998404068509
 31
0.0
100
AcDbText
 73
     3
  0
DIMENSION
  5
29B
330
18
100
AcDbEntity
  8
ADPDIM
  6
Continuous
 62
     3
100
AcDbDimension
  2
*D9
 10
-4.95876232295647
 20
10.82406924317091
 30
0.0
 11
-6.08376232295647
 21
10.82406924317091
 31
0.0
 70
    32
 71
     5
 42
2.25
  3
STANDARD
100
AcDbAlignedDimension
 13
-7.20876232295647
 23
9.915136593031249
 33
0.0
 14
-4.95876232295647
 24
9.915136593031249
 34
0.0
100
AcDbRotatedDimension
1001
ACAD
1000
DSTYLE
1002
{
1070
   140
1040
0.1
1070
   276
1070
     2
1070
   277
1070
     5
1070
   289
1070
     3
1002
}
  0
DIMENSION
  5
29C
330
18
100
AcDbEntity
  8
ADPDIM
  6
Continuous
 62
     3
100
AcDbDimension
  2
*D10
 10
-5.429153596797316
 20
9.44792823852758
 30
0.0
 11
-6.085403596797316
 21
9.44792823852758
 31
0.0
 70
    32
 71
     5
 42
1.3125
  3
STANDARD
100
AcDbAlignedDimension
 13
-6.741653596797316
 23
9.719758555203014
 33
0.0
 14
-5.429153596797316
 24
9.719758555203014
 34
0.0
100
AcDbRotatedDimension
1001
ACAD
1000
DSTYLE
1002
{
1070
   140
1040
0.1
1070
   276
1070
     2
1070
   277
1070
     5
1070
   289
1070
     3
1002
}
  0
DIMENSION
  5
29D
330
18
100
AcDbEntity
  8
ADPDIM
  6
Continuous
 62
     3
100
AcDbDimension
  2
*D11
 10
-5.310601755431427
 20
8.95973128433129
 30
0.0
 11
-6.091851755431427
 21
8.95973128433129
 31
0.0
 70
    32
 71
     5
 42
1.5625
  3
STANDARD
100
AcDbAlignedDimension
 13
-6.873101755431427
 23
9.535786510989726
 33
0.0
 14
-5.310601755431427
 24
9.535786510989726
 34
0.0
100
AcDbRotatedDimension
1001
ACAD
1000
DSTYLE
1002
{
1070
   140
1040
0.1
1070
   276
1070
     2
1070
   277
1070
     5
1070
   289
1070
     3
1002
}
  0
SPLINE
  5
29E
330
18
100
AcDbEntity
  8
ADPDIM
 62
     7
370
     0
100
AcDbSpline
210
0.0
220
0.0
230
1.0
 70
    11
 71
     3
 72
   116
 73
   112
 74
     0
 42
0.0000000001
 43
0.0000000001
 40
0.0
 40
0.0
 40
0.0
 40
0.0
 40
1.0
 40
1.0
 40
1.0
 40
2.0
 40
2.0
 40
2.0
 40
3.0
 40
3.0
 40
3.0
 40
4.0
 40
4.0
 40
4.0
 40
5.0
 40
5.0
 40
5.0
 40
6.0
 40
6.0
 40
6.0
 40
7.0
 40
7.0
 40
7.0
 40
8.0
 40
8.0
 40
8.0
 40
9.0
 40
9.0
 40
9.0
 40
10.0
 40
10.0
 40
10.0
 40
11.0
 40
11.0
 40
11.0
 40
12.0
 40
12.0
 40
12.0
 40
13.0
 40
13.0
 40
13.0
 40
14.0
 40
14.0
 40
14.0
 40
15.0
 40
15.0
 40
15.0
 40
16.0
 40
16.0
 40
16.0
 40
17.0
 40
17.0
 40
17.0
 40
18.0
 40
18.0
 40
18.0
 40
19.0
 40
19.0
 40
19.0
 40
20.0
 40
20.0
 40
20.0
 40
21.0
 40
21.0
 40
21.0
 40
22.0
 40
22.0
 40
22.0
 40
23.0
 40
23.0
 40
23.0
 40
24.0
 40
24.0
 40
24.0
 40
25.0
 40
25.0
 40
25.0
 40
26.0
 40
26.0
 40
26.0
 40
27.0
 40
27.0
 40
27.0
 40
28.0
 40
28.0
 40
28.0
 40
29.0
 40
29.0
 40
29.0
 40
30.0
 40
30.0
 40
30.0
 40
31.0
 40
31.0
 40
31.0
 40
32.0
 40
32.0
 40
32.0
 40
33.0
 40
33.0
 40
33.0
 40
34.0
 40
34.0
 40
34.0
 40
35.0
 40
35.0
 40
35.0
 40
36.0
 40
36.0
 40
36.0
 40
37.0
 40
37.0
 40
37.0
 40
37.0
 10
-5.210760240381339
 20
9.52259451307729
 30
0.0
 10
-5.213738719768072
 20
9.515548358681586
 30
0.0
 10
-5.220710916436341
 20
9.510613361232685
 30
0.0
 10
-5.228839543024515
 20
9.510613361232685
 30
0.0
 10
-5.228839543024515
 20
9.510613361232685
 30
0.0
 10
-5.29566371147767
 20
9.510613361232685
 30
0.0
 10
-5.29566371147767
 20
9.510613361232685
 30
0.0
 10
-5.306495156832135
 20
9.510613361232685
 30
0.0
 10
-5.315282679537465
 20
9.519394160508248
 30
0.0
 10
-5.315282679537465
 20
9.530232329292481
 30
0.0
 10
-5.315282679537465
 20
9.530232329292481
 30
0.0
 10
-5.315013742346788
 20
9.694559676225125
 30
0.0
 10
-5.315013742346788
 20
9.694559676225125
 30
0.0
 10
-5.315013742346788
 20
9.694559676225125
 30
0.0
 10
-5.43478492021423
 20
9.694162993868879
 30
0.0
 10
-5.43478492021423
 20
9.694162993868879
 30
0.0
 10
-5.43478492021423
 20
9.694162993868879
 30
0.0
 10
-5.43478492021423
 20
9.868279654542121
 30
0.0
 10
-5.43478492021423
 20
9.868279654542121
 30
0.0
 10
-5.43478492021423
 20
9.868279654542121
 30
0.0
 10
-6.733711210599451
 20
9.868279654542121
 30
0.0
 10
-6.733711210599451
 20
9.868279654542121
 30
0.0
 10
-6.733711210599451
 20
9.868279654542121
 30
0.0
 10
-6.733711210599451
 20
9.694162993868879
 30
0.0
 10
-6.733711210599451
 20
9.694162993868879
 30
0.0
 10
-6.733711210599451
 20
9.694162993868879
 30
0.0
 10
-6.861469823029962
 20
9.694559676225125
 30
0.0
 10
-6.861469823029962
 20
9.694559676225125
 30
0.0
 10
-6.861469823029962
 20
9.694559676225125
 30
0.0
 10
-6.861214332698819
 20
9.530232329292481
 30
0.0
 10
-6.861214332698819
 20
9.530232329292481
 30
0.0
 10
-6.861214332698819
 20
9.519394160508248
 30
0.0
 10
-6.869988408544616
 20
9.510613361232685
 30
0.0
 10
-6.880833300758615
 20
9.510613361232685
 30
0.0
 10
-6.880833300758615
 20
9.510613361232685
 30
0.0
 10
-6.94421507317112
 20
9.510613361232685
 30
0.0
 10
-6.94421507317112
 20
9.510613361232685
 30
0.0
 10
-6.952343699759294
 20
9.510613361232685
 30
0.0
 10
-6.959315896427562
 20
9.515548358681586
 30
0.0
 10
-6.962280928954762
 20
9.52259451307729
 30
0.0
 10
-6.96328271999003
 20
9.524934266636169
 30
0.0
 10
-6.964627405943408
 20
9.53267965772763
 30
0.0
 10
-6.964627405943408
 20
9.53267965772763
 30
0.0
 10
-6.987043320786232
 20
9.612352300465317
 30
0.0
 10
-7.044394176697832
 20
9.677408206889779
 30
0.0
 10
-7.119104928267553
 20
9.710272331590354
 30
0.0
 10
-7.119104928267553
 20
9.710272331590354
 30
0.0
 10
-7.119414206036831
 20
9.709579818324364
 30
0.0
 10
-7.119414206036831
 20
9.709579818324364
 30
0.0
 10
-7.167890134656132
 20
9.730193853989661
 30
0.0
 10
-7.201856901838478
 20
9.778239483103881
 30
0.0
 10
-7.201856901838478
 20
9.834218759343038
 30
0.0
 10
-7.201856901838478
 20
9.90437774896057
 30
0.0
 10
-7.148486316348877
 20
9.96207822322005
 30
0.0
 10
-7.080135929338638
 20
9.968915951292981
 30
0.0
 10
-7.080135929338638
 20
9.968915951292981
 30
0.0
 10
-7.080855336323696
 20
9.968915951292981
 30
0.0
 10
-7.080855336323696
 20
9.968915951292981
 30
0.0
 10
-7.080855336323696
 20
9.968915951292981
 30
0.0
 10
-7.080855336323696
 20
9.991735271921818
 30
0.0
 10
-7.080855336323696
 20
9.991735271921818
 30
0.0
 10
-7.080855336323696
 20
10.00256671727628
 30
0.0
 10
-7.072067813618367
 20
10.01134751655184
 30
0.0
 10
-7.061249815123435
 20
10.01134751655184
 30
0.0
 10
-7.061249815123435
 20
10.01134751655184
 30
0.0
 10
-6.979634101183115
 20
10.01161645374252
 30
0.0
 10
-6.979634101183115
 20
10.01161645374252
 30
0.0
 10
-6.799990781241487
 20
10.01161645374252
 30
0.0
 10
-6.635407943977702
 20
10.07617482636423
 30
0.0
 10
-6.507857757869965
 20
10.18336646713781
 30
0.0
 10
-6.507857757869965
 20
10.18336646713781
 30
0.0
 10
-6.508093077911807
 20
10.18367574490709
 30
0.0
 10
-6.508093077911807
 20
10.18367574490709
 30
0.0
 10
-6.392503873359373
 20
10.27601532932561
 30
0.0
 10
-6.24596672158993
 20
10.33120796428203
 30
0.0
 10
-6.086520584668051
 20
10.33120796428203
 30
0.0
 10
-5.927087894605705
 20
10.33120796428203
 30
0.0
 10
-5.780537295976728
 20
10.27601532932561
 30
0.0
 10
-5.664961538283828
 20
10.18367574490709
 30
0.0
 10
-5.664961538283828
 20
10.18367574490709
 30
0.0
 10
-5.665210305185204
 20
10.18336646713781
 30
0.0
 10
-5.665210305185204
 20
10.18336646713781
 30
0.0
 10
-5.537646672217933
 20
10.07617482636423
 30
0.0
 10
-5.373077281813682
 20
10.01161645374252
 30
0.0
 10
-5.19342051501252
 20
10.01161645374252
 30
0.0
 10
-5.19342051501252
 20
10.01161645374252
 30
0.0
 10
-5.111804801072199
 20
10.01134751655184
 30
0.0
 10
-5.111804801072199
 20
10.01134751655184
 30
0.0
 10
-5.100973355717735
 20
10.01134751655184
 30
0.0
 10
-5.092206003301705
 20
10.00256671727628
 30
0.0
 10
-5.092206003301705
 20
9.991735271921818
 30
0.0
 10
-5.092206003301705
 20
9.991735271921818
 30
0.0
 10
-5.092206003301705
 20
9.968915951292981
 30
0.0
 10
-5.092206003301705
 20
9.968915951292981
 30
0.0
 10
-5.092206003301705
 20
9.968915951292981
 30
0.0
 10
-5.092918686856997
 20
9.968915951292981
 30
0.0
 10
-5.092918686856997
 20
9.968915951292981
 30
0.0
 10
-5.024568299846757
 20
9.96207822322005
 30
0.0
 10
-4.971184267497623
 20
9.90437774896057
 30
0.0
 10
-4.971184267497623
 20
9.834218759343038
 30
0.0
 10
-4.971184267497623
 20
9.778239483103881
 30
0.0
 10
-5.005164481539502
 20
9.730193853989661
 30
0.0
 10
-5.05362696329927
 20
9.709579818324364
 30
0.0
 10
-5.05362696329927
 20
9.709579818324364
 30
0.0
 10
-5.053936241068548
 20
9.710272331590354
 30
0.0
 10
-5.053936241068548
 20
9.710272331590354
 30
0.0
 10
-5.128646992638269
 20
9.677408206889779
 30
0.0
 10
-5.186011295409404
 20
9.612352300465317
 30
0.0
 10
-5.20844065711176
 20
9.53267965772763
 30
0.0
 10
-5.20844065711176
 20
9.53267965772763
 30
0.0
 10
-5.209771896205605
 20
9.524934266636169
 30
0.0
 10
-5.210760240381339
 20
9.52259451307729
 30
0.0
  0
ENDSEC
  0
SECTION
  2
OBJECTS
  0
DICTIONARY
  5
C
330
0
100
AcDbDictionary
281
     1
  3
ACAD_COLOR
350
264
  3
ACAD_GROUP
350
D
  3
ACAD_LAYOUT
350
108
  3
ACAD_MATERIAL
350
24F
  3
ACAD_MLINESTYLE
350
E
  3
ACAD_PLOTSETTINGS
350
109
  3
ACAD_PLOTSTYLENAME
350
106
  3
ACAD_TABLESTYLE
350
265
  3
ACAD_VISUALSTYLE
350
253
  3
AcDbVariableDictionary
350
169
  3
ASE_INDEX_DICTIONARY
350
2E5
  3
DWGPROPS
350
306
  0
DICTIONARY
  5
163
330
18
100
AcDbDictionary
280
     1
281
     1
  3
ACAD_LAYOUTSELFREF
360
249
  0
DICTIONARY
  5
161
330
15
100
AcDbDictionary
280
     1
281
     1
  3
ACAD_LAYOUTSELFREF
360
248
  0
DICTIONARY
  5
264
102
{ACAD_REACTORS
330
C
102
}
330
C
100
AcDbDictionary
281
     1
  0
DICTIONARY
  5
D
102
{ACAD_REACTORS
330
C
102
}
330
C
100
AcDbDictionary
281
     1
  0
DICTIONARY
  5
108
102
{ACAD_REACTORS
330
C
102
}
330
C
100
AcDbDictionary
281
     1
  3
Layout1
350
10B
  3
Model
350
10A
  0
DICTIONARY
  5
24F
102
{ACAD_REACTORS
330
C
102
}
330
C
100
AcDbDictionary
281
     1
  3
ByBlock
350
251
  3
ByLayer
350
250
  3
Global
350
252
  0
DICTIONARY
  5
E
102
{ACAD_REACTORS
330
C
102
}
330
C
100
AcDbDictionary
281
     1
  3
STANDARD
350
1B
  0
DICTIONARY
  5
109
102
{ACAD_REACTORS
330
C
102
}
330
C
100
AcDbDictionary
281
     1
  0
ACDBDICTIONARYWDFLT
  5
106
102
{ACAD_REACTORS
330
C
102
}
330
C
100
AcDbDictionary
281
     1
  3
Normal
350
107
100
AcDbDictionaryWithDefault
340
107
  0
DICTIONARY
  5
265
102
{ACAD_REACTORS
330
C
102
}
330
C
100
AcDbDictionary
281
     1
  3
Standard
350
266
  0
DICTIONARY
  5
253
102
{ACAD_REACTORS
330
C
102
}
330
C
100
AcDbDictionary
281
     1
  3
2dWireframe
350
259
  3
3D Hidden
350
25B
  3
3dWireframe
350
25A
  3
Basic
350
258
  3
Brighten
350
25F
  3
ColorChange
350
263
  3
Conceptual
350
25C
  3
Dim
350
25E
  3
Facepattern
350
262
  3
Flat
350
254
  3
FlatWithEdges
350
255
  3
Gouraud
350
256
  3
GouraudWithEdges
350
257
  3
Linepattern
350
261
  3
Realistic
350
25D
  3
Thicken
350
260
  0
DICTIONARY
  5
169
102
{ACAD_REACTORS
330
C
102
}
330
C
100
AcDbDictionary
281
     1
  3
CTABLESTYLE
350
303
  3
DIMASSOC
350
16A
  3
INDEXCTL
350
305
  3
SORTENTS
350
304
  0
DICTIONARY
  5
2E5
102
{ACAD_REACTORS
330
C
102
}
330
C
100
AcDbDictionary
281
     1
  3
ASEBlockHierarchyIndexRecord
350
2E6
1001
DCO15
1040
1569088827.257
  0
XRECORD
  5
306
102
{ACAD_REACTORS
330
C
102
}
330
C
100
AcDbXrecord
280
     1
  1
DWGPROPS COOKIE
  2

  3

  4

  6

  7

  8
Yu Hu
  9

300
=
301
=
302
=
303
=
304
=
305
=
306
=
307
=
308
=
309
=
 40
0.0570276273148148
 41
2450406.632633287
 42
2453963.962167327
  1

 90
        0
  0
XRECORD
  5
249
102
{ACAD_REACTORS
330
163
102
}
330
163
100
AcDbXrecord
280
     1
340
18
  0
XRECORD
  5
248
102
{ACAD_REACTORS
330
161
102
}
330
161
100
AcDbXrecord
280
     1
340
15
  0
LAYOUT
  5
10B
102
{ACAD_XDICTIONARY
360
309
102
}
102
{ACAD_REACTORS
330
108
102
}
330
108
100
AcDbPlotSettings
  1

  2
Fax
  4

  6

 40
0.0
 41
0.0
 42
0.0
 43
0.0
 44
0.0
 45
0.0
 46
0.0
 47
0.0
 48
0.0
 49
0.0
140
0.0
141
0.0
142
1.0
143
1.0
 70
   688
 72
     0
 73
     0
 74
     5
  7
Default R14 pen assignments.ctb
 75
    16
147
1.0
148
0.0
149
0.0
100
AcDbLayout
  1
Layout1
 70
     1
 71
     1
 10
0.0
 20
0.0
 11
12.0
 21
9.0
 12
0.0008545028977096
 22
1.250283272183907
 32
0.0
 14
1.000000000000000E+20
 24
1.000000000000000E+20
 34
1.000000000000000E+20
 15
-1.000000000000000E+20
 25
-1.000000000000000E+20
 35
-1.000000000000000E+20
146
0.0
 13
0.0
 23
0.0
 33
0.0
 16
1.0
 26
0.0
 36
0.0
 17
0.0
 27
1.0
 37
0.0
 76
     0
330
15
  0
LAYOUT
  5
10A
102
{ACAD_XDICTIONARY
360
307
102
}
102
{ACAD_REACTORS
330
108
102
}
330
108
100
AcDbPlotSettings
  1

  2
Fax
  4

  6

 40
0.0
 41
0.0
 42
0.0
 43
0.0
 44
0.0
 45
0.0
 46
0.0
 47
0.0
 48
0.0
 49
0.0
140
0.0
141
0.0
142
1.0
143
1.0
 70
  1712
 72
     0
 73
     0
 74
     0
  7
Default R14 pen assignments.ctb
 75
     0
147
1.0
148
0.0
149
0.0
100
AcDbLayout
  1
Model
 70
     1
 71
     0
 10
0.0
 20
0.0
 11
12.0
 21
9.0
 12
0.0
 22
0.0
 32
0.0
 14
0.0
 24
0.0
 34
0.0
 15
0.0
 25
0.0
 35
0.0
146
0.0
 13
0.0
 23
0.0
 33
0.0
 16
1.0
 26
0.0
 36
0.0
 17
0.0
 27
1.0
 37
0.0
 76
     0
330
18
331
223
  0
MATERIAL
  5
251
102
{ACAD_XDICTIONARY
360
30D
102
}
102
{ACAD_REACTORS
330
24F
102
}
330
24F
100
AcDbMaterial
  1
ByBlock
  0
MATERIAL
  5
250
102
{ACAD_XDICTIONARY
360
30B
102
}
102
{ACAD_REACTORS
330
24F
102
}
330
24F
100
AcDbMaterial
  1
ByLayer
  0
MATERIAL
  5
252
102
{ACAD_XDICTIONARY
360
30F
102
}
102
{ACAD_REACTORS
330
24F
102
}
330
24F
100
AcDbMaterial
  1
Global
  0
MLINESTYLE
  5
1B
102
{ACAD_REACTORS
330
E
102
}
330
E
100
AcDbMlineStyle
  2
STANDARD
 70
     0
  3

 62
     0
 51
90.0
 52
90.0
 71
     2
 49
0.5
 62
   256
  6
BYLAYER
 49
-0.5
 62
   256
  6
BYLAYER
  0
ACDBPLACEHOLDER
  5
107
102
{ACAD_REACTORS
330
106
102
}
330
106
  0
TABLESTYLE
  5
266
102
{ACAD_XDICTIONARY
360
311
102
}
102
{ACAD_REACTORS
330
265
102
}
330
265
100
AcDbTableStyle
  3
Standard
 70
     0
 71
     0
 40
0.06
 41
0.06
280
     0
281
     0
  7
STANDARD
140
0.18
170
     2
 62
     0
 63
     7
283
     0
274
    -2
284
     1
 64
     0
275
    -2
285
     1
 65
     0
276
    -2
286
     1
 66
     0
277
    -2
287
     1
 67
     0
278
    -2
288
     1
 68
     0
279
    -2
289
     1
 69
     0
  7
STANDARD
140
0.25
170
     5
 62
     0
 63
     7
283
     0
274
    -2
284
     1
 64
     0
275
    -2
285
     1
 65
     0
276
    -2
286
     1
 66
     0
277
    -2
287
     1
 67
     0
278
    -2
288
     1
 68
     0
279
    -2
289
     1
 69
     0
  7
STANDARD
140
0.18
170
     5
 62
     0
 63
     7
283
     0
274
    -2
284
     1
 64
     0
275
    -2
285
     1
 65
     0
276
    -2
286
     1
 66
     0
277
    -2
287
     1
 67
     0
278
    -2
288
     1
 68
     0
279
    -2
289
     1
 69
     0
  0
VISUALSTYLE
  5
259
102
{ACAD_REACTORS
330
253
102
}
330
253
100
AcDbVisualStyle
  2
2dWireframe
 70
     4
 71
     0
 72
     2
 73
     0
 90
        0
 40
-0.6
 41
-30.0
 62
     5
 63
     7
 74
     1
 91
        4
 64
     7
 65
   257
 75
     1
175
     1
 42
1.0
 92
        0
 66
   257
 43
1.0
 76
     1
 77
     6
 78
     2
 67
     7
 79
     5
170
     0
171
     0
290
     0
174
     0
 93
        1
 44
0.0
173
     0
291
     0
 45
0.0
1001
ACAD
1000
AcDbSavedByObjectVersion
1070
     0
  0
VISUALSTYLE
  5
25B
102
{ACAD_REACTORS
330
253
102
}
330
253
100
AcDbVisualStyle
  2
3D Hidden
 70
     6
 71
     1
 72
     2
 73
     2
 90
        0
 40
-0.6
 41
-30.0
 62
     5
 63
     7
 74
     2
 91
        2
 64
     7
 65
   257
 75
     2
175
     1
 42
40.0
 92
        0
 66
   257
 43
1.0
 76
     1
 77
     6
 78
     2
 67
     7
 79
     3
170
     0
171
     0
290
     0
174
     0
 93
        1
 44
0.0
173
     0
291
     0
 45
0.0
1001
ACAD
1000
AcDbSavedByObjectVersion
1070
     0
  0
VISUALSTYLE
  5
25A
102
{ACAD_REACTORS
330
253
102
}
330
253
100
AcDbVisualStyle
  2
3dWireframe
 70
     5
 71
     0
 72
     2
 73
     0
 90
        0
 40
-0.6
 41
-30.0
 62
     5
 63
     7
 74
     1
 91
        4
 64
     7
 65
   257
 75
     1
175
     1
 42
1.0
 92
        0
 66
   257
 43
1.0
 76
     1
 77
     6
 78
     2
 67
     7
 79
     5
170
     0
171
     0
290
     0
174
     0
 93
        1
 44
0.0
173
     0
291
     0
 45
0.0
1001
ACAD
1000
AcDbSavedByObjectVersion
1070
     0
  0
VISUALSTYLE
  5
258
102
{ACAD_REACTORS
330
253
102
}
330
253
100
AcDbVisualStyle
  2
Basic
 70
     7
 71
     1
 72
     0
 73
     1
 90
        0
 40
-0.6
 41
-30.0
 62
     5
 63
     7
 74
     0
 91
        4
 64
     7
 65
   257
 75
     1
175
     1
 42
1.0
 92
        8
 66
     7
 43
1.0
 76
     1
 77
     6
 78
     2
 67
     7
 79
     5
170
     0
171
     0
290
     0
174
     0
 93
        1
 44
0.0
173
     0
291
     1
 45
0.0
1001
ACAD
1000
AcDbSavedByObjectVersion
1070
     0
  0
VISUALSTYLE
  5
25F
102
{ACAD_REACTORS
330
253
102
}
330
253
100
AcDbVisualStyle
  2
Brighten
 70
    12
 71
     2
 72
     2
 73
     0
 90
        0
 40
-0.6
 41
-30.0
 62
     5
 63
     7
 74
     1
 91
        4
 64
     7
 65
   257
 75
     1
175
     1
 42
1.0
 92
        8
 66
     7
 43
1.0
 76
     1
 77
     6
 78
     2
 67
     7
 79
     5
170
     0
171
     0
290
     0
174
     0
 93
        1
 44
50.0
173
     0
291
     1
 45
0.0
1001
ACAD
1000
AcDbSavedByObjectVersion
1070
     0
  0
VISUALSTYLE
  5
263
102
{ACAD_REACTORS
330
253
102
}
330
253
100
AcDbVisualStyle
  2
ColorChange
 70
    16
 71
     2
 72
     2
 73
     3
 90
        0
 40
-0.6
 41
-30.0
 62
     5
 63
     8
 74
     1
 91
        4
 64
     7
 65
   257
 75
     1
175
     1
 42
1.0
 92
        8
 66
     8
 43
1.0
 76
     1
 77
     6
 78
     2
 67
     7
 79
     5
170
     0
171
     0
290
     0
174
     0
 93
        1
 44
0.0
173
     0
291
     1
 45
0.0
1001
ACAD
1000
AcDbSavedByObjectVersion
1070
     0
  0
VISUALSTYLE
  5
25C
102
{ACAD_REACTORS
330
253
102
}
330
253
100
AcDbVisualStyle
  2
Conceptual
 70
     9
 71
     3
 72
     2
 73
     0
 90
        0
 40
-0.6
 41
-30.0
 62
     5
 63
     7
 74
     2
 91
        2
 64
     7
 65
   257
 75
     1
175
     1
 42
40.0
 92
        8
 66
     7
 43
1.0
 76
     1
 77
     6
 78
     2
 67
     7
 79
     3
170
     0
171
     0
290
     0
174
     0
 93
        1
 44
0.0
173
     0
291
     0
 45
0.0
1001
ACAD
1000
AcDbSavedByObjectVersion
1070
     0
  0
VISUALSTYLE
  5
25E
102
{ACAD_REACTORS
330
253
102
}
330
253
100
AcDbVisualStyle
  2
Dim
 70
    11
 71
     2
 72
     2
 73
     0
 90
        0
 40
-0.6
 41
-30.0
 62
     5
 63
     7
 74
     1
 91
        4
 64
     7
 65
   257
 75
     1
175
     1
 42
1.0
 92
        8
 66
     7
 43
1.0
 76
     1
 77
     6
 78
     2
 67
     7
 79
     5
170
     0
171
     0
290
     0
174
     0
 93
        1
 44
-50.0
173
     0
291
     1
 45
0.0
1001
ACAD
1000
AcDbSavedByObjectVersion
1070
     0
  0
VISUALSTYLE
  5
262
102
{ACAD_REACTORS
330
253
102
}
330
253
100
AcDbVisualStyle
  2
Facepattern
 70
    15
 71
     2
 72
     2
 73
     0
 90
        0
 40
-0.6
 41
-30.0
 62
     5
 63
     7
 74
     1
 91
        4
 64
     7
 65
   257
 75
     1
175
     1
 42
1.0
 92
        8
 66
     7
 43
1.0
 76
     1
 77
     6
 78
     2
 67
     7
 79
     5
170
     0
171
     0
290
     0
174
     0
 93
        1
 44
0.0
173
     0
291
     1
 45
0.0
1001
ACAD
1000
AcDbSavedByObjectVersion
1070
     0
  0
VISUALSTYLE
  5
254
102
{ACAD_REACTORS
330
253
102
}
330
253
100
AcDbVisualStyle
  2
Flat
 70
     0
 71
     2
 72
     1
 73
     1
 90
        2
 40
-0.6
 41
30.0
 62
     5
 63
     7
 74
     0
 91
        4
 64
     7
 65
   257
 75
     1
175
     1
 42
1.0
 92
        8
 66
     7
 43
1.0
 76
     1
 77
     6
 78
     2
 67
     7
 79
     5
170
     0
171
     0
290
     0
174
     0
 93
       13
 44
0.0
173
     0
291
     1
 45
0.0
1001
ACAD
1000
AcDbSavedByObjectVersion
1070
     0
  0
VISUALSTYLE
  5
255
102
{ACAD_REACTORS
330
253
102
}
330
253
100
AcDbVisualStyle
  2
FlatWithEdges
 70
     1
 71
     2
 72
     1
 73
     1
 90
        2
 40
-0.6
 41
30.0
 62
     5
 63
     7
 74
     1
 91
        4
 64
     7
 65
   257
 75
     1
175
     1
 42
1.0
 92
        0
 66
   257
 43
1.0
 76
     1
 77
     6
 78
     2
 67
     7
 79
     5
170
     0
171
     0
290
     0
174
     0
 93
       13
 44
0.0
173
     0
291
     1
 45
0.0
1001
ACAD
1000
AcDbSavedByObjectVersion
1070
     0
  0
VISUALSTYLE
  5
256
102
{ACAD_REACTORS
330
253
102
}
330
253
100
AcDbVisualStyle
  2
Gouraud
 70
     2
 71
     2
 72
     2
 73
     1
 90
        2
 40
-0.6
 41
30.0
 62
     5
 63
     7
 74
     0
 91
        4
 64
     7
 65
   257
 75
     1
175
     1
 42
1.0
 92
        0
 66
     7
 43
1.0
 76
     1
 77
     6
 78
     2
 67
     7
 79
     5
170
     0
171
     0
290
     0
174
     0
 93
       13
 44
0.0
173
     0
291
     1
 45
0.0
1001
ACAD
1000
AcDbSavedByObjectVersion
1070
     0
  0
VISUALSTYLE
  5
257
102
{ACAD_REACTORS
330
253
102
}
330
253
100
AcDbVisualStyle
  2
GouraudWithEdges
 70
     3
 71
     2
 72
     2
 73
     1
 90
        2
 40
-0.6
 41
30.0
 62
     5
 63
     7
 74
     1
 91
        4
 64
     7
 65
   257
 75
     1
175
     1
 42
1.0
 92
        0
 66
   257
 43
1.0
 76
     1
 77
     6
 78
     2
 67
     7
 79
     5
170
     0
171
     0
290
     0
174
     0
 93
       13
 44
0.0
173
     0
291
     1
 45
0.0
1001
ACAD
1000
AcDbSavedByObjectVersion
1070
     0
  0
VISUALSTYLE
  5
261
102
{ACAD_REACTORS
330
253
102
}
330
253
100
AcDbVisualStyle
  2
Linepattern
 70
    14
 71
     2
 72
     2
 73
     0
 90
        0
 40
-0.6
 41
-30.0
 62
     5
 63
     7
 74
     1
 91
        4
 64
     7
 65
   257
 75
     7
175
     7
 42
1.0
 92
        8
 66
     7
 43
1.0
 76
     1
 77
     6
 78
     2
 67
     7
 79
     5
170
     0
171
     0
290
     0
174
     0
 93
        1
 44
0.0
173
     0
291
     1
 45
0.0
1001
ACAD
1000
AcDbSavedByObjectVersion
1070
     0
  0
VISUALSTYLE
  5
25D
102
{ACAD_REACTORS
330
253
102
}
330
253
100
AcDbVisualStyle
  2
Realistic
 70
     8
 71
     2
 72
     2
 73
     0
 90
        0
 40
-0.6
 41
-30.0
 62
     5
 63
     7
 74
     1
 91
        0
 64
     7
 65
   257
 75
     1
175
     1
 42
1.0
 92
        8
 66
     8
 43
1.0
 76
     1
 77
     6
 78
     2
 67
     7
 79
     5
170
     0
171
     0
290
     0
174
     0
 93
       13
 44
0.0
173
     0
291
     0
 45
0.0
1001
ACAD
1000
AcDbSavedByObjectVersion
1070
     0
  0
VISUALSTYLE
  5
260
102
{ACAD_REACTORS
330
253
102
}
330
253
100
AcDbVisualStyle
  2
Thicken
 70
    13
 71
     2
 72
     2
 73
     0
 90
        0
 40
-0.6
 41
-30.0
 62
     5
 63
     7
 74
     1
 91
        4
 64
     7
 65
   257
 75
     1
175
     1
 42
1.0
 92
       12
 66
     7
 43
1.0
 76
     1
 77
     6
 78
     2
 67
     7
 79
     5
170
     0
171
     0
290
     0
174
     0
 93
        1
 44
0.0
173
     0
291
     1
 45
0.0
1001
ACAD
1000
AcDbSavedByObjectVersion
1070
     0
  0
DICTIONARYVAR
  5
303
102
{ACAD_REACTORS
330
169
102
}
330
169
100
DictionaryVariables
280
     0
  1
STANDARD
  0
DICTIONARYVAR
  5
16A
102
{ACAD_REACTORS
330
169
102
}
330
169
100
DictionaryVariables
280
     0
  1
1
  0
DICTIONARYVAR
  5
305
102
{ACAD_REACTORS
330
169
102
}
330
169
100
DictionaryVariables
280
     0
  1
0
  0
DICTIONARYVAR
  5
304
102
{ACAD_REACTORS
330
169
102
}
330
169
100
DictionaryVariables
280
     0
  1
127
  0
XRECORD
  5
2E6
102
{ACAD_REACTORS
330
2E5
102
}
330
2E5
100
AcDbXrecord
280
     1
  0
DICTIONARY
  5
309
330
10B
100
AcDbDictionary
280
     1
281
     1
  3
ACAD_XREC_ROUNDTRIP
360
30A
  0
DICTIONARY
  5
307
330
10A
100
AcDbDictionary
280
     1
281
     1
  3
ACAD_XREC_ROUNDTRIP
360
308
  0
DICTIONARY
  5
30D
330
251
100
AcDbDictionary
280
     1
281
     1
  3
ACAD_XREC_ROUNDTRIP
360
30E
  0
DICTIONARY
  5
30B
330
250
100
AcDbDictionary
280
     1
281
     1
  3
ACAD_XREC_ROUNDTRIP
360
30C
  0
DICTIONARY
  5
30F
330
252
100
AcDbDictionary
280
     1
281
     1
  3
ACAD_XREC_ROUNDTRIP
360
310
  0
DICTIONARY
  5
311
330
266
100
AcDbDictionary
280
     1
281
     1
  3
ACAD_XREC_ROUNDTRIP
360
312
  0
XRECORD
  5
30A
102
{ACAD_REACTORS
330
309
102
}
330
309
100
AcDbXrecord
280
     1
102
SHADEPLOT
 70
     0
102
SHADEPLOTRESLEVEL
 70
     2
102
SHADEPLOTCUSTOMDPI
 70
   300
  0
XRECORD
  5
308
102
{ACAD_REACTORS
330
307
102
}
330
307
100
AcDbXrecord
280
     1
102
SHADEPLOT
 70
     0
102
SHADEPLOTRESLEVEL
 70
     2
102
SHADEPLOTCUSTOMDPI
 70
   300
  0
XRECORD
  5
30E
102
{ACAD_REACTORS
330
30D
102
}
330
30D
100
AcDbXrecord
280
     1
102
MATERIAL
148
0.0
149
0.0
149
0.0
 93
        0
 94
       63
282
     0
 72
     1
 77
     1
171
     1
175
     1
179
     1
273
     0
  0
XRECORD
  5
30C
102
{ACAD_REACTORS
330
30B
102
}
330
30B
100
AcDbXrecord
280
     1
102
MATERIAL
148
0.0
149
0.0
149
0.0
 93
        0
 94
       63
282
     0
 72
     1
 77
     1
171
     1
175
     1
179
     1
273
     0
  0
XRECORD
  5
310
102
{ACAD_REACTORS
330
30F
102
}
330
30F
100
AcDbXrecord
280
     1
102
MATERIAL
148
0.0
149
0.0
149
0.0
 93
        0
 94
       63
282
     0
 72
     1
 77
     1
171
     1
175
     1
179
     1
273
     0
  0
XRECORD
  5
312
102
{ACAD_REACTORS
330
311
102
}
330
311
100
AcDbXrecord
280
     1
102
ACAD_ROUNDTRIP_PRE2007_TABLESTYLE
 90
      512
 91
        0
  1

 92
      512
 93
        0
  2

 94
      512
 95
        0
  3

  0
ENDSEC
  0
EOF
