  0
SECTION
  2
HEADER
  9
$ACADVER
  1
AC1014
  9
$ACADMAINTVER
 70
     9
  9
$DWGCODEPAGE
  3
ANSI_1252
  9
$INSBASE
 10
34.31133965734508
 20
5.481138796368478
 30
0.0
  9
$EXTMIN
 10
24.54389871936085
 20
3.482743348357793
 30
0.0
  9
$EXTMAX
 10
63.15214394446317
 20
16.23702746815458
 30
0.0
  9
$LIMMIN
 10
0.0
 20
0.0
  9
$LIMMAX
 10
36.0
 20
36.0
  9
$ORTHOMODE
 70
     1
  9
$REGENMODE
 70
     1
  9
$FILLMODE
 70
     1
  9
$QTEXTMODE
 70
     0
  9
$MIRRTEXT
 70
     1
  9
$DRAGMODE
 70
     0
  9
$LTSCALE
 40
1.0
  9
$OSMODE
 70
    37
  9
$ATTMODE
 70
     1
  9
$TEXTSIZE
 40
0.2
  9
$TRACEWID
 40
0.05
  9
$TEXTSTYLE
  7
STANDARD
  9
$CLAYER
  8
ADPDIM
  9
$CELTYPE
  6
BYLAYER
  9
$CECOLOR
 62
   256
  9
$CELTSCALE
 40
1.0
  9
$DELOBJ
 70
     1
  9
$DISPSILH
 70
     0
  9
$DIMSCALE
 40
1.0
  9
$DIMASZ
 40
0.125
  9
$DIMEXO
 40
0.0625
  9
$DIMDLI
 40
0.38
  9
$DIMRND
 40
0.0
  9
$DIMDLE
 40
0.0
  9
$DIMEXE
 40
0.18
  9
$DIMTP
 40
0.0
  9
$DIMTM
 40
0.0
  9
$DIMTXT
 40
0.125
  9
$DIMCEN
 40
0.1875
  9
$DIMTSZ
 40
0.125
  9
$DIMTOL
 70
     0
  9
$DIMLIM
 70
     0
  9
$DIMTIH
 70
     0
  9
$DIMTOH
 70
     0
  9
$DIMSE1
 70
     0
  9
$DIMSE2
 70
     0
  9
$DIMTAD
 70
     0
  9
$DIMZIN
 70
     3
  9
$DIMBLK
  1

  9
$DIMASO
 70
     1
  9
$DIMSHO
 70
     1
  9
$DIMPOST
  1

  9
$DIMAPOST
  1

  9
$DIMALT
 70
     0
  9
$DIMALTD
 70
     1
  9
$DIMALTF
 40
25.4
  9
$DIMLFAC
 40
1.0
  9
$DIMTOFL
 70
     0
  9
$DIMTVP
 40
0.0
  9
$DIMTIX
 70
     0
  9
$DIMSOXD
 70
     0
  9
$DIMSAH
 70
     0
  9
$DIMBLK1
  1

  9
$DIMBLK2
  1

  9
$DIMSTYLE
  2
STANDARD
  9
$DIMCLRD
 70
     0
  9
$DIMCLRE
 70
     0
  9
$DIMCLRT
 70
     0
  9
$DIMTFAC
 40
1.0
  9
$DIMGAP
 40
0.125
  9
$DIMJUST
 70
     0
  9
$DIMSD1
 70
     0
  9
$DIMSD2
 70
     0
  9
$DIMTOLJ
 70
     1
  9
$DIMTZIN
 70
     0
  9
$DIMALTZ
 70
     0
  9
$DIMALTTZ
 70
     0
  9
$DIMFIT
 70
     3
  9
$DIMUPT
 70
     0
  9
$DIMUNIT
 70
     2
  9
$DIMDEC
 70
     4
  9
$DIMTDEC
 70
     4
  9
$DIMALTU
 70
     2
  9
$DIMALTTD
 70
     2
  9
$DIMTXSTY
  7
STANDARD
  9
$DIMAUNIT
 70
     0
  9
$LUNITS
 70
     5
  9
$LUPREC
 70
     4
  9
$SKETCHINC
 40
0.1
  9
$FILLETRAD
 40
0.062
  9
$AUNITS
 70
     0
  9
$AUPREC
 70
     0
  9
$MENU
  1
acad
  9
$ELEVATION
 40
0.0
  9
$PELEVATION
 40
0.0
  9
$THICKNESS
 40
0.0
  9
$LIMCHECK
 70
     0
  9
$BLIPMODE
 70
     0
  9
$CHAMFERA
 40
0.0
  9
$CHAMFERB
 40
0.0
  9
$CHAMFERC
 40
0.0
  9
$CHAMFERD
 40
0.0
  9
$SKPOLY
 70
     0
  9
$TDCREATE
 40
2450408.663209491
  9
$TDUPDATE
 40
2452297.072808877
  9
$TDINDWG
 40
0.0177349884
  9
$TDUSRTIMER
 40
0.0177349884
  9
$USRTIMER
 70
     1
  9
$ANGBASE
 50
0.0
  9
$ANGDIR
 70
     0
  9
$PDMODE
 70
     0
  9
$PDSIZE
 40
0.0
  9
$PLINEWID
 40
0.0
  9
$COORDS
 70
     2
  9
$SPLFRAME
 70
     0
  9
$SPLINETYPE
 70
     6
  9
$SPLINESEGS
 70
     8
  9
$ATTDIA
 70
     0
  9
$ATTREQ
 70
     1
  9
$HANDLING
 70
 22529
  9
$HANDSEED
  5
3E5
  9
$SURFTAB1
 70
     6
  9
$SURFTAB2
 70
     6
  9
$SURFTYPE
 70
     6
  9
$SURFU
 70
     6
  9
$SURFV
 70
     6
  9
$UCSNAME
  2

  9
$UCSORG
 10
0.0
 20
0.0
 30
0.0
  9
$UCSXDIR
 10
1.0
 20
0.0
 30
0.0
  9
$UCSYDIR
 10
0.0
 20
1.0
 30
0.0
  9
$PUCSNAME
  2

  9
$PUCSORG
 10
0.0
 20
0.0
 30
0.0
  9
$PUCSXDIR
 10
1.0
 20
0.0
 30
0.0
  9
$PUCSYDIR
 10
0.0
 20
1.0
 30
0.0
  9
$USERI1
 70
     0
  9
$USERI2
 70
     0
  9
$USERI3
 70
     0
  9
$USERI4
 70
     0
  9
$USERI5
 70
     0
  9
$USERR1
 40
0.0
  9
$USERR2
 40
0.0
  9
$USERR3
 40
0.0
  9
$USERR4
 40
0.0
  9
$USERR5
 40
0.0
  9
$WORLDVIEW
 70
     1
  9
$SHADEDGE
 70
     3
  9
$SHADEDIF
 70
    70
  9
$TILEMODE
 70
     1
  9
$MAXACTVP
 70
    15
  9
$PINSBASE
 10
0.0
 20
0.0
 30
0.0
  9
$PLIMCHECK
 70
     0
  9
$PEXTMIN
 10
1.000000000000000E+20
 20
1.000000000000000E+20
 30
1.000000000000000E+20
  9
$PEXTMAX
 10
-1.000000000000000E+20
 20
-1.000000000000000E+20
 30
-1.000000000000000E+20
  9
$PLIMMIN
 10
0.0
 20
0.0
  9
$PLIMMAX
 10
12.0
 20
9.0
  9
$UNITMODE
 70
     0
  9
$VISRETAIN
 70
     0
  9
$PLINEGEN
 70
     0
  9
$PSLTSCALE
 70
     1
  9
$TREEDEPTH
 70
  3020
  9
$PICKSTYLE
 70
     1
  9
$CMLSTYLE
  2
STANDARD
  9
$CMLJUST
 70
     0
  9
$CMLSCALE
 40
1.0
  9
$PROXYGRAPHICS
 70
     1
  9
$MEASUREMENT
 70
     0
  0
ENDSEC
  0
SECTION
  2
CLASSES
  0
CLASS
  1
ACDBDICTIONARYWDFLT
  2
AcDbDictionaryWithDefault
  3
AutoCAD 2000
 90
        0
280
     0
281
     0
  0
CLASS
  1
ACDBPLACEHOLDER
  2
AcDbPlaceHolder
  3
AutoCAD 2000
 90
        0
280
     0
281
     0
  0
CLASS
  1
LAYOUT
  2
AcDbLayout
  3
AutoCAD 2000
 90
        0
280
     0
281
     0
  0
CLASS
  1
DICTIONARYVAR
  2
AcDbDictionaryVar
  3
AutoCAD 2000
 90
        0
280
     0
281
     0
  0
CLASS
  1
LONG_TRANSACTION
  2
AcDbLongTransaction
  3
AutoCAD 2000
 90
        0
280
     0
281
     0
  0
CLASS
  1
LWPOLYLINE
  2
AcDbPolyline
  3
AutoCAD 2000
 90
        0
280
     0
281
     1
  0
CLASS
  1
HATCH
  2
AcDbHatch
  3
AutoCAD 2000
 90
        0
280
     0
281
     1
  0
CLASS
  1
XRECORD
  2
AcDbXrecord
  3
AutoCAD 2000
 90
        0
280
     0
281
     0
  0
CLASS
  1
LONG_TRANSACTION
  2
AcDbLongTransaction
  3
AutoCAD 2000
 90
        0
280
     0
281
     0
  0
CLASS
  1
LWPOLYLINE
  2
AcDbPolyline
  3
AutoCAD 2000
 90
        0
280
     0
281
     1
  0
CLASS
  1
HATCH
  2
AcDbHatch
  3
AutoCAD 2000
 90
        0
280
     0
281
     1
  0
CLASS
  1
XRECORD
  2
AcDbXrecord
  3
AutoCAD 2000
 90
        0
280
     0
281
     0
  0
CLASS
  1
LONG_TRANSACTION
  2
AcDbLongTransaction
  3
AutoCAD 2000
 90
        0
280
     0
281
     0
  0
CLASS
  1
LWPOLYLINE
  2
AcDbPolyline
  3
AutoCAD 2000
 90
        0
280
     0
281
     1
  0
CLASS
  1
HATCH
  2
AcDbHatch
  3
AutoCAD 2000
 90
        0
280
     0
281
     1
  0
CLASS
  1
XRECORD
  2
AcDbXrecord
  3
AutoCAD 2000
 90
        0
280
     0
281
     0
  0
CLASS
  1
LONG_TRANSACTION
  2
AcDbLongTransaction
  3
AutoCAD 2000
 90
        0
280
     0
281
     0
  0
CLASS
  1
LWPOLYLINE
  2
AcDbPolyline
  3
AutoCAD 2000
 90
        0
280
     0
281
     1
  0
CLASS
  1
HATCH
  2
AcDbHatch
  3
AutoCAD 2000
 90
        0
280
     0
281
     1
  0
CLASS
  1
XRECORD
  2
AcDbXrecord
  3
AutoCAD 2000
 90
        0
280
     0
281
     0
  0
CLASS
  1
LONG_TRANSACTION
  2
AcDbLongTransaction
  3
AutoCAD 2000
 90
        0
280
     0
281
     0
  0
CLASS
  1
LWPOLYLINE
  2
AcDbPolyline
  3
AutoCAD 2000
 90
        0
280
     0
281
     1
  0
CLASS
  1
HATCH
  2
AcDbHatch
  3
AutoCAD 2000
 90
        0
280
     0
281
     1
  0
CLASS
  1
XRECORD
  2
AcDbXrecord
  3
AutoCAD 2000
 90
        0
280
     0
281
     0
  0
CLASS
  1
LONG_TRANSACTION
  2
AcDbLongTransaction
  3
AutoCAD 2000
 90
        0
280
     0
281
     0
  0
CLASS
  1
LWPOLYLINE
  2
AcDbPolyline
  3
AutoCAD 2000
 90
        0
280
     0
281
     1
  0
CLASS
  1
HATCH
  2
AcDbHatch
  3
AutoCAD 2000
 90
        0
280
     0
281
     1
  0
CLASS
  1
XRECORD
  2
AcDbXrecord
  3
AutoCAD 2000
 90
        0
280
     0
281
     0
  0
ENDSEC
  0
SECTION
  2
TABLES
  0
TABLE
  2
VPORT
  5
8
330
0
100
AcDbSymbolTable
 70
     2
  0
VPORT
  5
3C2
330
8
100
AcDbSymbolTableRecord
100
AcDbViewportTableRecord
  2
*ACTIVE
 70
     0
 10
0.0
 20
0.0
 11
1.0
 21
1.0
 12
43.87931472956118
 22
9.861212463032689
 13
0.0
 23
0.0
 14
0.5740882589684922
 24
0.5740882589684922
 15
0.5
 25
0.5
 16
0.0
 26
0.0
 36
1.0
 17
0.0
 27
0.0
 37
0.0
 40
24.74211228343231
 41
1.570528967254408
 42
50.0
 43
0.0
 44
0.0
 50
0.0
 51
0.0
 71
     0
 72
   100
 73
     1
 74
     0
 75
     0
 76
     0
 77
     0
 78
     0
  0
ENDTAB
  0
TABLE
  2
LTYPE
  5
5
330
0
100
AcDbSymbolTable
 70
     1
  0
LTYPE
  5
12
330
5
100
AcDbSymbolTableRecord
100
AcDbLinetypeTableRecord
  2
BYBLOCK
 70
     0
  3

 72
    65
 73
     0
 40
0.0
  0
LTYPE
  5
13
330
5
100
AcDbSymbolTableRecord
100
AcDbLinetypeTableRecord
  2
BYLAYER
 70
     0
  3

 72
    65
 73
     0
 40
0.0
  0
LTYPE
  5
14
330
5
100
AcDbSymbolTableRecord
100
AcDbLinetypeTableRecord
  2
CONTINUOUS
 70
     0
  3
Solid line
 72
    65
 73
     0
 40
0.0
  0
ENDTAB
  0
TABLE
  2
LAYER
  5
2
330
0
100
AcDbSymbolTable
 70
     3
  0
LAYER
  5
F
330
2
100
AcDbSymbolTableRecord
100
AcDbLayerTableRecord
  2
0
 70
     0
 62
     7
  6
CONTINUOUS
  0
LAYER
  5
97
330
2
100
AcDbSymbolTableRecord
100
AcDbLayerTableRecord
  2
DEFPOINTS
 70
     0
 62
     7
  6
CONTINUOUS
  0
LAYER
  5
98
330
2
100
AcDbSymbolTableRecord
100
AcDbLayerTableRecord
  2
ADPDIM
 70
     0
 62
     3
  6
CONTINUOUS
  0
ENDTAB
  0
TABLE
  2
STYLE
  5
3
330
0
100
AcDbSymbolTable
 70
     2
  0
STYLE
  5
10
330
3
100
AcDbSymbolTableRecord
100
AcDbTextStyleTableRecord
  2
STANDARD
 70
     0
 40
0.0
 41
1.0
 50
0.0
 71
     0
 42
0.2
  3
txt
  4

  0
STYLE
  5
27A
330
3
100
AcDbSymbolTableRecord
100
AcDbTextStyleTableRecord
  2
ARIAL_WIDE
 70
     0
 40
0.0
 41
1.25
 50
0.0
 71
     0
 42
0.2
  3
ARIAL.TTF
  4

1001
ACAD
1000
Arial
1071
       34
  0
ENDTAB
  0
TABLE
  2
VIEW
  5
6
330
0
100
AcDbSymbolTable
 70
     0
  0
ENDTAB
  0
TABLE
  2
UCS
  5
7
330
0
100
AcDbSymbolTable
 70
     0
  0
ENDTAB
  0
TABLE
  2
APPID
  5
9
330
0
100
AcDbSymbolTable
 70
     1
  0
APPID
  5
11
330
9
100
AcDbSymbolTableRecord
100
AcDbRegAppTableRecord
  2
ACAD
 70
     0
  0
ENDTAB
  0
TABLE
  2
DIMSTYLE
  5
A
330
0
100
AcDbSymbolTable
 70
     1
  0
DIMSTYLE
105
26E
330
A
100
AcDbSymbolTableRecord
100
AcDbDimStyleTableRecord
  2
STANDARD
 70
     0
  3

  4

  5

  6

  7

 40
1.0
 41
0.18
 42
0.0625
 43
0.38
 44
0.18
 45
0.0
 46
0.0
 47
0.0
 48
0.0
140
0.18
141
0.09
142
0.0
143
25.4
144
1.0
145
0.0
146
1.0
147
0.09
 71
     0
 72
     0
 73
     1
 74
     1
 75
     0
 76
     0
 77
     0
 78
     0
170
     0
171
     2
172
     0
173
     0
174
     0
175
     0
176
     0
177
     0
178
     0
270
     2
271
     4
272
     4
273
     2
274
     2
340
10
275
     0
280
     0
281
     0
282
     0
283
     1
284
     0
285
     0
286
     0
287
     3
288
     0
  0
ENDTAB
  0
TABLE
  2
BLOCK_RECORD
  5
1
330
0
100
AcDbSymbolTable
 70
     4
  0
BLOCK_RECORD
  5
18
102
{ACAD_XDICTIONARY
360
2CF
102
}
330
1
100
AcDbSymbolTableRecord
100
AcDbBlockTableRecord
  2
*MODEL_SPACE
  0
BLOCK_RECORD
  5
15
102
{ACAD_XDICTIONARY
360
2CD
102
}
330
1
100
AcDbSymbolTableRecord
100
AcDbBlockTableRecord
  2
*PAPER_SPACE
  0
BLOCK_RECORD
  5
1D
330
1
100
AcDbSymbolTableRecord
100
AcDbBlockTableRecord
  2
FL
  0
BLOCK_RECORD
  5
1E
330
1
100
AcDbSymbolTableRecord
100
AcDbBlockTableRecord
  2
BUD
  0
BLOCK_RECORD
  5
8E
330
1
100
AcDbSymbolTableRecord
100
AcDbBlockTableRecord
  2
*D2
  0
BLOCK_RECORD
  5
91
330
1
100
AcDbSymbolTableRecord
100
AcDbBlockTableRecord
  2
*D3
  0
ENDTAB
  0
ENDSEC
  0
SECTION
  2
BLOCKS
  0
BLOCK
  5
9B
330
18
100
AcDbEntity
  8
0
100
AcDbBlockBegin
  2
*MODEL_SPACE
 70
     0
 10
0.0
 20
0.0
 30
0.0
  3
*MODEL_SPACE
  1

  0
ENDBLK
  5
9C
330
18
100
AcDbEntity
  8
0
100
AcDbBlockEnd
  0
BLOCK
  5
99
330
15
100
AcDbEntity
 67
     1
  8
0
100
AcDbBlockBegin
  2
*PAPER_SPACE
 70
     0
 10
0.0
 20
0.0
 30
0.0
  3
*PAPER_SPACE
  1

  0
ENDBLK
  5
9A
330
15
100
AcDbEntity
 67
     1
  8
0
100
AcDbBlockEnd
  0
BLOCK
  5
9E
330
1D
100
AcDbEntity
  8
0
100
AcDbBlockBegin
  2
FL
 70
     0
 10
0.0
 20
0.0
 30
0.0
  3
FL
  1

  0
LWPOLYLINE
  5
9F
330
1D
100
AcDbEntity
  8
0
100
AcDbPolyline
 90
        5
 70
     0
 43
0.0
 10
0.8402620590086176
 20
1.241782783183268
 10
0.7706063698468473
 20
1.444810907149648
 10
0.8342766476246534
 20
1.575137220903808
 10
0.961542708676303
 20
1.508494843249124
 10
1.02514026457719
 20
1.317587268216367
  0
CIRCLE
  5
A6
330
1D
100
AcDbEntity
  8
0
100
AcDbCircle
 10
1.04772742656957
 20
1.027551848909201
 30
0.0
 40
0.2919318513914874
  0
ARC
  5
A7
330
1D
100
AcDbEntity
  8
0
100
AcDbCircle
 10
1.039036527116326
 20
1.021135011866011
 30
0.0
 40
0.9520825075442942
100
AcDbArc
 50
267.6328123554243
 51
271.396167220464
  0
LWPOLYLINE
  5
A8
330
1D
100
AcDbEntity
  8
0
100
AcDbPolyline
 90
        5
 70
     0
 43
0.0
 10
1.030395637544772
 20
0.7206645737869515
 10
0.936087084471076
 20
0.5278480004042337
 10
0.7989107790717452
 20
0.4807150653583392
 10
0.7560433614412414
 20
0.6178290372968825
 10
0.8460651392823752
 20
0.7977913412268336
  0
LWPOLYLINE
  5
AF
330
1D
100
AcDbEntity
  8
0
100
AcDbPolyline
 90
        5
 70
     0
 43
0.0
 10
0.8556200422111075
 20
1.247367587044148
 10
0.4706500438739952
 20
1.726580222769484
 42
-0.5939515752039837
 10
0.6919174939562165
 20
1.905430313766277
 42
-0.6406424314070907
 10
0.9949709648857627
 20
1.917620801162634
 10
1.027206527115311
 20
1.318761564651051
  0
LWPOLYLINE
  5
B6
330
1D
100
AcDbEntity
  8
0
100
AcDbPolyline
 90
        4
 70
     0
 43
0.0
 10
0.8398730112849701
 20
1.232541477679923
 10
0.4009461955885741
 20
1.717472903974535
 42
-0.5928719427071208
 10
1.031348087039589
 20
1.966117261761922
 10
1.037401188861458
 20
1.319301012869711
  0
LWPOLYLINE
  5
BC
330
1D
100
AcDbEntity
  8
0
100
AcDbPolyline
 90
        4
 70
     0
 43
0.0
 10
1.037647018841434
 20
0.7357940876809935
 10
1.004675153496958
 20
0.0736576375248639
 42
-0.5928719427071208
 10
0.383095589683883
 20
0.3436009783474674
 10
0.8466484525798332
 20
0.8159119375595302
  0
LWPOLYLINE
  5
C2
330
1D
100
AcDbEntity
  8
0
100
AcDbPolyline
 90
        4
 70
     0
 43
0.0
 10
0.7557980798767581
 20
1.026342553093847
 10
0.0963119688361136
 20
1.059182441676718
 42
-0.5928719427071208
 10
0.3662553096587171
 20
1.680762005489796
 10
0.831718502849954
 20
1.223929929993506
  0
LWPOLYLINE
  5
C8
330
1D
100
AcDbEntity
  8
0
100
AcDbPolyline
 90
        5
 70
     0
 43
0.0
 10
0.8245096540958645
 20
0.8394082019031507
 10
0.3372773724041931
 20
0.4479957125627472
 42
-0.5939515752039837
 10
0.1584272814074001
 20
0.6692631626449668
 42
-0.6406424314070907
 10
0.1462367940110418
 20
0.9723166335745148
 10
0.7566544903552544
 20
1.005174367807924
  0
LWPOLYLINE
  5
CF
330
1D
100
AcDbEntity
  8
0
100
AcDbPolyline
 90
        4
 70
     0
 43
0.0
 10
0.8386256442431392
 20
0.8238347644887475
 10
0.3463846911991446
 20
0.3782918642773225
 42
-0.5928719427071208
 10
0.0977403334117568
 20
1.008693755728341
 10
0.7560718312977066
 20
1.014854620728364
  0
LWPOLYLINE
  5
D5
330
1D
100
AcDbEntity
  8
0
100
AcDbPolyline
 90
        5
 70
     0
 43
0.0
 10
1.016645126969285
 20
0.7372793967053788
 10
0.9489472428212
 20
0.1165058544439468
 42
-0.5939515752039837
 10
0.6660214162525407
 20
0.1464994566932773
 42
-0.6406424314070907
 10
0.4431102755922059
 20
0.3521706447457475
 10
0.8536756757477359
 20
0.8094506708751474
  0
ARC
  5
DC
330
1D
100
AcDbEntity
  8
0
100
AcDbCircle
 10
1.039036527116326
 20
1.021135011866011
 30
0.0
 40
0.9520825075442942
100
AcDbArc
 50
222.3431716262203
 51
226.5796322902362
  0
ARC
  5
DD
330
1D
100
AcDbEntity
  8
0
100
AcDbCircle
 10
1.039036527116326
 20
1.021135011866011
 30
0.0
 40
0.9520825075442942
100
AcDbArc
 50
131.9483421365813
 51
136.2888242979834
  0
LWPOLYLINE
  5
DE
330
1D
100
AcDbEntity
  8
0
100
AcDbPolyline
 90
        5
 70
     0
 43
0.0
 10
0.7564840035220666
 20
1.04758867471655
 10
0.1391601857551965
 20
1.114910352352477
 42
-0.5939515752039837
 10
0.1691537880045271
 20
1.397836178921139
 42
-0.6406424314070907
 10
0.3748249760569973
 20
1.620747319581475
 10
0.8251373865500681
 20
1.21643774023245
  0
ARC
  5
E5
330
1D
100
AcDbEntity
  8
0
100
AcDbCircle
 10
1.039036527116326
 20
1.021135011866011
 30
0.0
 40
0.9520825075442942
100
AcDbArc
 50
177.0583088332021
 51
181.5374097028418
  0
LINE
  5
E6
330
1D
100
AcDbEntity
  8
0
100
AcDbLine
 10
0.7433189050982012
 20
1.067755992141847
 30
0.0
 11
0.6576227014046961
 21
1.114910352352477
 31
0.0
  0
LWPOLYLINE
  5
E7
330
1D
100
AcDbEntity
  8
0
100
AcDbPolyline
 90
        5
 70
     0
 43
0.0
 10
0.7433189050982012
 20
1.033461957628905
 10
0.5505023317154834
 20
1.127770510702603
 10
0.5033693966695889
 20
1.264946816101932
 10
0.6404833686081322
 20
1.307814233732436
 10
0.8204456725380833
 20
1.217792455891302
  0
LINE
  5
EE
330
1D
100
AcDbEntity
  8
0
100
AcDbLine
 10
0.7523436914658906
 20
0.9479353777123549
 30
0.0
 11
0.6402225210592132
 21
0.9146251377208614
 31
0.0
  0
LWPOLYLINE
  5
EF
330
1D
100
AcDbEntity
  8
0
100
AcDbPolyline
 90
        5
 70
     0
 43
0.0
 10
0.8220748119904097
 20
0.8176077276973678
 10
0.6190466880240333
 20
0.7479520385355976
 10
0.4887203742698727
 20
0.8116223163134037
 10
0.5553627519245535
 20
0.9388883773650569
 10
0.7462703269573101
 20
1.002485933265944
  0
LINE
  5
F6
330
1D
100
AcDbEntity
  8
0
100
AcDbLine
 10
0.7675051052151414
 20
0.9085352870721798
 30
0.0
 11
0.5432654738876206
 21
0.8297929218947359
 31
0.0
  0
LINE
  5
F7
330
1D
100
AcDbEntity
  8
0
100
AcDbLine
 10
0.7978252676320619
 20
0.8418572720557122
 30
0.0
 11
0.7038857330109903
 21
0.8146040731695407
 31
0.0
  0
LINE
  5
F8
330
1D
100
AcDbEntity
  8
0
100
AcDbLine
 10
0.8889327242604441
 20
0.7635127907060344
 30
0.0
 11
0.8332049809322512
 21
0.6606772542159618
 31
0.0
  0
LINE
  5
F9
330
1D
100
AcDbEntity
  8
0
100
AcDbLine
 10
0.9275135340059481
 20
0.7463734579094706
 30
0.0
 11
0.8246314304671233
 21
0.5321328336033738
 31
0.0
  0
LINE
  5
FA
330
1D
100
AcDbEntity
  8
0
100
AcDbLine
 10
0.9961016030318319
 20
0.7206645737869515
 30
0.0
 11
0.9489472428212
 21
0.6349683700934463
 31
0.0
  0
LINE
  5
FB
330
1D
100
AcDbEntity
  8
0
100
AcDbLine
 10
0.7861671220172842
 20
1.174924870913233
 30
0.0
 11
0.6833315855272116
 21
1.230652614241428
 31
0.0
  0
LINE
  5
FC
330
1D
100
AcDbEntity
  8
0
100
AcDbLine
 10
0.7690277892207203
 20
1.136344061167729
 30
0.0
 11
0.5547871649146235
 21
1.239226164706554
 31
0.0
  0
LINE
  5
FD
330
1D
100
AcDbEntity
  8
0
100
AcDbLine
 10
0.8645116033669637
 20
1.266032327541616
 30
0.0
 11
0.8372584044807922
 21
1.359971862162687
 31
0.0
  0
LINE
  5
FE
330
1D
100
AcDbEntity
  8
0
100
AcDbLine
 10
0.9705897090236064
 20
1.311513903707787
 30
0.0
 11
0.9372794690321093
 21
1.423635074114464
 31
0.0
  0
LINE
  5
FF
330
1D
100
AcDbEntity
  8
0
100
AcDbLine
 10
0.9311896183834296
 20
1.296352489958536
 30
0.0
 11
0.8524472532059874
 21
1.520592121286057
 31
0.0
  0
LWPOLYLINE
  5
100
330
1D
100
AcDbEntity
  8
0
100
AcDbPolyline
 90
        4
 70
     0
 43
0.0
 10
1.049565477028961
 20
1.31947791391089
 10
1.081836772987969
 20
1.967545626337564
 42
-0.5928719427071208
 10
1.703416336801046
 20
1.69760228551496
 10
1.251224876804174
 20
1.236867384894651
  0
LWPOLYLINE
  5
106
330
1D
100
AcDbEntity
  8
0
100
AcDbPolyline
 90
        5
 70
     0
 43
0.0
 10
1.071458302374532
 20
1.318517570928808
 10
1.137564683663727
 20
1.924697409418481
 42
-0.5939515752039837
 10
1.420490510232387
 20
1.89470380716915
 42
-0.6406424314070907
 10
1.643401650892723
 20
1.68903261911668
 10
1.243737779539168
 20
1.24389451087303
  0
LWPOLYLINE
  5
10D
330
1D
100
AcDbEntity
  8
0
100
AcDbPolyline
 90
        4
 70
     0
 43
0.0
 10
1.244064687964263
 20
0.8115058222276303
 10
1.685565730896362
 20
0.3237303598878931
 42
-0.5928719427071208
 10
1.055163839445343
 20
0.0750860021005053
 10
1.048982337566776
 20
0.7356226947377636
  0
LWPOLYLINE
  5
113
330
1D
100
AcDbEntity
  8
0
100
AcDbPolyline
 90
        4
 70
     0
 43
0.0
 10
1.339364224243409
 20
1.014429955013476
 10
1.990199957648814
 20
0.98202082218571
 42
-0.5928719427071208
 10
1.72025661682621
 20
0.3604412583726315
 10
1.252520672967277
 20
0.8195039407564159
  0
LWPOLYLINE
  5
119
330
1D
100
AcDbEntity
  8
0
100
AcDbPolyline
 90
        5
 70
     0
 43
0.0
 10
1.227756090297843
 20
0.7977391293023999
 10
1.615861882610937
 20
0.3146230410929434
 42
-0.5939515752039837
 10
1.394594432528714
 20
0.1357729500961469
 42
-0.6406424314070907
 10
1.091540961599166
 20
0.1235824626997903
 10
1.058585161788966
 20
0.735821981664234
  0
LWPOLYLINE
  5
120
330
1D
100
AcDbEntity
  8
0
100
AcDbPolyline
 90
        5
 70
     0
 43
0.0
 10
1.337582341640102
 20
0.992790749008364
 10
1.947351740729731
 20
0.9262929115099503
 42
-0.5939515752039837
 10
1.9173581384804
 20
0.6433670849412892
 42
-0.6406424314070907
 10
1.71168695042793
 20
0.4204559442809526
 10
1.259415937787098
 20
0.8265240397002031
  0
ARC
  5
127
330
1D
100
AcDbEntity
  8
0
100
AcDbCircle
 10
1.039036527116326
 20
1.021135011866011
 30
0.0
 40
0.9520825075442942
100
AcDbArc
 50
312.753147373979
 51
316.0953165063814
  0
LWPOLYLINE
  5
128
330
1D
100
AcDbEntity
  8
0
100
AcDbPolyline
 90
        4
 70
     0
 43
0.0
 10
1.259811451180793
 20
1.228162348040147
 10
1.740127235285784
 20
1.662911399585105
 42
-0.5928719427071208
 10
1.988771593073172
 20
1.03250950813409
 10
1.339657141192523
 20
1.026434899034505
  0
LWPOLYLINE
  5
12E
330
1D
100
AcDbEntity
  8
0
100
AcDbPolyline
 90
        5
 70
     0
 43
0.0
 10
1.274283974055807
 20
1.21166142673713
 10
1.749234554080736
 20
1.593207551299684
 42
-0.5939515752039837
 10
1.928084645077531
 20
1.371940101217461
 42
-0.6406424314070907
 10
1.940275132473887
 20
1.068886630287913
 10
1.339520600364542
 20
1.036549047557617
  0
LINE
  5
135
330
1D
100
AcDbEntity
  8
0
100
AcDbLine
 10
1.33416823501904
 20
1.093267886150073
 30
0.0
 11
1.446289405425714
 21
1.12657812614157
 31
0.0
  0
LWPOLYLINE
  5
136
330
1D
100
AcDbEntity
  8
0
100
AcDbPolyline
 90
        5
 70
     0
 43
0.0
 10
1.264437114494521
 20
1.22359553616506
 10
1.467465238460897
 20
1.29325122532683
 10
1.597791552215058
 20
1.229580947549024
 10
1.531149174560377
 20
1.102314886497374
 10
1.340241599527617
 20
1.038717330596487
  0
LINE
  5
13D
330
1D
100
AcDbEntity
  8
0
100
AcDbLine
 10
1.300344804467645
 20
0.8662783929491943
 30
0.0
 11
1.403180340957717
 21
0.8105506496209997
 31
0.0
  0
LINE
  5
13E
330
1D
100
AcDbEntity
  8
0
100
AcDbLine
 10
1.343193021386728
 20
0.9734472717205804
 30
0.0
 11
1.428889225080233
 21
0.9262929115099503
 31
0.0
  0
LWPOLYLINE
  5
13F
330
1D
100
AcDbEntity
  8
0
100
AcDbPolyline
 90
        5
 70
     0
 43
0.0
 10
1.343193021386726
 20
1.007741306233523
 10
1.536009594769444
 20
0.9134327531598245
 10
1.583142529815338
 20
0.7762564477604954
 10
1.446028557876795
 20
0.7333890301299917
 10
1.266066253946844
 20
0.8234108079711255
  0
LINE
  5
146
330
1D
100
AcDbEntity
  8
0
100
AcDbLine
 10
1.317484137264209
 20
0.9048592026946984
 30
0.0
 11
1.531724761570306
 21
0.8019770991558736
 31
0.0
  0
LWPOLYLINE
  5
147
330
1D
100
AcDbEntity
  8
0
100
AcDbPolyline
 90
        5
 70
     0
 43
0.0
 10
1.246249867476317
 20
0.7994204806791565
 10
1.315905556638085
 20
0.5963923567127801
 10
1.252235278860281
 20
0.466066042958623
 10
1.124969217808629
 20
0.5327084206133037
 10
1.06137166190774
 20
0.7236159956460604
  0
LINE
  5
14E
330
1D
100
AcDbEntity
  8
0
100
AcDbLine
 10
1.222000323117965
 20
0.7751709363208086
 30
0.0
 11
1.249253522004137
 21
0.681231401699737
 31
0.0
  0
LINE
  5
14F
330
1D
100
AcDbEntity
  8
0
100
AcDbLine
 10
1.155322308101501
 20
0.7448507739038881
 30
0.0
 11
1.234064673278941
 21
0.5206111425763709
 31
0.0
  0
LINE
  5
150
330
1D
100
AcDbEntity
  8
0
100
AcDbLine
 10
1.115922217461323
 20
0.7296893601546373
 30
0.0
 11
1.14923245745282
 21
0.6175681897479635
 31
0.0
  0
LINE
  5
151
330
1D
100
AcDbEntity
  8
0
100
AcDbLine
 10
1.288686658852869
 20
1.199345991806715
 30
0.0
 11
1.382626193473937
 21
1.226599190692887
 31
0.0
  0
LINE
  5
152
330
1D
100
AcDbEntity
  8
0
100
AcDbLine
 10
1.319006821269786
 20
1.132667976790251
 30
0.0
 11
1.543246452597307
 21
1.211410341967692
 31
0.0
  0
LINE
  5
153
330
1D
100
AcDbEntity
  8
0
100
AcDbLine
 10
1.090410323453097
 20
1.320538690075476
 30
0.0
 11
1.137564683663727
 21
1.406234893768981
 31
0.0
  0
LINE
  5
154
330
1D
100
AcDbEntity
  8
0
100
AcDbLine
 10
1.197579202224483
 20
1.277690473156393
 30
0.0
 11
1.253306945552678
 21
1.380526009646466
 31
0.0
  0
LWPOLYLINE
  5
155
330
1D
100
AcDbEntity
  8
0
100
AcDbPolyline
 90
        5
 70
     0
 43
0.0
 10
1.056116288940154
 20
1.320538690075476
 10
1.150424842013853
 20
1.513355263458194
 10
1.287601147413184
 20
1.560488198504089
 10
1.330468565043686
 20
1.423374226565545
 10
1.240446787202552
 20
1.243411922635594
  0
LINE
  5
15C
330
1D
100
AcDbEntity
  8
0
100
AcDbLine
 10
1.158998392478979
 20
1.294829805952957
 30
0.0
 11
1.261880496017804
 21
1.509070430259054
 31
0.0
  0
ARC
  5
15D
330
1D
100
AcDbEntity
  8
0
100
AcDbCircle
 10
1.039036527116326
 20
1.021135011866011
 30
0.0
 40
0.9520825075442942
100
AcDbArc
 50
357.6369788338872
 51
0.848076481982083
  0
ARC
  5
15E
330
1D
100
AcDbEntity
  8
0
100
AcDbCircle
 10
1.039036527116326
 20
1.021135011866011
 30
0.0
 40
0.9520825075442942
100
AcDbArc
 50
42.35662374551466
 51
45.79830703973294
  0
ARC
  5
15F
330
1D
100
AcDbEntity
  8
0
100
AcDbCircle
 10
1.039036527116326
 20
1.021135011866011
 30
0.0
 40
0.9520825075442942
100
AcDbArc
 50
87.07318385406638
 51
90.98042600647305
  0
ENDBLK
  5
160
330
1D
100
AcDbEntity
  8
0
100
AcDbBlockEnd
  0
BLOCK
  5
161
330
1E
100
AcDbEntity
  8
0
100
AcDbBlockBegin
  2
BUD
 70
     0
 10
0.0
 20
0.0
 30
0.0
  3
BUD
  1

  0
LWPOLYLINE
  5
162
330
1E
100
AcDbEntity
  8
0
100
AcDbPolyline
 90
        2
 70
     0
 43
0.0
 10
1.015654158863565
 20
1.709079259606154
 42
0.1059403544254594
 10
1.118295668297523
 20
2.170966052058977
 42
1.007604453215439
  0
LWPOLYLINE
  5
166
330
1E
100
AcDbEntity
  8
0
100
AcDbPolyline
 90
        3
 70
     0
 43
0.0
 10
0.8873522720711086
 20
1.657758504889171
 42
-0.3333333333333065
 10
0.8103711399956381
 20
1.888701901115586
 42
0.0990195135927772
 10
1.015654158863565
 20
1.709079259606154
 42
-3.748271145609991
  0
LWPOLYLINE
  5
16B
330
1E
100
AcDbEntity
  8
0
100
AcDbPolyline
 90
        4
 70
     0
 43
0.0
 10
1.015654158863565
 20
2.401909448285399
 10
0.6050881211277144
 20
2.658513221870306
 42
0.5032425203625026
 10
0.4767862343352612
 20
1.734739636964645
 42
0.4922842455169078
 10
0.9386730267880913
 20
2.453230203002382
 42
5.763778899047206
  0
LWPOLYLINE
  5
171
330
1E
100
AcDbEntity
  8
0
100
AcDbPolyline
 90
       15
 70
     0
 43
0.0
 10
0.7077296305616799
 20
2.73549435394578
 42
-0.0990195135927365
 10
0.6050881211277144
 20
2.658513221870306
 42
0.0939350008266968
 10
0.0405598192409222
 20
2.324928316209925
 42
0.1797161080914631
 10
0.0405598192409222
 20
1.991343410549552
 42
-0.0710678118654831
 10
0.0148994418824309
 20
1.734739636964645
 42
-0.0710678118654766
 10
-0.2160439543439843
 20
1.144550957719358
 42
-0.1380921653504716
 10
-0.8062326335892677
 20
0.6056830331910615
 42
0.4142135623731121
 10
-0.7292515015137973
 20
0.4260603916816291
 42
0.28041600254803
 10
-0.2160439543439843
 20
0.503041523757096
 42
0.0890322160454227
 10
0.0148994418824309
 20
-0.0101660234127099
 42
0.276983964948452
 10
0.4767862343352612
 20
0.5287019011155874
 42
0.4883187819918639
 10
1.092635290939035
 20
0.2207773728136981
 42
-0.165422636481043
 10
0.759050385278659
 20
1.195871712436341
 42
-0.1550074283708502
 10
0.8873522720711086
 20
1.657758504889171
 10
1.015654158863565
 20
1.709079259606154
 42
-1.477032961426901
  0
LWPOLYLINE
  5
182
330
1E
100
AcDbEntity
  8
0
100
AcDbPolyline
 90
        6
 70
     0
 43
0.0
 10
0.0405598192409222
 20
1.991343410549552
 10
0.2715032154673373
 20
2.068324542625026
 10
-0.1647231996270051
 20
0.6570037879080371
 42
0.1622776601683849
 10
0.0662201965994136
 20
0.1437962407382312
 42
0.2591260281973955
 10
0.5024466116937525
 20
0.9649283162099262
 42
-0.0784613538904556
 10
0.7077296305616799
 20
1.811720769040112
 42
-0.666921868857354
  0
LWPOLYLINE
  5
18A
330
1E
100
AcDbEntity
  8
0
100
AcDbPolyline
 90
        2
 70
     0
 43
0.0
 10
-0.8062326335892677
 20
0.5287019011155874
 42
0.3204650534085248
 10
-0.1647231996270051
 20
0.6570037879080371
 42
-0.4332320124663287
  0
LWPOLYLINE
  5
18E
330
1E
100
AcDbEntity
  8
0
100
AcDbPolyline
 90
        2
 70
     0
 43
0.0
 10
0.0148994418824309
 20
-0.0101660234127099
 10
0.0662201965994136
 20
0.1437962407382312
  0
LWPOLYLINE
  5
192
330
1E
100
AcDbEntity
  8
0
100
AcDbPolyline
 90
        2
 70
     0
 43
0.0
 10
0.4767862343352612
 20
0.5287019011155874
 10
0.4767862343352612
 20
0.5287019011155874
  0
ARC
  5
196
330
1E
100
AcDbEntity
  8
0
100
AcDbCircle
 10
1.037037806662306
 20
2.466060391681624
 30
0.0
 40
0.0676210317268692
100
AcDbArc
 50
251.5650511770784
 51
34.69515353123235
  0
LINE
  5
197
330
1E
100
AcDbEntity
  8
0
100
AcDbLine
 10
1.118295668297523
 20
2.170966052058977
 30
0.0
 11
1.015654158863565
 21
2.401909448285399
 31
0.0
  0
ENDBLK
  5
198
330
1E
100
AcDbEntity
  8
0
100
AcDbBlockEnd
  0
BLOCK
  5
199
330
8E
100
AcDbEntity
  8
0
100
AcDbBlockBegin
  2
*D2
 70
     1
 10
0.0
 20
0.0
 30
0.0
  3
*D2
  1

  0
LINE
  5
19A
330
8E
100
AcDbEntity
  8
0
  6
BYBLOCK
 62
     0
100
AcDbLine
 10
35.90726662363723
 20
4.836206703445373
 30
0.0
 11
33.05255914299834
 21
4.836206703445373
 31
0.0
  0
LINE
  5
19B
330
8E
100
AcDbEntity
  8
0
  6
BYBLOCK
 62
     0
100
AcDbLine
 10
35.90726662363723
 20
14.83620670344537
 30
0.0
 11
33.05255914299834
 21
14.83620670344537
 31
0.0
  0
LINE
  5
19C
330
8E
100
AcDbEntity
  8
0
  6
BYBLOCK
 62
     0
100
AcDbLine
 10
33.23255914299834
 20
4.836206703445373
 30
0.0
 11
33.23255914299834
 21
9.638290036778707
 31
0.0
  0
LINE
  5
19D
330
8E
100
AcDbEntity
  8
0
  6
BYBLOCK
 62
     0
100
AcDbLine
 10
33.23255914299834
 20
14.83620670344537
 30
0.0
 11
33.23255914299834
 21
10.03412337011204
 31
0.0
  0
LINE
  5
19E
330
8E
100
AcDbEntity
  8
0
  6
BYBLOCK
 62
     0
100
AcDbLine
 10
33.35755914299834
 20
4.711206703445373
 30
0.0
 11
33.10755914299834
 21
4.961206703445373
 31
0.0
  0
LINE
  5
19F
330
8E
100
AcDbEntity
  8
0
  6
BYBLOCK
 62
     0
100
AcDbLine
 10
33.35755914299834
 20
14.71120670344537
 30
0.0
 11
33.10755914299834
 21
14.96120670344537
 31
0.0
  0
TEXT
  5
1A0
330
8E
100
AcDbEntity
  8
0
  6
BYBLOCK
 62
     0
100
AcDbText
 10
33.29505914299834
 20
9.763290036778707
 30
0.0
 40
0.125
  1
10
 50
90.0
 72
     1
 11
33.23255914299834
 21
9.836206703445373
 31
0.0
100
AcDbText
 73
     2
  0
POINT
  5
1A1
330
8E
100
AcDbEntity
  8
DEFPOINTS
  6
BYBLOCK
 62
     0
100
AcDbPoint
 10
35.96976662363722
 20
4.836206703445373
 30
0.0
  0
POINT
  5
1A2
330
8E
100
AcDbEntity
  8
DEFPOINTS
  6
BYBLOCK
 62
     0
100
AcDbPoint
 10
35.96976662363722
 20
14.83620670344537
 30
0.0
  0
POINT
  5
1A3
330
8E
100
AcDbEntity
  8
DEFPOINTS
  6
BYBLOCK
 62
     0
100
AcDbPoint
 10
33.23255914299834
 20
14.83620670344537
 30
0.0
  0
ENDBLK
  5
1A4
330
8E
100
AcDbEntity
  8
0
100
AcDbBlockEnd
  0
BLOCK
  5
1A5
330
91
100
AcDbEntity
  8
0
100
AcDbBlockBegin
  2
*D3
 70
     1
 10
0.0
 20
0.0
 30
0.0
  3
*D3
  1

  0
LINE
  5
1A6
330
91
100
AcDbEntity
  8
0
  6
BYBLOCK
 62
     0
100
AcDbLine
 10
34.31133965734508
 20
12.99758310793975
 30
0.0
 11
34.31133965734508
 21
16.23702746815458
 31
0.0
  0
LINE
  5
1A7
330
91
100
AcDbEntity
  8
0
  6
BYBLOCK
 62
     0
100
AcDbLine
 10
53.31133965734508
 20
13.76970717958937
 30
0.0
 11
53.31133965734508
 21
16.23702746815458
 31
0.0
  0
LINE
  5
1A8
330
91
100
AcDbEntity
  8
0
  6
BYBLOCK
 62
     0
100
AcDbLine
 10
34.31133965734508
 20
16.05702746815458
 30
0.0
 11
43.60300632401175
 21
16.05702746815458
 31
0.0
  0
LINE
  5
1A9
330
91
100
AcDbEntity
  8
0
  6
BYBLOCK
 62
     0
100
AcDbLine
 10
53.31133965734508
 20
16.05702746815458
 30
0.0
 11
44.01967299067842
 21
16.05702746815458
 31
0.0
  0
LINE
  5
1AA
330
91
100
AcDbEntity
  8
0
  6
BYBLOCK
 62
     0
100
AcDbLine
 10
34.18633965734509
 20
15.93202746815458
 30
0.0
 11
34.43633965734508
 21
16.18202746815458
 31
0.0
  0
LINE
  5
1AB
330
91
100
AcDbEntity
  8
0
  6
BYBLOCK
 62
     0
100
AcDbLine
 10
53.18633965734509
 20
15.93202746815458
 30
0.0
 11
53.43633965734508
 21
16.18202746815458
 31
0.0
  0
TEXT
  5
1AC
330
91
100
AcDbEntity
  8
0
  6
BYBLOCK
 62
     0
100
AcDbText
 10
43.72800632401175
 20
15.99452746815457
 30
0.0
 40
0.125
  1
19
 72
     1
 11
43.81133965734508
 21
16.05702746815458
 31
0.0
100
AcDbText
 73
     2
  0
POINT
  5
1AD
330
91
100
AcDbEntity
  8
DEFPOINTS
  6
BYBLOCK
 62
     0
100
AcDbPoint
 10
34.31133965734508
 20
12.93508310793975
 30
0.0
  0
POINT
  5
1AE
330
91
100
AcDbEntity
  8
DEFPOINTS
  6
BYBLOCK
 62
     0
100
AcDbPoint
 10
53.31133965734508
 20
13.70720717958937
 30
0.0
  0
POINT
  5
1AF
330
91
100
AcDbEntity
  8
DEFPOINTS
  6
BYBLOCK
 62
     0
100
AcDbPoint
 10
53.31133965734508
 20
16.05702746815458
 30
0.0
  0
ENDBLK
  5
1B0
330
91
100
AcDbEntity
  8
0
100
AcDbBlockEnd
  0
ENDSEC
  0
SECTION
  2
ENTITIES
  0
DIMENSION
  5
1B1
330
18
100
AcDbEntity
  8
ADPDIM
100
AcDbDimension
  2
*D3
 10
53.31133965734508
 20
16.05702746815458
 30
0.0
 11
43.81133965734508
 21
16.05702746815458
 31
0.0
100
AcDbAlignedDimension
 13
34.31133965734508
 23
12.93508310793975
 33
0.0
 14
53.31133965734508
 24
13.70720717958937
 34
0.0
100
AcDbRotatedDimension
  0
LWPOLYLINE
  5
1B2
330
18
100
AcDbEntity
  8
0
100
AcDbPolyline
 90
       14
 70
     0
 43
0.0
 10
47.15459311900412
 20
12.93508310793975
 42
-0.1654469149729647
 10
46.55815719973202
 20
11.98078563710441
 42
-0.1231056256176601
 10
45.56409733427853
 20
11.78197366401371
 42
-0.4258599153780097
 10
44.64956225806132
 20
12.77603352946719
 42
-0.4659862173851563
 10
45.36528536118783
 20
13.53151902721185
 42
-0.6631756466149393
 10
45.64362212351482
 20
12.69650874023092
 42
-1.219803902718561
 10
45.44481015042411
 20
12.77603352946719
 42
0.7075150810188533
 10
45.00742380962459
 20
12.61698395099464
 42
0.4399017163416435
 10
46.20029564816877
 20
12.13983521557697
 42
0.6205656008288834
 10
46.08100846431435
 20
14.28700452495649
 42
0.4751005629110735
 10
43.85431436569854
 20
13.01460789717603
 42
0.3379887452023598
 10
45.3255229665697
 20
10.90720098241464
 42
0.2085246735486131
 10
47.27388030285853
 20
11.10601295550534
 42
0.108096958331195
 10
48.38722735216643
 20
11.74221126939557
 42
-0.0122677923465419
  0
LWPOLYLINE
  5
1C2
330
18
100
AcDbEntity
  8
0
100
AcDbPolyline
 90
        6
 70
     0
 43
0.0
 10
46.55815719973202
 20
10.46981464161511
 42
-0.0837458604339846
 10
44.84837423115203
 20
10.58910182546953
 42
0.0301449954945131
 10
43.17835365719017
 20
11.14577535012348
 42
0.0622577482985516
 10
42.46263055406366
 20
11.10601295550534
 42
0.2526207445994555
 10
42.26381858097297
 20
10.94696337703279
 42
0.2033180747902731
 10
42.26381858097297
 20
10.8674385877965
 42
-0.9945831472182423
  0
LWPOLYLINE
  5
1CA
330
18
100
AcDbEntity
  8
0
100
AcDbPolyline
 90
        4
 70
     0
 43
0.0
 10
42.22405618635482
 20
13.29294465950301
 42
-0.1176661821651626
 10
44.09288873340737
 20
14.64486607651975
 42
-0.1009999000199926
 10
46.04124606969621
 20
14.68462847113789
 42
-0.109772228646436
 10
46.47863241049575
 20
14.48581649804719
 42
-0.0314548519676398
  0
LWPOLYLINE
  5
1D0
330
18
100
AcDbEntity
  8
0
100
AcDbPolyline
 90
        3
 70
     0
 43
0.0
 10
45.44481015042411
 20
12.77603352946719
 42
0.5596281362854737
 10
45.60385972889668
 20
13.25318226488486
 42
0.6213370903180124
 10
44.64956225806132
 20
12.77603352946719
 42
1.134714223727562
  0
LINE
  5
1D5
330
18
100
AcDbEntity
  8
0
100
AcDbLine
 10
44.25193831187994
 20
14.8039156549923
 30
0.0
 11
46.16053325355063
 21
14.8039156549923
 31
0.0
  0
ARC
  5
1D6
330
18
100
AcDbEntity
  8
0
100
AcDbCircle
 10
34.19494718067932
 20
17.59178897551849
 30
0.0
 40
9.598285084812877
100
AcDbArc
 50
284.619603357344
 51
312.4503734984458
  0
ARC
  5
1D7
330
18
100
AcDbEntity
  8
0
100
AcDbCircle
 10
36.12766656760553
 20
10.50907831516352
 30
0.0
 40
4.564807063562732
100
AcDbArc
 50
44.19642357781783
 51
63.83780521185371
  0
ARC
  5
1D8
330
18
100
AcDbEntity
  8
0
100
AcDbCircle
 10
37.58445677489037
 20
12.25744229825035
 30
0.0
 40
2.959141385445751
100
AcDbArc
 50
240.7910993152754
 51
302.2237722022745
  0
ARC
  5
1D9
330
18
100
AcDbEntity
  8
0
100
AcDbCircle
 10
37.12459669969855
 20
12.46528275157283
 30
0.0
 40
1.919236812771114
100
AcDbArc
 50
16.63182457472889
 51
104.0914080489683
  0
ARC
  5
1DA
330
18
100
AcDbEntity
  8
0
100
AcDbCircle
 10
38.22187007720532
 20
11.92855537298736
 30
0.0
 40
0.4350496098263842
100
AcDbArc
 50
211.3138592227185
 51
307.4468302249704
  0
LWPOLYLINE
  5
1DB
330
18
100
AcDbEntity
  8
0
100
AcDbPolyline
 90
        5
 70
     0
 43
0.0
 10
38.5683012540023
 20
14.11905317118864
 10
39.20211419537623
 20
13.45199423797556
 42
-0.2360679774997897
 10
39.44068856308506
 20
12.65674634561278
 42
-0.2100498566344642
 10
38.84425264381297
 20
11.34458732321418
 42
-0.2738504414890313
 10
37.37304404294182
 20
11.22530013935976
 42
-1.837115364547799
  0
ARC
  5
1E2
330
18
100
AcDbEntity
  8
0
100
AcDbCircle
 10
35.14008159858491
 20
8.40300460214213
 30
0.0
 40
0.2595687851392357
100
AcDbArc
 50
94.22977280893269
 51
298.4119269535159
  0
ARC
  5
1E3
330
18
100
AcDbEntity
  8
0
100
AcDbCircle
 10
34.02972287781213
 20
12.68230275512981
 30
0.0
 40
4.673424079961757
100
AcDbArc
 50
285.3085514872006
 51
302.5971658212759
  0
ARC
  5
1E4
330
18
100
AcDbEntity
  8
0
100
AcDbCircle
 10
38.85916354179483
 20
3.224622901789012
 30
0.0
 40
5.552260400667281
100
AcDbArc
 50
113.81146427382
 51
126.151814463879
  0
ARC
  5
1E5
330
18
100
AcDbEntity
  8
0
100
AcDbCircle
 10
34.86943068848118
 20
8.371183580159522
 30
0.0
 40
0.5242488922626326
100
AcDbArc
 50
166.2807109462219
 51
279.3399826019832
  0
ARC
  5
1E6
330
18
100
AcDbEntity
  8
0
100
AcDbCircle
 10
-134.1707864912708
 20
-5.72440817411892
 30
0.0
 40
169.2947897397306
100
AcDbArc
 50
4.668937895846142
 51
4.862632315367682
  0
DIMENSION
  5
1E7
330
18
100
AcDbEntity
  8
ADPDIM
100
AcDbDimension
  2
*D2
 10
33.23255914299834
 20
14.83620670344537
 30
0.0
 11
33.23255914299834
 21
9.836206703445373
 31
0.0
100
AcDbAlignedDimension
 13
35.96976662363722
 23
4.836206703445373
 33
0.0
 14
35.96976662363722
 24
14.83620670344537
 34
0.0
 50
90.0
100
AcDbRotatedDimension
  0
ARC
  5
1E8
330
18
100
AcDbEntity
  8
0
100
AcDbCircle
 10
36.42941231648187
 20
6.093066408230025
 30
0.0
 40
2.191671139072783
100
AcDbArc
 50
122.1362700770012
 51
155.7820309603483
  0
ARC
  5
1E9
330
18
100
AcDbEntity
  8
0
100
AcDbCircle
 10
36.16351498503057
 20
6.640158866521528
 30
0.0
 40
1.936437232931544
100
AcDbArc
 50
200.6174514746579
 51
242.3754852357731
  0
ARC
  5
1EA
330
18
100
AcDbEntity
  8
0
100
AcDbCircle
 10
35.82579858218684
 20
6.237321879983616
 30
0.0
 40
1.037310423985553
100
AcDbArc
 50
180.0385311169304
 51
274.2036616763925
  0
ARC
  5
1EB
330
18
100
AcDbEntity
  8
0
100
AcDbCircle
 10
36.61405009861323
 20
6.200370346078926
 30
0.0
 40
1.825921655114414
100
AcDbArc
 50
124.3516522036739
 51
178.8623089535596
  0
ARC
  5
1EC
330
18
100
AcDbEntity
  8
0
100
AcDbCircle
 10
34.9675200078185
 20
8.360597187574915
 30
0.0
 40
0.5070657918951581
100
AcDbArc
 50
216.9373720042812
 51
305.7240097315348
  0
LINE
  5
1ED
330
18
100
AcDbEntity
  8
0
100
AcDbLine
 10
34.31133965734508
 20
7.151159370330332
 30
0.0
 11
34.31133965734508
 21
5.481138796368478
 31
0.0
  0
LINE
  5
1EE
330
18
100
AcDbEntity
  8
0
100
AcDbLine
 10
34.31133965734508
 20
5.481138796368478
 30
0.0
 11
34.51015163043578
 21
5.600425980222893
 31
0.0
  0
LINE
  5
1EF
330
18
100
AcDbEntity
  8
0
100
AcDbLine
 10
34.54991402505392
 20
7.111396975712191
 30
0.0
 11
34.31133965734508
 21
7.151159370330332
 31
0.0
  0
ARC
  5
1F0
330
18
100
AcDbEntity
  8
0
100
AcDbCircle
 10
38.52615348686791
 20
6.157099504876864
 30
0.0
 40
4.179782372892627
100
AcDbArc
 50
168.476278296103
 51
182.7263109939064
  0
ARC
  5
1F1
330
18
100
AcDbEntity
  8
0
100
AcDbCircle
 10
35.73615879782842
 20
5.898643939858939
 30
0.0
 40
1.081857069615001
100
AcDbArc
 50
244.2197734259137
 51
356.8396383739543
  0
ARC
  5
1F2
330
18
100
AcDbEntity
  8
0
100
AcDbCircle
 10
35.99032626146593
 20
5.884610153523124
 30
0.0
 40
0.8273024649997072
100
AcDbArc
 50
356.8396383739544
 51
107.4103943238493
  0
ARC
  5
1F3
330
18
100
AcDbEntity
  8
0
100
AcDbCircle
 10
35.66813262602034
 20
5.705625163335123
 30
0.0
 40
1.034850860387318
100
AcDbArc
 50
342.9160292949325
 51
55.1351827802051
  0
ARC
  5
1F4
330
18
100
AcDbEntity
  8
0
100
AcDbCircle
 10
36.01615232659781
 20
5.921010286831644
 30
0.0
 40
0.121873725986507
100
AcDbArc
 50
106.5873385569255
 51
272.3373058591245
  0
ARC
  5
1F5
330
18
100
AcDbEntity
  8
0
100
AcDbCircle
 10
35.98136023130694
 20
6.023163017742062
 30
0.0
 40
0.6000232058261985
100
AcDbArc
 50
62.36245420505657
 51
201.9127353427201
  0
ARC
  5
1F6
330
18
100
AcDbEntity
  8
0
100
AcDbCircle
 10
35.93359892806571
 20
6.065512279720679
 30
0.0
 40
0.637714570825273
100
AcDbArc
 50
107.410394323849
 51
232.3402623653552
  0
ARC
  5
1F7
330
18
100
AcDbEntity
  8
0
100
AcDbCircle
 10
35.85710274812525
 20
5.759475558695451
 30
0.0
 40
0.5584679283166264
100
AcDbArc
 50
274.5942533312662
 51
20.85445803957843
  0
ARC
  5
1F8
330
18
100
AcDbEntity
  8
0
100
AcDbCircle
 10
35.7249462370399
 20
5.795154811811841
 30
0.0
 40
0.2962045330132228
100
AcDbArc
 50
232.3402623653557
 51
0.7898399888008323
  0
ARC
  5
1F9
330
18
100
AcDbEntity
  8
0
100
AcDbCircle
 10
35.72290466628904
 20
5.988109327749752
 30
0.0
 40
0.352996242941603
100
AcDbArc
 50
212.3474434994414
 51
327.652556500558
  0
ARC
  5
1FA
330
18
100
AcDbEntity
  8
0
100
AcDbCircle
 10
34.96249027023624
 20
7.805378636286851
 30
0.0
 40
0.0491578745854589
100
AcDbArc
 50
288.744572549348
 51
99.33998260198428
  0
ARC
  5
1FB
330
18
100
AcDbEntity
  8
0
100
AcDbCircle
 10
36.10506545900781
 20
5.622516199455197
 30
0.0
 40
0.4333288035075798
100
AcDbArc
 50
50.79279649503186
 51
106.5873385569269
  0
ARC
  5
1FC
330
18
100
AcDbEntity
  8
0
100
AcDbCircle
 10
34.87399323077251
 20
8.603305374643873
 30
0.0
 40
0.5250376165669696
100
AcDbArc
 50
83.79556779235095
 51
191.846835214704
  0
ARC
  5
1FD
330
18
100
AcDbEntity
  8
0
100
AcDbCircle
 10
34.8891311471128
 20
8.57746418576486
 30
0.0
 40
0.4163135405896005
100
AcDbArc
 50
56.1648504171841
 51
123.835149582815
  0
ARC
  5
1FE
330
18
100
AcDbEntity
  8
0
100
AcDbCircle
 10
37.65728953550283
 20
12.1627037387631
 30
0.0
 40
3.32416749972511
100
AcDbArc
 50
182.5307269781649
 51
250.2783309189495
  0
ARC
  5
1FF
330
18
100
AcDbEntity
  8
0
100
AcDbCircle
 10
37.65870627527379
 20
11.73979692376334
 30
0.0
 40
3.333797193095561
100
AcDbArc
 50
129.2613088568643
 51
175.248932404079
  0
ARC
  5
200
330
18
100
AcDbEntity
  8
0
100
AcDbCircle
 10
37.34329698832148
 20
11.92338428547522
 30
0.0
 40
2.550317210765024
100
AcDbArc
 50
166.0671989876083
 51
241.8577789615479
  0
ARC
  5
201
330
18
100
AcDbEntity
  8
0
100
AcDbCircle
 10
37.18085913562083
 20
12.01392096595284
 30
0.0
 40
2.371360083929054
100
AcDbArc
 50
102.7545856049776
 51
167.2454143950222
  0
ARC
  5
202
330
18
100
AcDbEntity
  8
0
100
AcDbCircle
 10
34.83800975526958
 20
8.653727160080759
 30
0.0
 40
0.3245015699349156
100
AcDbArc
 50
123.8351495828153
 51
184.8626323153671
  0
LINE
  5
203
330
18
100
AcDbEntity
  8
0
100
AcDbLine
 10
34.31133965734508
 20
12.93508310793975
 30
0.0
 11
34.31133965734508
 21
10.98672577165092
 31
0.0
  0
LINE
  5
204
330
18
100
AcDbEntity
  8
0
100
AcDbLine
 10
34.31133965734508
 20
10.98672577165092
 30
0.0
 11
34.47038923581764
 21
11.0662505608872
 31
0.0
  0
LINE
  5
205
330
18
100
AcDbEntity
  8
0
100
AcDbLine
 10
34.54991402505392
 20
12.89532071332161
 30
0.0
 11
34.31133965734508
 21
12.93508310793975
 31
0.0
  0
INSERT
  5
206
330
18
100
AcDbEntity
  8
0
100
AcDbBlockReference
  2
FL
 10
35.85795951177158
 20
11.16041469804604
 30
0.0
 41
0.9830147558373349
 42
0.9830147558373349
 43
0.9830147558373349
  0
LINE
  5
207
330
18
100
AcDbEntity
  8
0
100
AcDbLine
 10
37.29634267174269
 20
9.033521968193067
 30
0.0
 11
36.54743248151111
 21
8.745040891523549
 31
0.0
  0
LINE
  5
208
330
18
100
AcDbEntity
  8
0
100
AcDbLine
 10
36.53554490638224
 20
9.033521968193067
 30
0.0
 11
37.29634267174269
 21
9.033521968193067
 31
0.0
  0
LINE
  5
209
330
18
100
AcDbEntity
  8
0
100
AcDbLine
 10
35.1209367328808
 20
8.661866396031904
 30
0.0
 11
35.31113613327389
 21
8.661866396031904
 31
0.0
  0
ARC
  5
20A
330
18
100
AcDbEntity
  8
0
100
AcDbCircle
 10
34.94132607208335
 20
8.746127447819803
 30
0.0
 40
0.379288025392518
100
AcDbArc
 50
347.164312228322
 51
91.5997576602165
  0
ARC
  5
20B
330
18
100
AcDbEntity
  8
0
100
AcDbCircle
 10
34.97997324302193
 20
8.712982570091435
 30
0.0
 40
0.253164777555223
100
AcDbArc
 50
348.3514024708245
 51
56.16485041718402
  0
ARC
  5
20C
330
18
100
AcDbEntity
  8
0
100
AcDbCircle
 10
37.15995161372308
 20
11.59806602194627
 30
0.0
 40
3.163884945034509
100
AcDbArc
 50
71.94845131473747
 51
120.6108912404603
  0
LINE
  5
20D
330
18
100
AcDbEntity
  8
0
100
AcDbLine
 10
35.9415978366888
 20
14.8039156549923
 30
0.0
 11
37.85019277835949
 21
14.8039156549923
 31
0.0
  0
LINE
  5
20E
330
18
100
AcDbEntity
  8
0
100
AcDbLine
 10
36.02112262592508
 20
14.60510368190161
 30
0.0
 11
35.9415978366888
 21
14.8039156549923
 31
0.0
  0
LINE
  5
20F
330
18
100
AcDbEntity
  8
0
100
AcDbLine
 10
37.85019277835949
 20
14.8039156549923
 30
0.0
 11
37.85019277835949
 21
14.68462847113789
 31
0.0
  0
ARC
  5
210
330
18
100
AcDbEntity
  8
0
100
AcDbCircle
 10
40.75131826261377
 20
13.58504532765931
 30
0.0
 40
1.50142591970515
100
AcDbArc
 50
313.5967816948452
 51
348.7816308192093
  0
ARC
  5
211
330
18
100
AcDbEntity
  8
0
100
AcDbCircle
 10
41.6983089686261
 20
13.39455966797159
 30
0.0
 40
0.5354771207956162
100
AcDbArc
 50
349.0609088168067
 51
93.31094151461195
  0
LWPOLYLINE
  5
212
330
18
100
AcDbEntity
  8
0
100
AcDbPolyline
 90
        3
 70
     0
 43
0.0
 10
44.53027507420691
 20
11.02648816626907
 42
0.0961186248466325
 10
43.2976408410446
 20
11.46387450706859
 42
0.2014953692655919
 10
41.96718011463757
 20
11.20565721717734
 42
-9.449581029335114
  0
LWPOLYLINE
  5
217
330
18
100
AcDbEntity
  8
0
100
AcDbPolyline
 90
        5
 70
     0
 43
0.0
 10
40.67332279624738
 20
10.50957703623325
 10
42.5023929486818
 20
13.01460789717603
 42
-0.1513435396244405
 10
44.84837423115203
 20
14.44605410342905
 42
0.2571532203482148
 10
43.73502718184412
 20
13.65080621106626
 42
0.3204650534085268
 10
44.0133639441711
 20
11.38434971783232
 42
-7.037539609908357
  0
INSERT
  5
21E
330
18
100
AcDbEntity
  8
0
100
AcDbBlockReference
  2
BUD
 10
40.56539536759998
 20
8.807762414126948
 30
0.0
 41
0.9830147558373349
 42
0.9830147558373349
 43
0.9830147558373349
 50
344.1954306768733
  0
ARC
  5
21F
330
18
100
AcDbEntity
  8
0
100
AcDbCircle
 10
39.88760090661328
 20
14.2982891699994
 30
0.0
 40
1.171170237872861
100
AcDbArc
 50
246.0571895526185
 51
325.3191553386447
  0
ARC
  5
220
330
18
100
AcDbEntity
  8
0
100
AcDbCircle
 10
63.13907575551875
 20
2.318523744885699
 30
0.0
 40
23.82842571919843
100
AcDbArc
 50
153.2211595930461
 51
155.6589100633061
  0
ARC
  5
221
330
18
100
AcDbEntity
  8
0
100
AcDbCircle
 10
36.74568181674441
 20
13.99651814205186
 30
0.0
 40
4.882466313069038
100
AcDbArc
 50
299.6677131453756
 51
325.9827986254044
  0
ARC
  5
222
330
18
100
AcDbEntity
  8
0
100
AcDbCircle
 10
37.85837915372205
 20
12.58774689612836
 30
0.0
 40
1.184732218457303
100
AcDbArc
 50
302.0113783717651
 51
21.11872398239091
  0
LINE
  5
223
330
18
100
AcDbEntity
  8
0
100
AcDbLine
 10
40.7926099801018
 20
11.2650625339779
 30
0.0
 11
41.42880829399204
 21
12.13983521557697
 31
0.0
  0
ARC
  5
224
330
18
100
AcDbEntity
  8
0
100
AcDbCircle
 10
39.99415030751565
 20
14.20520457946021
 30
0.0
 40
0.6354525849580152
100
AcDbArc
 50
264.6915278007149
 51
336.5870448877948
  0
ARC
  5
225
330
18
100
AcDbEntity
  8
0
100
AcDbCircle
 10
40.21653258221618
 20
14.29634300700946
 30
0.0
 40
0.1910993286899607
100
AcDbArc
 50
88.76277280629357
 51
218.0863781866209
  0
ARC
  5
226
330
18
100
AcDbEntity
  8
0
100
AcDbCircle
 10
40.26609798394771
 20
14.42363704716874
 30
0.0
 40
0.414508442843329
100
AcDbArc
 50
73.02964971365771
 51
214.2506515377781
  0
LINE
  5
227
330
18
100
AcDbEntity
  8
0
100
AcDbLine
 10
38.5683012540023
 20
14.11905317118864
 30
0.0
 11
39.41231122632446
 21
13.22789697744093
 31
0.0
  0
ARC
  5
228
330
18
100
AcDbEntity
  8
0
100
AcDbCircle
 10
39.87393541805059
 20
14.55950457203095
 30
0.0
 40
0.9889365534274235
100
AcDbArc
 50
241.3923630791445
 51
273.5610112684251
  0
ARC
  5
229
330
18
100
AcDbEntity
  8
0
100
AcDbCircle
 10
39.99961007353778
 20
14.24218745208488
 30
0.0
 40
0.0921115415698459
100
AcDbArc
 50
214.2506515377774
 51
316.2263178315778
  0
ARC
  5
22A
330
18
100
AcDbEntity
  8
0
100
AcDbCircle
 10
40.28049442937053
 20
14.14103090037959
 30
0.0
 40
0.3514972551709604
100
AcDbArc
 50
327.6028600978643
 51
99.80123349221658
  0
ARC
  5
22B
330
18
100
AcDbEntity
  8
0
100
AcDbCircle
 10
40.12572238479989
 20
13.91069004741462
 30
0.0
 40
0.9462182328653627
100
AcDbArc
 50
34.00444822560558
 51
73.96548323231555
  0
ARC
  5
22C
330
18
100
AcDbEntity
  8
0
100
AcDbCircle
 10
39.82008551836461
 20
14.11387933533022
 30
0.0
 40
1.1377479505109
100
AcDbArc
 50
334.9356171738533
 51
16.64986389120971
  0
ARC
  5
22D
330
18
100
AcDbEntity
  8
0
100
AcDbCircle
 10
41.61943389172019
 20
13.6519756932609
 30
0.0
 40
0.2812841725348526
100
AcDbArc
 50
80.18521332795049
 51
163.8255530882185
  0
ARC
  5
22E
330
18
100
AcDbEntity
  8
0
100
AcDbCircle
 10
41.46857068861018
 20
13.74027159895708
 30
0.0
 40
0.119700658868392
100
AcDbArc
 50
184.7636416907275
 51
311.633539336569
  0
ARC
  5
22F
330
18
100
AcDbEntity
  8
0
100
AcDbCircle
 10
41.33437260677395
 20
13.15377627833952
 30
0.0
 40
0.5410325495252849
100
AcDbArc
 50
349.4126786817632
 51
66.73229518994263
  0
LINE
  5
230
330
18
100
AcDbEntity
  8
0
100
AcDbLine
 10
42.26381858097297
 20
10.94696337703279
 30
0.0
 11
42.00824139002015
 21
11.17461983104001
 31
0.0
  0
LINE
  5
231
330
18
100
AcDbEntity
  8
0
100
AcDbLine
 10
44.0133639441711
 20
11.38434971783232
 30
0.0
 11
44.53027507420691
 21
11.02648816626907
 31
0.0
  0
LINE
  5
232
330
18
100
AcDbEntity
  8
0
100
AcDbLine
 10
44.33146310111621
 20
14.68462847113789
 30
0.0
 11
44.25193831187994
 21
14.8039156549923
 31
0.0
  0
LWPOLYLINE
  5
233
330
18
100
AcDbEntity
  8
0
100
AcDbPolyline
 90
       13
 70
     0
 43
0.0
 10
50.89225821310922
 20
14.13583936988827
 42
-0.3626302028997409
 10
52.8008531547799
 20
14.45393852683338
 42
-0.3822592702097643
 10
53.23823949557944
 20
13.14177950443478
 42
-0.4887449005444717
 10
51.92608047318085
 20
12.98272992596222
 42
-0.3945004536660924
 10
52.04536765703526
 20
13.93702739679756
 42
-0.4683749459844577
 10
52.60204118168921
 20
13.85750260756129
 42
-0.8198039027185682
 10
52.60204118168921
 20
13.65869063447059
 42
1.493222135932392
 10
52.92014033863432
 20
13.4598786613799
 42
0.4423698861198615
 10
52.48275399783479
 20
14.21536415912455
 42
0.2655644370746288
 10
51.60798131623572
 20
14.13583936988827
 42
0.0540584287741368
 10
50.5741590561641
 20
13.38035387214362
 42
-0.0660493176686328
 10
48.38722735216643
 20
11.2650625339779
 42
-0.1428571428571459
 10
46.55815719973202
 20
10.46981464161511
 42
1.086188127371329
  0
LINE
  5
242
330
18
100
AcDbEntity
  8
0
100
AcDbLine
 10
51.25011976467247
 20
14.65275049992407
 30
0.0
 11
52.8008531547799
 21
14.65275049992407
 31
0.0
  0
LWPOLYLINE
  5
243
330
18
100
AcDbEntity
  8
0
100
AcDbPolyline
 90
        4
 70
     0
 43
0.0
 10
52.64180357630735
 20
13.69845302908873
 42
0.5489458918550334
 10
52.00560526241712
 20
13.57916584523431
 42
0.5414621021111188
 10
52.64180357630735
 20
12.82368034748966
 42
0.1622776601683868
 10
53.23823949557944
 20
13.22130429367106
 42
-2.172888208423437
  0
LWPOLYLINE
  5
249
330
18
100
AcDbEntity
  8
0
100
AcDbPolyline
 90
        8
 70
     0
 43
0.0
 10
48.66556411449341
 20
13.77009339492068
 42
-0.3699240762154768
 10
49.34152482300178
 20
13.96890536801138
 42
-0.2912006872007536
 10
49.61986158532876
 20
13.33270705412115
 42
-0.3576002286012551
 10
48.42698974678458
 20
12.49769676714022
 42
-0.2211811402758749
 10
47.43292988133108
 20
12.89532071332161
 10
47.07506832976783
 20
13.33270705412115
 10
47.15459311900412
 20
12.93508310793975
 10
47.27388030285853
 20
12.97484550255789
  0
LWPOLYLINE
  5
253
330
18
100
AcDbEntity
  8
0
100
AcDbPolyline
 90
       12
 70
     0
 43
0.0
 10
46.47863241049575
 20
14.48581649804719
 10
47.63174185442178
 20
13.25318226488486
 42
0.2185463135071063
 10
48.18841537907573
 20
12.93508310793975
 42
0.1925824035672617
 10
48.8643760875841
 20
13.01460789717603
 42
0.2867962264113222
 10
49.0631880606748
 20
13.53151902721185
 42
0.3027756377319714
 10
48.66556411449341
 20
13.77009339492068
 42
-0.276983964948394
 10
48.42698974678458
 20
13.65080621106626
 42
-0.4142135623730888
 10
48.62580171987527
 20
14.12795494648394
 42
-0.4707838247887088
 10
49.69938637456504
 20
13.65080621106626
 42
-0.3093637589571314
 10
49.02342566605667
 20
12.45793437252208
 42
-0.3280275486332426
 10
47.27388030285853
 20
12.97484550255789
 10
46.836493962059
 20
13.80985578953882
  0
LWPOLYLINE
  5
261
330
18
100
AcDbEntity
  8
0
100
AcDbPolyline
 90
        8
 70
     0
 43
0.0
 10
48.38722735216643
 20
11.74221126939557
 42
0.0335285319754036
 10
50.17653510998271
 20
13.42011626676175
 42
0.1339180836637887
 10
50.49463426692781
 20
14.01655218603385
 42
0.5627385252970873
 10
50.17653510998271
 20
14.25512655374268
 42
-0.7207592200561379
 10
50.05724792612828
 20
14.41417613221524
 42
-0.0901699437494958
 10
50.3753470830734
 20
14.61298810530594
 42
-0.6298545950567469
 10
50.89225821310922
 20
14.13583936988827
 42
-0.2804160025480588
 10
50.65368384540038
 20
13.81774021294315
 42
-0.3347168119122442
  0
LINE
  5
26B
330
18
100
AcDbEntity
  8
0
100
AcDbLine
 10
46.16053325355063
 20
14.8039156549923
 30
0.0
 11
46.12077085893249
 21
14.68462847113789
 31
0.0
  0
LINE
  5
26C
330
18
100
AcDbEntity
  8
0
100
AcDbLine
 10
51.32964455390875
 20
14.45393852683338
 30
0.0
 11
51.25011976467247
 21
14.65275049992407
 31
0.0
  0
LINE
  5
26D
330
18
100
AcDbEntity
  8
0
100
AcDbLine
 10
52.8008531547799
 20
14.65275049992407
 30
0.0
 11
52.8008531547799
 21
14.45393852683338
 31
0.0
  0
TEXT
  5
27B
330
18
100
AcDbEntity
  8
ADPDIM
100
AcDbText
 10
24.54389871936085
 20
3.593759719435555
 30
0.0
 40
0.375
  1
J U L I U S  B L U M  &  C O . ,  I N C .      ( 8 0 0 )  5 2 6 - 6 2 9 3        W W W . J U L I U S B L U M . C O M        P A R T  N o .  5 5 2
 41
1.25
  7
ARIAL_WIDE
 72
     1
 11
43.848021331912
 21
3.968759719435555
 31
0.0
100
AcDbText
 73
     3
  0
ENDSEC
  0
SECTION
  2
OBJECTS
  0
DICTIONARY
  5
C
330
0
100
AcDbDictionary
  3
ACAD_GROUP
350
D
  3
ACAD_LAYOUT
350
274
  3
ACAD_MLINESTYLE
350
E
  3
ACAD_PLOTSETTINGS
350
275
  3
ACAD_PLOTSTYLENAME
350
272
  3
ACDBHEADERROUNDTRIPXREC
350
3C3
  3
ACDBVARIABLEDICTIONARY
350
2D5
  0
DICTIONARY
  5
2CF
330
18
100
AcDbDictionary
280
     1
  3
ACAD_LAYOUTSELFREF
360
3E4
  0
DICTIONARY
  5
2CD
330
15
100
AcDbDictionary
280
     1
  3
ACAD_LAYOUTSELFREF
360
3E3
  0
DICTIONARY
  5
D
102
{ACAD_REACTORS
330
C
102
}
330
C
100
AcDbDictionary
  0
DICTIONARY
  5
274
102
{ACAD_REACTORS
330
C
102
}
330
C
100
AcDbDictionary
  0
DICTIONARY
  5
E
102
{ACAD_REACTORS
330
C
102
}
330
C
100
AcDbDictionary
  3
STANDARD
350
1B
  0
DICTIONARY
  5
275
102
{ACAD_REACTORS
330
C
102
}
330
C
100
AcDbDictionary
  0
ACDBDICTIONARYWDFLT
  5
272
102
{ACAD_REACTORS
330
C
102
}
330
C
100
AcDbDictionary
281
     1
  3
Normal
350
273
100
AcDbDictionaryWithDefault
340
273
  0
DICTIONARY
  5
3C3
102
{ACAD_REACTORS
330
C
102
}
330
C
100
AcDbDictionary
  3
CEPSNTYPE
350
3CD
  3
FINGERPRINTGUID
350
3CE
  3
HYPERLINKBASE
350
3C6
  3
INSUNITS
350
3CC
  3
LAYOUTDICT
350
3C8
  3
LWETCUNION
350
3CB
  3
PLOTSETDICT
350
3C9
  3
PLOTSTYLNAMDICT
350
3CA
  3
PSVPSCALE
350
3D0
  3
PUCSBASE
350
3D3
  3
PUCSORGBACK
350
3D9
  3
PUCSORGBOTTOM
350
3D5
  3
PUCSORGFRONT
350
3D8
  3
PUCSORGLEFT
350
3D6
  3
PUCSORGRIGHT
350
3D7
  3
PUCSORGTOP
350
3D4
  3
PUCSORTHOREF
350
3D1
  3
PUCSORTHOVIEW
350
3D2
  3
STYLESHEET
350
3C7
  3
TSTACKALIGN
350
3C4
  3
TSTACKSIZE
350
3C5
  3
UCSBASE
350
3DC
  3
UCSORGBACK
350
3E2
  3
UCSORGBOTTOM
350
3DE
  3
UCSORGFRONT
350
3E1
  3
UCSORGLEFT
350
3DF
  3
UCSORGRIGHT
350
3E0
  3
UCSORGTOP
350
3DD
  3
UCSORTHOREF
350
3DA
  3
UCSORTHOVIEW
350
3DB
  3
VERSIONGUID
350
3CF
  0
DICTIONARY
  5
2D5
102
{ACAD_REACTORS
330
C
102
}
330
C
100
AcDbDictionary
  3
DIMASSOC
350
2D6
  0
XRECORD
  5
3E4
102
{ACAD_REACTORS
330
2CF
102
}
330
2CF
100
AcDbXrecord
340
18
  0
XRECORD
  5
3E3
102
{ACAD_REACTORS
330
2CD
102
}
330
2CD
100
AcDbXrecord
340
15
  0
MLINESTYLE
  5
1B
102
{ACAD_REACTORS
330
E
102
}
330
E
100
AcDbMlineStyle
  2
STANDARD
 70
     0
  3

 62
     0
 51
90.0
 52
90.0
 71
     2
 49
0.5
 62
   256
  6
BYLAYER
 49
-0.5
 62
   256
  6
BYLAYER
  0
ACDBPLACEHOLDER
  5
273
102
{ACAD_REACTORS
330
272
102
}
330
272
100
AcDbPlaceHolder
280
     0
  0
XRECORD
  5
3CD
102
{ACAD_REACTORS
330
3C3
102
}
330
3C3
100
AcDbXrecord
 90
        0
  0
XRECORD
  5
3CE
102
{ACAD_REACTORS
330
3C3
102
}
330
3C3
100
AcDbXrecord
  1
{0B053A09-9A0B-4BD1-975A-3341AE217985}
  0
XRECORD
  5
3C6
102
{ACAD_REACTORS
330
3C3
102
}
330
3C3
100
AcDbXrecord
  1

  0
XRECORD
  5
3CC
102
{ACAD_REACTORS
330
3C3
102
}
330
3C3
100
AcDbXrecord
 90
        0
  0
XRECORD
  5
3C8
102
{ACAD_REACTORS
330
3C3
102
}
330
3C3
100
AcDbXrecord
340
274
  0
XRECORD
  5
3CB
102
{ACAD_REACTORS
330
3C3
102
}
330
3C3
100
AcDbXrecord
 90
    14877
  0
XRECORD
  5
3C9
102
{ACAD_REACTORS
330
3C3
102
}
330
3C3
100
AcDbXrecord
340
275
  0
XRECORD
  5
3CA
102
{ACAD_REACTORS
330
3C3
102
}
330
3C3
100
AcDbXrecord
340
272
  0
XRECORD
  5
3D0
102
{ACAD_REACTORS
330
3C3
102
}
330
3C3
100
AcDbXrecord
 40
0.0
  0
XRECORD
  5
3D3
102
{ACAD_REACTORS
330
3C3
102
}
330
3C3
100
AcDbXrecord
340
0
  0
XRECORD
  5
3D9
102
{ACAD_REACTORS
330
3C3
102
}
330
3C3
100
AcDbXrecord
 10
0.0
 20
0.0
 30
0.0
  0
XRECORD
  5
3D5
102
{ACAD_REACTORS
330
3C3
102
}
330
3C3
100
AcDbXrecord
 10
0.0
 20
0.0
 30
0.0
  0
XRECORD
  5
3D8
102
{ACAD_REACTORS
330
3C3
102
}
330
3C3
100
AcDbXrecord
 10
0.0
 20
0.0
 30
0.0
  0
XRECORD
  5
3D6
102
{ACAD_REACTORS
330
3C3
102
}
330
3C3
100
AcDbXrecord
 10
0.0
 20
0.0
 30
0.0
  0
XRECORD
  5
3D7
102
{ACAD_REACTORS
330
3C3
102
}
330
3C3
100
AcDbXrecord
 10
0.0
 20
0.0
 30
0.0
  0
XRECORD
  5
3D4
102
{ACAD_REACTORS
330
3C3
102
}
330
3C3
100
AcDbXrecord
 10
0.0
 20
0.0
 30
0.0
  0
XRECORD
  5
3D1
102
{ACAD_REACTORS
330
3C3
102
}
330
3C3
100
AcDbXrecord
340
0
  0
XRECORD
  5
3D2
102
{ACAD_REACTORS
330
3C3
102
}
330
3C3
100
AcDbXrecord
 70
     0
  0
XRECORD
  5
3C7
102
{ACAD_REACTORS
330
3C3
102
}
330
3C3
100
AcDbXrecord
  1

  0
XRECORD
  5
3C4
102
{ACAD_REACTORS
330
3C3
102
}
330
3C3
100
AcDbXrecord
 90
        1
  0
XRECORD
  5
3C5
102
{ACAD_REACTORS
330
3C3
102
}
330
3C3
100
AcDbXrecord
 90
       70
  0
XRECORD
  5
3DC
102
{ACAD_REACTORS
330
3C3
102
}
330
3C3
100
AcDbXrecord
340
0
  0
XRECORD
  5
3E2
102
{ACAD_REACTORS
330
3C3
102
}
330
3C3
100
AcDbXrecord
 10
0.0
 20
0.0
 30
0.0
  0
XRECORD
  5
3DE
102
{ACAD_REACTORS
330
3C3
102
}
330
3C3
100
AcDbXrecord
 10
0.0
 20
0.0
 30
0.0
  0
XRECORD
  5
3E1
102
{ACAD_REACTORS
330
3C3
102
}
330
3C3
100
AcDbXrecord
 10
0.0
 20
0.0
 30
0.0
  0
XRECORD
  5
3DF
102
{ACAD_REACTORS
330
3C3
102
}
330
3C3
100
AcDbXrecord
 10
0.0
 20
0.0
 30
0.0
  0
XRECORD
  5
3E0
102
{ACAD_REACTORS
330
3C3
102
}
330
3C3
100
AcDbXrecord
 10
0.0
 20
0.0
 30
0.0
  0
XRECORD
  5
3DD
102
{ACAD_REACTORS
330
3C3
102
}
330
3C3
100
AcDbXrecord
 10
0.0
 20
0.0
 30
0.0
  0
XRECORD
  5
3DA
102
{ACAD_REACTORS
330
3C3
102
}
330
3C3
100
AcDbXrecord
340
0
  0
XRECORD
  5
3DB
102
{ACAD_REACTORS
330
3C3
102
}
330
3C3
100
AcDbXrecord
 70
     0
  0
XRECORD
  5
3CF
102
{ACAD_REACTORS
330
3C3
102
}
330
3C3
100
AcDbXrecord
  1
{FB760103-B5B7-440B-A084-2A492DCE26B9}
  0
DICTIONARYVAR
  5
2D6
102
{ACAD_REACTORS
330
2D5
102
}
330
2D5
100
DictionaryVariables
280
     0
  1
1
  0
ENDSEC
  0
EOF
