  0
SECTION
  2
HEADER
  9
$ACADVER
  1
AC1014
  9
$ACADMAINTVER
 70
     9
  9
$DWGCODEPAGE
  3
ANSI_1252
  9
$INSBASE
 10
-58.78711275210724
 20
98.65784778365508
 30
0.0
  9
$EXTMIN
 10
-88.38160690265281
 20
96.8314740608519
 30
0.0
  9
$EXTMAX
 10
-36.90394660251639
 20
127.2637570659924
 30
0.0
  9
$LIMMIN
 10
0.0
 20
0.0
  9
$LIMMAX
 10
36.0
 20
36.0
  9
$ORTHOMODE
 70
     1
  9
$REGENMODE
 70
     1
  9
$FILLMODE
 70
     1
  9
$QTEXTMODE
 70
     0
  9
$MIRRTEXT
 70
     1
  9
$DRAGMODE
 70
     0
  9
$LTSCALE
 40
1.0
  9
$OSMODE
 70
    37
  9
$ATTMODE
 70
     1
  9
$TEXTSIZE
 40
0.2
  9
$TRACEWID
 40
0.05
  9
$TEXTSTYLE
  7
STANDARD
  9
$CLAYER
  8
ADPDIM
  9
$CELTYPE
  6
BYLAYER
  9
$CECOLOR
 62
   256
  9
$CELTSCALE
 40
1.0
  9
$DELOBJ
 70
     1
  9
$DISPSILH
 70
     0
  9
$DIMSCALE
 40
1.0
  9
$DIMASZ
 40
0.125
  9
$DIMEXO
 40
0.0625
  9
$DIMDLI
 40
0.38
  9
$DIMRND
 40
0.0
  9
$DIMDLE
 40
0.0
  9
$DIMEXE
 40
0.18
  9
$DIMTP
 40
0.0
  9
$DIMTM
 40
0.0
  9
$DIMTXT
 40
0.125
  9
$DIMCEN
 40
0.1875
  9
$DIMTSZ
 40
0.125
  9
$DIMTOL
 70
     0
  9
$DIMLIM
 70
     0
  9
$DIMTIH
 70
     0
  9
$DIMTOH
 70
     0
  9
$DIMSE1
 70
     0
  9
$DIMSE2
 70
     0
  9
$DIMTAD
 70
     0
  9
$DIMZIN
 70
     3
  9
$DIMBLK
  1

  9
$DIMASO
 70
     1
  9
$DIMSHO
 70
     1
  9
$DIMPOST
  1

  9
$DIMAPOST
  1

  9
$DIMALT
 70
     0
  9
$DIMALTD
 70
     1
  9
$DIMALTF
 40
25.4
  9
$DIMLFAC
 40
1.0
  9
$DIMTOFL
 70
     0
  9
$DIMTVP
 40
0.0
  9
$DIMTIX
 70
     0
  9
$DIMSOXD
 70
     0
  9
$DIMSAH
 70
     0
  9
$DIMBLK1
  1

  9
$DIMBLK2
  1

  9
$DIMSTYLE
  2
STANDARD
  9
$DIMCLRD
 70
     0
  9
$DIMCLRE
 70
     0
  9
$DIMCLRT
 70
     0
  9
$DIMTFAC
 40
1.0
  9
$DIMGAP
 40
0.125
  9
$DIMJUST
 70
     0
  9
$DIMSD1
 70
     0
  9
$DIMSD2
 70
     0
  9
$DIMTOLJ
 70
     1
  9
$DIMTZIN
 70
     0
  9
$DIMALTZ
 70
     0
  9
$DIMALTTZ
 70
     0
  9
$DIMFIT
 70
     3
  9
$DIMUPT
 70
     0
  9
$DIMUNIT
 70
     2
  9
$DIMDEC
 70
     4
  9
$DIMTDEC
 70
     4
  9
$DIMALTU
 70
     2
  9
$DIMALTTD
 70
     2
  9
$DIMTXSTY
  7
STANDARD
  9
$DIMAUNIT
 70
     0
  9
$LUNITS
 70
     5
  9
$LUPREC
 70
     4
  9
$SKETCHINC
 40
0.1
  9
$FILLETRAD
 40
0.062
  9
$AUNITS
 70
     0
  9
$AUPREC
 70
     0
  9
$MENU
  1
acad
  9
$ELEVATION
 40
0.0
  9
$PELEVATION
 40
0.0
  9
$THICKNESS
 40
0.0
  9
$LIMCHECK
 70
     0
  9
$BLIPMODE
 70
     0
  9
$CHAMFERA
 40
0.0
  9
$CHAMFERB
 40
0.0
  9
$CHAMFERC
 40
0.0
  9
$CHAMFERD
 40
0.0
  9
$SKPOLY
 70
     0
  9
$TDCREATE
 40
2450407.581314039
  9
$TDUPDATE
 40
2452297.072726597
  9
$TDINDWG
 40
0.0166480671
  9
$TDUSRTIMER
 40
0.0166480671
  9
$USRTIMER
 70
     1
  9
$ANGBASE
 50
0.0
  9
$ANGDIR
 70
     0
  9
$PDMODE
 70
     0
  9
$PDSIZE
 40
0.0
  9
$PLINEWID
 40
0.0
  9
$COORDS
 70
     2
  9
$SPLFRAME
 70
     0
  9
$SPLINETYPE
 70
     6
  9
$SPLINESEGS
 70
     8
  9
$ATTDIA
 70
     0
  9
$ATTREQ
 70
     1
  9
$HANDLING
 70
 22529
  9
$HANDSEED
  5
BE9
  9
$SURFTAB1
 70
     6
  9
$SURFTAB2
 70
     6
  9
$SURFTYPE
 70
     6
  9
$SURFU
 70
     6
  9
$SURFV
 70
     6
  9
$UCSNAME
  2

  9
$UCSORG
 10
0.0
 20
0.0
 30
0.0
  9
$UCSXDIR
 10
1.0
 20
0.0
 30
0.0
  9
$UCSYDIR
 10
0.0
 20
1.0
 30
0.0
  9
$PUCSNAME
  2

  9
$PUCSORG
 10
0.0
 20
0.0
 30
0.0
  9
$PUCSXDIR
 10
1.0
 20
0.0
 30
0.0
  9
$PUCSYDIR
 10
0.0
 20
1.0
 30
0.0
  9
$USERI1
 70
     0
  9
$USERI2
 70
     0
  9
$USERI3
 70
     0
  9
$USERI4
 70
     0
  9
$USERI5
 70
     0
  9
$USERR1
 40
0.0
  9
$USERR2
 40
0.0
  9
$USERR3
 40
0.0
  9
$USERR4
 40
0.0
  9
$USERR5
 40
0.0
  9
$WORLDVIEW
 70
     1
  9
$SHADEDGE
 70
     3
  9
$SHADEDIF
 70
    70
  9
$TILEMODE
 70
     1
  9
$MAXACTVP
 70
    15
  9
$PINSBASE
 10
0.0008545038290322
 20
1.250283272183907
 30
0.0
  9
$PLIMCHECK
 70
     0
  9
$PEXTMIN
 10
1.000000000000000E+20
 20
1.000000000000000E+20
 30
1.000000000000000E+20
  9
$PEXTMAX
 10
-1.000000000000000E+20
 20
-1.000000000000000E+20
 30
-1.000000000000000E+20
  9
$PLIMMIN
 10
0.0
 20
0.0
  9
$PLIMMAX
 10
12.0
 20
9.0
  9
$UNITMODE
 70
     0
  9
$VISRETAIN
 70
     0
  9
$PLINEGEN
 70
     0
  9
$PSLTSCALE
 70
     1
  9
$TREEDEPTH
 70
  3020
  9
$PICKSTYLE
 70
     1
  9
$CMLSTYLE
  2
STANDARD
  9
$CMLJUST
 70
     0
  9
$CMLSCALE
 40
1.0
  9
$PROXYGRAPHICS
 70
     1
  9
$MEASUREMENT
 70
     0
  0
ENDSEC
  0
SECTION
  2
CLASSES
  0
CLASS
  1
ACDBDICTIONARYWDFLT
  2
AcDbDictionaryWithDefault
  3
AutoCAD 2000
 90
        0
280
     0
281
     0
  0
CLASS
  1
ACDBPLACEHOLDER
  2
AcDbPlaceHolder
  3
AutoCAD 2000
 90
        0
280
     0
281
     0
  0
CLASS
  1
LAYOUT
  2
AcDbLayout
  3
AutoCAD 2000
 90
        0
280
     0
281
     0
  0
CLASS
  1
DICTIONARYVAR
  2
AcDbDictionaryVar
  3
AutoCAD 2000
 90
        0
280
     0
281
     0
  0
CLASS
  1
LONG_TRANSACTION
  2
AcDbLongTransaction
  3
AutoCAD 2000
 90
        0
280
     0
281
     0
  0
CLASS
  1
LWPOLYLINE
  2
AcDbPolyline
  3
AutoCAD 2000
 90
        0
280
     0
281
     1
  0
CLASS
  1
HATCH
  2
AcDbHatch
  3
AutoCAD 2000
 90
        0
280
     0
281
     1
  0
CLASS
  1
XRECORD
  2
AcDbXrecord
  3
AutoCAD 2000
 90
        0
280
     0
281
     0
  0
CLASS
  1
LONG_TRANSACTION
  2
AcDbLongTransaction
  3
AutoCAD 2000
 90
        0
280
     0
281
     0
  0
CLASS
  1
LWPOLYLINE
  2
AcDbPolyline
  3
AutoCAD 2000
 90
        0
280
     0
281
     1
  0
CLASS
  1
HATCH
  2
AcDbHatch
  3
AutoCAD 2000
 90
        0
280
     0
281
     1
  0
CLASS
  1
XRECORD
  2
AcDbXrecord
  3
AutoCAD 2000
 90
        0
280
     0
281
     0
  0
CLASS
  1
LONG_TRANSACTION
  2
AcDbLongTransaction
  3
AutoCAD 2000
 90
        0
280
     0
281
     0
  0
CLASS
  1
LWPOLYLINE
  2
AcDbPolyline
  3
AutoCAD 2000
 90
        0
280
     0
281
     1
  0
CLASS
  1
HATCH
  2
AcDbHatch
  3
AutoCAD 2000
 90
        0
280
     0
281
     1
  0
CLASS
  1
XRECORD
  2
AcDbXrecord
  3
AutoCAD 2000
 90
        0
280
     0
281
     0
  0
CLASS
  1
LONG_TRANSACTION
  2
AcDbLongTransaction
  3
AutoCAD 2000
 90
        0
280
     0
281
     0
  0
CLASS
  1
LWPOLYLINE
  2
AcDbPolyline
  3
AutoCAD 2000
 90
        0
280
     0
281
     1
  0
CLASS
  1
HATCH
  2
AcDbHatch
  3
AutoCAD 2000
 90
        0
280
     0
281
     1
  0
CLASS
  1
XRECORD
  2
AcDbXrecord
  3
AutoCAD 2000
 90
        0
280
     0
281
     0
  0
CLASS
  1
LONG_TRANSACTION
  2
AcDbLongTransaction
  3
AutoCAD 2000
 90
        0
280
     0
281
     0
  0
CLASS
  1
LWPOLYLINE
  2
AcDbPolyline
  3
AutoCAD 2000
 90
        0
280
     0
281
     1
  0
CLASS
  1
HATCH
  2
AcDbHatch
  3
AutoCAD 2000
 90
        0
280
     0
281
     1
  0
CLASS
  1
XRECORD
  2
AcDbXrecord
  3
AutoCAD 2000
 90
        0
280
     0
281
     0
  0
CLASS
  1
LONG_TRANSACTION
  2
AcDbLongTransaction
  3
AutoCAD 2000
 90
        0
280
     0
281
     0
  0
CLASS
  1
LWPOLYLINE
  2
AcDbPolyline
  3
AutoCAD 2000
 90
        0
280
     0
281
     1
  0
CLASS
  1
HATCH
  2
AcDbHatch
  3
AutoCAD 2000
 90
        0
280
     0
281
     1
  0
CLASS
  1
XRECORD
  2
AcDbXrecord
  3
AutoCAD 2000
 90
        0
280
     0
281
     0
  0
ENDSEC
  0
SECTION
  2
TABLES
  0
TABLE
  2
VPORT
  5
8
330
0
100
AcDbSymbolTable
 70
     2
  0
VPORT
  5
BC6
330
8
100
AcDbSymbolTableRecord
100
AcDbViewportTableRecord
  2
*ACTIVE
 70
     0
 10
0.0
 20
0.0
 11
1.0
 21
1.0
 12
-62.60253697996918
 22
112.046673039237
 13
0.0
 23
0.0
 14
0.5740882589684922
 24
0.5740882589684922
 15
0.5
 25
0.5
 16
0.0
 26
0.0
 36
1.0
 17
0.0
 27
0.0
 37
0.0
 40
32.99739015937245
 41
1.570528967254408
 42
50.0
 43
0.0
 44
0.0
 50
0.0
 51
0.0
 71
     0
 72
   100
 73
     1
 74
     0
 75
     0
 76
     0
 77
     0
 78
     0
  0
ENDTAB
  0
TABLE
  2
LTYPE
  5
5
330
0
100
AcDbSymbolTable
 70
     1
  0
LTYPE
  5
12
330
5
100
AcDbSymbolTableRecord
100
AcDbLinetypeTableRecord
  2
BYBLOCK
 70
     0
  3

 72
    65
 73
     0
 40
0.0
  0
LTYPE
  5
13
330
5
100
AcDbSymbolTableRecord
100
AcDbLinetypeTableRecord
  2
BYLAYER
 70
     0
  3

 72
    65
 73
     0
 40
0.0
  0
LTYPE
  5
14
330
5
100
AcDbSymbolTableRecord
100
AcDbLinetypeTableRecord
  2
CONTINUOUS
 70
     0
  3
Solid line
 72
    65
 73
     0
 40
0.0
  0
ENDTAB
  0
TABLE
  2
LAYER
  5
2
330
0
100
AcDbSymbolTable
 70
     4
  0
LAYER
  5
F
330
2
100
AcDbSymbolTableRecord
100
AcDbLayerTableRecord
  2
0
 70
     0
 62
     7
  6
CONTINUOUS
  0
LAYER
  5
1F
330
2
100
AcDbSymbolTableRecord
100
AcDbLayerTableRecord
  2
ADP1DETAIL
 70
     0
 62
     7
  6
CONTINUOUS
  0
LAYER
  5
20
330
2
100
AcDbSymbolTableRecord
100
AcDbLayerTableRecord
  2
DEFPOINTS
 70
     0
 62
     7
  6
CONTINUOUS
  0
LAYER
  5
21
330
2
100
AcDbSymbolTableRecord
100
AcDbLayerTableRecord
  2
ADPDIM
 70
     0
 62
     3
  6
CONTINUOUS
  0
ENDTAB
  0
TABLE
  2
STYLE
  5
3
330
0
100
AcDbSymbolTable
 70
     2
  0
STYLE
  5
10
330
3
100
AcDbSymbolTableRecord
100
AcDbTextStyleTableRecord
  2
STANDARD
 70
     0
 40
0.0
 41
1.0
 50
0.0
 71
     0
 42
0.2
  3
txt
  4

  0
STYLE
  5
A7E
330
3
100
AcDbSymbolTableRecord
100
AcDbTextStyleTableRecord
  2
ARIAL_WIDE
 70
     0
 40
0.0
 41
1.25
 50
0.0
 71
     0
 42
0.2
  3
ARIAL.TTF
  4

1001
ACAD
1000
Arial
1071
       34
  0
ENDTAB
  0
TABLE
  2
VIEW
  5
6
330
0
100
AcDbSymbolTable
 70
     0
  0
ENDTAB
  0
TABLE
  2
UCS
  5
7
330
0
100
AcDbSymbolTable
 70
     0
  0
ENDTAB
  0
TABLE
  2
APPID
  5
9
330
0
100
AcDbSymbolTable
 70
     1
  0
APPID
  5
11
330
9
100
AcDbSymbolTableRecord
100
AcDbRegAppTableRecord
  2
ACAD
 70
     0
  0
ENDTAB
  0
TABLE
  2
DIMSTYLE
  5
A
330
0
100
AcDbSymbolTable
 70
     1
  0
DIMSTYLE
105
A72
330
A
100
AcDbSymbolTableRecord
100
AcDbDimStyleTableRecord
  2
STANDARD
 70
     0
  3

  4

  5

  6

  7

 40
1.0
 41
0.18
 42
0.0625
 43
0.38
 44
0.18
 45
0.0
 46
0.0
 47
0.0
 48
0.0
140
0.18
141
0.09
142
0.0
143
25.4
144
1.0
145
0.0
146
1.0
147
0.09
 71
     0
 72
     0
 73
     1
 74
     1
 75
     0
 76
     0
 77
     0
 78
     0
170
     0
171
     2
172
     0
173
     0
174
     0
175
     0
176
     0
177
     0
178
     0
270
     2
271
     4
272
     4
273
     2
274
     2
340
10
275
     0
280
     0
281
     0
282
     0
283
     1
284
     0
285
     0
286
     0
287
     3
288
     0
  0
ENDTAB
  0
TABLE
  2
BLOCK_RECORD
  5
1
330
0
100
AcDbSymbolTable
 70
     2
  0
BLOCK_RECORD
  5
18
102
{ACAD_XDICTIONARY
360
AD3
102
}
330
1
100
AcDbSymbolTableRecord
100
AcDbBlockTableRecord
  2
*MODEL_SPACE
  0
BLOCK_RECORD
  5
15
102
{ACAD_XDICTIONARY
360
AD1
102
}
330
1
100
AcDbSymbolTableRecord
100
AcDbBlockTableRecord
  2
*PAPER_SPACE
  0
BLOCK_RECORD
  5
1C
330
1
100
AcDbSymbolTableRecord
100
AcDbBlockTableRecord
  2
*D0
  0
BLOCK_RECORD
  5
1D
330
1
100
AcDbSymbolTableRecord
100
AcDbBlockTableRecord
  2
*D1
  0
ENDTAB
  0
ENDSEC
  0
SECTION
  2
BLOCKS
  0
BLOCK
  5
24
330
18
100
AcDbEntity
  8
0
100
AcDbBlockBegin
  2
*MODEL_SPACE
 70
     0
 10
0.0
 20
0.0
 30
0.0
  3
*MODEL_SPACE
  1

  0
ENDBLK
  5
25
330
18
100
AcDbEntity
  8
0
100
AcDbBlockEnd
  0
BLOCK
  5
22
330
15
100
AcDbEntity
 67
     1
  8
0
100
AcDbBlockBegin
  2
*PAPER_SPACE
 70
     0
 10
0.0
 20
0.0
 30
0.0
  3
*PAPER_SPACE
  1

  0
ENDBLK
  5
23
330
15
100
AcDbEntity
 67
     1
  8
0
100
AcDbBlockEnd
  0
BLOCK
  5
26
330
1C
100
AcDbEntity
  8
0
100
AcDbBlockBegin
  2
*D0
 70
     1
 10
0.0
 20
0.0
 30
0.0
  3
*D0
  1

  0
LINE
  5
27
330
1C
100
AcDbEntity
  8
0
  6
BYBLOCK
 62
     0
100
AcDbLine
 10
-58.72461275210724
 20
98.65784778365508
 30
0.0
 11
-57.61867522985585
 21
98.65784778365508
 31
0.0
  0
LINE
  5
28
330
1C
100
AcDbEntity
  8
0
  6
BYBLOCK
 62
     0
100
AcDbLine
 10
-58.64879131422211
 20
126.4077441998501
 30
0.0
 11
-57.61867522985585
 21
126.4077441998501
 31
0.0
  0
LINE
  5
29
330
1C
100
AcDbEntity
  8
0
  6
BYBLOCK
 62
     0
100
AcDbLine
 10
-57.79867522985584
 20
98.65784778365508
 30
0.0
 11
-57.79867522985584
 21
112.0536293250859
 31
0.0
  0
LINE
  5
2A
330
1C
100
AcDbEntity
  8
0
  6
BYBLOCK
 62
     0
100
AcDbLine
 10
-57.79867522985584
 20
126.4077441998501
 30
0.0
 11
-57.79867522985584
 21
113.0119626584192
 31
0.0
  0
LINE
  5
2B
330
1C
100
AcDbEntity
  8
0
  6
BYBLOCK
 62
     0
100
AcDbLine
 10
-57.67367522985584
 20
98.53284778365507
 30
0.0
 11
-57.92367522985585
 21
98.78284778365507
 31
0.0
  0
LINE
  5
2C
330
1C
100
AcDbEntity
  8
0
  6
BYBLOCK
 62
     0
100
AcDbLine
 10
-57.67367522985584
 20
126.2827441998501
 30
0.0
 11
-57.92367522985585
 21
126.5327441998501
 31
0.0
  0
TEXT
  5
2D
330
1C
100
AcDbEntity
  8
0
  6
BYBLOCK
 62
     0
100
AcDbText
 10
-57.73617522985585
 20
112.1786293250859
 30
0.0
 40
0.125
  1
27 3/4
 50
90.0
 72
     1
 11
-57.79867522985584
 21
112.5327959917526
 31
0.0
100
AcDbText
 73
     2
  0
POINT
  5
2E
330
1C
100
AcDbEntity
  8
DEFPOINTS
  6
BYBLOCK
 62
     0
100
AcDbPoint
 10
-58.78711275210724
 20
98.65784778365508
 30
0.0
  0
POINT
  5
2F
330
1C
100
AcDbEntity
  8
DEFPOINTS
  6
BYBLOCK
 62
     0
100
AcDbPoint
 10
-58.71129131422211
 20
126.4077441998501
 30
0.0
  0
POINT
  5
30
330
1C
100
AcDbEntity
  8
DEFPOINTS
  6
BYBLOCK
 62
     0
100
AcDbPoint
 10
-57.79867522985584
 20
126.4077441998501
 30
0.0
  0
ENDBLK
  5
31
330
1C
100
AcDbEntity
  8
0
100
AcDbBlockEnd
  0
BLOCK
  5
32
330
1D
100
AcDbEntity
  8
0
100
AcDbBlockBegin
  2
*D1
 70
     1
 10
0.0
 20
0.0
 30
0.0
  3
*D1
  1

  0
LINE
  5
33
330
1D
100
AcDbEntity
  8
0
  6
BYBLOCK
 62
     0
100
AcDbLine
 10
-54.65926039720713
 20
103.0100573926228
 30
0.0
 11
-54.65926039720713
 21
103.8035702587651
 31
0.0
  0
LINE
  5
34
330
1D
100
AcDbEntity
  8
0
  6
BYBLOCK
 62
     0
100
AcDbLine
 10
-46.65926039720713
 20
103.0100573926228
 30
0.0
 11
-46.65926039720713
 21
103.8035702587651
 31
0.0
  0
LINE
  5
35
330
1D
100
AcDbEntity
  8
0
  6
BYBLOCK
 62
     0
100
AcDbLine
 10
-54.65926039720713
 20
103.6235702587651
 30
0.0
 11
-50.8259270638738
 21
103.6235702587651
 31
0.0
  0
LINE
  5
36
330
1D
100
AcDbEntity
  8
0
  6
BYBLOCK
 62
     0
100
AcDbLine
 10
-46.65926039720713
 20
103.6235702587651
 30
0.0
 11
-50.49259373054047
 21
103.6235702587651
 31
0.0
  0
LINE
  5
37
330
1D
100
AcDbEntity
  8
0
  6
BYBLOCK
 62
     0
100
AcDbLine
 10
-54.78426039720713
 20
103.4985702587651
 30
0.0
 11
-54.53426039720714
 21
103.7485702587651
 31
0.0
  0
LINE
  5
38
330
1D
100
AcDbEntity
  8
0
  6
BYBLOCK
 62
     0
100
AcDbLine
 10
-46.78426039720713
 20
103.4985702587651
 30
0.0
 11
-46.53426039720713
 21
103.7485702587651
 31
0.0
  0
TEXT
  5
39
330
1D
100
AcDbEntity
  8
0
  6
BYBLOCK
 62
     0
100
AcDbText
 10
-50.7009270638738
 20
103.5610702587651
 30
0.0
 40
0.125
  1
8
 72
     1
 11
-50.65926039720713
 21
103.6235702587651
 31
0.0
100
AcDbText
 73
     2
  0
POINT
  5
3A
330
1D
100
AcDbEntity
  8
DEFPOINTS
  6
BYBLOCK
 62
     0
100
AcDbPoint
 10
-54.65926039720713
 20
102.9475573926228
 30
0.0
  0
POINT
  5
3B
330
1D
100
AcDbEntity
  8
DEFPOINTS
  6
BYBLOCK
 62
     0
100
AcDbPoint
 10
-46.65926039720713
 20
102.9475573926228
 30
0.0
  0
POINT
  5
3C
330
1D
100
AcDbEntity
  8
DEFPOINTS
  6
BYBLOCK
 62
     0
100
AcDbPoint
 10
-46.65926039720713
 20
103.6235702587651
 30
0.0
  0
ENDBLK
  5
3D
330
1D
100
AcDbEntity
  8
0
100
AcDbBlockEnd
  0
ENDSEC
  0
SECTION
  2
ENTITIES
  0
DIMENSION
  5
3E
330
18
100
AcDbEntity
  8
ADPDIM
100
AcDbDimension
  2
*D1
 10
-58.7483620385952
 20
127.0837570659924
 30
0.0
 11
-62.7483620385952
 21
127.0837570659924
 31
0.0
 12
-12.08910164138806
 22
23.46018680722734
 32
0.0
100
AcDbAlignedDimension
 13
-66.7483620385952
 23
126.4077441998501
 33
0.0
 14
-58.7483620385952
 24
126.4077441998501
 34
0.0
100
AcDbRotatedDimension
  0
ARC
  5
3F
330
18
100
AcDbEntity
  8
ADP1DETAIL
100
AcDbCircle
 10
-61.22703522296844
 20
123.8947915311346
 30
0.0
 40
1.529675069845076
100
AcDbArc
 50
56.34546284704371
 51
101.5914705434432
  0
LWPOLYLINE
  5
40
330
18
100
AcDbEntity
  8
ADP1DETAIL
100
AcDbPolyline
 90
        4
 70
     0
 43
0.0
 10
-61.50306626739511
 20
122.4290889052078
 10
-60.8995126200833
 20
122.5798454945044
 42
-0.1583262997885706
 10
-60.22051480897641
 20
122.532734074014
 42
-0.5164308801033726
 10
-59.56980854525305
 20
120.8178776612394
 42
-0.5164308801033726
  0
LWPOLYLINE
  5
46
330
18
100
AcDbEntity
  8
ADP1DETAIL
100
AcDbPolyline
 90
        5
 70
     0
 43
0.0
 10
-60.73276824774685
 20
109.7387746679471
 42
0.3450410030997851
 10
-61.02813231949646
 20
109.2906506415203
 42
-0.181390190776819
 10
-61.29067814852241
 20
108.8971758991011
 42
-0.3336130628586325
 10
-61.37819342486439
 20
109.3999492095356
 42
0.0119031663075723
 10
-61.24692051035141
 20
109.6731955564053
 42
0.0119031663075723
  0
ARC
  5
4D
330
18
100
AcDbEntity
  8
ADP1DETAIL
100
AcDbCircle
 10
-61.22703522296844
 20
105.3870288745346
 30
0.0
 40
1.529675069845076
100
AcDbArc
 50
56.34546284704371
 51
101.5914705434432
  0
LWPOLYLINE
  5
4E
330
18
100
AcDbEntity
  8
ADP1DETAIL
100
AcDbPolyline
 90
        4
 70
     0
 43
0.0
 10
-61.50306626739511
 20
103.9213262486078
 10
-60.8995126200833
 20
104.0720828379043
 42
-0.1583262997885706
 10
-60.22051480897641
 20
104.024971417414
 42
-0.5164308801033726
 10
-59.56980854525305
 20
102.3101150046393
 42
-0.5164308801033726
  0
LWPOLYLINE
  5
54
330
18
100
AcDbEntity
  8
ADP1DETAIL
100
AcDbPolyline
 90
        3
 70
     0
 43
0.0
 10
-59.28312121509118
 20
116.8403112530649
 42
-0.2017004767370519
 10
-60.32216321772299
 20
114.6404372796967
 42
-0.0156633439663773
 10
-62.51869891314143
 20
112.7907360183943
 42
0.9999995711550347
  0
LWPOLYLINE
  5
59
330
18
100
AcDbEntity
  8
ADP1DETAIL
100
AcDbPolyline
 90
        6
 70
     0
 43
0.0
 10
-61.98082382510592
 20
113.222223830462
 42
-0.0211308082366298
 10
-62.12207321738958
 20
113.7574633710094
 42
-0.1876014064483817
 10
-61.71731507840333
 20
116.3456527723644
 42
-0.177830152432798
 10
-61.00625347222013
 20
116.9358648859931
 42
0.2843049133273168
 10
-62.05643678832393
 20
114.3892088878027
 42
0.0802573548550097
 10
-61.91313944937903
 20
113.2774698815672
 42
-0.0206831125786201
  0
LWPOLYLINE
  5
61
330
18
100
AcDbEntity
  8
ADP1DETAIL
100
AcDbPolyline
 90
       14
 70
     0
 43
0.0
 10
-60.96249583404914
 20
114.0525694095317
 42
0.2392726577107983
 10
-61.35631457758806
 20
114.1072186935393
 42
0.1786004957445356
 10
-61.4766480966537
 20
114.0088499896424
 42
-0.8711199126580712
 10
-61.60792101116668
 20
114.06349927365
 42
-0.1652548820299661
 10
-61.35631457758806
 20
114.3695351762907
 42
0.3873088023612477
 10
-61.15940523400944
 20
114.6318516956263
 42
0.1784356397401831
 10
-61.02813231949646
 20
114.8723084867251
 42
0.4139576018461991
 10
-61.37819342486439
 20
114.9925368822745
 42
-1.000806831222051
 10
-61.40007221575905
 20
115.1018354137056
 42
0.1311339686702229
 10
-61.08282935311478
 20
115.429731044583
 42
-0.1738626968350079
 10
-60.85310176681249
 20
115.7991600786249
 42
0.2842639055218803
 10
-61.37819342486439
 20
115.9412481658268
 42
0.1548953048741884
 10
-60.95155643860181
 20
116.7063379590127
 42
-0.1124851476761073
 10
-60.63431357595753
 20
117.0014439975349
 42
3.719877735630533
  0
LWPOLYLINE
  5
71
330
18
100
AcDbEntity
  8
ADP1DETAIL
100
AcDbPolyline
 90
       24
 70
     0
 43
0.0
 10
-60.90411838401045
 20
114.1271841644578
 42
-0.0215499895633593
 10
-60.88592000953615
 20
114.1636167397088
 42
0.30219522884992
 10
-61.37819342486439
 20
114.1745466038272
 42
0.276375666192126
 10
-60.87498061408882
 20
114.9942856444364
 42
0.2726176808392039
 10
-61.32349639124607
 20
115.1254439041042
 42
0.2626103973615325
 10
-60.96249583404914
 20
115.4751992266341
 42
-0.0070688990128245
 10
-60.74370769957584
 20
115.781235165859
 42
0.335066991258056
 10
-61.22504166307509
 20
116.0107620928395
 42
0.2003012622824285
 10
-60.83122297591783
 20
116.5546315884598
 42
-0.163077242969371
 10
-60.53585890416822
 20
116.8825272193372
 42
0.583607619214393
 10
-60.53585890416822
 20
117.0027556148866
 42
0.3027101802331842
 10
-61.94704266470562
 20
116.5327718968073
 42
0.1467318365491102
 10
-62.19864909828423
 20
116.7185794038985
 42
0.8388580405881722
 10
-62.24240673645522
 20
116.6420704282383
 42
-0.3701694441114849
 10
-62.30804316552088
 20
116.5109121685705
 42
0.2958393747620506
 10
-62.63622547999415
 20
115.5162954484042
 42
0.1802672770345802
 10
-62.92065009991476
 20
115.6255940164195
 42
-0.0384378235873629
 10
-62.96440773808575
 20
115.1993296816452
 42
0.2920583094805718
 10
-62.78937718540179
 20
114.4560996166962
 42
0.000000135584462
 10
-63.05192301442773
 20
114.4123801968069
 42
-0.0714610306562774
 10
-62.98628658536208
 20
114.0844846025137
 42
0.1888835642271447
 10
-62.39555844186287
 20
113.1362104637716
 42
-0.022702757734002
 10
-62.5596495990995
 20
113.0597014881115
 42
0.2304000175325912
 10
-62.41743728913919
 20
112.6662267456923
 42
0.0608911737844391
  0
LWPOLYLINE
  5
8B
330
18
100
AcDbEntity
  8
ADP1DETAIL
100
AcDbPolyline
 90
       21
 70
     0
 43
0.0
 10
-62.17263354398798
 20
103.5255901561552
 42
-0.1393236756922916
 10
-61.2012894437392
 20
104.2322617550263
 42
0.1444341704144049
 10
-60.62602739996945
 20
104.3641737979903
 42
-0.2422254861083372
 10
-59.88101590342298
 20
104.4395520926385
 42
-0.5709314724723017
 10
-59.84329382152544
 20
104.2039948808684
 42
-0.2362575006236509
 10
-59.06056018692289
 20
104.015549126028
 42
-0.6127209974557736
 10
-59.07942125595091
 20
103.6103907421894
 42
-0.2398714431175803
 10
-58.77764443229501
 20
102.9225637260902
 42
-0.2621506932777346
 10
-58.86251918676265
 20
102.564516762742
 42
-0.4377736739708231
 10
-59.02283810502535
 20
102.564516762742
 42
-0.2999801933759419
 10
-59.20201809231609
 20
101.9991794982209
 42
0.1947749532947929
 10
-59.56980854525305
 20
101.4621090714183
 42
-0.2645791255218564
 10
-59.74898853254379
 20
102.4514493025499
 42
-0.0121856012137007
 10
-59.97532113624608
 20
102.3572264251297
 42
-0.3861340332180024
 10
-60.09791797261125
 20
102.4043378820595
 42
-0.0963452530893546
 10
-60.09791797261125
 20
103.2429215238946
 42
0.0259602462123558
 10
-60.24880641251847
 20
103.0638980240008
 42
-0.5736959049550772
 10
-60.48456949457625
 20
103.0921648981587
 42
0.0533919426777116
 10
-60.88065155105526
 20
103.7234582023815
 42
0.4585234285272321
 10
-61.64452411662978
 20
103.6009684508034
 42
-0.1543127950060726
 10
-61.99345355669724
 20
103.2994552357709
 42
4.853115953856598
  0
LWPOLYLINE
  5
A2
330
18
100
AcDbEntity
  8
ADP1DETAIL
100
AcDbPolyline
 90
       22
 70
     0
 43
0.0
 10
-60.47322274080327
 20
104.6430384764441
 42
0.1643632898293688
 10
-60.20088625786893
 20
105.2529146962873
 42
0.2991880436163496
 10
-60.2854045057214
 20
105.4124207862337
 42
-0.1581650902437418
 10
-60.99911396729501
 20
105.7783465326969
 42
-0.1959047770943273
 10
-60.73616832600539
 20
106.0785932859615
 42
-0.1265152534131592
 10
-61.17754130464466
 20
106.2005685590448
 42
0.220547211758462
 10
-61.48744149068287
 20
106.2850129424784
 42
-0.2246938073339695
 10
-61.2996231995135
 20
106.5477288788799
 42
-0.1258846302833693
 10
-61.83490526764995
 20
106.6040251223712
 42
0.2576328583123036
 10
-62.1635872491526
 20
106.6134078356853
 42
-0.0991042075673024
 10
-62.14480545368817
 20
106.8761237720868
 42
0.135796293339438
 10
-62.89607856227815
 20
106.801062065574
 42
-0.2686185134716636
 10
-62.2105418499887
 20
107.6548887951905
 42
-0.4226167983594435
 10
-61.10241401061191
 20
107.7299505017033
 42
-0.4302472249402684
 10
-60.66104103197265
 20
107.8331603117651
 42
-0.2826356974225202
 10
-60.08819526073231
 20
107.1013088552319
 42
-0.5707074626224652
 10
-59.79707698233354
 20
107.1388396720949
 42
-0.1784711689095899
 10
-59.6749950874647
 20
106.2099512723589
 42
-0.5388518928288688
 10
-59.5247404433117
 20
106.0316797557844
 42
-0.1107970883045864
 10
-59.6749950874647
 20
105.5062479193747
 42
0.0074730083219765
 10
-59.96611342195097
 20
104.8776062365099
 42
-0.1755137566009646
 10
-60.20088625786893
 20
104.63365576313
 42
4.299168135498502
  0
LWPOLYLINE
  5
BA
330
18
100
AcDbEntity
  8
ADP1DETAIL
100
AcDbPolyline
 90
        8
 70
     0
 43
0.0
 10
-60.96656994368403
 20
101.04407361205
 42
-0.4079906428304744
 10
-60.0793461484934
 20
101.8566517311713
 42
0.156615594089808
 10
-61.55805247381112
 20
101.462674467946
 42
0.2784150071906028
 10
-61.89076144634156
 20
100.3669251794489
 42
-0.0300720036510714
 10
-61.84147118851291
 20
99.32042307629311
 42
-0.0326025045107353
 10
-61.80450353742767
 20
100.7978378316802
 42
-0.2397170242132817
 10
-61.41018186947017
 20
101.42573907894
 42
-0.1157706626661422
 10
-60.14095890030213
 20
101.8689635275067
 42
-0.0527764672651649
  0
LWPOLYLINE
  5
C4
330
18
100
AcDbEntity
  8
ADP1DETAIL
100
AcDbPolyline
 90
       20
 70
     0
 43
0.0
 10
-59.86986273596208
 20
101.5119216167031
 42
-0.1025412741989319
 10
-60.22721680921601
 20
101.4996098203678
 42
-0.3796601018114036
 10
-60.32579721210996
 20
101.6227277105527
 42
1.0
 10
-60.41205506464219
 20
101.6842866556451
 42
-0.0588614628228193
 10
-60.59689337645002
 20
101.462674467946
 42
0.094705732268765
 10
-60.83102188970483
 20
100.9702028706222
 42
-0.8332960853988364
 10
-61.05282785259791
 20
100.9702028706222
 42
0.942082917285073
 10
-61.26231120874757
 20
100.9702028706222
 42
-0.1359280932071387
 10
-61.29927891621447
 20
100.1206893990791
 42
0.0116357048018384
 10
-61.27463375910932
 20
99.96063611988823
 42
-0.2186827871829776
 10
-61.52108482272588
 20
99.96063611988823
 42
-0.0499189991811838
 10
-61.53340737308763
 20
100.1576247515008
 42
1.443000078718396
 10
-61.71824568489546
 20
100.0960658064084
 42
0.0185247840330884
 10
-61.63198783236325
 20
99.84983002603868
 42
-0.2990703309967164
 10
-61.59502018127801
 20
99.51741170790578
 42
-0.4102868269325474
 10
-61.95237419815028
 20
99.0741872593391
 42
-0.1232100292937438
 10
-61.92772909742679
 20
99.2834876872871
 42
-0.2965531496757409
 10
-62.14953506031985
 20
100.0221950649806
 42
0.3817635330377907
 10
-62.30972821502255
 20
99.9852597125589
 42
-0.8786779644496933
 10
-62.55617927863911
 20
100.0960658064084
 42
-0.8786779644496933
  0
LWPOLYLINE
  5
DA
330
18
100
AcDbEntity
  8
ADP1DETAIL
100
AcDbPolyline
 90
       24
 70
     0
 43
0.0
 10
-59.80344836931887
 20
102.034879892994
 42
0.0063876102467546
 10
-59.85754018560033
 20
102.053640362784
 42
-0.0598234522626375
 10
-60.63386102753526
 20
102.3368115321598
 42
0.0858580585094088
 10
-61.23766610802409
 20
102.3368115321598
 42
0.5648288483550937
 10
-61.32392401693795
 20
102.1151993078764
 42
0.243309383713985
 10
-62.21114781212858
 20
101.635039506888
 42
0.3108554166075364
 10
-62.24811546321382
 20
101.1795032985702
 42
0.6209501279864168
 10
-62.05095460104423
 20
101.1918150949056
 42
0.1440389643655206
 10
-62.59314692972434
 20
100.1206893990791
 42
-0.0566806254411794
 10
-62.51921162755387
 20
99.80058284069734
 42
0.2910094977873364
 10
-62.26043801357556
 20
99.88676537846046
 42
0.1391525448672773
 10
-62.02630950032075
 20
99.18499338977289
 42
0.4671946629597449
 10
-61.92772909742679
 20
98.96338116548955
 42
0.4559586836375424
 10
-61.50876227236413
 20
99.84983002603868
 42
0.1819525295821596
 10
-61.20069845693885
 20
99.88676537846046
 42
-0.1164035719785629
 10
-61.12676315476837
 20
100.2561190855993
 42
0.1132151555236308
 10
-61.08979550368314
 20
100.7978378316802
 42
0.4755670982906107
 10
-60.84334444006658
 20
100.7485906463389
 42
0.1536965987455383
 10
-60.68315122898224
 20
101.1056325571424
 42
0.0197371733817253
 10
-60.46134526608916
 20
101.4749862276971
 42
0.498073084847022
 10
-60.06702359813166
 20
101.3764919301829
 42
-0.2059953129200104
 10
-59.31534785692023
 20
101.3149329850904
 42
-0.1298857810873274
 10
-59.1674772525793
 20
100.625472756154
 42
0.1042110179554707
 10
-59.21676745402628
 20
100.2684308453504
 42
0.9318844967417801
  0
LWPOLYLINE
  5
F4
330
18
100
AcDbEntity
  8
ADP1DETAIL
100
AcDbPolyline
 90
        2
 70
     0
 43
0.0
 10
-62.39527839061519
 20
103.1154235881962
 42
0.0640238247117835
 10
-61.40107807761669
 20
103.8066067524231
 42
0.1170643490364533
  0
LWPOLYLINE
  5
F8
330
18
100
AcDbEntity
  8
ADP1DETAIL
100
AcDbPolyline
 90
        3
 70
     0
 43
0.0
 10
-62.39527839061519
 20
103.1154235881962
 42
0.0037951764690202
 10
-61.87051721618892
 20
102.7233765769099
 42
-0.033429078312067
 10
-61.13480944612565
 20
102.3515118853678
 42
-0.1977308677170114
  0
LWPOLYLINE
  5
FD
330
18
100
AcDbEntity
  8
ADP1DETAIL
100
AcDbPolyline
 90
       13
 70
     0
 43
0.0
 10
-59.60753068330912
 20
101.5469096574525
 42
-0.1815153117650593
 10
-59.64525276520666
 20
102.4985607594797
 42
0.2167815251106266
 10
-59.59810014879511
 20
102.7246956798639
 42
0.423718672649969
 10
-59.79614114895534
 20
102.6116282196718
 42
-0.3661009429579148
 10
-60.01304327430215
 20
102.4985607594797
 42
-0.2414371219668799
 10
-60.00361273978814
 20
103.2429215238946
 42
0.0554333189710813
 10
-60.01304327430215
 20
103.4596341164534
 42
0.9704459713267826
 10
-60.08848743809723
 20
103.4502118615069
 42
-0.4948935291373346
 10
-60.31482004179952
 20
103.1958100669648
 42
-0.6591693424882905
 10
-60.50343056360429
 20
103.2617660702271
 42
0.1919307807590196
 10
-60.80520738726018
 20
103.8176810798017
 42
0.1099539781567775
 10
-61.45591359482502
 20
103.8553702453455
 42
0.1441347137938202
 10
-61.65395465114379
 20
103.6575021991192
 42
-0.2466565732549118
  0
LWPOLYLINE
  5
10C
330
18
100
AcDbEntity
  8
ADP1DETAIL
100
AcDbPolyline
 90
        4
 70
     0
 43
0.0
 10
-60.63386102753526
 20
101.9305224725991
 42
0.1317010680800209
 10
-61.50876227236413
 20
101.9674578250209
 42
0.140552771309958
 10
-62.1865027114051
 20
101.5981041544662
 42
1.046528602905224
 10
-61.95237419815028
 20
101.3272447814258
  0
LWPOLYLINE
  5
112
330
18
100
AcDbEntity
  8
ADP1DETAIL
100
AcDbPolyline
 90
        3
 70
     0
 43
0.0
 10
-60.85089543172109
 20
103.6851243779091
 42
-0.0256840975602991
 10
-61.26394588225294
 20
103.4556767777407
 42
-0.0099717252243162
 10
-62.08447844847807
 20
102.8817290104607
 42
0.0476972741362857
  0
LWPOLYLINE
  5
117
330
18
100
AcDbEntity
  8
ADP1DETAIL
100
AcDbPolyline
 90
        5
 70
     0
 43
0.0
 10
-62.48004245667167
 20
111.5785900853812
 42
0.0140353514513214
 10
-61.25729405944619
 20
110.8779292642454
 42
-0.0476972741362857
 10
-60.57490128762507
 20
110.42339809754
 42
-0.0689789831330331
 10
-59.89250851580396
 20
109.6910978967093
 42
-0.1119981346652414
 10
-59.32661112355721
 20
108.963033261715
 42
-17.12536180968244
  0
LWPOLYLINE
  5
11E
330
18
100
AcDbEntity
  8
ADP1DETAIL
100
AcDbPolyline
 90
        6
 70
     0
 43
0.0
 10
-60.15393171312034
 20
107.026247148719
 10
-59.90976792338265
 20
105.5156306326888
 42
0.1058562669312771
 10
-60.2854045057214
 20
106.8385929188304
 42
0.4347236494934169
 10
-62.40775103889029
 20
107.2608149451782
 42
-0.3813436606291174
 10
-60.5389591371038
 20
106.894889198715
 42
-0.0109667327758437
 10
-60.02245886443178
 20
106.1818031324166
 42
0.5243461814678271
  0
LWPOLYLINE
  5
126
330
18
100
AcDbEntity
  8
ADP1DETAIL
100
AcDbPolyline
 90
       20
 70
     0
 43
0.0
 10
-60.39364659420791
 20
110.3399166456942
 42
0.0383764848808002
 10
-60.76558649047051
 20
110.4492151771253
 42
0.1049324283586003
 10
-61.4766480966537
 20
110.4492151771253
 42
0.5814868251010608
 10
-61.55322397754836
 20
110.2087583860264
 42
0.1287498996214349
 10
-62.43931608003386
 20
109.9573717673934
 42
0.5387077085914074
 10
-62.45025553186285
 20
109.7387746679471
 42
0.1633672327625028
 10
-62.92065009991476
 20
109.2797208139861
 42
0.4553170072980394
 10
-62.78937718540179
 20
108.9518251831088
 42
0.3964626332171416
 10
-62.63622547999415
 20
107.9899980187134
 42
-0.2321226959959566
 10
-62.39555844186287
 20
108.2741742297015
 42
0.1318841185802827
 10
-62.11113382194225
 20
108.569280304808
 42
0.5281003960136264
 10
-61.71731507840333
 20
108.6020698605788
 42
0.1046805691807382
 10
-61.55322397754836
 20
109.0501938870056
 42
0.1596104663177529
 10
-61.37819342486439
 20
108.7222982561283
 42
0.1922920591785493
 10
-61.02813231949646
 20
108.9736848747613
 42
-0.0940570954517202
 10
-60.87498061408882
 20
109.4873880127299
 42
0.2274405505017515
 10
-60.74370769957584
 20
109.0720535786582
 42
0.3254908564047124
 10
-60.36082835148426
 20
109.2250715299785
 42
-0.0568013964795979
 10
-60.02170669794532
 20
109.6513358281686
 42
-0.1715258774061059
 10
-59.90409911748621
 20
109.7075009463319
 42
-0.1288795066010631
  0
LWPOLYLINE
  5
13C
330
18
100
AcDbEntity
  8
ADP1DETAIL
100
AcDbPolyline
 90
        5
 70
     0
 43
0.0
 10
-60.2003627829999
 20
110.0720781804514
 42
0.0886108760155051
 10
-60.77652588591785
 20
110.1431792744846
 42
0.3068795620304644
 10
-62.51589196092851
 20
108.7550878118992
 42
-0.3789979034256127
 10
-60.13110076518196
 20
110.0229508789352
 42
0.4263300213110014
 10
-61.11564759583845
 20
109.6076164082793
 42
-0.6879574113541127
  0
LWPOLYLINE
  5
143
330
18
100
AcDbEntity
  8
ADP1DETAIL
100
AcDbPolyline
 90
        4
 70
     0
 43
0.0
 10
-61.00850486502722
 20
106.5477288788799
 42
0.5539910038533723
 10
-61.15875945309273
 20
106.6227905489994
 42
-0.2381781707349239
 10
-61.47805053686315
 20
106.6415559756276
 42
0.1881317140080118
 10
-62.06967815965541
 20
106.7353831087686
 42
9.282361063151242
  0
ARC
  5
149
330
18
100
AcDbEntity
  8
ADP1DETAIL
100
AcDbCircle
 10
-61.42266646026442
 20
106.3016272048908
 30
0.0
 40
0.8157545824519649
100
AcDbArc
 50
82.65695020014067
 51
141.410340419826
  0
ARC
  5
14A
330
18
100
AcDbEntity
  8
ADP1DETAIL
100
AcDbCircle
 10
-60.65623582243752
 20
108.7532602327284
 30
0.0
 40
1.331245543202173
100
AcDbArc
 50
111.7002915223721
 51
153.594181337621
  0
LWPOLYLINE
  5
14B
330
18
100
AcDbEntity
  8
ADP1DETAIL
100
AcDbPolyline
 90
        3
 70
     0
 43
0.0
 10
-61.55322397754836
 20
110.2196882501448
 42
-0.0203824744534899
 10
-61.33443578669339
 20
110.1868986943739
 42
-0.9964540801883787
 10
-61.23598111490409
 20
110.405495757236
 42
-4.695972781168401
  0
LWPOLYLINE
  5
150
330
18
100
AcDbEntity
  8
ADP1DETAIL
100
AcDbPolyline
 90
        3
 70
     0
 43
0.0
 10
-61.35353101356229
 20
111.4507779559579
 42
0.0118461250130371
 10
-62.29352020806453
 20
112.0647606683658
 42
-0.0311751676396817
 10
-62.84546593268602
 20
112.2772746144882
 42
-0.1170643490364533
  0
ARC
  5
155
330
18
100
AcDbEntity
  8
ADP1DETAIL
100
AcDbCircle
 10
-66.35695420624706
 20
119.8185852015216
 30
0.0
 40
8.055760075991534
100
AcDbArc
 50
302.5720797164292
 51
324.5816018964974
  0
LWPOLYLINE
  5
156
330
18
100
AcDbEntity
  8
ADP1DETAIL
100
AcDbPolyline
 90
        4
 70
     0
 43
0.0
 10
-62.27934919530065
 20
112.5316669264804
 10
-59.95607021249799
 20
114.3739070999875
 42
-0.0888488177781797
 10
-59.69352438347205
 20
114.6362236193231
 42
-0.1621432025252235
 10
-59.38722091627511
 20
114.5815743353154
 42
-0.1621432025252235
  0
LWPOLYLINE
  5
15C
330
18
100
AcDbEntity
  8
ADP1DETAIL
100
AcDbPolyline
 90
        3
 70
     0
 43
0.0
 10
-62.07989112266606
 20
112.312454686846
 42
0.0016049422472232
 10
-61.02982980217248
 20
113.1505851343569
 42
0.1157892814333187
 10
-59.51794383162255
 20
114.6159370237582
  0
LWPOLYLINE
  5
161
330
18
100
AcDbEntity
  8
ADP1DETAIL
100
AcDbPolyline
 90
        2
 70
     0
 43
0.0
 10
-61.11564759583845
 20
111.4403342997994
 42
-0.0497551830439777
 10
-61.744212197467
 20
112.5791855535072
 42
-0.1876014064483817
  0
LWPOLYLINE
  5
165
330
18
100
AcDbEntity
  8
ADP1DETAIL
100
AcDbPolyline
 90
        4
 70
     0
 43
0.0
 10
-61.20316287218042
 20
112.2054240929852
 42
0.1889855177633923
 10
-61.05001111039112
 20
113.0033034419419
 42
0.3975419639740267
 10
-61.48758749210104
 20
112.3912316000764
 42
-0.1012885540737083
 10
-61.67712198165036
 20
112.6326301923746
 42
-0.0447467913235693
  0
LWPOLYLINE
  5
16B
330
18
100
AcDbEntity
  8
ADP1DETAIL
100
AcDbPolyline
 90
        3
 70
     0
 43
0.0
 10
-62.03059095558149
 20
112.3515584122678
 42
0.0167118680621078
 10
-61.87046684019263
 20
112.2508923116206
 42
0.0810755079016471
 10
-60.87498061408882
 20
110.9218220567395
 42
-2.481559525481533
  0
ARC
  5
170
330
18
100
AcDbEntity
  8
ADP1DETAIL
100
AcDbCircle
 10
-59.99377645156942
 20
112.7981823038679
 30
0.0
 40
2.541669037905975
100
AcDbArc
 50
120.1090819724305
 51
134.7437371977403
  0
ARC
  5
171
330
18
100
AcDbEntity
  8
ADP1DETAIL
100
AcDbCircle
 10
-60.96129394473412
 20
115.1142212258628
 30
0.0
 40
0.907579920991465
100
AcDbArc
 50
116.5705570439507
 51
154.8675109525191
  0
LWPOLYLINE
  5
172
330
18
100
AcDbEntity
  8
ADP1DETAIL
100
AcDbPolyline
 90
       21
 70
     0
 43
0.0
 10
-62.17263354398798
 20
122.0333528127552
 42
-0.1393236756922916
 10
-61.2012894437392
 20
122.7400244116263
 42
0.1444341704144049
 10
-60.62602739996945
 20
122.8719364545903
 42
-0.2422254861083372
 10
-59.88101590342298
 20
122.9473147492386
 42
-0.5709314724723017
 10
-59.84329382152544
 20
122.7117575374684
 42
-0.2362575006236509
 10
-59.06056018692289
 20
122.523311782628
 42
-0.6127209974557736
 10
-59.07942125595091
 20
122.1181533987894
 42
-0.2398714431175803
 10
-58.77764443229501
 20
121.4303263826903
 42
-0.2621506932777346
 10
-58.86251918676265
 20
121.072279419342
 42
-0.4377736739708231
 10
-59.02283810502535
 20
121.072279419342
 42
-0.2999801933759419
 10
-59.20201809231609
 20
120.5069421548209
 42
0.1947749532947929
 10
-59.56980854525305
 20
119.9698717280183
 42
-0.2645791255218564
 10
-59.74898853254379
 20
120.9592119591499
 42
-0.0121856012137007
 10
-59.97532113624608
 20
120.8649890817297
 42
-0.3861340332180024
 10
-60.09791797261125
 20
120.9121005386595
 42
-0.0963452530893546
 10
-60.09791797261125
 20
121.7506841804947
 42
0.0259602462123558
 10
-60.24880641251847
 20
121.5716606806008
 42
-0.5736959049550772
 10
-60.48456949457625
 20
121.5999275547587
 42
0.0533919426777116
 10
-60.88065155105526
 20
122.2312208589815
 42
0.4585234285272321
 10
-61.64452411662978
 20
122.1087311074035
 42
-0.1543127950060726
 10
-61.99345355669724
 20
121.807217892371
 42
4.853115953856598
  0
LWPOLYLINE
  5
189
330
18
100
AcDbEntity
  8
ADP1DETAIL
100
AcDbPolyline
 90
       13
 70
     0
 43
0.0
 10
-59.60753068330912
 20
120.0546723140525
 42
-0.1815153117650593
 10
-59.64525276520666
 20
121.0063234160797
 42
0.2167815251106266
 10
-59.59810014879511
 20
121.2324583364639
 42
0.423718672649969
 10
-59.79614114895534
 20
121.1193908762718
 42
-0.3661009429579148
 10
-60.01304327430215
 20
121.0063234160797
 42
-0.2414371219668799
 10
-60.00361273978814
 20
121.7506841804947
 42
0.0554333189710813
 10
-60.01304327430215
 20
121.9673967730535
 42
0.9704459713267826
 10
-60.08848743809723
 20
121.9579745181069
 42
-0.4948935291373346
 10
-60.31482004179952
 20
121.7035727235648
 42
-0.6591693424882905
 10
-60.50343056360429
 20
121.7695287268272
 42
0.1919307807590196
 10
-60.80520738726018
 20
122.3254437364017
 42
0.1099539781567775
 10
-61.45591359482502
 20
122.3631329019456
 42
0.1441347137938202
 10
-61.65395465114379
 20
122.1652648557192
 42
-0.2466565732549118
  0
LWPOLYLINE
  5
198
330
18
100
AcDbEntity
  8
ADP1DETAIL
100
AcDbPolyline
 90
        3
 70
     0
 43
0.0
 10
-60.85089543172109
 20
122.1928870345092
 42
-0.0256840975602992
 10
-61.26394588225294
 20
121.9634394343407
 42
-0.0099717252243161
 10
-62.08447844847806
 20
121.3894916670607
 42
0.0476972741362857
  0
LWPOLYLINE
  5
19D
330
18
100
AcDbEntity
  8
ADP1DETAIL
100
AcDbPolyline
 90
       20
 70
     0
 43
0.0
 10
-59.86986273596208
 20
120.0196842733031
 42
-0.1025412741989319
 10
-60.22721680921601
 20
120.0073724769678
 42
-0.3796601018114036
 10
-60.32579721210996
 20
120.1304903671527
 42
1.0
 10
-60.41205506464219
 20
120.1920493122451
 42
-0.0588614628228193
 10
-60.59689337645002
 20
119.970437124546
 42
0.094705732268765
 10
-60.83102188970483
 20
119.4779655272222
 42
-0.8332960853988364
 10
-61.05282785259791
 20
119.4779655272222
 42
0.942082917285073
 10
-61.26231120874757
 20
119.4779655272222
 42
-0.1359280932071387
 10
-61.29927891621447
 20
118.6284520556791
 42
0.0116357048018384
 10
-61.27463375910932
 20
118.4683987764882
 42
-0.2186827871829776
 10
-61.52108482272588
 20
118.4683987764882
 42
-0.0499189991811838
 10
-61.53340737308763
 20
118.6653874081009
 42
1.443000078718396
 10
-61.71824568489546
 20
118.6038284630084
 42
0.0185247840330884
 10
-61.63198783236325
 20
118.3575926826387
 42
-0.2990703309967164
 10
-61.59502018127801
 20
118.0251743645058
 42
-0.4102868269325474
 10
-61.95237419815028
 20
117.5819499159391
 42
-0.1232100292937438
 10
-61.92772909742679
 20
117.7912503438871
 42
-0.2965531496757409
 10
-62.14953506031985
 20
118.5299577215807
 42
0.3817635330377907
 10
-62.30972821502255
 20
118.4930223691589
 42
-0.8786779644496933
 10
-62.55617927863911
 20
118.6038284630084
 42
-0.8786779644496933
  0
LWPOLYLINE
  5
1B3
330
18
100
AcDbEntity
  8
ADP1DETAIL
100
AcDbPolyline
 90
        3
 70
     0
 43
0.0
 10
-62.34436384316285
 20
121.5846019481272
 42
0.0034250500202061
 10
-61.87051721618892
 20
121.23113923351
 42
-0.0334290783120668
 10
-61.13480944612565
 20
120.8592745419678
 42
-0.1977308677170114
  0
LWPOLYLINE
  5
1B8
330
18
100
AcDbEntity
  8
ADP1DETAIL
100
AcDbPolyline
 90
       24
 70
     0
 43
0.0
 10
-59.80344836931887
 20
120.5426425495941
 42
0.0063876102467545
 10
-59.85754018560033
 20
120.561403019384
 42
-0.0598234522626375
 10
-60.63386102753526
 20
120.8445741887598
 42
0.0858580585094088
 10
-61.23766610802409
 20
120.8445741887598
 42
0.5648288483550937
 10
-61.32392401693795
 20
120.6229619644765
 42
0.243309383713985
 10
-62.21114781212858
 20
120.142802163488
 42
0.3108554166075364
 10
-62.24811546321382
 20
119.6872659551702
 42
0.6209501279864168
 10
-62.05095460104423
 20
119.6995777515056
 42
0.1440389643655206
 10
-62.59314692972434
 20
118.6284520556791
 42
-0.0566806254411794
 10
-62.51921162755387
 20
118.3083454972973
 42
0.2910094977873364
 10
-62.26043801357556
 20
118.3945280350604
 42
0.1391525448672773
 10
-62.02630950032075
 20
117.6927560463729
 42
0.4671946629597449
 10
-61.92772909742679
 20
117.4711438220895
 42
0.4559586836375424
 10
-61.50876227236413
 20
118.3575926826387
 42
0.1819525295821596
 10
-61.20069845693885
 20
118.3945280350604
 42
-0.1164035719785629
 10
-61.12676315476837
 20
118.7638817421993
 42
0.1132151555236308
 10
-61.08979550368314
 20
119.3056004882802
 42
0.4755670982906107
 10
-60.84334444006658
 20
119.2563533029389
 42
0.1536965987455383
 10
-60.68315122898224
 20
119.6133952137425
 42
0.0197371733817253
 10
-60.46134526608916
 20
119.9827488842971
 42
0.498073084847022
 10
-60.06702359813166
 20
119.8842545867829
 42
-0.2059953129200104
 10
-59.31534785692023
 20
119.8226956416905
 42
-0.1298857810873274
 10
-59.1674772525793
 20
119.133235412754
 42
0.1042110179554707
 10
-59.21676745402628
 20
118.7761935019504
 42
0.9318844967417801
  0
LWPOLYLINE
  5
1D2
330
18
100
AcDbEntity
  8
ADP1DETAIL
100
AcDbPolyline
 90
        8
 70
     0
 43
0.0
 10
-60.96656994368403
 20
119.55183626865
 42
-0.4079906428304744
 10
-60.0793461484934
 20
120.3644143877714
 42
0.156615594089808
 10
-61.55805247381112
 20
119.970437124546
 42
0.2784150071906028
 10
-61.89076144634156
 20
118.8746878360489
 42
-0.0300720036510714
 10
-61.84147118851291
 20
117.8281857328931
 42
-0.0326025045107353
 10
-61.80450353742767
 20
119.3056004882802
 42
-0.2397170242132817
 10
-61.41018186947017
 20
119.93350173554
 42
-0.1157706626661422
 10
-60.14095890030213
 20
120.3767261841067
 42
-0.0527764672651649
  0
LWPOLYLINE
  5
1DC
330
18
100
AcDbEntity
  8
ADP1DETAIL
100
AcDbPolyline
 90
        4
 70
     0
 43
0.0
 10
-60.63386102753526
 20
120.4382851291991
 42
0.1317010680800209
 10
-61.50876227236413
 20
120.4752204816209
 42
0.140552771309958
 10
-62.1865027114051
 20
120.1058668110662
 42
1.046528602905224
 10
-61.95237419815028
 20
119.8350074380258
  0
LWPOLYLINE
  5
1E2
330
18
100
AcDbEntity
  8
ADP1DETAIL
100
AcDbPolyline
 90
       22
 70
     0
 43
0.0
 10
-60.47322274080327
 20
123.1508011330441
 42
0.1643632898293688
 10
-60.20088625786893
 20
123.7606773528873
 42
0.2991880436163496
 10
-60.2854045057214
 20
123.9201834428337
 42
-0.1581650902437418
 10
-60.99911396729501
 20
124.286109189297
 42
-0.1959047770943273
 10
-60.73616832600539
 20
124.5863559425615
 42
-0.1265152534131592
 10
-61.17754130464466
 20
124.7083312156449
 42
0.220547211758462
 10
-61.48744149068287
 20
124.7927755990784
 42
-0.2246938073339695
 10
-61.2996231995135
 20
125.0554915354799
 42
-0.1258846302833693
 10
-61.83490526764995
 20
125.1117877789712
 42
0.2576328583123036
 10
-62.1635872491526
 20
125.1211704922853
 42
-0.0991042075673024
 10
-62.14480545368817
 20
125.3838864286868
 42
0.135796293339438
 10
-62.89607856227815
 20
125.308824722174
 42
-0.2686185134716636
 10
-62.2105418499887
 20
126.1626514517905
 42
-0.4226167983594435
 10
-61.10241401061191
 20
126.2377131583033
 42
-0.4302472249402684
 10
-60.66104103197265
 20
126.3409229683651
 42
-0.2826356974225202
 10
-60.08819526073231
 20
125.6090715118319
 42
-0.5707074626224652
 10
-59.79707698233354
 20
125.646602328695
 42
-0.1784711689095899
 10
-59.6749950874647
 20
124.717713928959
 42
-0.5388518928288688
 10
-59.5247404433117
 20
124.5394424123844
 42
-0.1107970883045864
 10
-59.6749950874647
 20
124.0140105759747
 42
0.0074730083219765
 10
-59.96611342195097
 20
123.38536889311
 42
-0.1755137566009646
 10
-60.20088625786893
 20
123.14141841973
 42
4.299168135498502
  0
LWPOLYLINE
  5
1FA
330
18
100
AcDbEntity
  8
ADP1DETAIL
100
AcDbPolyline
 90
        6
 70
     0
 43
0.0
 10
-60.15393171312034
 20
125.5340098053191
 10
-59.90976792338265
 20
124.0233932892888
 42
0.1058562669312771
 10
-60.2854045057214
 20
125.3463555754304
 42
0.4347236494934169
 10
-62.40775103889029
 20
125.7685776017783
 42
-0.3813436606291174
 10
-60.5389591371038
 20
125.402651855315
 42
-0.0109667327758437
 10
-60.02245886443178
 20
124.6895657890167
 42
0.5243461814678271
  0
ARC
  5
202
330
18
100
AcDbEntity
  8
ADP1DETAIL
100
AcDbCircle
 10
-61.42266646026442
 20
124.8093898614908
 30
0.0
 40
0.8157545824519649
100
AcDbArc
 50
82.65695020014067
 51
141.410340419826
  0
LWPOLYLINE
  5
203
330
18
100
AcDbEntity
  8
ADP1DETAIL
100
AcDbPolyline
 90
        4
 70
     0
 43
0.0
 10
-61.00850486502722
 20
125.0554915354799
 42
0.5539910038533723
 10
-61.15875945309273
 20
125.1305532055994
 42
-0.2381781707349239
 10
-61.47805053686315
 20
125.1493186322276
 42
0.1881317140080118
 10
-62.06967815965541
 20
125.2431457653686
 42
9.282361063151242
  0
LWPOLYLINE
  5
209
330
18
100
AcDbEntity
  8
ADP1DETAIL
100
AcDbPolyline
 90
        2
 70
     0
 43
0.0
 10
-66.16041269448084
 20
107.92347668066
 42
-0.1442968456658707
 10
-65.56069542900951
 20
109.6702504226546
 42
0.0138358991905054
  0
LWPOLYLINE
  5
20D
330
18
100
AcDbEntity
  8
ADP1DETAIL
100
AcDbPolyline
 90
        4
 70
     0
 43
0.0
 10
-65.18881712609098
 20
108.9554056438527
 42
-0.2974618766935839
 10
-65.29972013572835
 20
108.549116584292
 42
-0.6726184776610583
 10
-65.86655756513194
 20
109.2385768132285
 42
-0.2642754967151629
 10
-65.37365543789881
 20
109.2139532205578
 42
-3.434550856522029
  0
LWPOLYLINE
  5
213
330
18
100
AcDbEntity
  8
ADP1DETAIL
100
AcDbPolyline
 90
        4
 70
     0
 43
0.0
 10
-63.36852313791417
 20
112.1473579074657
 42
-0.0015422153536362
 10
-63.5824843702033
 20
111.9890054739149
 42
0.1032995923719763
 10
-65.65493655467668
 20
110.5496567793476
 42
0.1977308677170114
 10
-66.66588883428499
 20
107.92347668066
 42
-1.023226445938185
  0
ARC
  5
219
330
18
100
AcDbEntity
  8
ADP1DETAIL
100
AcDbCircle
 10
-64.19751469903288
 20
108.3960114799763
 30
0.0
 40
2.1903615563778
100
AcDbArc
 50
155.2667086311888
 51
189.239237829192
  0
LWPOLYLINE
  5
21A
330
18
100
AcDbEntity
  8
ADP1DETAIL
100
AcDbPolyline
 90
       16
 70
     0
 43
0.0
 10
-63.59437445695821
 20
111.2302698720184
 42
-0.1112503387628048
 10
-63.24185377426364
 20
110.900668403893
 42
-0.3108554166075364
 10
-63.20488612317841
 20
110.4451321955752
 42
-0.6209501279864168
 10
-63.40204698534799
 20
110.4574439919105
 42
-0.1440389643655206
 10
-62.85985465666789
 20
109.386318296084
 42
0.0566806254411794
 10
-62.93378995883836
 20
109.0662117377023
 42
-0.2910094977873364
 10
-63.19256357281666
 20
109.1523942754654
 42
-0.1391525448672773
 10
-63.42669208607148
 20
108.4506222867778
 42
-0.4671946629597449
 10
-63.52527248896544
 20
108.2290100624945
 42
-0.4559586836375424
 10
-63.94423931402809
 20
109.1154589230436
 42
-0.1819525295821596
 10
-64.25230312945338
 20
109.1523942754654
 42
0.1164035719785629
 10
-64.32623843162385
 20
109.5217479826043
 42
-0.1132151555236308
 10
-64.36320608270908
 20
110.0634667286852
 42
-0.4755670982906107
 10
-64.60965714632564
 20
110.0142195433438
 42
-0.1536965987455383
 10
-64.76985035740999
 20
110.3712614541474
 42
-0.0025443916487357
 10
-64.80007555072664
 20
110.417883035148
 42
-0.498073084847022
  0
LWPOLYLINE
  5
22C
330
18
100
AcDbEntity
  8
ADP1DETAIL
100
AcDbPolyline
 90
       12
 70
     0
 43
0.0
 10
-61.61886040661402
 20
109.1157729985475
 42
-0.2118733182251316
 10
-61.85952738836363
 20
108.6020698605788
 42
-0.3736071808656497
 10
-62.0345579410476
 20
108.6020698605788
 42
-0.1598138888986088
 10
-62.08925503104758
 20
109.1922819742076
 42
-0.1629932937870649
 10
-62.66904372271781
 20
108.153945834152
 42
-0.4145624564148823
 10
-62.47213432275751
 20
109.0939132703107
 42
-0.4208468645917284
 10
-62.84407421902011
 20
109.1922819742076
 42
-0.3454577750240266
 10
-62.74561954723079
 20
109.4983178768482
 42
-0.1777379092008348
 10
-62.3736796509682
 20
109.6076164082793
 42
0.0473542635902602
 10
-62.0017397547056
 20
109.7934239519547
 42
-0.2193332326084467
 10
-62.40649789369186
 20
109.771564223718
 42
-0.1340310862735752
 10
-62.3736796509682
 20
109.9683015949276
 42
-0.1340310862735752
  0
LWPOLYLINE
  5
23A
330
18
100
AcDbEntity
  8
ADP1DETAIL
100
AcDbPolyline
 90
       16
 70
     0
 43
0.0
 10
-64.70848692259005
 20
110.4776980089826
 42
-0.0443032257403672
 10
-64.62197969668739
 20
110.2358317676272
 42
0.8332960853988364
 10
-64.40017373379432
 20
110.2358317676272
 42
-0.942082917285073
 10
-64.19069037764465
 20
110.2358317676272
 42
0.1359280932071387
 10
-64.15372267017776
 20
109.386318296084
 42
-0.0116357048018384
 10
-64.17836782728291
 20
109.2262650168931
 42
0.2186827871829776
 10
-63.93191676366635
 20
109.2262650168931
 42
0.0499189991811838
 10
-63.91959421330461
 20
109.4232536485058
 42
-1.443000078718396
 10
-63.73475590149677
 20
109.3616947034134
 42
-0.0185247840330884
 10
-63.82101375402898
 20
109.1154589230436
 42
0.2990703309967164
 10
-63.85798140511422
 20
108.7830406049107
 42
0.4102868269325474
 10
-63.50062738824195
 20
108.339816156344
 42
0.1232100292937438
 10
-63.52527248896544
 20
108.549116584292
 42
0.2965531496757409
 10
-63.30346652607237
 20
109.2878239619856
 42
-0.3817635330377907
 10
-63.14327337136969
 20
109.2508886095638
 42
0.8786779644496933
 10
-62.89682230775312
 20
109.3616947034134
 42
0.8786779644496933
  0
ARC
  5
24C
330
18
100
AcDbEntity
  8
ADP1DETAIL
100
AcDbCircle
 10
-65.16169196241901
 20
108.7940420439905
 30
0.0
 40
0.4397964699921399
100
AcDbArc
 50
158.4751225774272
 51
217.7991190960122
  0
LWPOLYLINE
  5
24D
330
18
100
AcDbEntity
  8
ADP1DETAIL
100
AcDbPolyline
 90
       35
 70
     0
 43
0.0
 10
-66.75496342902398
 20
98.75715867747933
 42
-0.195926754089398
 10
-65.65008307930186
 20
100.9103399332506
 42
0.0614797682496493
 10
-64.66553624864539
 20
101.9923954931954
 42
0.079994355462856
 10
-64.4029904760011
 20
102.5279583228165
 42
0.1294929474739024
 10
-64.38111162872478
 20
103.0945619460467
 42
-0.1011177226464209
 10
-64.53426333413242
 20
103.6957039237938
 42
-0.3781607721152636
 10
-64.4029904760011
 20
103.8596517392325
 42
-0.271938310721114
 10
-64.22795992331714
 20
103.7940725911065
 42
1.427612658769903
 10
-64.19514168059348
 20
103.8487218751141
 42
-0.2756815456685384
 10
-64.51238454323775
 20
104.6028818041816
 42
0.1629600572996453
 10
-64.56708157685608
 20
104.8979878427038
 42
-0.30219522884992
 10
-64.07480816152784
 20
104.9089177068222
 42
-0.276375666192126
 10
-64.57802097230341
 20
105.7286567474315
 42
-0.2726176808392039
 10
-64.12950519514616
 20
105.8598150070993
 42
-0.2626103973615325
 10
-64.49050575234308
 20
106.2095703296292
 42
0.0070688990128245
 10
-64.70929388681638
 20
106.515606268854
 42
-0.335066991258056
 10
-64.22795992331714
 20
106.7451331958345
 42
-0.2003012622824285
 10
-64.6217786104744
 20
107.2890026914548
 42
0.163077242969371
 10
-64.91714268222401
 20
107.6168983223322
 42
-0.583607619214393
 10
-64.91714268222401
 20
107.7371267178816
 42
-0.3027101802331842
 10
-63.50595892168661
 20
107.2671429998023
 42
-0.1467318365491102
 10
-63.254352488108
 20
107.4529505068935
 42
-0.8388580405881722
 10
-63.210594849937
 20
107.3764415312334
 42
0.3701694441114849
 10
-63.14495842087135
 20
107.2452832715656
 42
-0.2958393747620506
 10
-62.81677610639808
 20
106.2506665513993
 42
-0.1802672770345802
 10
-62.53235148647746
 20
106.3599651194145
 42
0.0384378235873629
 10
-62.48859384830647
 20
105.9337007846403
 42
-0.2920583094805718
 10
-62.66362440099044
 20
105.1904707196912
 42
-0.000000135584462
 10
-62.40107857196449
 20
105.1467512998019
 42
0.0714610306562774
 10
-62.46671500103015
 20
104.8188557055087
 42
-0.1888835642271447
 10
-63.05744314452937
 20
103.8705815667666
 42
0.022702757734002
 10
-62.89335198729273
 20
103.7940725911065
 42
-0.2304000175325923
 10
-63.03556429725304
 20
103.4005978486873
 42
-0.0608911737844391
 10
-63.5825347461996
 20
102.9852634146156
 42
-0.0810755079016471
 10
-64.57802097230341
 20
101.6561931597346
 42
2.481559525481533
  0
LWPOLYLINE
  5
272
330
18
100
AcDbEntity
  8
ADP1DETAIL
100
AcDbPolyline
 90
        9
 70
     0
 43
0.0
 10
-64.33735399055379
 20
102.1747054027944
 42
0.0973026850138917
 10
-63.33092836900265
 20
104.4918344740044
 42
0.1876014064483817
 10
-63.7356865079889
 20
107.0800238753594
 42
0.177830152432798
 10
-64.44674811417209
 20
107.6702359889882
 42
-0.2843049133273168
 10
-63.3965647980683
 20
105.1235799907977
 42
-0.1301691401418578
 10
-63.80132293705456
 20
103.3704314178671
 42
0.1054077574604855
 10
-63.50595892168661
 20
104.4196974220411
 42
0.1617493297002281
 10
-63.62629238437059
 20
104.878751276002
 42
0.107686082977582
 10
-64.02011112790951
 20
105.4471036979783
 42
-2.539371502729382
  0
LWPOLYLINE
  5
27D
330
18
100
AcDbEntity
  8
ADP1DETAIL
100
AcDbPolyline
 90
       27
 70
     0
 43
0.0
 10
-65.93450775560414
 20
100.7122909812735
 42
0.195862766442706
 10
-65.83605308381483
 20
101.5101703302302
 42
0.2610314799660947
 10
-66.17517473735377
 20
101.9036450726494
 42
-0.1179683999431174
 10
-66.64556936178733
 20
102.2861899509502
 42
-0.3387199732159474
 10
-66.64556936178733
 20
102.5375766061674
 42
-0.1886261636375545
 10
-66.40490232365606
 20
102.6796646933694
 42
-0.2745304126988767
 10
-66.67838754812933
 20
103.0184901883651
 42
0.0631644407633851
 10
-66.76590282447133
 20
103.3354559551242
 42
-0.1866379828524058
 10
-66.40490232365606
 20
103.368245510895
 42
-0.2559440891546219
 10
-66.74402403357665
 20
104.2972830829353
 42
0.1551209632612424
 10
-66.53617523816904
 20
104.2863532554012
 42
-0.2533422907868052
 10
-65.89075011743315
 20
105.1651135037149
 42
-0.5340932580143657
 10
-65.78135599381484
 20
105.0995343555889
 42
0.1802335036480422
 10
-65.77041659836751
 20
104.4328132663
 42
-0.3337309400846509
 10
-65.82511363198583
 20
104.2360758950904
 42
-0.1546619659692604
 10
-65.57350725478888
 20
104.3672341547582
 42
0.503672370997362
 10
-65.52974961661789
 20
104.4546729945367
 42
0.0920063786501734
 10
-65.4422343402759
 20
103.9956191039915
 42
-0.1513953591602361
 10
-65.42035549299957
 20
103.6895832013509
 42
-0.0457327008994333
 10
-65.12499147763164
 20
103.8426011526712
 42
0.0832622758220674
 10
-65.1468702685263
 20
103.3179681505842
 42
-0.2615409444537902
 10
-65.23438554486827
 20
102.8917038523942
 42
-0.0989346710656498
 10
-64.92808207767135
 20
102.924493408165
 42
0.4003501242698463
 10
-64.97183971584234
 20
102.7058963453029
 42
-0.0217469727881879
 10
-65.01559735401333
 20
102.4545096900857
 42
-0.0583943561197075
 10
-65.3000220303156
 20
101.7440691809075
 42
-0.0652070261317556
 10
-65.52974961661789
 20
100.9090283524831
 42
-0.6638489809022948
  0
LWPOLYLINE
  5
29A
330
18
100
AcDbEntity
  8
ADP1DETAIL
100
AcDbPolyline
 90
        5
 70
     0
 43
0.0
 10
-65.72665896019652
 20
102.8436125088081
 42
-0.1132874651914843
 10
-65.54068901206521
 20
103.5868425737572
 42
0.0930201094435923
 10
-65.57350725478888
 20
103.9365978962871
 42
-0.0991042707775314
 10
-65.60632544113087
 20
104.2207741072752
 42
0.041738832666633
 10
-65.86887127015683
 20
103.9584576245238
 42
2.156527424621478
  0
LWPOLYLINE
  5
2A1
330
18
100
AcDbEntity
  8
ADP1DETAIL
100
AcDbPolyline
 90
        7
 70
     0
 43
0.0
 10
-65.71571956474919
 20
100.941817908254
 42
0.1185717617173606
 10
-65.60632544113087
 20
101.9145749367678
 42
0.0520473151276641
 10
-65.96732594194614
 20
103.2152275595747
 42
-0.115972721762775
 10
-66.03296242739346
 20
104.6907578253545
 42
0.103148453170638
 10
-66.14235649463011
 20
103.6305619936464
 42
0.1534731094287103
 10
-65.72665896019652
 20
102.2096809752901
 42
0.0335327609734602
 10
-65.59538604568354
 20
101.8052763687525
 42
0.6767331564684684
  0
LWPOLYLINE
  5
2AA
330
18
100
AcDbEntity
  8
ADP1DETAIL
100
AcDbPolyline
 90
        6
 70
     0
 43
0.0
 10
-66.39396292820872
 20
103.2261573871089
 42
0.7455223211141812
 10
-66.29550825641941
 20
103.302666362769
 42
-0.0306118895708069
 10
-66.59087227178736
 20
103.8163695373218
 42
-0.1487409230605957
 10
-66.62369051451101
 20
104.0131069085314
 42
-1.351813847798257
 10
-66.5252358427217
 20
104.1005457117258
 42
-0.2925165749073567
 10
-66.25175061824842
 20
103.7835799449667
 42
0.8665598924049243
  0
ARC
  5
2B2
330
18
100
AcDbEntity
  8
ADP1DETAIL
100
AcDbCircle
 10
-74.19109880561854
 20
104.5561275481508
 30
0.0
 40
8.483928798286703
100
AcDbArc
 50
349.182420127126
 51
355.1459057952099
  0
LWPOLYLINE
  5
2B3
330
18
100
AcDbEntity
  8
ADP1DETAIL
100
AcDbPolyline
 90
        6
 70
     0
 43
0.0
 10
-62.33544208651718
 20
103.1098637338619
 42
0.3547397914388744
 10
-62.12759334749121
 20
103.142653326217
 42
0.4028354758977405
 10
-62.13853274293854
 20
103.4705489205101
 42
0.4792050866713715
 10
-62.96992786818738
 20
103.4814787846285
 42
0.6350926506410117
 10
-62.70738203916143
 20
103.0661443139726
 42
-0.1621974494680901
 10
-62.58704852009579
 20
102.9896353383124
 42
0.4756319537787135
  0
ARC
  5
2BB
330
18
100
AcDbEntity
  8
ADP1DETAIL
100
AcDbCircle
 10
-62.84833114667787
 20
103.0704409878834
 30
0.0
 40
0.6147565166808573
100
AcDbArc
 50
22.59112281475184
 51
69.27767818029605
  0
LWPOLYLINE
  5
2BC
330
18
100
AcDbEntity
  8
ADP1DETAIL
100
AcDbPolyline
 90
        8
 70
     0
 43
0.0
 10
-65.32190082121026
 20
101.8052763687525
 42
-0.0686266501426757
 10
-65.10311263035531
 20
102.308049679187
 42
-0.1123013106308945
 10
-65.04841559673699
 20
102.7889632248004
 42
0.096666728362766
 10
-65.45317373572324
 20
102.5047870503965
 42
-0.2532558612474783
 10
-65.42035549299957
 20
102.7998930889188
 42
0.1796208960525165
 10
-65.23438554486827
 20
103.6633515494173
 42
0.2646460032587344
 10
-65.43129488844691
 20
103.3791753750134
 42
-0.3574124356332563
 10
-65.63914368385454
 20
103.2698768069981
 42
-0.3574124356332563
  0
LWPOLYLINE
  5
2C6
330
18
100
AcDbEntity
  8
ADP1DETAIL
100
AcDbPolyline
 90
        5
 70
     0
 43
0.0
 10
-64.2498387142118
 20
102.9397951959802
 42
-0.1889855177633923
 10
-64.4029904760011
 20
103.737674544937
 42
-0.3975419639740267
 10
-63.96541409429119
 20
103.1256027030715
 42
0.3652530914972776
 10
-63.80132293705456
 20
104.0983597315852
 42
0.0447467913235693
 10
-64.16232343786981
 20
104.6011330054355
 42
-2.184352205546376
  0
ARC
  5
2CD
330
18
100
AcDbEntity
  8
ADP1DETAIL
100
AcDbCircle
 10
-62.70837681072735
 20
103.1845068283627
 30
0.0
 40
0.596890743495006
100
AcDbArc
 50
7.545021176987153
 51
36.09232442904498
  0
LWPOLYLINE
  5
2CE
330
18
100
AcDbEntity
  8
ADP1DETAIL
100
AcDbPolyline
 90
        6
 70
     0
 43
0.0
 10
-65.02653674946066
 20
100.4075666594003
 42
0.4529669113617124
 10
-65.82511363198583
 20
100.4950054991789
 42
-0.1899694311903655
 10
-64.67647570047438
 20
100.8775503774797
 42
-0.3068795620304644
 10
-62.93710962546372
 20
99.48945891489426
 42
0.3789979034256127
 10
-65.32190082121026
 20
100.7573219819303
 42
-0.4263300213110014
 10
-64.33735399055379
 20
100.3419875112743
 42
0.6879574113541127
  0
LWPOLYLINE
  5
2D6
330
18
100
AcDbEntity
  8
ADP1DETAIL
100
AcDbPolyline
 90
       23
 70
     0
 43
0.0
 10
-66.01108358011713
 20
100.4840756350605
 42
-0.2292008251121906
 10
-65.49693137389422
 20
100.8119712659379
 42
0.1268974943662448
 10
-65.05935499218431
 20
101.0742877486893
 42
-0.0383764848808002
 10
-64.68741509592172
 20
101.1835862801203
 42
-0.1049324283586003
 10
-63.97635348973852
 20
101.1835862801203
 42
-0.5814868251010608
 10
-63.89977760884387
 20
100.9431294890215
 42
-0.1287498996214349
 10
-63.01368550635837
 20
100.6917428703885
 42
-0.5387077085914074
 10
-63.00274605452938
 20
100.4731457709421
 42
-0.1633672327625028
 10
-62.53235148647746
 20
100.0140919169812
 42
-0.4553170072980394
 10
-62.66362440099044
 20
99.68619628610383
 42
-0.3964626332171416
 10
-62.81677610639808
 20
98.72436912170844
 42
0.2321226959959566
 10
-63.05744314452937
 20
99.00854533269654
 42
-0.1318841185802827
 10
-63.34186776444997
 20
99.30365140780303
 42
-0.5281003960136264
 10
-63.7356865079889
 20
99.33644096357394
 42
-0.1046805691807382
 10
-63.89977760884387
 20
99.78456499000074
 42
-0.1596104663177529
 10
-64.07480816152784
 20
99.45666935912335
 42
-0.1922920591785493
 10
-64.42486926689577
 20
99.70805597775637
 42
0.0940570954517202
 10
-64.57802097230341
 20
100.2217591157249
 42
-0.2274405505017515
 10
-64.70929388681638
 20
99.80642468165328
 42
-0.3254908564047124
 10
-65.09217323490798
 20
99.9594426329736
 42
0.0568013964795979
 10
-65.43129488844691
 20
100.3857069311636
 42
0.4581117428581778
 10
-65.72665896019652
 20
100.3638472395111
 42
0.1288795066010631
 10
-66.16423534190643
 20
99.92665307720269
 42
1.743891995814214
  0
LWPOLYLINE
  5
2EF
330
18
100
AcDbEntity
  8
ADP1DETAIL
100
AcDbPolyline
 90
        5
 70
     0
 43
0.0
 10
-65.54068901206521
 20
100.4294263510529
 42
-0.2750188081875344
 10
-65.12499147763164
 20
100.2982681279693
 42
-0.0968322329636994
 10
-64.94996092494766
 20
100.0031620528628
 42
0.9429421727082665
 10
-64.68741509592172
 20
100.079671028523
 42
0.3504839782335989
 10
-65.1468702685263
 20
100.7245324261593
 42
-7.160185260310702
  0
LWPOLYLINE
  5
2F6
330
18
100
AcDbEntity
  8
ADP1DETAIL
100
AcDbPolyline
 90
        2
 70
     0
 43
0.0
 10
-65.42032381617435
 20
101.2079164644429
 42
-0.0046574662606105
 10
-65.07219452803685
 20
101.4794046418835
 42
0.1079611592152193
  0
LWPOLYLINE
  5
2FA
330
18
100
AcDbEntity
  8
ADP1DETAIL
100
AcDbPolyline
 90
        3
 70
     0
 43
0.0
 10
-66.77363585122357
 20
98.68309952733346
 42
-0.2510322567771855
 10
-65.91432639100384
 20
100.8042449719588
 42
-0.0005413969835192
 10
-65.8749921900347
 20
100.8372070141967
 42
0.1079611592152193
  0
LWPOLYLINE
  5
2FF
330
18
100
AcDbEntity
  8
ADP1DETAIL
100
AcDbPolyline
 90
        3
 70
     0
 43
0.0
 10
-65.54890246890602
 20
100.4418720493269
 42
0.0013775516389332
 10
-65.56049307058827
 20
100.4254689997043
 42
0.1119981346652418
 10
-66.12639046283502
 20
99.6974043647101
 42
17.12536180968244
  0
ARC
  5
304
330
18
100
AcDbEntity
  8
ADP1DETAIL
100
AcDbCircle
 10
-65.72665896019652
 20
99.60023738416712
 30
0.0
 40
0.4473185550989832
100
AcDbArc
 50
234.0603651480805
 51
281.282357823198
  0
ARC
  5
305
330
18
100
AcDbEntity
  8
ADP1DETAIL
100
AcDbCircle
 10
-65.72118926247284
 20
99.38414312058638
 30
0.0
 40
0.4319473090314825
100
AcDbArc
 50
240.4058528793209
 51
299.594147120679
  0
LWPOLYLINE
  5
306
330
18
100
AcDbEntity
  8
ADP1DETAIL
100
AcDbPolyline
 90
        3
 70
     0
 43
0.0
 10
-66.09859885645912
 20
99.03040506093329
 42
0.4106097569170614
 10
-65.59538604568354
 20
98.8008780973686
 42
0.5666148256760205
 10
-65.48599197844691
 20
99.23807225967703
 42
-2.415706599886759
  0
LWPOLYLINE
  5
30B
330
18
100
AcDbEntity
  8
ADP1DETAIL
100
AcDbPolyline
 90
        6
 70
     0
 43
0.0
 10
-66.13141709918277
 20
99.44573949500499
 42
0.2730730233482699
 10
-66.24081122280109
 20
99.18342301225361
 42
0.4064627871532736
 10
-66.04390182284079
 20
99.03040506093329
 42
0.197076862240398
 10
-65.4422343402759
 20
99.27086181544794
 42
0.2657258391037116
 10
-65.55162840751255
 20
99.59875744632531
 42
0.1522589951065187
 10
-65.91262890832782
 20
99.60968731044367
 42
7.309465791801355
  0
ARC
  5
313
330
18
100
AcDbEntity
  8
ADP1DETAIL
100
AcDbCircle
 10
-65.54068898387439
 20
100.0645669284627
 30
0.0
 40
0.7637411695738768
100
AcDbArc
 50
249.8937048952518
 51
274.9301214557895
  0
ARC
  5
314
330
18
100
AcDbEntity
  8
ADP1DETAIL
100
AcDbCircle
 10
-66.06511263892284
 20
99.2490021237954
 30
0.0
 40
0.393757957044991
100
AcDbArc
 50
340.5433469771516
 51
19.45665302284823
  0
LWPOLYLINE
  5
315
330
18
100
AcDbEntity
  8
ADP1DETAIL
100
AcDbPolyline
 90
        4
 70
     0
 43
0.0
 10
-66.41584171910338
 20
99.45666935912335
 42
-0.370863199544719
 10
-66.10953830828811
 20
99.69712615022221
 42
-0.1911762740354329
 10
-65.89075011743315
 20
99.59875744632531
 42
0.4113925575594916
 10
-65.69384071747286
 20
99.42387980335247
 42
-0.0271913496303319
  0
LINE
  5
31B
330
18
100
AcDbEntity
  8
ADP1DETAIL
100
AcDbLine
 10
-66.74721023707036
 20
98.67506164198513
 30
0.0
 11
-66.32834826919808
 21
98.67506164198513
 31
0.0
  0
LWPOLYLINE
  5
31C
330
18
100
AcDbEntity
  8
ADP1DETAIL
100
AcDbPolyline
 90
        2
 70
     0
 43
0.0
 10
-66.22318125849226
 20
99.45083315896255
 42
0.0936143565740005
 10
-66.31870733667617
 20
98.68309952733346
 42
17.12536180968244
  0
LWPOLYLINE
  5
320
330
18
100
AcDbEntity
  8
ADP1DETAIL
100
AcDbPolyline
 90
        4
 70
     0
 43
0.0
 10
-66.3392658945904
 20
99.31458123533719
 42
-0.4958237887240369
 10
-66.13141709918277
 20
99.44573949500499
 42
0.0803989854298512
 10
-66.02202303194613
 20
99.42387980335247
 42
-0.9638853442949503
 10
-66.02202303194613
 20
99.31458123533719
 42
54.37917947589182
  0
ARC
  5
326
330
18
100
AcDbEntity
  8
ADP1DETAIL
100
AcDbCircle
 10
-65.89904635451273
 20
99.35823758524549
 30
0.0
 40
0.2995996649101431
100
AcDbArc
 50
215.6966611378804
 51
280.0056198311691
  0
ARC
  5
327
330
18
100
AcDbEntity
  8
ADP1DETAIL
100
AcDbCircle
 10
-66.39354257067672
 20
99.42403265107992
 30
0.0
 40
0.4701297683260013
100
AcDbArc
 50
305.5088508272175
 51
342.3887629448836
  0
ARC
  5
328
330
18
100
AcDbEntity
  8
ADP1DETAIL
100
AcDbCircle
 10
-66.38401838004674
 20
99.39295616954858
 30
0.0
 40
0.5968908287208112
100
AcDbArc
 50
323.907676687326
 51
352.4549724128281
  0
ARC
  5
329
330
18
100
AcDbEntity
  8
ADP1DETAIL
100
AcDbCircle
 10
-65.56520040434143
 20
99.10948774875434
 30
0.0
 40
0.116086426462359
100
AcDbArc
 50
299.594147120679
 51
46.97457044918652
  0
ARC
  5
32A
330
18
100
AcDbEntity
  8
ADP1DETAIL
100
AcDbCircle
 10
-66.37602675082845
 20
99.36923051934483
 30
0.0
 40
0.8815380318612158
100
AcDbArc
 50
350.0039282674169
 51
4.266271559652894
  0
ARC
  5
32B
330
18
100
AcDbEntity
  8
ADP1DETAIL
100
AcDbCircle
 10
-66.37772617763069
 20
101.5071615079118
 30
0.0
 40
0.8107352862989197
100
AcDbArc
 50
22.40745485937027
 51
81.06091318618037
  0
LWPOLYLINE
  5
32C
330
18
100
AcDbEntity
  8
ADP1DETAIL
100
AcDbPolyline
 90
        5
 70
     0
 43
0.0
 10
-65.8141742365385
 20
101.6959778373215
 42
-0.0205426147663164
 10
-66.36114468548507
 20
102.1331719996299
 42
-0.0901837999322472
 10
-66.55805408544536
 20
102.3736287907287
 42
-0.4910656385689336
 10
-66.14235649463011
 20
102.4719974580414
 42
0.0465279701380806
 10
-65.91262890832782
 20
102.3189795067211
 42
0.2524734311974588
  0
LWPOLYLINE
  5
333
330
18
100
AcDbEntity
  8
ADP1DETAIL
100
AcDbPolyline
 90
        5
 70
     0
 43
0.0
 10
-66.08765946101178
 20
102.4501377663889
 42
1.053491345230165
 10
-66.09859885645912
 20
102.5485064702858
 42
-0.1425406588550739
 10
-66.54711463361635
 20
103.1059289915595
 42
-0.4225507954374432
 10
-66.48147820455071
 20
103.258946979464
 42
-0.0940737635536062
 10
-66.12047770373544
 20
102.9966304601284
 42
0.4322413043079344
  0
ARC
  5
33A
330
18
100
AcDbEntity
  8
ADP1DETAIL
100
AcDbCircle
 10
-62.18494594634721
 20
108.1776259472086
 30
0.0
 40
6.619029472049088
100
AcDbArc
 50
230.758462213655
 51
234.3375182111647
  0
ARC
  5
33B
330
18
100
AcDbEntity
  8
ADP1DETAIL
100
AcDbCircle
 10
-62.60660779861542
 20
101.1867976882848
 30
0.0
 40
2.996545071798925
100
AcDbArc
 50
158.70074467578
 51
173.5945974249658
  0
ARC
  5
33C
330
18
100
AcDbEntity
  8
ADP1DETAIL
100
AcDbCircle
 10
-64.44214775854788
 20
102.0178352390926
 30
0.0
 40
1.168953236367705
100
AcDbArc
 50
131.9417220766531
 51
146.8062111925788
  0
ARC
  5
33D
330
18
100
AcDbEntity
  8
ADP1DETAIL
100
AcDbCircle
 10
-64.79676576395471
 20
99.48763133572347
 30
0.0
 40
1.331245543202173
100
AcDbArc
 50
26.40581866237893
 51
68.2997084776278
  0
ARC
  5
33E
330
18
100
AcDbEntity
  8
ADP1DETAIL
100
AcDbCircle
 10
-57.68746806183251
 20
100.8019260139798
 30
0.0
 40
3.78476292482202
100
AcDbArc
 50
170.7020077468645
 51
186.5998623666137
  0
LWPOLYLINE
  5
33F
330
18
100
AcDbEntity
  8
ADP1DETAIL
100
AcDbPolyline
 90
       12
 70
     0
 43
0.0
 10
-63.83414117977821
 20
99.85014410154253
 42
0.2118733182251316
 10
-63.59347419802859
 20
99.33644096357394
 42
0.3736071808656497
 10
-63.41844364534463
 20
99.33644096357394
 42
0.1598138888986088
 10
-63.36374655534464
 20
99.92665307720269
 42
0.1629932937870649
 10
-62.78395786367442
 20
98.88831693714713
 42
0.4145624564148823
 10
-62.98086726363472
 20
99.8282843733058
 42
0.4208468645917284
 10
-62.60892736737211
 20
99.92665307720269
 42
0.3454577750240266
 10
-62.70738203916143
 20
100.2326889798433
 42
0.1777379092008348
 10
-63.07932193542402
 20
100.3419875112743
 42
-0.0473542635902602
 10
-63.45126183168662
 20
100.5277950549498
 42
0.2193332326084467
 10
-63.04650369270037
 20
100.505935326713
 42
0.1340310862735752
 10
-63.07932193542402
 20
100.7026726979226
 42
0.1340310862735752
  0
LWPOLYLINE
  5
34D
330
18
100
AcDbEntity
  8
ADP1DETAIL
100
AcDbPolyline
 90
        5
 70
     0
 43
0.0
 10
-64.72023333864537
 20
100.4731457709421
 42
-0.3450410030997851
 10
-64.42486926689577
 20
100.0250217445153
 42
0.181390190776819
 10
-64.16232343786981
 20
99.63154700209621
 42
0.3336130628586325
 10
-64.07480816152784
 20
100.1343203125306
 42
-0.0119031663075723
 10
-64.20608107604081
 20
100.4075666594003
 42
-0.0119031663075723
  0
LWPOLYLINE
  5
354
330
18
100
AcDbEntity
  8
ADP1DETAIL
100
AcDbPolyline
 90
        3
 70
     0
 43
0.0
 10
-62.2974056646608
 20
100.0591304539866
 10
-62.1618576106816
 20
100.2561190855993
 10
-61.98934184923551
 20
100.5516020147262
  0
LWPOLYLINE
  5
359
330
18
100
AcDbEntity
  8
ADP1DETAIL
100
AcDbPolyline
 90
        2
 70
     0
 43
0.0
 10
-61.85862712943403
 20
101.9646409750135
 42
-0.0102633000061041
 10
-63.41070953164074
 20
103.0938859505426
 42
-0.2669820551644844
  0
LWPOLYLINE
  5
35D
330
18
100
AcDbEntity
  8
ADP1DETAIL
100
AcDbPolyline
 90
        3
 70
     0
 43
0.0
 10
-64.09947057282995
 20
102.1851490589529
 42
-0.0118461250130372
 10
-63.15948137832769
 20
102.7991317713608
 42
0.0054323602021965
 10
-63.06143334109535
 20
102.8311964057092
 42
0.1170643490364533
  0
LWPOLYLINE
  5
362
330
18
100
AcDbEntity
  8
ADP1DETAIL
100
AcDbPolyline
 90
        4
 70
     0
 43
0.0
 10
-62.97295912972056
 20
102.3129611883763
 42
-0.0140353514513214
 10
-64.19570752694603
 20
101.6123003672405
 42
0.0476972741362857
 10
-64.87810029876715
 20
101.157769200535
 42
0.0038323463283886
 10
-64.92117309024961
 20
101.1221771917291
 42
0.1119981346652418
  0
LWPOLYLINE
  5
368
330
18
100
AcDbEntity
  8
ADP1DETAIL
100
AcDbPolyline
 90
        3
 70
     0
 43
0.0
 10
-63.89977760884387
 20
100.9540593531398
 42
0.0203824744534899
 10
-64.11856579969883
 20
100.9212697973689
 42
0.9964540801883787
 10
-64.21702047148814
 20
101.1398668602311
 42
4.695972781168401
  0
LWPOLYLINE
  5
36D
330
18
100
AcDbEntity
  8
ADP1DETAIL
100
AcDbPolyline
 90
        3
 70
     0
 43
0.0
 10
-62.22604801928053
 20
102.7054591639085
 42
-0.1366775898165404
 10
-62.34638153834616
 20
103.1317234620986
 42
-0.2611748564277361
 10
-62.29168444834618
 20
103.2300921294113
 42
-0.2834391419160907
  0
LWPOLYLINE
  5
372
330
18
100
AcDbEntity
  8
ADP1DETAIL
100
AcDbPolyline
 90
        5
 70
     0
 43
0.0
 10
-62.67456379643777
 20
101.9705357649587
 42
0.4902499476190904
 10
-63.00274605452938
 20
101.7519387020966
 42
0.2865974836349335
 10
-62.41201796741183
 20
101.3366042314406
 42
0.3510204587434273
 10
-62.28074505289885
 20
101.6754297264364
 42
0.1869473227236436
 10
-62.45577560558281
 20
101.8940267892985
 42
-3.714200041970866
  0
ARC
  5
379
330
18
100
AcDbEntity
  8
ADP1DETAIL
100
AcDbCircle
 10
-52.76501364051167
 20
116.6875679537504
 30
0.0
 40
17.1048203460273
100
AcDbArc
 50
232.3612720795907
 51
238.6339463840352
  0
LWPOLYLINE
  5
37A
330
18
100
AcDbEntity
  8
ADP1DETAIL
100
AcDbPolyline
 90
        3
 70
     0
 43
0.0
 10
-62.52141209103013
 20
101.7737983937491
 42
0.3843091794325836
 10
-62.44483621013548
 20
102.1344835803974
 42
0.2787553566006482
 10
-63.10120078270035
 20
102.4951687670456
 42
48.4967286810995
  0
LWPOLYLINE
  5
37F
330
18
100
AcDbEntity
  8
ADP1DETAIL
100
AcDbPolyline
 90
        4
 70
     0
 43
0.0
 10
-63.27623127900266
 20
102.2656418400651
 42
-0.3709425207343368
 10
-62.6855031918851
 20
102.1344835803974
 42
-0.2719956585687119
 10
-62.66362440099044
 20
101.9377462091878
 42
-0.519092996126949
 10
-62.86053374456907
 20
101.7737983937491
 42
-7.551919676738126
  0
ARC
  5
385
330
18
100
AcDbEntity
  8
ADP1DETAIL
100
AcDbCircle
 10
-60.95482323499927
 20
102.0323557876441
 30
0.0
 40
1.951631327940719
100
AcDbArc
 50
186.6429403466766
 51
195.1466887731266
  0
ARC
  5
386
330
18
100
AcDbEntity
  8
ADP1DETAIL
100
AcDbCircle
 10
-62.92493632654318
 20
102.0274497679703
 30
0.0
 40
0.3863133067843833
100
AcDbArc
 50
264.9430257925631
 51
304.2742721323558
  0
LWPOLYLINE
  5
387
330
18
100
AcDbEntity
  8
ADP1DETAIL
100
AcDbPolyline
 90
        3
 70
     0
 43
0.0
 10
-62.99180665908204
 20
101.7410088379782
 42
0.2079079256386068
 10
-62.82771550184541
 20
101.2273057000096
 42
0.288167008593232
 10
-62.48859384830647
 20
101.347534095559
 42
-0.484187330964914
  0
ARC
  5
38C
330
18
100
AcDbEntity
  8
ADP1DETAIL
100
AcDbCircle
 10
-62.16660113224667
 20
101.6511542089353
 30
0.0
 40
0.5558944176273447
100
AcDbArc
 50
172.9741993808724
 51
206.6073835389594
  0
ARC
  5
38D
330
18
100
AcDbEntity
  8
ADP1DETAIL
100
AcDbCircle
 10
-62.83003775852947
 20
101.9977706388334
 30
0.0
 40
0.4759745161440045
100
AcDbArc
 50
272.9144754433025
 51
305.412465716542
  0
ARC
  5
38E
330
18
100
AcDbEntity
  8
ADP1DETAIL
100
AcDbCircle
 10
-62.74418799882869
 20
101.8641391031994
 30
0.0
 40
0.4845384968707446
100
AcDbArc
 50
287.5615756556807
 51
316.944510828574
  0
ARC
  5
38F
330
18
100
AcDbEntity
  8
ADP1DETAIL
100
AcDbCircle
 10
-62.23494249353908
 20
101.5734465144783
 30
0.0
 40
0.3083695725725763
100
AcDbArc
 50
179.328400666617
 51
227.1050438866541
  0
ARC
  5
390
330
18
100
AcDbEntity
  8
ADP1DETAIL
100
AcDbCircle
 10
-61.94635514292125
 20
104.5081863261032
 30
0.0
 40
1.737298236159244
100
AcDbArc
 50
227.3646397945212
 51
247.5807599685504
  0
LWPOLYLINE
  5
391
330
18
100
AcDbEntity
  8
ADP1DETAIL
100
AcDbPolyline
 90
        3
 70
     0
 43
0.0
 10
-62.44483621013548
 20
102.6617397440193
 42
-0.3253509906091052
 10
-62.56516972920112
 20
102.9568457825415
 42
0.1834616071393844
 10
-62.70738203916143
 20
103.142653326217
 42
-3.513022888543757
  0
LWPOLYLINE
  5
396
330
18
100
AcDbEntity
  8
ADP1DETAIL
100
AcDbPolyline
 90
        2
 70
     0
 43
0.0
 10
-62.63926486653422
 20
102.5204268645401
 42
-0.0016270944636305
 10
-62.77764093258983
 20
102.433515655176
 42
0.0476972741362857
  0
ARC
  5
39A
330
18
100
AcDbEntity
  8
ADP1DETAIL
100
AcDbCircle
 10
-62.08383570932022
 20
102.760108411332
 30
0.0
 40
0.0
100
AcDbArc
 50
272.1640959360856
 51
0.0
  0
ARC
  5
39B
330
18
100
AcDbEntity
  8
ADP1DETAIL
100
AcDbCircle
 10
-61.71614393112741
 20
103.1419571703021
 30
0.0
 40
0.5300997250306749
100
AcDbArc
 50
202.9817561315064
 51
226.0820479680428
  0
ARC
  5
39C
330
18
100
AcDbEntity
  8
ADP1DETAIL
100
AcDbCircle
 10
-58.80572558738237
 20
107.2142943037663
 30
0.0
 40
5.530441025443844
100
AcDbArc
 50
233.6483559507244
 51
241.7020159422429
  0
ARC
  5
39D
330
18
100
AcDbEntity
  8
ADP1DETAIL
100
AcDbCircle
 10
-63.03658404450436
 20
100.1192625482754
 30
0.0
 40
2.556973320475091
100
AcDbArc
 50
51.3159413438617
 51
60.50159885856764
  0
LINE
  5
39E
330
18
100
AcDbEntity
  8
ADP1DETAIL
100
AcDbLine
 10
-61.92772909742679
 20
101.3888037265182
 30
0.0
 11
-61.53340737308763
 21
101.5365452093738
 31
0.0
  0
ARC
  5
39F
330
18
100
AcDbEntity
  8
ADP1DETAIL
100
AcDbCircle
 10
-61.80250425450774
 20
108.4140522326515
 30
0.0
 40
4.61387261154157
100
AcDbArc
 50
213.2499889758174
 51
233.5268448561884
  0
LWPOLYLINE
  5
3A0
330
18
100
AcDbEntity
  8
ADP1DETAIL
100
AcDbPolyline
 90
        4
 70
     0
 43
0.0
 10
-64.46862690506676
 20
104.1464510751713
 10
-65.49693137389422
 20
105.1082782029825
 42
0.0888488177781797
 10
-65.75947720292018
 20
105.3705947223181
 42
0.1621432025252235
 10
-66.06578067011712
 20
105.3159454383105
 42
0.1621432025252235
  0
LWPOLYLINE
  5
3A6
330
18
100
AcDbEntity
  8
ADP1DETAIL
100
AcDbPolyline
 90
        3
 70
     0
 43
0.0
 10
-66.16988037130105
 20
107.57468235606
 42
0.2017004767370519
 10
-65.13083836866923
 20
105.3748083826917
 42
0.0044931939518485
 10
-64.54908132056714
 20
104.8619981071292
 42
-0.033429078312067
  0
LWPOLYLINE
  5
3AB
330
18
100
AcDbEntity
  8
ADP1DETAIL
100
AcDbPolyline
 90
        3
 70
     0
 43
0.0
 10
-64.3934175104998
 20
103.8610626465173
 42
-0.0002040262177046
 10
-64.42317178421975
 20
103.8849562373519
 42
-0.1164299555019085
 10
-65.94291501965013
 20
105.362770600664
  0
ARC
  5
3B0
330
18
100
AcDbEntity
  8
ADP1DETAIL
100
AcDbCircle
 10
-61.86005819628507
 20
108.0669630607587
 30
0.0
 40
4.796826313698029
100
AcDbArc
 50
183.9164297860549
 51
209.2648074535559
  0
LWPOLYLINE
  5
3B1
330
18
100
AcDbEntity
  8
ADP1DETAIL
100
AcDbPolyline
 90
        2
 70
     0
 43
0.0
 10
-66.17998100870043
 20
105.7812501450056
 42
-0.119477039035239
 10
-66.66588883428499
 20
107.8999815432501
  0
ARC
  5
3B5
330
18
100
AcDbEntity
  8
ADP1DETAIL
100
AcDbCircle
 10
-64.30230165136181
 20
105.1028132892154
 30
0.0
 40
1.85235718456591
100
AcDbArc
 50
173.3929163671669
 51
182.1980228991145
  0
LWPOLYLINE
  5
3B6
330
18
100
AcDbEntity
  8
ADP1DETAIL
100
AcDbPolyline
 90
        4
 70
     0
 43
0.0
 10
-66.45959935727439
 20
105.545472365291
 42
0.0940539414818544
 10
-66.55805408544536
 20
105.2722260184212
 42
0.1632108984331043
 10
-66.53617523816904
 20
105.1410677953376
 42
0.121575277519584
 10
-66.26269001369575
 20
105.0645588196775
 42
0.0154106167474892
  0
ARC
  5
3BC
330
18
100
AcDbEntity
  8
ADP1DETAIL
100
AcDbCircle
 10
-65.40327121018124
 20
105.1738573511085
 30
0.0
 40
0.8955113455654068
100
AcDbArc
 50
159.2709263981309
 51
184.9011014224869
  0
LWPOLYLINE
  5
3BD
330
18
100
AcDbEntity
  8
ADP1DETAIL
100
AcDbPolyline
 90
        4
 70
     0
 43
0.0
 10
-66.44865996182705
 20
105.6219813409511
 42
0.073898200474074
 10
-66.70026639540566
 20
105.2940857466579
 42
0.2926768615587608
 10
-66.68932699995832
 20
105.1192080671009
 42
0.3067665383781351
 10
-66.1532959464591
 20
105.0208393997882
 42
-0.2099102273776877
  0
LWPOLYLINE
  5
3C3
330
18
100
AcDbEntity
  8
ADP1DETAIL
100
AcDbPolyline
 90
        5
 70
     0
 43
0.0
 10
-65.96732594194614
 20
105.611051513417
 42
0.2165181924479577
 10
-66.28456886097207
 20
105.8077888846266
 42
0.4034113953836878
 10
-66.42678117093239
 20
105.403384278089
 42
0.297654529012762
 10
-66.1970535846301
 20
105.0317692273224
 42
0.5947182856841284
 10
-65.87981066560415
 20
105.3487349940814
 42
-0.1446047119647887
  0
ARC
  5
3CA
330
18
100
AcDbEntity
  8
ADP1DETAIL
100
AcDbCircle
 10
-69.38711626831507
 20
101.6908510031842
 30
0.0
 40
3.675019375724412
100
AcDbArc
 50
28.00297994320929
 51
37.75411100730137
  0
LWPOLYLINE
  5
3CB
330
18
100
AcDbEntity
  8
ADP1DETAIL
100
AcDbPolyline
 90
        4
 70
     0
 43
0.0
 10
-66.3720840809324
 20
103.9956191039915
 10
-66.29550825641941
 20
103.9956191039915
 42
-0.2001093816505424
 10
-65.93450775560414
 20
105.0120955158104
 42
-0.0760356363411159
 10
-65.92356830377515
 20
103.6021443615724
 42
1.155486085097372
  0
ARC
  5
3D1
330
18
100
AcDbEntity
  8
ADP1DETAIL
100
AcDbCircle
 10
-67.09571969125104
 20
103.7978553862347
 30
0.0
 40
0.745661201680759
100
AcDbArc
 50
28.06223589188577
 51
41.37492758553301
  0
ARC
  5
3D2
330
18
100
AcDbEntity
  8
ADP1DETAIL
100
AcDbCircle
 10
-66.07125036784079
 20
105.6501662498238
 30
0.0
 40
0.5390387715205641
100
AcDbArc
 50
237.46609197543
 51
279.933291079419
  0
ARC
  5
3D3
330
18
100
AcDbEntity
  8
ADP1DETAIL
100
AcDbCircle
 10
-65.84488452214578
 20
103.646903880234
 30
0.0
 40
0.4250392358776998
100
AcDbArc
 50
317.8529837697689
 51
2.80762864000307
  0
LWPOLYLINE
  5
3D4
330
18
100
AcDbEntity
  8
ADP1DETAIL
100
AcDbPolyline
 90
        2
 70
     0
 43
0.0
 10
-65.38753730665757
 20
105.2612961908871
 42
0.1548300351601908
 10
-66.05484121828812
 20
105.6438410691878
 42
0.1548300351601908
  0
ARC
  5
3D8
330
18
100
AcDbEntity
  8
ADP1DETAIL
100
AcDbCircle
 10
-66.02762126152242
 20
105.9923887630537
 30
0.0
 40
0.5754537997858433
100
AcDbArc
 50
222.9739437629505
 51
255.1427088367153
  0
ARC
  5
3D9
330
18
100
AcDbEntity
  8
ADP1DETAIL
100
AcDbCircle
 10
-65.96600039881217
 20
105.3027457401439
 30
0.0
 40
0.4674666047739489
100
AcDbArc
 50
138.736366055856
 51
170.2980492707103
  0
ARC
  5
3DA
330
18
100
AcDbEntity
  8
ADP1DETAIL
100
AcDbCircle
 10
-65.84741759128127
 20
106.2166251762547
 30
0.0
 40
1.00118101984322
100
AcDbArc
 50
235.4062744907197
 51
254.8224219287056
  0
LWPOLYLINE
  5
3DB
330
18
100
AcDbEntity
  8
ADP1DETAIL
100
AcDbPolyline
 90
        3
 70
     0
 43
0.0
 10
-65.38597798826057
 20
108.5244930282056
 42
-0.2875820022055708
 10
-65.71868690440934
 20
108.3644397490147
 42
-0.2682201267209121
 10
-66.09286710619101
 20
108.4554867167736
 42
-0.2293105956679046
  0
ARC
  5
3E0
330
18
100
AcDbEntity
  8
ADP1DETAIL
100
AcDbCircle
 10
-67.00264805462939
 20
107.8436425239815
 30
0.0
 40
1.483053624151177
100
AcDbArc
 50
332.446001733371
 51
345.6715929869306
  0
ARC
  5
3E1
330
18
100
AcDbEntity
  8
ADP1DETAIL
100
AcDbCircle
 10
-65.59859572541374
 20
107.7541456520115
 30
0.0
 40
0.4372614184892159
100
AcDbArc
 50
249.2454791487105
 51
290.7545208512893
  0
ARC
  5
3E2
330
18
100
AcDbEntity
  8
ADP1DETAIL
100
AcDbCircle
 10
-65.41212684007994
 20
107.8534357801769
 30
0.0
 40
0.8667772901563964
100
AcDbArc
 50
223.1339262638791
 51
266.0511377671631
  0
LWPOLYLINE
  5
3E3
330
18
100
AcDbEntity
  8
ADP1DETAIL
100
AcDbPolyline
 90
        4
 70
     0
 43
0.0
 10
-66.0540550786951
 20
107.148222385409
 42
0.154704011668365
 10
-65.8005003912252
 20
106.9136546253432
 42
0.3561681609635319
 10
-65.42486380888646
 20
107.0074817220908
 42
0.1211137842415702
 10
-65.40608201342202
 20
107.3264939019836
 42
-1.201131281584963
  0
LWPOLYLINE
  5
3E9
330
18
100
AcDbEntity
  8
ADP1DETAIL
100
AcDbPolyline
 90
        6
 70
     0
 43
0.0
 10
-66.03527322714317
 20
107.579827125071
 42
0.1548241334678396
 10
-66.15735512201201
 20
107.3358766152977
 42
0.3766878000820685
 10
-66.04466412487538
 20
107.1576050987231
 42
0.325252250111106
 10
-65.40608201342202
 20
107.3171111886695
 42
0.2321508601043706
 10
-65.46242745590284
 20
107.6830369351328
 42
0.1833044925089278
 10
-65.81928218668963
 20
107.6924196484469
 42
0.1833044925089278
  0
LWPOLYLINE
  5
3F1
330
18
100
AcDbEntity
  8
ADP1DETAIL
100
AcDbPolyline
 90
        4
 70
     0
 43
0.0
 10
-66.35456431091359
 20
107.5610616984428
 42
-0.4269823778938347
 10
-66.16674601974422
 20
107.8519257383933
 42
-0.2063205084670919
 10
-65.82867314050935
 20
107.701802361761
 42
0.179694762911739
 10
-65.61268210005583
 20
107.5235308451864
 42
0.1687874471171689
  0
ARC
  5
3F7
330
18
100
AcDbEntity
  8
ADP1DETAIL
100
AcDbCircle
 10
-63.83118460111184
 20
107.7124782346555
 30
0.0
 40
2.607898278269057
100
AcDbArc
 50
180.0284108432637
 51
212.6949890886321
  0
ARC
  5
3F8
330
18
100
AcDbEntity
  8
ADP1DETAIL
100
AcDbCircle
 10
-66.1517655657905
 20
107.4009739039692
 30
0.0
 40
0.1501224445313713
100
AcDbArc
 50
275.0414785260138
 51
334.3019793648181
  0
ARC
  5
3F9
330
18
100
AcDbEntity
  8
ADP1DETAIL
100
AcDbCircle
 10
-66.20340414275254
 20
107.4170267688423
 30
0.0
 40
0.4555470367244053
100
AcDbArc
 50
317.743113006179
 51
350.9357909093578
  0
ARC
  5
3FA
330
18
100
AcDbEntity
  8
ADP1DETAIL
100
AcDbCircle
 10
-66.4779017544719
 20
106.0677393875667
 30
0.0
 40
1.333018452549215
100
AcDbArc
 50
54.15006171720814
 51
65.38064079126583
  0
ARC
  5
3FB
330
18
100
AcDbEntity
  8
ADP1DETAIL
100
AcDbCircle
 10
-66.0053693117012
 20
107.3247327936682
 30
0.0
 40
0.1768604697964294
100
AcDbArc
 50
266.3944950138851
 51
357.530137325659
  0
LWPOLYLINE
  5
3FC
330
18
100
AcDbEntity
  8
ADP1DETAIL
100
AcDbPolyline
 90
        3
 70
     0
 43
0.0
 10
-66.24187331377697
 20
107.48599999193
 42
-0.5657324834689143
 10
-65.94136408155847
 20
107.5422962718146
 42
-0.8435455436167076
 10
-65.97892772857486
 20
107.4953827052441
 42
-3.869145926563918
  0
LWPOLYLINE
  5
401
330
18
100
AcDbEntity
  8
ADP1DETAIL
100
AcDbPolyline
 90
        3
 70
     0
 43
0.0
 10
-66.16706446090592
 20
107.8999815432501
 10
-66.16706446090592
 20
107.8999815432501
 42
0.0038795381911076
 10
-66.16963216679716
 20
107.8513512749672
 42
0.0044931939518485
  0
ARC
  5
406
330
18
100
AcDbEntity
  8
ADP1DETAIL
100
AcDbCircle
 10
-64.95078690845274
 20
108.6842151997093
 30
0.0
 40
1.440925747431146
100
AcDbArc
 50
240.5317922730804
 51
251.580375329696
  0
ARC
  5
407
330
18
100
AcDbEntity
  8
ADP1DETAIL
100
AcDbCircle
 10
-65.83056873738552
 20
107.4522858334644
 30
0.0
 40
0.3838752296430742
100
AcDbArc
 50
326.7928011445321
 51
16.46099531615381
  0
LWPOLYLINE
  5
408
330
18
100
AcDbEntity
  8
ADP1DETAIL
100
AcDbPolyline
 90
       16
 70
     0
 43
0.0
 10
-63.53877710802861
 20
107.1237432952487
 42
0.5347951295799289
 10
-63.41844364534463
 20
107.069094011241
 42
0.405059671494968
 10
-63.38562540262096
 20
107.2002522709089
 42
0.1050561255619212
 10
-63.254352488108
 20
107.3969896421184
 42
0.1944086582741342
 10
-63.14495842087135
 20
107.1893224067905
 42
-0.3267035308805388
 10
-62.92617023001639
 20
106.2712146622843
 42
0.5763322931359881
 10
-62.8386549536744
 20
106.0307578711855
 42
0.6540719609888197
 10
-62.77301846822709
 20
106.1291265750824
 42
-0.3027607460657584
 10
-62.61986676281945
 20
106.2602848347502
 42
-0.2420366781180475
 10
-62.64174555371411
 20
105.3858965101333
 42
-0.1861187447083232
 10
-62.82771550184541
 20
105.167299410687
 42
0.8379935224223626
 10
-62.77301846822709
 20
105.0033515952483
 42
-0.0587352560362634
 10
-62.47765445285914
 20
105.0361411510192
 42
-0.1245019854739494
 10
-62.75113967733243
 20
104.2382618386467
 42
-0.1434007767585128
 10
-63.19965545448967
 20
103.8994363436509
 42
0.0215041959428941
 10
-63.53877710802861
 20
103.3922911461039
 42
1.778570965907982
  0
LWPOLYLINE
  5
41A
330
18
100
AcDbEntity
  8
ADP1DETAIL
100
AcDbPolyline
 90
       18
 70
     0
 43
0.0
 10
-64.08574755697516
 20
103.5737267294983
 42
0.4145416722199038
 10
-64.04198997518584
 20
103.8688328046048
 42
-0.2139254127435477
 10
-64.23889931876447
 20
104.1202194232378
 42
-0.0586131708771143
 10
-64.41392987144843
 20
104.6339225612064
 42
0.1270282755566865
 10
-64.49050575234308
 20
104.7869405125267
 42
-0.2392726577107983
 10
-64.09668700880416
 20
104.8415897965343
 42
-0.1786004957445356
 10
-63.97635348973852
 20
104.7432210926374
 42
0.8711199126580712
 10
-63.84508057522555
 20
104.7978703766451
 42
0.1652548820299661
 10
-64.09668700880416
 20
105.1039062792857
 42
-0.3873088023612477
 10
-64.29359635238279
 20
105.3662227986213
 42
-0.1784356397401831
 10
-64.42486926689577
 20
105.6066795897201
 42
-0.4139576018461991
 10
-64.07480816152784
 20
105.7269079852696
 42
1.000806831222051
 10
-64.05292937063318
 20
105.8362065167006
 42
-0.1311339686702229
 10
-64.37017223327744
 20
106.164102147578
 42
0.1738626968350079
 10
-64.59989981957973
 20
106.5335311816199
 42
-0.2842639055218803
 10
-64.07480816152784
 20
106.6756192688219
 42
-0.1548953048741884
 10
-64.50144514779042
 20
107.4407090620077
 42
0.1124851476761073
 10
-64.8186880104347
 20
107.73581510053
 42
-3.719877735630533
  0
ARC
  5
42E
330
18
100
AcDbEntity
  8
ADP1DETAIL
100
AcDbCircle
 10
-66.69057236062013
 20
106.5236943075718
 30
0.0
 40
3.503832725011257
100
AcDbArc
 50
347.8448595515264
 51
4.921079932532402
  0
ARC
  5
42F
330
18
100
AcDbEntity
  8
ADP1DETAIL
100
AcDbCircle
 10
-64.95384535178799
 20
105.0152430854012
 30
0.0
 40
1.59491350253584
100
AcDbArc
 50
12.47127510433704
 51
48.63195889271413
  0
ARC
  5
430
330
18
100
AcDbEntity
  8
ADP1DETAIL
100
AcDbCircle
 10
-65.21251314360523
 20
106.0385173967814
 30
0.0
 40
2.575905505429258
100
AcDbArc
 50
315.8661655745329
 51
335.9329673383113
  0
ARC
  5
431
330
18
100
AcDbEntity
  8
ADP1DETAIL
100
AcDbCircle
 10
-64.23291407757268
 20
104.2501507306851
 30
0.0
 40
0.5381492169338881
100
AcDbArc
 50
9.955578731059704
 51
57.47077526895559
  0
ARC
  5
432
330
18
100
AcDbEntity
  8
ADP1DETAIL
100
AcDbCircle
 10
-65.4592251348228
 20
103.5325534068629
 30
0.0
 40
2.541669037905975
100
AcDbArc
 50
45.25626280225963
 51
59.89091802756941
  0
ARC
  5
433
330
18
100
AcDbEntity
  8
ADP1DETAIL
100
AcDbCircle
 10
-64.76744003331766
 20
106.1426931627442
 30
0.0
 40
1.967703709433247
100
AcDbArc
 50
321.2679045648902
 51
352.4542275135776
  0
ARC
  5
434
330
18
100
AcDbEntity
  8
ADP1DETAIL
100
AcDbCircle
 10
-62.22608241055649
 20
103.151297657601
 30
0.0
 40
0.3739005484984166
100
AcDbArc
 50
89.99472994897827
 51
139.5174684648238
  0
ARC
  5
435
330
18
100
AcDbEntity
  8
ADP1DETAIL
100
AcDbCircle
 10
-62.10508360088155
 20
103.3307295227345
 30
0.0
 40
0.1938133099934134
100
AcDbArc
 50
117.0520275440091
 51
164.3200851632098
  0
LWPOLYLINE
  5
436
330
18
100
AcDbEntity
  8
ADP1DETAIL
100
AcDbPolyline
 90
        5
 70
     0
 43
0.0
 10
-62.88241259184539
 20
103.5470578961703
 42
-0.0924367098848268
 10
-62.71832143460876
 20
103.9623923668262
 42
-0.295091441442997
 10
-62.55423027737212
 20
104.0389013424864
 42
-0.414075737416101
 10
-62.22604801928053
 20
103.8312341071584
 42
-0.0252940899829779
 10
-62.1713509856622
 20
103.5142683403994
 42
0.8863925199085858
  0
ARC
  5
43D
330
18
100
AcDbEntity
  8
ADP1DETAIL
100
AcDbCircle
 10
-62.29167417902468
 20
103.7069076697387
 30
0.0
 40
0.407912900494578
100
AcDbArc
 50
128.0856880944374
 51
187.1187649749795
  0
LINE
  5
43E
330
18
100
AcDbEntity
  8
ADP1DETAIL
100
AcDbLine
 10
-63.19965545448967
 20
103.8732047283016
 30
0.0
 11
-63.210594849937
 21
103.6983270487445
 31
0.0
  0
LINE
  5
43F
330
18
100
AcDbEntity
  8
ADP1DETAIL
100
AcDbLine
 10
-63.210594849937
 20
103.6983270487445
 30
0.0
 11
-63.07932193542402
 21
103.7529763327522
 31
0.0
  0
ARC
  5
440
330
18
100
AcDbEntity
  8
ADP1DETAIL
100
AcDbCircle
 10
-62.36005836056548
 20
102.9357093830663
 30
0.0
 40
0.6552106930614882
100
AcDbArc
 50
88.80392503252513
 51
132.8716860549648
  0
ARC
  5
441
330
18
100
AcDbEntity
  8
ADP1DETAIL
100
AcDbCircle
 10
-62.57914206620676
 20
103.2425248181196
 30
0.0
 40
0.3931019569173288
100
AcDbArc
 50
94.34546096519087
 51
155.5915442164723
  0
ARC
  5
442
330
18
100
AcDbEntity
  8
ADP1DETAIL
100
AcDbCircle
 10
-63.03675949898796
 20
102.9706970669528
 30
0.0
 40
0.6579454448110838
100
AcDbArc
 50
31.81288433283217
 51
70.46704498458847
  0
LINE
  5
443
330
18
100
AcDbEntity
  8
ADP1DETAIL
100
AcDbLine
 10
-63.07932193542402
 20
103.7529763327522
 30
0.0
 11
-63.01368550635837
 21
103.6655374929736
 31
0.0
  0
LWPOLYLINE
  5
444
330
18
100
AcDbEntity
  8
ADP1DETAIL
100
AcDbPolyline
 90
        2
 70
     0
 43
0.0
 10
-62.938653192145
 20
103.5346922652653
 42
0.0000770570139381
 10
-62.92818701464439
 20
103.5264855396507
 42
-0.033429078312067
  0
ARC
  5
448
330
18
100
AcDbEntity
  8
ADP1DETAIL
100
AcDbCircle
 10
-64.4917076416581
 20
105.8485923288578
 30
0.0
 40
0.907579920991465
100
AcDbArc
 50
25.13248904748088
 51
63.42944295604923
  0
LWPOLYLINE
  5
449
330
18
100
AcDbEntity
  8
ADP1DETAIL
100
AcDbPolyline
 90
        3
 70
     0
 43
0.0
 10
-63.50595892168661
 20
106.752128244482
 42
0.26576599307245
 10
-63.5497165598576
 20
107.1128134311303
 42
-0.331528556401121
 10
-63.5497165598576
 20
107.3204806664583
 42
-0.5020331260529922
  0
LWPOLYLINE
  5
44E
330
18
100
AcDbEntity
  8
ADP1DETAIL
100
AcDbPolyline
 90
        4
 70
     0
 43
0.0
 10
-62.85851491526178
 20
106.9230373386573
 42
-0.1513116126772222
 10
-62.42653283435473
 20
107.0450125753473
 42
0.1116479628395558
 10
-62.00394170726739
 20
107.1294569587808
 42
-0.4725535200723684
 10
-61.79734162063359
 20
107.026247148719
 42
8.867353868885162
  0
LWPOLYLINE
  5
454
330
18
100
AcDbEntity
  8
ADP1DETAIL
100
AcDbPolyline
 90
        6
 70
     0
 43
0.0
 10
-62.20115095225647
 20
107.6361233685623
 10
-62.17297820297233
 20
107.5892098383851
 10
-62.09785085285208
 20
107.6173579419341
 10
-62.05089630810348
 20
107.6173579419341
 10
-62.08845995511985
 20
107.6642715085046
 10
-62.06967815965541
 20
107.7768640682738
  0
LWPOLYLINE
  5
45C
330
18
100
AcDbEntity
  8
ADP1DETAIL
100
AcDbPolyline
 90
       23
 70
     0
 43
0.0
 10
-66.01108358011713
 20
118.9918382916605
 42
-0.2292008251121906
 10
-65.49693137389422
 20
119.3197339225379
 42
0.1268974943662448
 10
-65.05935499218431
 20
119.5820504052893
 42
-0.0383764848808002
 10
-64.68741509592172
 20
119.6913489367203
 42
-0.1049324283586003
 10
-63.97635348973852
 20
119.6913489367203
 42
-0.5814868251010608
 10
-63.89977760884387
 20
119.4508921456215
 42
-0.1287498996214349
 10
-63.01368550635837
 20
119.1995055269885
 42
-0.5387077085914074
 10
-63.00274605452938
 20
118.9809084275422
 42
-0.1633672327625028
 10
-62.53235148647746
 20
118.5218545735812
 42
-0.4553170072980394
 10
-62.66362440099044
 20
118.1939589427038
 42
-0.3964626332171416
 10
-62.81677610639808
 20
117.2321317783084
 42
0.2321226959959566
 10
-63.05744314452937
 20
117.5163079892965
 42
-0.1318841185802827
 10
-63.34186776444997
 20
117.811414064403
 42
-0.5281003960136264
 10
-63.7356865079889
 20
117.8442036201739
 42
-0.1046805691807382
 10
-63.89977760884387
 20
118.2923276466007
 42
-0.1596104663177529
 10
-64.07480816152784
 20
117.9644320157233
 42
-0.1922920591785493
 10
-64.42486926689577
 20
118.2158186343563
 42
0.0940570954517202
 10
-64.57802097230341
 20
118.7295217723249
 42
-0.2274405505017515
 10
-64.70929388681638
 20
118.3141873382532
 42
-0.3254908564047124
 10
-65.09217323490798
 20
118.4672052895736
 42
0.0568013964795979
 10
-65.43129488844691
 20
118.8934695877636
 42
0.4581117428581778
 10
-65.72665896019652
 20
118.8716098961111
 42
0.1288795066010631
 10
-66.16423534190643
 20
118.4344157338027
 42
1.743891995814214
  0
LWPOLYLINE
  5
475
330
18
100
AcDbEntity
  8
ADP1DETAIL
100
AcDbPolyline
 90
        6
 70
     0
 43
0.0
 10
-65.02653674946066
 20
118.9153293160004
 42
0.4529669113617124
 10
-65.82511363198583
 20
119.0027681557789
 42
-0.1899694311903655
 10
-64.67647570047438
 20
119.3853130340797
 42
-0.3068795620304644
 10
-62.93710962546372
 20
117.9972215714942
 42
0.3789979034256127
 10
-65.32190082121026
 20
119.2650846385303
 42
-0.4263300213110014
 10
-64.33735399055379
 20
118.8497501678744
 42
0.6879574113541127
  0
LWPOLYLINE
  5
47D
330
18
100
AcDbEntity
  8
ADP1DETAIL
100
AcDbPolyline
 90
       35
 70
     0
 43
0.0
 10
-66.75496342902398
 20
117.2649213340793
 42
-0.195926754089398
 10
-65.65008307930186
 20
119.4181025898506
 42
0.0614797682496493
 10
-64.66553624864539
 20
120.5001581497954
 42
0.079994355462856
 10
-64.4029904760011
 20
121.0357209794166
 42
0.1294929474739024
 10
-64.38111162872478
 20
121.6023246026467
 42
-0.1011177226464209
 10
-64.53426333413242
 20
122.2034665803938
 42
-0.3781607721152636
 10
-64.4029904760011
 20
122.3674143958325
 42
-0.271938310721114
 10
-64.22795992331714
 20
122.3018352477065
 42
1.427612658769903
 10
-64.19514168059348
 20
122.3564845317141
 42
-0.2756815456685384
 10
-64.51238454323775
 20
123.1106444607816
 42
0.1629600572996453
 10
-64.56708157685608
 20
123.4057504993039
 42
-0.30219522884992
 10
-64.07480816152784
 20
123.4166803634222
 42
-0.276375666192126
 10
-64.57802097230341
 20
124.2364194040315
 42
-0.2726176808392039
 10
-64.12950519514616
 20
124.3675776636993
 42
-0.2626103973615325
 10
-64.49050575234308
 20
124.7173329862292
 42
0.0070688990128245
 10
-64.70929388681638
 20
125.023368925454
 42
-0.335066991258056
 10
-64.22795992331714
 20
125.2528958524345
 42
-0.2003012622824285
 10
-64.6217786104744
 20
125.7967653480549
 42
0.163077242969371
 10
-64.91714268222401
 20
126.1246609789322
 42
-0.583607619214393
 10
-64.91714268222401
 20
126.2448893744817
 42
-0.3027101802331842
 10
-63.50595892168661
 20
125.7749056564023
 42
-0.1467318365491102
 10
-63.254352488108
 20
125.9607131634936
 42
-0.8388580405881722
 10
-63.210594849937
 20
125.8842041878334
 42
0.3701694441114849
 10
-63.14495842087135
 20
125.7530459281656
 42
-0.2958393747620506
 10
-62.81677610639808
 20
124.7584292079993
 42
-0.1802672770345802
 10
-62.53235148647746
 20
124.8677277760146
 42
0.0384378235873629
 10
-62.48859384830647
 20
124.4414634412403
 42
-0.2920583094805718
 10
-62.66362440099044
 20
123.6982333762912
 42
-0.000000135584462
 10
-62.40107857196449
 20
123.6545139564019
 42
0.0714610306562774
 10
-62.46671500103015
 20
123.3266183621088
 42
-0.1888835642271447
 10
-63.05744314452937
 20
122.3783442233667
 42
0.022702757734002
 10
-62.89335198729273
 20
122.3018352477065
 42
-0.2304000175325923
 10
-63.03556429725304
 20
121.9083605052873
 42
-0.0608911737844391
 10
-63.5825347461996
 20
121.4930260712157
 42
-0.0810755079016471
 10
-64.57802097230341
 20
120.1639558163346
 42
2.481559525481533
  0
LWPOLYLINE
  5
4A2
330
18
100
AcDbEntity
  8
ADP1DETAIL
100
AcDbPolyline
 90
        3
 70
     0
 43
0.0
 10
-66.77363585122357
 20
117.1908621839334
 42
-0.2510322567771855
 10
-65.91432639100384
 20
119.3120076285589
 42
-0.0005413969835193
 10
-65.8749921900347
 20
119.3449696707967
 42
0.0054323602021969
  0
LWPOLYLINE
  5
4A7
330
18
100
AcDbEntity
  8
ADP1DETAIL
100
AcDbPolyline
 90
        3
 70
     0
 43
0.0
 10
-62.2974056646608
 20
118.5668931105867
 10
-62.1618576106816
 20
118.7638817421993
 10
-61.98934184923551
 20
119.0593646713262
  0
ARC
  5
4AC
330
18
100
AcDbEntity
  8
ADP1DETAIL
100
AcDbCircle
 10
-64.79676576395471
 20
117.9953939923234
 30
0.0
 40
1.331245543202173
100
AcDbArc
 50
26.40581866237893
 51
68.2997084776278
  0
LWPOLYLINE
  5
4AD
330
18
100
AcDbEntity
  8
ADP1DETAIL
100
AcDbPolyline
 90
        5
 70
     0
 43
0.0
 10
-65.54068901206521
 20
118.9371890076529
 42
-0.2750188081875344
 10
-65.12499147763164
 20
118.8060307845693
 42
-0.0968322329636994
 10
-64.94996092494766
 20
118.5109247094628
 42
0.9429421727082665
 10
-64.68741509592172
 20
118.587433685123
 42
0.3504839782335989
 10
-65.1468702685263
 20
119.2322950827594
 42
-7.160185260310702
  0
LWPOLYLINE
  5
4B4
330
18
100
AcDbEntity
  8
ADP1DETAIL
100
AcDbPolyline
 90
        5
 70
     0
 43
0.0
 10
-64.72023333864537
 20
118.9809084275422
 42
-0.3450410030997851
 10
-64.42486926689577
 20
118.5327844011154
 42
0.181390190776819
 10
-64.16232343786981
 20
118.1393096586962
 42
0.3336130628586325
 10
-64.07480816152784
 20
118.6420829691306
 42
-0.0119031663075723
 10
-64.20608107604081
 20
118.9153293160004
 42
-0.0119031663075723
  0
LWPOLYLINE
  5
4BB
330
18
100
AcDbEntity
  8
ADP1DETAIL
100
AcDbPolyline
 90
       12
 70
     0
 43
0.0
 10
-63.83414117977821
 20
118.3579067581425
 42
0.2118733182251316
 10
-63.59347419802859
 20
117.8442036201739
 42
0.3736071808656497
 10
-63.41844364534463
 20
117.8442036201739
 42
0.1598138888986088
 10
-63.36374655534464
 20
118.4344157338027
 42
0.1629932937870649
 10
-62.78395786367442
 20
117.3960795937471
 42
0.4145624564148823
 10
-62.98086726363472
 20
118.3360470299058
 42
0.4208468645917284
 10
-62.60892736737211
 20
118.4344157338027
 42
0.3454577750240266
 10
-62.70738203916143
 20
118.7404516364433
 42
0.1777379092008348
 10
-63.07932193542402
 20
118.8497501678744
 42
-0.0473542635902602
 10
-63.45126183168662
 20
119.0355577115498
 42
0.2193332326084467
 10
-63.04650369270037
 20
119.0136979833131
 42
0.1340310862735752
 10
-63.07932193542402
 20
119.2104353545226
 42
0.1340310862735752
  0
ARC
  5
4C9
330
18
100
AcDbEntity
  8
ADP1DETAIL
100
AcDbCircle
 10
-57.68746806183251
 20
119.3096886705798
 30
0.0
 40
3.78476292482202
100
AcDbArc
 50
170.7020077468645
 51
186.5998623666137
  0
LWPOLYLINE
  5
4CA
330
18
100
AcDbEntity
  8
ADP1DETAIL
100
AcDbPolyline
 90
        3
 70
     0
 43
0.0
 10
-64.5267431984897
 20
113.5174814505017
 42
-0.1032646968119671
 10
-66.16041269448084
 20
115.9535273290405
 42
0.0097762771138355
 10
-66.33732932649779
 20
117.165610440255
 42
0.8476935719412749
  0
LWPOLYLINE
  5
4CF
330
18
100
AcDbEntity
  8
ADP1DETAIL
100
AcDbPolyline
 90
       16
 70
     0
 43
0.0
 10
-61.91422447836362
 20
116.3893721922537
 42
-0.5347951295799289
 10
-62.0345579410476
 20
116.334722908246
 42
-0.405059671494968
 10
-62.06737618377125
 20
116.4658811679138
 42
-0.1050561255619212
 10
-62.19864909828423
 20
116.6626185391234
 42
-0.1944086582741342
 10
-62.30804316552088
 20
116.4549513037954
 42
0.3267035308805388
 10
-62.52683135637584
 20
115.5368435592893
 42
-0.5763322931359881
 10
-62.61434663271782
 20
115.2963867681904
 42
-0.6540719609888197
 10
-62.67998311816514
 20
115.3947554720873
 42
0.3027607460657584
 10
-62.83313482357278
 20
115.5259137317552
 42
0.2420366781180475
 10
-62.81125603267811
 20
114.6515254071383
 42
0.1861187447083232
 10
-62.62528608454681
 20
114.4329283076919
 42
-0.8379935224223626
 10
-62.67998311816514
 20
114.2689804922532
 42
0.0587352560362634
 10
-62.97534713353308
 20
114.3017700480241
 42
0.1245019854739494
 10
-62.70186190905981
 20
113.5038907356517
 42
0.1434007767585128
 10
-62.25334613190256
 20
113.1650652406559
 42
-0.0044861248260129
 10
-62.17900834527332
 20
113.0616890597981
 42
-1.778570965907982
  0
LWPOLYLINE
  5
4E1
330
18
100
AcDbEntity
  8
ADP1DETAIL
100
AcDbPolyline
 90
        6
 70
     0
 43
0.0
 10
-65.25134784644385
 20
113.7994038670637
 10
-65.63799936840884
 20
113.9595827477462
 42
0.570852724887835
 10
-65.74173513574598
 20
114.2328291250602
 42
0.2378355771416959
 10
-66.02465089037385
 20
114.2045622509023
 42
0.3861210680502083
 10
-66.0718035067854
 20
113.5450020725216
 42
0.6373816019189226
 10
-65.62856883389483
 20
113.6486472413277
 42
1.230788875306834
  0
LWPOLYLINE
  5
4E9
330
18
100
AcDbEntity
  8
ADP1DETAIL
100
AcDbPolyline
 90
       21
 70
     0
 43
0.0
 10
-63.28036804240426
 20
112.7912190531601
 42
0.1393236756922916
 10
-64.25171214265302
 20
113.4978906520312
 42
-0.1444341704144049
 10
-64.82697418642278
 20
113.6298026949953
 42
0.2422254861083372
 10
-65.57198568296925
 20
113.7051809896435
 42
0.5709314724723017
 10
-65.6097077648668
 20
113.4696237778733
 42
0.2362575006236509
 10
-66.39244139946935
 20
113.281178023033
 42
0.6127209974557736
 10
-66.37358033044131
 20
112.8760196391944
 42
0.2398714431175803
 10
-66.67535715409721
 20
112.1881926230952
 42
0.2621506932777346
 10
-66.59048239962958
 20
111.830145659747
 42
0.4377736739708231
 10
-66.43016348136687
 20
111.830145659747
 42
0.2999801933759419
 10
-66.25098349407614
 20
111.2648083952259
 42
-0.1947749532947929
 10
-65.88319304113918
 20
110.7277379684232
 42
0.2645791255218564
 10
-65.70401305384844
 20
111.7170781995548
 42
0.0121856012137007
 10
-65.47768045014613
 20
111.6228553221347
 42
0.3861340332180024
 10
-65.35508361378098
 20
111.6699667790645
 42
0.0963452530893546
 10
-65.35508361378098
 20
112.5085504208996
 42
-0.0259602462123558
 10
-65.20419517387376
 20
112.3295269210057
 42
0.5736959049550772
 10
-64.96843209181598
 20
112.3577937951636
 42
-0.0533919426777116
 10
-64.57235003533696
 20
112.9890870993865
 42
-0.4585234285272321
 10
-63.80847746976245
 20
112.8665973478084
 42
0.1543127950060726
 10
-63.45954802969499
 20
112.5650841327759
 42
-4.853115953856598
  0
ARC
  5
500
330
18
100
AcDbEntity
  8
ADP1DETAIL
100
AcDbCircle
 10
-65.77621536225663
 20
114.0721361350508
 30
0.0
 40
0.3968568397658471
100
AcDbArc
 50
200.7835682549259
 51
251.5130665811786
  0
ARC
  5
501
330
18
100
AcDbEntity
  8
ADP1DETAIL
100
AcDbCircle
 10
-66.14019696056181
 20
114.1911675037287
 30
0.0
 40
0.5051000590244072
100
AcDbArc
 50
236.2612641623971
 51
268.1301197615845
  0
LWPOLYLINE
  5
502
330
18
100
AcDbEntity
  8
ADP1DETAIL
100
AcDbPolyline
 90
        4
 70
     0
 43
0.0
 10
-66.0718035067854
 20
113.5355798175751
 42
-0.2051328022930142
 10
-66.41130241233884
 20
113.6769141154856
 42
-0.2281899054889844
 10
-66.36414979592728
 20
114.0255387874479
 42
-0.1179469090604537
 10
-66.06237297227138
 20
114.2139845422883
 42
6.13034338678177
  0
ARC
  5
508
330
18
100
AcDbEntity
  8
ADP1DETAIL
100
AcDbCircle
 10
-63.86216312497476
 20
111.5218516000938
 30
0.0
 40
3.146854989286724
100
AcDbArc
 50
131.0883541759448
 51
136.0672836761606
  0
ARC
  5
509
330
18
100
AcDbEntity
  8
ADP1DETAIL
100
AcDbCircle
 10
-60.24048844278699
 20
115.3041462937864
 30
0.0
 40
2.575905505429258
100
AcDbArc
 50
204.0670326616886
 51
224.133834425467
  0
ARC
  5
50A
330
18
100
AcDbEntity
  8
ADP1DETAIL
100
AcDbCircle
 10
-61.22008750881954
 20
113.5157796276901
 30
0.0
 40
0.5381492169338881
100
AcDbArc
 50
122.5292247310444
 51
170.0444212689402
  0
LWPOLYLINE
  5
50B
330
18
100
AcDbEntity
  8
ADP1DETAIL
100
AcDbPolyline
 90
        4
 70
     0
 43
0.0
 10
-61.89204846637744
 20
113.2947289617377
 42
-0.0377781217219672
 10
-61.94704266470562
 20
113.685326319046
 42
-0.1617493297002281
 10
-61.82670920202164
 20
114.144380173007
 42
-0.107686082977582
 10
-61.43289045848272
 20
114.7127325949832
 42
2.539371502729382
  0
LWPOLYLINE
  5
511
330
18
100
AcDbEntity
  8
ADP1DETAIL
100
AcDbPolyline
 90
        2
 70
     0
 43
0.0
 10
-65.06391248329619
 20
111.0975721176693
 42
0.0213279962703686
 10
-65.31204268609009
 20
111.1345924245116
 42
0.0527764672651649
  0
LWPOLYLINE
  5
515
330
18
100
AcDbEntity
  8
ADP1DETAIL
100
AcDbPolyline
 90
        3
 70
     0
 43
0.0
 10
-65.30328556427381
 20
109.9885422720233
 42
-0.0374070987552838
 10
-64.94726991384553
 20
110.3223911959949
 42
0.0138358991905054
 10
-62.81373671985801
 20
111.7860557615451
 42
0.267359359258848
  0
LWPOLYLINE
  5
51A
330
18
100
AcDbEntity
  8
ADP1DETAIL
100
AcDbPolyline
 90
        3
 70
     0
 43
0.0
 10
-64.90241840637638
 20
113.3471340262953
 42
0.3124268181134236
 10
-65.61913829938081
 20
112.8665973478084
 42
0.1894858297724325
 10
-65.61913829938081
 20
112.1787703317092
 42
0.1894858297724325
  0
LWPOLYLINE
  5
51F
330
18
100
AcDbEntity
  8
ADP1DETAIL
100
AcDbPolyline
 90
        5
 70
     0
 43
0.0
 10
-65.87888011549368
 20
109.7064248178816
 42
-0.2122998725747275
 10
-65.27507503500486
 20
109.9895959872574
 42
-0.377522991205287
 10
-64.79449545813348
 20
109.5833069276967
 42
-0.3030611945105201
 10
-65.00397887066481
 20
109.14008247913
 42
0.1227142874668904
 10
-65.33668778681358
 20
108.8076641609971
 42
-0.565393069653633
  0
LWPOLYLINE
  5
526
330
18
100
AcDbEntity
  8
ADP1DETAIL
100
AcDbPolyline
 90
        4
 70
     0
 43
0.0
 10
-65.74333200513283
 20
109.4478772411765
 42
-0.1193065034193453
 10
-65.39830053862231
 20
109.7926073556447
 42
-0.6799697201184362
 10
-65.12720437428225
 20
109.3616947034134
 42
-0.2965631817598622
 10
-65.58313885043014
 20
109.1893296644714
 42
0.1079977093068407
  0
LWPOLYLINE
  5
52C
330
18
100
AcDbEntity
  8
ADP1DETAIL
100
AcDbPolyline
 90
        4
 70
     0
 43
0.0
 10
-63.94993531899712
 20
113.1869551456128
 10
-64.55348896630893
 20
113.3377117349093
 42
0.1583262997885706
 10
-65.23248677741581
 20
113.2906003144189
 42
0.5164308801033726
 10
-65.88319304113918
 20
111.5757439016443
 42
0.5164308801033726
  0
LWPOLYLINE
  5
532
330
18
100
AcDbEntity
  8
ADP1DETAIL
100
AcDbPolyline
 90
       13
 70
     0
 43
0.0
 10
-65.84547090308311
 20
110.8125385544574
 42
0.1815153117650593
 10
-65.80774882118557
 20
111.7641896564847
 42
-0.2167815251106266
 10
-65.85490143759712
 20
111.9903245768689
 42
-0.423718672649969
 10
-65.65686043743689
 20
111.8772571166768
 42
0.3661009429579148
 10
-65.43995831209007
 20
111.7641896564847
 42
0.2414371219668799
 10
-65.44938884660409
 20
112.5085504208996
 42
-0.0554333189710813
 10
-65.43995831209007
 20
112.7252630134584
 42
-0.9704459713267826
 10
-65.364514148295
 20
112.7158407585119
 42
0.4948935291373346
 10
-65.13818154459269
 20
112.4614389639698
 42
0.6591693424882905
 10
-64.94957102278795
 20
112.5273949672321
 42
-0.1919307807590196
 10
-64.64779419913203
 20
113.0833099768066
 42
-0.1099539781567775
 10
-63.99708799156721
 20
113.1209991423505
 42
-0.1441347137938202
 10
-63.79904693524843
 20
112.9231310961242
 42
0.2466565732549118
  0
LINE
  5
541
330
18
100
AcDbEntity
  8
ADP1DETAIL
100
AcDbLine
 10
-64.91772096175093
 20
110.5928736784307
 30
0.0
 11
-65.62010650151538
 21
110.0019077470085
 31
0.0
  0
LWPOLYLINE
  5
542
330
18
100
AcDbEntity
  8
ADP1DETAIL
100
AcDbPolyline
 90
        4
 70
     0
 43
0.0
 10
-65.64955321707336
 20
111.300508789999
 42
-0.0063876102467545
 10
-65.59546140079189
 20
111.319269259789
 42
0.0598234522626375
 10
-64.81914055885697
 20
111.6024404291648
 42
-0.0710991458937153
 10
-64.31819214026657
 20
111.6171407823728
 42
-0.5648288483550937
  0
LWPOLYLINE
  5
548
330
18
100
AcDbEntity
  8
ADP1DETAIL
100
AcDbPolyline
 90
        3
 70
     0
 43
0.0
 10
-65.08313765650995
 20
111.0818902264678
 42
0.0859019274272416
 10
-65.37365543789881
 20
111.1222806281763
 42
-0.0333614869200284
 10
-65.0401007078354
 20
111.1168178640391
 42
-0.2784150071906028
  0
LWPOLYLINE
  5
54D
330
18
100
AcDbEntity
  8
ADP1DETAIL
100
AcDbPolyline
 90
        4
 70
     0
 43
0.0
 10
-65.56255514845523
 20
113.139843688683
 42
0.345708275846433
 10
-66.20383087766459
 20
111.9809022854829
 42
0.0897171021519035
 10
-65.98692880847631
 20
111.4061426931364
 42
-0.0524821900770591
 10
-65.89262351949466
 20
110.9632951801934
 42
-1.110869346037042
  0
ARC
  5
553
330
18
100
AcDbEntity
  8
ADP1DETAIL
100
AcDbCircle
 10
-65.23277432072909
 20
108.7522611140724
 30
0.0
 40
0.5237835971852772
100
AcDbArc
 50
146.4696230745075
 51
192.9030572642403
  0
ARC
  5
554
330
18
100
AcDbEntity
  8
ADP1DETAIL
100
AcDbCircle
 10
-65.28770279071832
 20
109.5099497433319
 30
0.0
 40
0.6908954638220133
100
AcDbArc
 50
211.1663592743098
 51
248.0309068775801
  0
ARC
  5
555
330
18
100
AcDbEntity
  8
ADP1DETAIL
100
AcDbCircle
 10
-65.57720377211424
 20
109.2498527748283
 30
0.0
 40
0.4879132213174126
100
AcDbArc
 50
238.8502453127454
 51
286.9120450003451
  0
LWPOLYLINE
  5
556
330
18
100
AcDbEntity
  8
ADP1DETAIL
100
AcDbPolyline
 90
        3
 70
     0
 43
0.0
 10
-66.28552433381293
 20
110.3343260651414
 42
-0.5667911003549154
 10
-65.59546140079189
 20
110.7529269210374
 42
0.1712845490028158
 10
-65.70636435404759
 20
110.8514212551358
 42
0.1712845490028158
  0
LWPOLYLINE
  5
55B
330
18
100
AcDbEntity
  8
ADP1DETAIL
100
AcDbPolyline
 90
        4
 70
     0
 43
0.0
 10
-65.5295693439316
 20
110.6783143815253
 42
0.1658095703007275
 10
-66.13765372947199
 20
110.5805618820954
 42
0.1298857810873274
 10
-66.28552433381293
 20
109.8911016531589
 42
-0.1042110179554707
 10
-66.23623413236595
 20
109.5340597423554
 42
-0.9318844967417801
  0
LWPOLYLINE
  5
561
330
18
100
AcDbEntity
  8
ADP1DETAIL
100
AcDbPolyline
 90
        4
 70
     0
 43
0.0
 10
-66.59358814923821
 20
108.549116584292
 42
0.0995291904465459
 10
-66.55662049815298
 20
109.6325540764538
 42
-0.1385375919243913
 10
-66.53197539742949
 20
110.7159915686156
 42
-0.0676412362111478
 10
-66.06588117221201
 20
111.0994164952654
 42
0.0598234522626375
  0
LWPOLYLINE
  5
567
330
18
100
AcDbEntity
  8
ADP1DETAIL
100
AcDbPolyline
 90
        4
 70
     0
 43
0.0
 10
-66.27320178345119
 20
109.5833069276967
 10
-66.38410479308856
 20
109.177017868136
 42
0.0901284266713878
 10
-66.3717822427268
 20
109.8541663007372
 42
-0.2244307624593022
 10
-66.19926648128071
 20
110.7898623100434
 42
-0.5123308461200823
  0
ARC
  5
56D
330
18
100
AcDbEntity
  8
ADP1DETAIL
100
AcDbCircle
 10
-65.39896640091008
 20
108.8815116716957
 30
0.0
 40
0.4960677218581566
100
AcDbArc
 50
133.9627623190438
 51
187.1257247690947
  0
LWPOLYLINE
  5
56E
330
18
100
AcDbEntity
  8
ADP1DETAIL
100
AcDbPolyline
 90
        2
 70
     0
 43
0.0
 10
-65.58313885043014
 20
110.7775505137081
 42
0.0382220275450046
 10
-65.45042152918954
 20
110.7558056617795
 42
0.3796601018114036
  0
ARC
  5
572
330
18
100
AcDbEntity
  8
ADP1DETAIL
100
AcDbCircle
 10
-65.60778392296281
 20
109.1848381042236
 30
0.0
 40
0.5704335182106487
100
AcDbArc
 50
260.0483722169582
 51
305.6798940492335
  0
ARC
  5
573
330
18
100
AcDbEntity
  8
ADP1DETAIL
100
AcDbCircle
 10
-65.30749571514187
 20
108.8317221934045
 30
0.0
 40
0.1775303285349654
100
AcDbArc
 50
175.8403348295719
 51
284.5977570141575
  0
LWPOLYLINE
  5
574
330
18
100
AcDbEntity
  8
ADP1DETAIL
100
AcDbPolyline
 90
        3
 70
     0
 43
0.0
 10
-65.64742990292287
 20
113.6392249863812
 10
-65.77002673928802
 20
113.6392249863812
 10
-65.80774882118557
 20
113.5921135294514
  0
ARC
  5
579
330
18
100
AcDbEntity
  8
ADP1DETAIL
100
AcDbCircle
 10
-65.64730597187004
 20
114.3978855514874
 30
0.0
 40
0.8642357563174432
100
AcDbArc
 50
235.4192993282507
 51
254.8093930050307
  0
ARC
  5
57A
330
18
100
AcDbEntity
  8
ADP1DETAIL
100
AcDbCircle
 10
-65.15782114302959
 20
112.9225676013624
 30
0.0
 40
1.087975730694535
100
AcDbArc
 50
131.814182943305
 51
144.4957279538676
  0
LWPOLYLINE
  5
57B
330
18
100
AcDbEntity
  8
ADP1DETAIL
100
AcDbPolyline
 90
        4
 70
     0
 43
0.0
 10
-66.23212248120665
 20
112.3860606693215
 42
0.207336656348567
 10
-66.37358033044131
 20
112.1128142920075
 42
-0.5970464912028889
 10
-66.533899248704
 20
111.9903245768689
 42
-0.3867206661440388
 10
-66.65649608506917
 20
112.1976149144812
 42
1.227955035246513
  0
LWPOLYLINE
  5
581
330
18
100
AcDbEntity
  8
ADP1DETAIL
100
AcDbPolyline
 90
        3
 70
     0
 43
0.0
 10
-66.26984456310417
 20
112.0185914145873
 42
-0.1842864020879089
 10
-66.32642771402974
 20
111.7641896564847
 42
0.2501674269305989
 10
-66.25098349407614
 20
111.2836529779978
 42
-2.006265836206302
  0
LWPOLYLINE
  5
586
330
18
100
AcDbEntity
  8
ADP1DETAIL
100
AcDbPolyline
 90
        4
 70
     0
 43
0.0
 10
-66.22269194669262
 20
112.9513979338426
 42
-0.4371518993531291
 10
-66.40187193398336
 20
112.9702425166145
 42
-0.1945674790482228
 10
-66.32642771402974
 20
113.2906003144189
 42
-0.1452334127743192
 10
-65.74173513574598
 20
113.4602014864874
 42
-0.1452334127743192
  0
LWPOLYLINE
  5
58C
330
18
100
AcDbEntity
  8
ADP1DETAIL
100
AcDbPolyline
 90
        2
 70
     0
 43
0.0
 10
-65.84547090308311
 20
113.0173539735443
 42
-0.004770940491913
 10
-66.18496980863655
 20
112.8289081822646
 42
0.595095196577173
  0
LWPOLYLINE
  5
590
330
18
100
AcDbEntity
  8
ADP1DETAIL
100
AcDbPolyline
 90
        5
 70
     0
 43
0.0
 10
-62.77843778995446
 20
111.2361646619636
 42
-0.4902499476190904
 10
-62.45025553186285
 20
111.0175675991015
 42
-0.2865974836349335
 10
-63.04098361898041
 20
110.6022331284456
 42
-0.3510204587434273
 10
-63.17225653349338
 20
110.9410586234414
 42
-0.1869473227236436
 10
-62.99722598080941
 20
111.1596556863035
 42
3.714200041970866
  0
LWPOLYLINE
  5
597
330
18
100
AcDbEntity
  8
ADP1DETAIL
100
AcDbPolyline
 90
        3
 70
     0
 43
0.0
 10
-63.70219006400693
 20
111.1553864242085
 42
-0.0944596017027758
 10
-63.26649887498714
 20
110.8637330514712
 42
-1.046528602905224
 10
-63.50062738824195
 20
110.5928736784307
  0
LWPOLYLINE
  5
59C
330
18
100
AcDbEntity
  8
ADP1DETAIL
100
AcDbPolyline
 90
        4
 70
     0
 43
0.0
 10
-62.17677030738957
 20
111.5312707370701
 42
0.3709425207343368
 10
-62.76749839450712
 20
111.4001124774023
 42
0.2719956585687119
 10
-62.78937718540179
 20
111.2033751061927
 42
0.519092996126949
 10
-62.59246784182316
 20
111.039427290754
 42
7.551919676738126
  0
LWPOLYLINE
  5
5A2
330
18
100
AcDbEntity
  8
ADP1DETAIL
100
AcDbPolyline
 90
        3
 70
     0
 43
0.0
 10
-62.93158949536209
 20
111.039427290754
 42
-0.3843091794325836
 10
-63.00816537625674
 20
111.4001124774023
 42
-0.2787553566006482
 10
-62.35180080369187
 20
111.7607976640506
 42
-48.4967286810995
  0
LWPOLYLINE
  5
5A7
330
18
100
AcDbEntity
  8
ADP1DETAIL
100
AcDbPolyline
 90
        3
 70
     0
 43
0.0
 10
-63.15559592173143
 20
109.3247593509916
 10
-63.29114397571062
 20
109.5217479826043
 10
-63.46365973715672
 20
109.8172309117312
  0
ARC
  5
5AC
330
18
100
AcDbEntity
  8
ADP1DETAIL
100
AcDbCircle
 10
-67.76553352455971
 20
110.0675549109847
 30
0.0
 40
3.78476292482202
100
AcDbArc
 50
353.4001376333861
 51
9.297992253135424
  0
LWPOLYLINE
  5
5AD
330
18
100
AcDbEntity
  8
ADP1DETAIL
100
AcDbPolyline
 90
        2
 70
     0
 43
0.0
 10
-64.48643164270819
 20
110.309702509055
 42
0.0821569272335317
 10
-64.54727181170653
 20
110.5837299524103
 42
-0.156615594089808
  0
LINE
  5
5B1
330
18
100
AcDbEntity
  8
ADP1DETAIL
100
AcDbLine
 10
-63.52527248896544
 20
110.6544326235232
 30
0.0
 11
-63.91959421330461
 21
110.8021741063787
 31
0.0
  0
LWPOLYLINE
  5
5B2
330
18
100
AcDbEntity
  8
ADP1DETAIL
100
AcDbPolyline
 90
        7
 70
     0
 43
0.0
 10
-64.13057138438555
 20
110.8622487143553
 42
-0.0270943536770034
 10
-63.89494911258111
 20
110.728303364951
 42
-0.2784150071906028
 10
-63.56224014005068
 20
109.6325540764538
 42
0.0300720036510714
 10
-63.61153039787932
 20
108.586051973298
 42
0.0326025045107353
 10
-63.64849804896455
 20
110.0634667286852
 42
0.2397170242132817
 10
-64.04281971692205
 20
110.691367975945
 42
0.0179792500386505
 10
-64.22525863619212
 20
110.7983921479881
 42
0.0527764672651649
  0
ARC
  5
5BB
330
18
100
AcDbEntity
  8
ADP1DETAIL
100
AcDbCircle
 10
-64.49817835139295
 20
111.297984684649
 30
0.0
 40
1.951631327940719
100
AcDbArc
 50
344.8533112268733
 51
353.3570596533233
  0
ARC
  5
5BC
330
18
100
AcDbEntity
  8
ADP1DETAIL
100
AcDbCircle
 10
-62.62296382786276
 20
111.2633995358384
 30
0.0
 40
0.4759745161440045
100
AcDbArc
 50
234.587534283458
 51
267.0855245566974
  0
LWPOLYLINE
  5
5BD
330
18
100
AcDbEntity
  8
ADP1DETAIL
100
AcDbPolyline
 90
        3
 70
     0
 43
0.0
 10
-62.46119492731018
 20
111.0066377349832
 42
-0.2079079256386068
 10
-62.62528608454681
 20
110.4929345970145
 42
-0.288167008593232
 10
-62.96440773808575
 20
110.613162992564
 42
0.484187330964914
  0
ARC
  5
5C2
330
18
100
AcDbEntity
  8
ADP1DETAIL
100
AcDbCircle
 10
-63.28640045414556
 20
110.9167831059402
 30
0.0
 40
0.5558944176273447
100
AcDbArc
 50
333.3926164610405
 51
7.025800619127523
  0
ARC
  5
5C3
330
18
100
AcDbEntity
  8
ADP1DETAIL
100
AcDbCircle
 10
-62.70881358756353
 20
111.1297680002044
 30
0.0
 40
0.4845384968707446
100
AcDbArc
 50
223.0554891714259
 51
252.4384243443192
  0
ARC
  5
5C4
330
18
100
AcDbEntity
  8
ADP1DETAIL
100
AcDbCircle
 10
-63.21805909285314
 20
110.8390754114832
 30
0.0
 40
0.3083695725725763
100
AcDbArc
 50
312.8949561133458
 51
0.6715993333829714
  0
ARC
  5
5C5
330
18
100
AcDbEntity
  8
ADP1DETAIL
100
AcDbCircle
 10
-62.52806525984905
 20
111.2930786649753
 30
0.0
 40
0.3863133067843833
100
AcDbArc
 50
235.7257278676442
 51
275.0569742074369
  0
LWPOLYLINE
  5
5C6
330
18
100
AcDbEntity
  8
ADP1DETAIL
100
AcDbPolyline
 90
        6
 70
     0
 43
0.0
 10
-63.11755949987506
 20
112.3754926308668
 42
-0.3547397914388744
 10
-63.32540823890102
 20
112.4082822232219
 42
-0.4028354758977405
 10
-63.31446884345369
 20
112.7361778175151
 42
-0.4792050866713715
 10
-62.48307371820485
 20
112.7471076816335
 42
-0.6350926506410117
 10
-62.74561954723079
 20
112.3317732109776
 42
0.1621974494680901
 10
-62.86595306629644
 20
112.2552642353174
 42
-0.4756319537787135
  0
ARC
  5
5CE
330
18
100
AcDbEntity
  8
ADP1DETAIL
100
AcDbCircle
 10
-62.74462477566488
 20
112.4501357253676
 30
0.0
 40
0.596890743495006
100
AcDbArc
 50
143.907675570955
 51
172.4549788230128
  0
LWPOLYLINE
  5
5CF
330
18
100
AcDbEntity
  8
ADP1DETAIL
100
AcDbPolyline
 90
        3
 70
     0
 43
0.0
 10
-64.60210615467115
 20
112.9507532749141
 42
0.0256840975602992
 10
-64.18905570413929
 20
112.7213056747456
 42
0.0181930780478238
 10
-62.67536065380238
 20
111.699144552181
 42
-0.0476972741362857
  0
ARC
  5
5D4
330
18
100
AcDbEntity
  8
ADP1DETAIL
100
AcDbCircle
 10
-63.36916587707201
 20
112.0257373083369
 30
0.0
 40
0.0
100
AcDbArc
 50
180.0
 51
267.8359040639143
  0
ARC
  5
5D5
330
18
100
AcDbEntity
  8
ADP1DETAIL
100
AcDbCircle
 10
-62.41641754188787
 20
109.3848914452803
 30
0.0
 40
2.556973320475091
100
AcDbArc
 50
119.4984011414323
 51
128.6840586561383
  0
LWPOLYLINE
  5
5D6
330
18
100
AcDbEntity
  8
ADP1DETAIL
100
AcDbPolyline
 90
        3
 70
     0
 43
0.0
 10
-64.55348896630893
 20
113.3000226058049
 42
0.4129709780404123
 10
-65.0910288720226
 20
112.8948642219663
 42
0.0709377033781747
 10
-65.0910288720226
 20
112.6404624274242
 42
0.0709377033781747
  0
LWPOLYLINE
  5
5DB
330
18
100
AcDbEntity
  8
ADP1DETAIL
100
AcDbPolyline
 90
        2
 70
     0
 43
0.0
 10
-63.38610291294148
 20
112.5688457554333
 42
-0.044039590798194
 10
-64.05192350877555
 20
113.0722356494281
 42
-0.1170643490364533
  0
ARC
  5
5DF
330
18
100
AcDbEntity
  8
ADP1DETAIL
100
AcDbCircle
 10
-66.64727599900984
 20
116.4799232007712
 30
0.0
 40
5.530441025443844
100
AcDbArc
 50
298.297984057757
 51
306.3516440492755
  0
LINE
  5
5E0
330
18
100
AcDbEntity
  8
ADP1DETAIL
100
AcDbLine
 10
-62.24240673645522
 20
112.9639559457495
 30
0.0
 11
-62.3736796509682
 21
113.0186052297571
 31
0.0
  0
LWPOLYLINE
  5
5E1
330
18
100
AcDbEntity
  8
ADP1DETAIL
100
AcDbPolyline
 90
        2
 70
     0
 43
0.0
 10
-62.39156824529688
 20
112.0968253027142
 42
0.0023366359478344
 10
-62.04229205475149
 20
112.3595148475475
 42
0.267359359258848
  0
ARC
  5
5E5
330
18
100
AcDbEntity
  8
ADP1DETAIL
100
AcDbCircle
 10
-63.50664644347098
 20
113.7738152231081
 30
0.0
 40
1.737298236159244
100
AcDbArc
 50
292.4192400314495
 51
312.6353602054788
  0
LWPOLYLINE
  5
5E6
330
18
100
AcDbEntity
  8
ADP1DETAIL
100
AcDbPolyline
 90
        3
 70
     0
 43
0.0
 10
-63.00816537625674
 20
111.9273686410242
 42
0.3253509906091052
 10
-62.8878318571911
 20
112.2224746795465
 42
-0.1834616071393844
 10
-62.74561954723079
 20
112.4082822232219
 42
3.513022888543757
  0
LWPOLYLINE
  5
5EB
330
18
100
AcDbEntity
  8
ADP1DETAIL
100
AcDbPolyline
 90
        3
 70
     0
 43
0.0
 10
-63.22695356711171
 20
111.9710880609135
 42
0.1366775898165404
 10
-63.10662004804606
 20
112.3973523591036
 42
0.2611748564277361
 10
-63.16131713804605
 20
112.4957210264162
 42
0.2834391419160907
  0
ARC
  5
5F0
330
18
100
AcDbEntity
  8
ADP1DETAIL
100
AcDbCircle
 10
-62.60467043971436
 20
112.3360698848884
 30
0.0
 40
0.6147565166808573
100
AcDbArc
 50
110.7223218197039
 51
157.4088771852481
  0
LWPOLYLINE
  5
5F1
330
18
100
AcDbEntity
  8
ADP1DETAIL
100
AcDbPolyline
 90
        5
 70
     0
 43
0.0
 10
-62.57058899454683
 20
112.8126867931753
 42
0.0924367098848268
 10
-62.73468015178346
 20
113.2280212638312
 42
0.295091441442997
 10
-62.89877130902009
 20
113.3045302394913
 42
0.414075737416101
 10
-63.22695356711171
 20
113.0968630041634
 42
0.0252940899829779
 10
-63.28165060073002
 20
112.7798972374044
 42
-0.8863925199085858
  0
ARC
  5
5F8
330
18
100
AcDbEntity
  8
ADP1DETAIL
100
AcDbCircle
 10
-63.22691917583574
 20
112.416926554606
 30
0.0
 40
0.3739005484984166
100
AcDbArc
 50
40.48253153517618
 51
90.00527005102172
  0
ARC
  5
5F9
330
18
100
AcDbEntity
  8
ADP1DETAIL
100
AcDbCircle
 10
-63.34791798551067
 20
112.5963584197395
 30
0.0
 40
0.1938133099934134
100
AcDbArc
 50
15.67991483679016
 51
62.94797245599088
  0
LINE
  5
5FA
330
18
100
AcDbEntity
  8
ADP1DETAIL
100
AcDbLine
 10
-62.3736796509682
 20
113.0186052297571
 30
0.0
 11
-62.43931608003386
 21
112.9311663899786
 31
0.0
  0
ARC
  5
5FB
330
18
100
AcDbEntity
  8
ADP1DETAIL
100
AcDbCircle
 10
-63.16132740736755
 20
112.9725365667436
 30
0.0
 40
0.407912900494578
100
AcDbArc
 50
352.8812350250204
 51
51.91431190556254
  0
LWPOLYLINE
  5
5FC
330
18
100
AcDbEntity
  8
ADP1DETAIL
100
AcDbPolyline
 90
        2
 70
     0
 43
0.0
 10
-62.51434839424722
 20
112.8003211622703
 42
-0.0039764534721964
 10
-63.05772319577703
 20
112.3810524852012
 42
0.1032995923719763
  0
ARC
  5
600
330
18
100
AcDbEntity
  8
ADP1DETAIL
100
AcDbCircle
 10
-62.41624208740428
 20
112.2363259639578
 30
0.0
 40
0.6579454448110838
100
AcDbArc
 50
109.5329550154115
 51
148.1871156671678
  0
ARC
  5
601
330
18
100
AcDbEntity
  8
ADP1DETAIL
100
AcDbCircle
 10
-62.87385952018547
 20
112.5081537151246
 30
0.0
 40
0.3931019569173288
100
AcDbArc
 50
24.40845578352764
 51
85.65453903480914
  0
ARC
  5
602
330
18
100
AcDbEntity
  8
ADP1DETAIL
100
AcDbCircle
 10
-63.09294322582673
 20
112.2013382800712
 30
0.0
 40
0.6552106930614882
100
AcDbArc
 50
47.12831394503521
 51
91.19607496747487
  0
LINE
  5
603
330
18
100
AcDbEntity
  8
ADP1DETAIL
100
AcDbLine
 10
-62.25334613190256
 20
113.1388336253065
 30
0.0
 11
-62.24240673645522
 21
112.9639559457495
 31
0.0
  0
LWPOLYLINE
  5
604
330
18
100
AcDbEntity
  8
ADP1DETAIL
100
AcDbPolyline
 90
        2
 70
     0
 43
0.0
 10
-61.74214629561913
 20
112.8202373836511
 42
-0.0037041491926095
 10
-61.74435609673873
 20
112.8313589146921
 42
-0.0447467913235693
  0
LWPOLYLINE
  5
608
330
18
100
AcDbEntity
  8
ADP1DETAIL
100
AcDbPolyline
 90
        3
 70
     0
 43
0.0
 10
-61.65791949234769
 20
112.6479353348208
 42
0.0009543529929831
 10
-61.65167864933767
 20
112.6360603148721
 42
-0.0012834844196093
 10
-61.65789806962838
 20
112.6479524116318
 42
-0.1617493297002281
  0
LWPOLYLINE
  5
60D
330
18
100
AcDbEntity
  8
ADP1DETAIL
100
AcDbPolyline
 90
       11
 70
     0
 43
0.0
 10
-65.27089718007522
 20
114.584222586491
 42
-0.476071132814796
 10
-65.08307888890586
 20
114.8281730598709
 42
0.1356743134346223
 10
-64.66048776181853
 20
115.0345927163878
 42
0.5090696634540554
 10
-64.67926955728296
 20
115.2316296595906
 42
0.4051464750954749
 10
-65.10186068437029
 20
115.2973086527893
 42
-0.6493114852427559
 10
-64.97977884558896
 20
115.4661974560498
 42
0.1021263271203591
 10
-64.53840586694969
 20
115.5412591261693
 42
0.0287239507251642
 10
-64.31302392876394
 20
115.6444689726244
 42
-0.1667174649755963
 10
-64.13459659141429
 20
115.6726171125667
 42
0.3618069325980802
 10
-64.45388761909722
 20
115.8133577758849
 42
-0.1404828936601006
 10
-64.81074234988402
 20
115.8133577758849
 42
0.1404828936601008
  0
ARC
  5
61A
330
18
100
AcDbEntity
  8
ADP1DETAIL
100
AcDbCircle
 10
-65.18168348335665
 20
115.1062752773775
 30
0.0
 40
0.1861098895590441
100
AcDbArc
 50
67.76277469347341
 51
141.4545354251332
  0
LWPOLYLINE
  5
61B
330
18
100
AcDbEntity
  8
ADP1DETAIL
100
AcDbPolyline
 90
        6
 70
     0
 43
0.0
 10
-65.29906987327189
 20
116.291876045724
 10
-65.54323366300957
 20
114.7812595296938
 42
-0.1058562669312771
 10
-65.16759708067083
 20
116.1042218158353
 42
-0.4347236494934169
 10
-63.04525054750194
 20
116.5264438421832
 42
0.3813436606291174
 10
-64.91404244928843
 20
116.1605180957199
 42
0.0109667327758437
 10
-65.43054272196044
 20
115.4474320294216
 42
-0.5243461814678271
  0
LWPOLYLINE
  5
623
330
18
100
AcDbEntity
  8
ADP1DETAIL
100
AcDbPolyline
 90
       19
 70
     0
 43
0.0
 10
-65.1993107232802
 20
114.2752704273018
 42
-0.0598616551147563
 10
-65.25211532852329
 20
114.5185435932923
 42
-0.2991880436163496
 10
-65.16759708067083
 20
114.6780496832386
 42
0.1581650902437418
 10
-64.45388761909722
 20
115.0439754297019
 42
0.1959047770943273
 10
-64.71683326038683
 20
115.3442221829665
 42
0.1265152534131592
 10
-64.27546028174757
 20
115.4661974560498
 42
-0.220547211758462
 10
-63.96556009570936
 20
115.5506418394834
 42
0.2246938073339695
 10
-64.15337838687872
 20
115.8133577758849
 42
0.1258846302833693
 10
-63.61809631874226
 20
115.8696540193761
 42
-0.2576328583123036
 10
-63.28941433723962
 20
115.8790367326902
 42
0.0991042075673024
 10
-63.30819613270406
 20
116.1417526690917
 42
-0.135796293339438
 10
-62.55692302411407
 20
116.0666909625789
 42
0.2686185134716636
 10
-63.24245973640353
 20
116.9205176921954
 42
0.4226167983594435
 10
-64.35058757578031
 20
116.9955793987082
 42
0.4302472249402684
 10
-64.79196055441959
 20
117.09878920877
 42
0.2826356974225202
 10
-65.36480632565991
 20
116.3669377522368
 42
0.5707074626224652
 10
-65.6559246040587
 20
116.4044685690999
 42
0.1784711689095899
 10
-65.77800649892752
 20
115.4755801693639
 42
0.2925352362634095
 10
-65.91340057069223
 20
115.4099812671134
 42
0.1107970883045864
  0
ARC
  5
638
330
18
100
AcDbEntity
  8
ADP1DETAIL
100
AcDbCircle
 10
-64.94074344745465
 20
114.4651515555756
 30
0.0
 40
0.5986782118754718
100
AcDbArc
 50
86.54376734549408
 51
157.9044563075276
  0
ARC
  5
639
330
18
100
AcDbEntity
  8
ADP1DETAIL
100
AcDbCircle
 10
-64.5864105490212
 20
114.5165526924827
 30
0.0
 40
1.156234512952415
100
AcDbArc
 50
89.01720476402218
 51
136.8922657720075
  0
ARC
  5
63A
330
18
100
AcDbEntity
  8
ADP1DETAIL
100
AcDbCircle
 10
-69.28527930006099
 20
116.9299004055095
 30
0.0
 40
2.551851772547871
100
AcDbArc
 50
345.3033794145353
 51
4.639733044241545
  0
ARC
  5
63B
330
18
100
AcDbEntity
  8
ADP1DETAIL
100
AcDbCircle
 10
-63.9763992967035
 20
116.9299004055095
 30
0.0
 40
2.551851772547871
100
AcDbArc
 50
175.3602669557584
 51
194.6966205854647
  0
LWPOLYLINE
  5
63C
330
18
100
AcDbEntity
  8
ADP1DETAIL
100
AcDbPolyline
 90
        3
 70
     0
 43
0.0
 10
-66.74171027217011
 20
117.165610440255
 10
-66.74171027217011
 20
116.3828067520676
 42
0.1260980835264417
 10
-65.95088848197015
 20
114.23904413466
 42
0.0345246961870778
  0
ARC
  5
641
330
18
100
AcDbEntity
  8
ADP1DETAIL
100
AcDbCircle
 10
-65.56901245161059
 20
116.0867957197877
 30
0.0
 40
0.2906700935380608
100
AcDbArc
 50
50.36309009368068
 51
105.4678976551297
  0
ARC
  5
642
330
18
100
AcDbEntity
  8
ADP1DETAIL
100
AcDbCircle
 10
-64.722759309683
 20
116.0623438560619
 30
0.0
 40
1.203829685937034
100
AcDbArc
 50
209.6834839493189
 51
217.7428810671546
  0
ARC
  5
643
330
18
100
AcDbEntity
  8
ADP1DETAIL
100
AcDbCircle
 10
-58.22462868311532
 20
118.0544863726082
 30
0.0
 40
8.283684108368076
100
AcDbArc
 50
192.1525706272081
 51
201.0324036533003
  0
ARC
  5
644
330
18
100
AcDbEntity
  8
ADP1DETAIL
100
AcDbCircle
 10
-64.2727555421995
 20
115.8886831179453
 30
0.0
 40
2.153555690551457
100
AcDbArc
 50
181.005581551118
 51
226.6952404261766
  0
ARC
  5
645
330
18
100
AcDbEntity
  8
ADP1DETAIL
100
AcDbCircle
 10
-65.56661695872922
 20
112.608434368643
 30
0.0
 40
1.570464638778565
100
AcDbArc
 50
97.09512853934912
 51
110.2244956896263
  0
ARC
  5
646
330
18
100
AcDbEntity
  8
ADP1DETAIL
100
AcDbCircle
 10
-65.87006529620137
 20
113.6865547306458
 30
0.0
 40
0.3769018793640413
100
AcDbArc
 50
91.99605411464425
 51
139.5034006113901
  0
ARC
  5
647
330
18
100
AcDbEntity
  8
ADP1DETAIL
100
AcDbCircle
 10
-65.39798053701817
 20
114.0258794756147
 30
0.0
 40
0.4295829547862687
100
AcDbArc
 50
152.625029067151
 51
183.8183696053221
  0
ARC
  5
648
330
18
100
AcDbEntity
  8
ADP1DETAIL
100
AcDbCircle
 10
-65.77849050235456
 20
114.061480599081
 30
0.0
 40
0.2818628230238879
100
AcDbArc
 50
160.0935459130296
 51
239.6488873074402
  0
ARC
  5
649
330
18
100
AcDbEntity
  8
ADP1DETAIL
100
AcDbCircle
 10
-65.73394949985157
 20
114.1084179194871
 30
0.0
 40
0.2068715918400188
100
AcDbArc
 50
136.17273794075
 51
215.6489261205452
  0
ARC
  5
64A
330
18
100
AcDbEntity
  8
ADP1DETAIL
100
AcDbCircle
 10
-65.54068898387439
 20
118.5723295850628
 30
0.0
 40
0.7637411695738768
100
AcDbArc
 50
249.8937048952518
 51
274.9301214557895
  0
LWPOLYLINE
  5
64B
330
18
100
AcDbEntity
  8
ADP1DETAIL
100
AcDbPolyline
 90
        3
 70
     0
 43
0.0
 10
-65.54890246890602
 20
118.949634705927
 42
0.0013775516389333
 10
-65.56049307058827
 20
118.9332316563043
 42
0.1119981346652414
 10
-66.12639046283502
 20
118.2051670213101
 42
17.12536180968244
  0
LWPOLYLINE
  5
650
330
18
100
AcDbEntity
  8
ADP1DETAIL
100
AcDbPolyline
 90
        3
 70
     0
 43
0.0
 10
-66.09859885645912
 20
117.5381677175333
 42
0.4106097569170614
 10
-65.59538604568354
 20
117.3086407539686
 42
0.5666148256760205
 10
-65.48599197844691
 20
117.745834916277
 42
-2.415706599886759
  0
ARC
  5
655
330
18
100
AcDbEntity
  8
ADP1DETAIL
100
AcDbCircle
 10
-65.72665896019652
 20
118.1080000407671
 30
0.0
 40
0.4473185550989832
100
AcDbArc
 50
234.0603651480805
 51
281.282357823198
  0
ARC
  5
656
330
18
100
AcDbEntity
  8
ADP1DETAIL
100
AcDbCircle
 10
-65.72118926247284
 20
117.8919057771864
 30
0.0
 40
0.4319473090314825
100
AcDbArc
 50
240.4058528793209
 51
299.594147120679
  0
LWPOLYLINE
  5
657
330
18
100
AcDbEntity
  8
ADP1DETAIL
100
AcDbPolyline
 90
        6
 70
     0
 43
0.0
 10
-66.13141709918277
 20
117.953502151605
 42
0.2730730233482699
 10
-66.24081122280109
 20
117.6911856688536
 42
0.4064627871532736
 10
-66.04390182284079
 20
117.5381677175333
 42
0.197076862240398
 10
-65.4422343402759
 20
117.7786244720479
 42
0.2657258391037116
 10
-65.55162840751255
 20
118.1065201029253
 42
0.1522589951065187
 10
-65.91262890832782
 20
118.1174499670436
 42
7.309465791801355
  0
ARC
  5
65F
330
18
100
AcDbEntity
  8
ADP1DETAIL
100
AcDbCircle
 10
-66.06511263892284
 20
117.7567647803954
 30
0.0
 40
0.393757957044991
100
AcDbArc
 50
340.5433469771516
 51
19.45665302284823
  0
LWPOLYLINE
  5
660
330
18
100
AcDbEntity
  8
ADP1DETAIL
100
AcDbPolyline
 90
        4
 70
     0
 43
0.0
 10
-66.41584171910338
 20
117.9644320157233
 42
-0.370863199544719
 10
-66.10953830828811
 20
118.2048888068222
 42
-0.1911762740354329
 10
-65.89075011743315
 20
118.1065201029253
 42
0.4113925575594916
 10
-65.69384071747286
 20
117.9316424599524
 42
-0.0271913496303319
  0
LWPOLYLINE
  5
666
330
18
100
AcDbEntity
  8
ADP1DETAIL
100
AcDbPolyline
 90
        4
 70
     0
 43
0.0
 10
-66.3392658945904
 20
117.8223438919372
 42
-0.4958237887240369
 10
-66.13141709918277
 20
117.953502151605
 42
0.0803989854298512
 10
-66.02202303194613
 20
117.9316424599524
 42
-0.9638853442949503
 10
-66.02202303194613
 20
117.8223438919372
 42
54.37917947589182
  0
LWPOLYLINE
  5
66C
330
18
100
AcDbEntity
  8
ADP1DETAIL
100
AcDbPolyline
 90
        2
 70
     0
 43
0.0
 10
-66.22318125849226
 20
117.9585958155625
 42
0.0936143565740005
 10
-66.31870733667617
 20
117.1908621839334
 42
17.12536180968244
  0
ARC
  5
670
330
18
100
AcDbEntity
  8
ADP1DETAIL
100
AcDbCircle
 10
-65.89904635451273
 20
117.8660002418455
 30
0.0
 40
0.2995996649101431
100
AcDbArc
 50
215.6966611378804
 51
280.0056198311691
  0
ARC
  5
671
330
18
100
AcDbEntity
  8
ADP1DETAIL
100
AcDbCircle
 10
-66.39354257067672
 20
117.9317953076799
 30
0.0
 40
0.4701297683260013
100
AcDbArc
 50
305.5088508272175
 51
342.3887629448836
  0
ARC
  5
672
330
18
100
AcDbEntity
  8
ADP1DETAIL
100
AcDbCircle
 10
-66.38401838004674
 20
117.9007188261486
 30
0.0
 40
0.5968908287208112
100
AcDbArc
 50
323.907676687326
 51
352.4549724128281
  0
ARC
  5
673
330
18
100
AcDbEntity
  8
ADP1DETAIL
100
AcDbCircle
 10
-66.37602675082845
 20
117.8769931759448
 30
0.0
 40
0.8815380318612158
100
AcDbArc
 50
350.0039282674169
 51
4.266271559652894
  0
ARC
  5
674
330
18
100
AcDbEntity
  8
ADP1DETAIL
100
AcDbCircle
 10
-65.56520040434143
 20
117.6172504053543
 30
0.0
 40
0.116086426462359
100
AcDbArc
 50
299.594147120679
 51
46.97457044918652
  0
LWPOLYLINE
  5
675
330
18
100
AcDbEntity
  8
ADP1DETAIL
100
AcDbPolyline
 90
        3
 70
     0
 43
0.0
 10
-61.94704266470562
 20
116.017757141487
 42
-0.26576599307245
 10
-61.90328502653462
 20
116.3784423281353
 42
0.331528556401121
 10
-61.90328502653462
 20
116.5861095634632
 42
0.5020331260529922
  0
ARC
  5
67A
330
18
100
AcDbEntity
  8
ADP1DETAIL
100
AcDbCircle
 10
-64.03033512612781
 20
115.5672561018957
 30
0.0
 40
0.8157545824519649
100
AcDbArc
 50
38.58965958017396
 51
97.34304979985934
  0
LWPOLYLINE
  5
67B
330
18
100
AcDbEntity
  8
ADP1DETAIL
100
AcDbPolyline
 90
        4
 70
     0
 43
0.0
 10
-62.59448667113045
 20
116.1886662356622
 42
0.1513116126772222
 10
-63.0264687520375
 20
116.3106414723522
 42
-0.1116479628395558
 10
-63.44905987912484
 20
116.3950858557858
 42
0.4725535200723684
 10
-63.65565996575864
 20
116.291876045724
 42
-8.867353868885162
  0
ARC
  5
681
330
18
100
AcDbEntity
  8
ADP1DETAIL
100
AcDbCircle
 10
-64.2259663634238
 20
114.6526577715395
 30
0.0
 40
1.529675069845076
100
AcDbArc
 50
78.40852945655678
 51
123.6545371529562
  0
LWPOLYLINE
  5
682
330
18
100
AcDbEntity
  8
ADP1DETAIL
100
AcDbPolyline
 90
        4
 70
     0
 43
0.0
 10
-64.44449672136499
 20
115.8133577758849
 42
-0.5539910038533723
 10
-64.29424213329951
 20
115.8884194460043
 42
0.2381781707349239
 10
-63.97495104952907
 20
115.9071848726325
 42
-0.1881317140080118
 10
-63.3833234267368
 20
116.0010120057735
 42
-9.282361063151242
  0
ARC
  5
688
330
18
100
AcDbEntity
  8
ADP1DETAIL
100
AcDbCircle
 10
-58.76242922577211
 20
115.7893232045768
 30
0.0
 40
3.503832725011257
100
AcDbArc
 50
175.0789200674676
 51
192.1551404484736
  0
ARC
  5
689
330
18
100
AcDbEntity
  8
ADP1DETAIL
100
AcDbCircle
 10
-60.68556155307458
 20
115.4083220597492
 30
0.0
 40
1.967703709433247
100
AcDbArc
 50
187.5457724864224
 51
218.7320954351096
  0
ARC
  5
68A
330
18
100
AcDbEntity
  8
ADP1DETAIL
100
AcDbCircle
 10
-60.49915623460424
 20
114.2808719824062
 30
0.0
 40
1.59491350253584
100
AcDbArc
 50
131.3680411072858
 51
167.5287248956629
  0
LWPOLYLINE
  5
68B
330
18
100
AcDbEntity
  8
ADP1DETAIL
100
AcDbPolyline
 90
        6
 70
     0
 43
0.0
 10
-63.25185063413575
 20
116.9017522655672
 10
-63.2800233834199
 20
116.8548387353901
 10
-63.35515073354015
 20
116.882986838939
 10
-63.40210527828874
 20
116.882986838939
 10
-63.36454163127237
 20
116.9299004055095
 10
-63.3833234267368
 20
117.0424929652787
  0
LWPOLYLINE
  5
693
330
18
100
AcDbEntity
  8
ADP1DETAIL
100
AcDbPolyline
 90
        6
 70
     0
 43
0.0
 10
-64.36936942733225
 20
116.9955793987082
 10
-64.40693307434862
 20
116.8642214487042
 10
-64.5008422199333
 20
116.8548387353901
 10
-64.51023311766554
 20
117.0049621120224
 10
-64.62292411480214
 20
117.0894064954559
 10
-64.73561505585127
 20
117.1175546353982
  0
ARC
  5
69B
330
18
100
AcDbEntity
  8
ADP1DETAIL
100
AcDbCircle
 10
-64.25806434444087
 20
116.2174464357796
 30
0.0
 40
0.6162673638205355
100
AcDbArc
 50
109.4506883415507
 51
143.6474645729714
  0
LWPOLYLINE
  5
69C
330
18
100
AcDbEntity
  8
ADP1DETAIL
100
AcDbPolyline
 90
        2
 70
     0
 43
0.0
 10
-65.38753730665757
 20
123.7690588474871
 42
0.1548300351601908
 10
-66.05484121828813
 20
124.1516037257879
 42
0.1548300351601908
  0
ARC
  5
6A0
330
18
100
AcDbEntity
  8
ADP1DETAIL
100
AcDbCircle
 10
-61.80250425450774
 20
126.9218148892515
 30
0.0
 40
4.61387261154157
100
AcDbArc
 50
213.2499889758174
 51
233.5268448561884
  0
LWPOLYLINE
  5
6A1
330
18
100
AcDbEntity
  8
ADP1DETAIL
100
AcDbPolyline
 90
        3
 70
     0
 43
0.0
 10
-66.16988037130105
 20
126.08244501266
 42
0.201700476737052
 10
-65.13083836866923
 20
123.8825710392918
 42
0.0044931939518485
 10
-64.54908132056714
 20
123.3697607637292
 42
-0.1032995923719763
  0
LWPOLYLINE
  5
6A6
330
18
100
AcDbEntity
  8
ADP1DETAIL
100
AcDbPolyline
 90
        5
 70
     0
 43
0.0
 10
-65.96732594194614
 20
124.118814170017
 42
0.2165181924479577
 10
-66.28456886097207
 20
124.3155515412266
 42
0.4034113953836878
 10
-66.42678117093239
 20
123.911146934689
 42
0.297654529012762
 10
-66.1970535846301
 20
123.5395318839224
 42
0.5947182856841284
 10
-65.87981066560415
 20
123.8564976506814
 42
-0.1446047119647887
  0
LWPOLYLINE
  5
6AD
330
18
100
AcDbEntity
  8
ADP1DETAIL
100
AcDbPolyline
 90
       18
 70
     0
 43
0.0
 10
-64.08574755697516
 20
122.0814893860983
 42
0.4145416722199038
 10
-64.04198997518584
 20
122.3765954612048
 42
-0.2139254127435477
 10
-64.23889931876447
 20
122.6279820798378
 42
-0.0586131708771143
 10
-64.41392987144843
 20
123.1416852178064
 42
0.1270282755566865
 10
-64.49050575234308
 20
123.2947031691267
 42
-0.2392726577107983
 10
-64.09668700880416
 20
123.3493524531344
 42
-0.1786004957445356
 10
-63.97635348973852
 20
123.2509837492374
 42
0.8711199126580712
 10
-63.84508057522555
 20
123.3056330332451
 42
0.1652548820299661
 10
-64.09668700880416
 20
123.6116689358857
 42
-0.3873088023612477
 10
-64.29359635238279
 20
123.8739854552213
 42
-0.1784356397401831
 10
-64.42486926689577
 20
124.1144422463202
 42
-0.4139576018461991
 10
-64.07480816152784
 20
124.2346706418696
 42
1.000806831222051
 10
-64.05292937063318
 20
124.3439691733007
 42
-0.1311339686702229
 10
-64.37017223327744
 20
124.671864804178
 42
0.1738626968350079
 10
-64.59989981957973
 20
125.04129383822
 42
-0.2842639055218803
 10
-64.07480816152784
 20
125.1833819254219
 42
-0.1548953048741884
 10
-64.50144514779042
 20
125.9484717186077
 42
0.1124851476761073
 10
-64.8186880104347
 20
126.24357775713
 42
-3.719877735630533
  0
LWPOLYLINE
  5
6C1
330
18
100
AcDbEntity
  8
ADP1DETAIL
100
AcDbPolyline
 90
       16
 70
     0
 43
0.0
 10
-63.53877710802861
 20
125.6315059518487
 42
0.5347951295799289
 10
-63.41844364534463
 20
125.5768566678411
 42
0.405059671494968
 10
-63.38562540262096
 20
125.7080149275089
 42
0.1050561255619212
 10
-63.254352488108
 20
125.9047522987185
 42
0.1944086582741342
 10
-63.14495842087135
 20
125.6970850633905
 42
-0.3267035308805388
 10
-62.92617023001639
 20
124.7789773188844
 42
0.5763322931359881
 10
-62.8386549536744
 20
124.5385205277855
 42
0.6540719609888197
 10
-62.77301846822709
 20
124.6368892316824
 42
-0.3027607460657584
 10
-62.61986676281945
 20
124.7680474913502
 42
-0.2420366781180475
 10
-62.64174555371411
 20
123.8936591667333
 42
-0.1861187447083232
 10
-62.82771550184541
 20
123.675062067287
 42
0.8379935224223626
 10
-62.77301846822709
 20
123.5111142518483
 42
-0.0587352560362634
 10
-62.47765445285914
 20
123.5439038076192
 42
-0.1245019854739494
 10
-62.75113967733243
 20
122.7460244952467
 42
-0.1434007767585128
 10
-63.19965545448967
 20
122.407199000251
 42
0.0215041959428941
 10
-63.53877710802861
 20
121.9000538027039
 42
1.778570965907982
  0
LWPOLYLINE
  5
6D3
330
18
100
AcDbEntity
  8
ADP1DETAIL
100
AcDbPolyline
 90
        9
 70
     0
 43
0.0
 10
-64.33735399055379
 20
120.6824680593944
 42
0.0973026850138917
 10
-63.33092836900265
 20
122.9995971306044
 42
0.1876014064483817
 10
-63.7356865079889
 20
125.5877865319594
 42
0.177830152432798
 10
-64.44674811417209
 20
126.1779986455882
 42
-0.2843049133273168
 10
-63.3965647980683
 20
123.6313426473977
 42
-0.1301691401418578
 10
-63.80132293705456
 20
121.8781940744672
 42
0.1054077574604855
 10
-63.50595892168661
 20
122.9274600786411
 42
0.1617493297002281
 10
-63.62629238437059
 20
123.386513932602
 42
0.107686082977582
 10
-64.02011112790951
 20
123.9548663545783
 42
-2.539371502729382
  0
ARC
  5
6DE
330
18
100
AcDbEntity
  8
ADP1DETAIL
100
AcDbCircle
 10
-65.4592251348228
 20
122.0403160634629
 30
0.0
 40
2.541669037905975
100
AcDbArc
 50
45.25626280225963
 51
59.89091802756941
  0
ARC
  5
6DF
330
18
100
AcDbEntity
  8
ADP1DETAIL
100
AcDbCircle
 10
-64.76744003331766
 20
124.6504558193442
 30
0.0
 40
1.967703709433247
100
AcDbArc
 50
321.2679045648902
 51
352.4542275135776
  0
ARC
  5
6E0
330
18
100
AcDbEntity
  8
ADP1DETAIL
100
AcDbCircle
 10
-64.95384535178799
 20
123.5230057420013
 30
0.0
 40
1.59491350253584
100
AcDbArc
 50
12.47127510433704
 51
48.63195889271413
  0
LWPOLYLINE
  5
6E1
330
18
100
AcDbEntity
  8
ADP1DETAIL
100
AcDbPolyline
 90
       27
 70
     0
 43
0.0
 10
-65.93450775560414
 20
119.2200536378736
 42
0.195862766442706
 10
-65.83605308381483
 20
120.0179329868303
 42
0.2610314799660947
 10
-66.17517473735377
 20
120.4114077292494
 42
-0.1179683999431174
 10
-66.64556936178733
 20
120.7939526075503
 42
-0.3387199732159474
 10
-66.64556936178733
 20
121.0453392627675
 42
-0.1886261636375545
 10
-66.40490232365606
 20
121.1874273499694
 42
-0.2745304126988767
 10
-66.67838754812933
 20
121.5262528449652
 42
0.0631644407633851
 10
-66.76590282447133
 20
121.8432186117242
 42
-0.1866379828524058
 10
-66.40490232365606
 20
121.8760081674951
 42
-0.2559440891546219
 10
-66.74402403357665
 20
122.8050457395354
 42
0.1551209632612424
 10
-66.53617523816904
 20
122.7941159120012
 42
-0.2533422907868052
 10
-65.89075011743315
 20
123.6728761603149
 42
-0.5340932580143657
 10
-65.78135599381484
 20
123.6072970121889
 42
0.1802335036480422
 10
-65.77041659836751
 20
122.9405759229
 42
-0.3337309400846509
 10
-65.82511363198583
 20
122.7438385516904
 42
-0.1546619659692604
 10
-65.57350725478888
 20
122.8749968113582
 42
0.503672370997362
 10
-65.52974961661789
 20
122.9624356511367
 42
0.0920063786501734
 10
-65.4422343402759
 20
122.5033817605915
 42
-0.1513953591602361
 10
-65.42035549299957
 20
122.1973458579509
 42
-0.0457327008994333
 10
-65.12499147763164
 20
122.3503638092712
 42
0.0832622758220674
 10
-65.1468702685263
 20
121.8257308071843
 42
-0.2615409444537902
 10
-65.23438554486827
 20
121.3994665089942
 42
-0.0989346710656498
 10
-64.92808207767135
 20
121.4322560647651
 42
0.4003501242698463
 10
-64.97183971584234
 20
121.213659001903
 42
-0.0217469727881879
 10
-65.01559735401333
 20
120.9622723466857
 42
-0.0583943561197075
 10
-65.3000220303156
 20
120.2518318375076
 42
-0.0652070261317556
 10
-65.52974961661789
 20
119.4167910090831
 42
-0.6638489809022948
  0
LWPOLYLINE
  5
6FE
330
18
100
AcDbEntity
  8
ADP1DETAIL
100
AcDbPolyline
 90
        4
 70
     0
 43
0.0
 10
-64.46862690506676
 20
122.6542137317713
 10
-65.49693137389422
 20
123.6160408595825
 42
0.0888488177781797
 10
-65.75947720292018
 20
123.8783573789181
 42
0.1621432025252235
 10
-66.06578067011712
 20
123.8237080949105
 42
0.1621432025252235
  0
LWPOLYLINE
  5
704
330
18
100
AcDbEntity
  8
ADP1DETAIL
100
AcDbPolyline
 90
        3
 70
     0
 43
0.0
 10
-64.3934175104998
 20
122.3688253031174
 42
-0.0002040262177046
 10
-64.42317178421975
 20
122.392718893952
 42
-0.1083012155435782
 10
-65.93829654100774
 20
123.871592124169
 42
-1.037272254373055
  0
LWPOLYLINE
  5
709
330
18
100
AcDbEntity
  8
ADP1DETAIL
100
AcDbPolyline
 90
        8
 70
     0
 43
0.0
 10
-65.32190082121026
 20
120.3130390253525
 42
-0.0686266501426757
 10
-65.10311263035531
 20
120.815812335787
 42
-0.1123013106308945
 10
-65.04841559673699
 20
121.2967258814005
 42
0.096666728362766
 10
-65.45317373572324
 20
121.0125497069966
 42
-0.2532558612474783
 10
-65.42035549299957
 20
121.3076557455188
 42
0.1796208960525165
 10
-65.23438554486827
 20
122.1711142060174
 42
0.2646460032587344
 10
-65.43129488844691
 20
121.8869380316135
 42
-0.3574124356332563
 10
-65.63914368385454
 20
121.7776394635982
 42
-0.3574124356332563
  0
LWPOLYLINE
  5
713
330
18
100
AcDbEntity
  8
ADP1DETAIL
100
AcDbPolyline
 90
        3
 70
     0
 43
0.0
 10
-65.42032381617435
 20
119.7156791210429
 42
-0.029190870565692
 10
-63.15948137832769
 20
121.3068944279609
 42
0.0054323602021969
 10
-63.06143334109534
 20
121.3389590623092
 42
0.0489975899131852
  0
LWPOLYLINE
  5
718
330
18
100
AcDbEntity
  8
ADP1DETAIL
100
AcDbPolyline
 90
        7
 70
     0
 43
0.0
 10
-65.71571956474919
 20
119.449580564854
 42
0.1185717617173606
 10
-65.60632544113087
 20
120.4223375933678
 42
0.0520473151276641
 10
-65.96732594194614
 20
121.7229902161748
 42
-0.115972721762775
 10
-66.03296242739346
 20
123.1985204819545
 42
0.103148453170638
 10
-66.14235649463011
 20
122.1383246502464
 42
0.1534731094287103
 10
-65.72665896019652
 20
120.7174436318901
 42
0.0335327609734602
 10
-65.59538604568354
 20
120.3130390253525
 42
0.6767331564684684
  0
LWPOLYLINE
  5
721
330
18
100
AcDbEntity
  8
ADP1DETAIL
100
AcDbPolyline
 90
        5
 70
     0
 43
0.0
 10
-65.72665896019652
 20
121.3513751654081
 42
-0.1132874651914843
 10
-65.54068901206521
 20
122.0946052303572
 42
0.0930201094435923
 10
-65.57350725478888
 20
122.4443605528871
 42
-0.0991042707775314
 10
-65.60632544113087
 20
122.7285367638752
 42
0.041738832666633
 10
-65.86887127015683
 20
122.4662202811238
 42
2.156527424621478
  0
ARC
  5
728
330
18
100
AcDbEntity
  8
ADP1DETAIL
100
AcDbCircle
 10
-74.19109880561854
 20
123.0638902047508
 30
0.0
 40
8.483928798286703
100
AcDbArc
 50
349.182420127126
 51
355.1459057952099
  0
LWPOLYLINE
  5
729
330
18
100
AcDbEntity
  8
ADP1DETAIL
100
AcDbPolyline
 90
        5
 70
     0
 43
0.0
 10
-66.08765946101178
 20
120.9579004229889
 42
1.053491345230165
 10
-66.09859885645912
 20
121.0562691268858
 42
-0.1425406588550739
 10
-66.54711463361635
 20
121.6136916481595
 42
-0.4225507954374432
 10
-66.48147820455071
 20
121.766709636064
 42
-0.0940737635536062
 10
-66.12047770373544
 20
121.5043931167284
 42
0.4322413043079344
  0
ARC
  5
730
330
18
100
AcDbEntity
  8
ADP1DETAIL
100
AcDbCircle
 10
-66.37772617763069
 20
120.0149241645118
 30
0.0
 40
0.8107352862989197
100
AcDbArc
 50
22.40745485937027
 51
81.06091318618037
  0
LWPOLYLINE
  5
731
330
18
100
AcDbEntity
  8
ADP1DETAIL
100
AcDbPolyline
 90
        5
 70
     0
 43
0.0
 10
-65.8141742365385
 20
120.2037404939215
 42
-0.0205426147663164
 10
-66.36114468548505
 20
120.6409346562299
 42
-0.0901837999322472
 10
-66.55805408544536
 20
120.8813914473288
 42
-0.4910656385689336
 10
-66.14235649463011
 20
120.9797601146415
 42
0.0465279701380806
 10
-65.91262890832782
 20
120.8267421633211
 42
0.2524734311974588
  0
ARC
  5
738
330
18
100
AcDbEntity
  8
ADP1DETAIL
100
AcDbCircle
 10
-62.18494594634721
 20
126.6853886038087
 30
0.0
 40
6.619029472049088
100
AcDbArc
 50
230.758462213655
 51
234.3375182111647
  0
ARC
  5
739
330
18
100
AcDbEntity
  8
ADP1DETAIL
100
AcDbCircle
 10
-62.60660779861542
 20
119.6945603448848
 30
0.0
 40
2.996545071798925
100
AcDbArc
 50
158.70074467578
 51
173.5945974249658
  0
ARC
  5
73A
330
18
100
AcDbEntity
  8
ADP1DETAIL
100
AcDbCircle
 10
-64.44214775854788
 20
120.5255978956926
 30
0.0
 40
1.168953236367705
100
AcDbArc
 50
131.9417220766531
 51
146.8062111925788
  0
LWPOLYLINE
  5
73B
330
18
100
AcDbEntity
  8
ADP1DETAIL
100
AcDbPolyline
 90
        4
 70
     0
 43
0.0
 10
-66.3720840809324
 20
122.5033817605915
 10
-66.29550825641941
 20
122.5033817605915
 42
-0.2001093816505424
 10
-65.93450775560414
 20
123.5198581724104
 42
-0.0760356363411159
 10
-65.92356830377515
 20
122.1099070181724
 42
1.155486085097372
  0
LWPOLYLINE
  5
741
330
18
100
AcDbEntity
  8
ADP1DETAIL
100
AcDbPolyline
 90
        6
 70
     0
 43
0.0
 10
-66.39396292820872
 20
121.7339200437089
 42
0.7455223211141812
 10
-66.29550825641941
 20
121.8104290193691
 42
-0.0306118895708069
 10
-66.59087227178736
 20
122.3241321939219
 42
-0.1487409230605957
 10
-66.62369051451101
 20
122.5208695651315
 42
-1.351813847798257
 10
-66.5252358427217
 20
122.6083083683258
 42
-0.2925165749073567
 10
-66.25175061824842
 20
122.2913426015668
 42
0.8665598924049243
  0
ARC
  5
749
330
18
100
AcDbEntity
  8
ADP1DETAIL
100
AcDbCircle
 10
-69.38711626831507
 20
120.1986136597843
 30
0.0
 40
3.675019375724412
100
AcDbArc
 50
28.00297994320929
 51
37.75411100730137
  0
ARC
  5
74A
330
18
100
AcDbEntity
  8
ADP1DETAIL
100
AcDbCircle
 10
-64.30230165136181
 20
123.6105759458155
 30
0.0
 40
1.85235718456591
100
AcDbArc
 50
173.3929163671669
 51
182.1980228991145
  0
LWPOLYLINE
  5
74B
330
18
100
AcDbEntity
  8
ADP1DETAIL
100
AcDbPolyline
 90
        4
 70
     0
 43
0.0
 10
-66.44865996182705
 20
124.1297439975511
 42
0.073898200474074
 10
-66.70026639540566
 20
123.801848403258
 42
0.2926768615587608
 10
-66.68932699995832
 20
123.6269707237009
 42
0.3067665383781351
 10
-66.1532959464591
 20
123.5286020563882
 42
-0.2099102273776877
  0
ARC
  5
751
330
18
100
AcDbEntity
  8
ADP1DETAIL
100
AcDbCircle
 10
-67.09571969125104
 20
122.3056180428347
 30
0.0
 40
0.745661201680759
100
AcDbArc
 50
28.06223589188577
 51
41.37492758553301
  0
LWPOLYLINE
  5
752
330
18
100
AcDbEntity
  8
ADP1DETAIL
100
AcDbPolyline
 90
        4
 70
     0
 43
0.0
 10
-66.45959935727439
 20
124.053235021891
 42
0.0940539414818544
 10
-66.55805408544536
 20
123.7799886750212
 42
0.1632108984331043
 10
-66.53617523816904
 20
123.6488304519377
 42
0.121575277519584
 10
-66.26269001369575
 20
123.5723214762775
 42
0.0154106167474892
  0
ARC
  5
758
330
18
100
AcDbEntity
  8
ADP1DETAIL
100
AcDbCircle
 10
-66.07125036784079
 20
124.1579289064238
 30
0.0
 40
0.5390387715205641
100
AcDbArc
 50
237.46609197543
 51
279.933291079419
  0
ARC
  5
759
330
18
100
AcDbEntity
  8
ADP1DETAIL
100
AcDbCircle
 10
-65.96600039881217
 20
123.810508396744
 30
0.0
 40
0.4674666047739489
100
AcDbArc
 50
138.736366055856
 51
170.2980492707103
  0
ARC
  5
75A
330
18
100
AcDbEntity
  8
ADP1DETAIL
100
AcDbCircle
 10
-65.40327121018124
 20
123.6816200077086
 30
0.0
 40
0.8955113455654068
100
AcDbArc
 50
159.2709263981309
 51
184.9011014224869
  0
ARC
  5
75B
330
18
100
AcDbEntity
  8
ADP1DETAIL
100
AcDbCircle
 10
-66.02762126152242
 20
124.5001514196537
 30
0.0
 40
0.5754537997858433
100
AcDbArc
 50
222.9739437629505
 51
255.1427088367153
  0
ARC
  5
75C
330
18
100
AcDbEntity
  8
ADP1DETAIL
100
AcDbCircle
 10
-65.84741759128127
 20
124.7243878328548
 30
0.0
 40
1.00118101984322
100
AcDbArc
 50
235.4062744907197
 51
254.8224219287056
  0
ARC
  5
75D
330
18
100
AcDbEntity
  8
ADP1DETAIL
100
AcDbCircle
 10
-65.84488452214578
 20
122.1546665368341
 30
0.0
 40
0.4250392358776998
100
AcDbArc
 50
317.8529837697689
 51
2.80762864000307
  0
LWPOLYLINE
  5
75E
330
18
100
AcDbEntity
  8
ADP1DETAIL
100
AcDbPolyline
 90
        6
 70
     0
 43
0.0
 10
-62.33544208651718
 20
121.6176263904619
 42
0.3547397914388744
 10
-62.12759334749121
 20
121.650415982817
 42
0.4028354758977405
 10
-62.13853274293854
 20
121.9783115771102
 42
0.4792050866713715
 10
-62.96992786818738
 20
121.9892414412285
 42
0.6350926506410117
 10
-62.70738203916143
 20
121.5739069705726
 42
-0.1621974494680901
 10
-62.58704852009579
 20
121.4973979949125
 42
0.4756319537787135
  0
LWPOLYLINE
  5
766
330
18
100
AcDbEntity
  8
ADP1DETAIL
100
AcDbPolyline
 90
        5
 70
     0
 43
0.0
 10
-64.2498387142118
 20
121.4475578525803
 42
-0.1889855177633923
 10
-64.4029904760011
 20
122.245437201537
 42
-0.3975419639740267
 10
-63.96541409429119
 20
121.6333653596715
 42
0.3652530914972776
 10
-63.80132293705456
 20
122.6061223881853
 42
0.0447467913235693
 10
-64.16232343786981
 20
123.1088956620355
 42
-2.184352205546376
  0
LWPOLYLINE
  5
76D
330
18
100
AcDbEntity
  8
ADP1DETAIL
100
AcDbPolyline
 90
        3
 70
     0
 43
0.0
 10
-62.22604801928053
 20
121.2132218205086
 42
-0.1366775898165404
 10
-62.34638153834616
 20
121.6394861186986
 42
-0.2611748564277361
 10
-62.29168444834618
 20
121.7378547860113
 42
-0.2834391419160907
  0
ARC
  5
772
330
18
100
AcDbEntity
  8
ADP1DETAIL
100
AcDbCircle
 10
-52.76501364051167
 20
135.1953306103505
 30
0.0
 40
17.1048203460273
100
AcDbArc
 50
232.3612720795907
 51
238.6339463840352
  0
LWPOLYLINE
  5
773
330
18
100
AcDbEntity
  8
ADP1DETAIL
100
AcDbPolyline
 90
        2
 70
     0
 43
0.0
 10
-61.85862712943402
 20
120.4724036316135
 42
-0.0102633000061041
 10
-63.41070953164074
 20
121.6016486071426
 42
-0.2491411958847478
  0
ARC
  5
777
330
18
100
AcDbEntity
  8
ADP1DETAIL
100
AcDbCircle
 10
-61.94635514292125
 20
123.0159489827032
 30
0.0
 40
1.737298236159244
100
AcDbArc
 50
227.3646397945212
 51
247.5807599685504
  0
LWPOLYLINE
  5
778
330
18
100
AcDbEntity
  8
ADP1DETAIL
100
AcDbPolyline
 90
        3
 70
     0
 43
0.0
 10
-62.44483621013548
 20
121.1695024006193
 42
-0.3253509906091052
 10
-62.56516972920112
 20
121.4646084391416
 42
0.1834616071393844
 10
-62.70738203916143
 20
121.650415982817
 42
-3.513022888543757
  0
LWPOLYLINE
  5
77D
330
18
100
AcDbEntity
  8
ADP1DETAIL
100
AcDbPolyline
 90
        4
 70
     0
 43
0.0
 10
-62.97295912972055
 20
120.8207238449763
 42
-0.0140353514513215
 10
-64.19570752694603
 20
120.1200630238405
 42
0.0476972741362857
 10
-64.87810029876715
 20
119.665531857135
 42
0.0038323463283885
 10
-64.92117309024961
 20
119.6299398483291
 42
0.2411910794109564
  0
LWPOLYLINE
  5
783
330
18
100
AcDbEntity
  8
ADP1DETAIL
100
AcDbPolyline
 90
        3
 70
     0
 43
0.0
 10
-63.89977760884387
 20
119.4618220097399
 42
0.0203824744534899
 10
-64.11856579969883
 20
119.429032453969
 42
0.9964540801883787
 10
-64.21702047148814
 20
119.6476295168311
 42
4.695972781168401
  0
LWPOLYLINE
  5
788
330
18
100
AcDbEntity
  8
ADP1DETAIL
100
AcDbPolyline
 90
        5
 70
     0
 43
0.0
 10
-62.67456379643777
 20
120.4782984215587
 42
0.4902499476190904
 10
-63.00274605452938
 20
120.2597013586966
 42
0.2865974836349335
 10
-62.41201796741183
 20
119.8443668880407
 42
0.3510204587434273
 10
-62.28074505289885
 20
120.1831923830364
 42
0.1869473227236436
 10
-62.45577560558281
 20
120.4017894458985
 42
-3.714200041970866
  0
LWPOLYLINE
  5
78F
330
18
100
AcDbEntity
  8
ADP1DETAIL
100
AcDbPolyline
 90
        3
 70
     0
 43
0.0
 10
-62.52141209103013
 20
120.2815610503491
 42
0.3843091794325836
 10
-62.44483621013548
 20
120.6422462369974
 42
0.2787553566006482
 10
-63.10120078270035
 20
121.0029314236457
 42
48.4967286810995
  0
LWPOLYLINE
  5
794
330
18
100
AcDbEntity
  8
ADP1DETAIL
100
AcDbPolyline
 90
        4
 70
     0
 43
0.0
 10
-63.27623127900266
 20
120.7734044966652
 42
-0.3709425207343368
 10
-62.6855031918851
 20
120.6422462369974
 42
-0.2719956585687119
 10
-62.66362440099044
 20
120.4455088657878
 42
-0.519092996126949
 10
-62.86053374456907
 20
120.2815610503491
 42
-7.551919676738126
  0
ARC
  5
79A
330
18
100
AcDbEntity
  8
ADP1DETAIL
100
AcDbCircle
 10
-62.83003775852947
 20
120.5055332954334
 30
0.0
 40
0.4759745161440045
100
AcDbArc
 50
272.9144754433025
 51
305.412465716542
  0
LWPOLYLINE
  5
79B
330
18
100
AcDbEntity
  8
ADP1DETAIL
100
AcDbPolyline
 90
        3
 70
     0
 43
0.0
 10
-62.99180665908204
 20
120.2487714945782
 42
0.2079079256386068
 10
-62.82771550184541
 20
119.7350683566096
 42
0.288167008593232
 10
-62.48859384830647
 20
119.855296752159
 42
-0.484187330964914
  0
ARC
  5
7A0
330
18
100
AcDbEntity
  8
ADP1DETAIL
100
AcDbCircle
 10
-62.16660113224667
 20
120.1589168655353
 30
0.0
 40
0.5558944176273447
100
AcDbArc
 50
172.9741993808724
 51
206.6073835389594
  0
ARC
  5
7A1
330
18
100
AcDbEntity
  8
ADP1DETAIL
100
AcDbCircle
 10
-62.23494249353908
 20
120.0812091710783
 30
0.0
 40
0.3083695725725763
100
AcDbArc
 50
179.328400666617
 51
227.1050438866541
  0
ARC
  5
7A2
330
18
100
AcDbEntity
  8
ADP1DETAIL
100
AcDbCircle
 10
-62.74418799882869
 20
120.3719017597994
 30
0.0
 40
0.4845384968707446
100
AcDbArc
 50
287.5615756556807
 51
316.944510828574
  0
ARC
  5
7A3
330
18
100
AcDbEntity
  8
ADP1DETAIL
100
AcDbCircle
 10
-62.92493632654318
 20
120.5352124245704
 30
0.0
 40
0.3863133067843833
100
AcDbArc
 50
264.9430257925631
 51
304.2742721323558
  0
ARC
  5
7A4
330
18
100
AcDbEntity
  8
ADP1DETAIL
100
AcDbCircle
 10
-60.95482323499927
 20
120.5401184442441
 30
0.0
 40
1.951631327940719
100
AcDbArc
 50
186.6429403466766
 51
195.1466887731266
  0
LWPOLYLINE
  5
7A5
330
18
100
AcDbEntity
  8
ADP1DETAIL
100
AcDbPolyline
 90
        2
 70
     0
 43
0.0
 10
-62.63926486653421
 20
121.0281895211402
 42
-0.0016270944636305
 10
-62.77764093258983
 20
120.941278311776
 42
0.0476972741362857
  0
LWPOLYLINE
  5
7A9
330
18
100
AcDbEntity
  8
ADP1DETAIL
100
AcDbPolyline
 90
        2
 70
     0
 43
0.0
 10
-62.6075356537062
 20
121.5194083740833
 42
0.0009563282011143
 10
-62.59104163138292
 20
121.5270083444788
 42
0.0489975899131852
  0
ARC
  5
7AD
330
18
100
AcDbEntity
  8
ADP1DETAIL
100
AcDbCircle
 10
-61.71614393112741
 20
121.6497198269021
 30
0.0
 40
0.5300997250306749
100
AcDbArc
 50
202.9817561315064
 51
226.0820479680428
  0
ARC
  5
7AE
330
18
100
AcDbEntity
  8
ADP1DETAIL
100
AcDbCircle
 10
-62.08383570932022
 20
121.267871067932
 30
0.0
 40
0.0
100
AcDbArc
 50
272.1640959360856
 51
0.0
  0
ARC
  5
7AF
330
18
100
AcDbEntity
  8
ADP1DETAIL
100
AcDbCircle
 10
-63.03658404450436
 20
118.6270252048754
 30
0.0
 40
2.556973320475091
100
AcDbArc
 50
51.3159413438617
 51
60.50159885856764
  0
LINE
  5
7B0
330
18
100
AcDbEntity
  8
ADP1DETAIL
100
AcDbLine
 10
-61.92772909742679
 20
119.8965663831182
 30
0.0
 11
-61.53340737308763
 21
120.0443078659738
 31
0.0
  0
ARC
  5
7B1
330
18
100
AcDbEntity
  8
ADP1DETAIL
100
AcDbCircle
 10
-58.80572558738237
 20
125.7220569603663
 30
0.0
 40
5.530441025443844
100
AcDbArc
 50
233.6483559507244
 51
241.7020159422429
  0
ARC
  5
7B2
330
18
100
AcDbEntity
  8
ADP1DETAIL
100
AcDbCircle
 10
-65.21251314360523
 20
124.5462800533814
 30
0.0
 40
2.575905505429258
100
AcDbArc
 50
315.8661655745329
 51
335.9329673383113
  0
ARC
  5
7B3
330
18
100
AcDbEntity
  8
ADP1DETAIL
100
AcDbCircle
 10
-64.23291407757268
 20
122.7579133872851
 30
0.0
 40
0.5381492169338881
100
AcDbArc
 50
9.955578731059704
 51
57.47077526895559
  0
LWPOLYLINE
  5
7B4
330
18
100
AcDbEntity
  8
ADP1DETAIL
100
AcDbPolyline
 90
        5
 70
     0
 43
0.0
 10
-62.88241259184539
 20
122.0548205527703
 42
-0.0924367098848268
 10
-62.71832143460876
 20
122.4701550234262
 42
-0.295091441442997
 10
-62.55423027737212
 20
122.5466639990864
 42
-0.414075737416101
 10
-62.22604801928053
 20
122.3389967637585
 42
-0.0252940899829779
 10
-62.1713509856622
 20
122.0220309969994
 42
0.8863925199085858
  0
ARC
  5
7BB
330
18
100
AcDbEntity
  8
ADP1DETAIL
100
AcDbCircle
 10
-62.84833114667787
 20
121.5782036444835
 30
0.0
 40
0.6147565166808573
100
AcDbArc
 50
22.59112281475184
 51
69.27767818029605
  0
ARC
  5
7BC
330
18
100
AcDbEntity
  8
ADP1DETAIL
100
AcDbCircle
 10
-62.57914206620676
 20
121.7502874747196
 30
0.0
 40
0.3931019569173288
100
AcDbArc
 50
94.34546096519087
 51
155.5915442164723
  0
ARC
  5
7BD
330
18
100
AcDbEntity
  8
ADP1DETAIL
100
AcDbCircle
 10
-62.10508360088155
 20
121.8384921793346
 30
0.0
 40
0.1938133099934134
100
AcDbArc
 50
117.0520275440091
 51
164.3200851632098
  0
ARC
  5
7BE
330
18
100
AcDbEntity
  8
ADP1DETAIL
100
AcDbCircle
 10
-62.22608241055649
 20
121.659060314201
 30
0.0
 40
0.3739005484984166
100
AcDbArc
 50
89.99472994897827
 51
139.5174684648238
  0
ARC
  5
7BF
330
18
100
AcDbEntity
  8
ADP1DETAIL
100
AcDbCircle
 10
-63.03675949898796
 20
121.4784597235528
 30
0.0
 40
0.6579454448110838
100
AcDbArc
 50
31.81288433283217
 51
70.46704498458847
  0
ARC
  5
7C0
330
18
100
AcDbEntity
  8
ADP1DETAIL
100
AcDbCircle
 10
-62.36005836056548
 20
121.4434720396663
 30
0.0
 40
0.6552106930614882
100
AcDbArc
 50
88.80392503252513
 51
132.8716860549648
  0
LWPOLYLINE
  5
7C1
330
18
100
AcDbEntity
  8
ADP1DETAIL
100
AcDbPolyline
 90
        2
 70
     0
 43
0.0
 10
-62.938653192145
 20
122.0424549218653
 42
0.0000770570139381
 10
-62.92818701464439
 20
122.0342481962507
 42
-0.1032995923719763
  0
LWPOLYLINE
  5
7C5
330
18
100
AcDbEntity
  8
ADP1DETAIL
100
AcDbPolyline
 90
        2
 70
     0
 43
0.0
 10
-62.06689867345074
 20
121.8109795150284
 42
0.0272148592693554
 10
-61.64472095191199
 20
122.1084116423064
 42
0.0489975899131852
  0
ARC
  5
7C9
330
18
100
AcDbEntity
  8
ADP1DETAIL
100
AcDbCircle
 10
-62.70837681072735
 20
121.6922694849627
 30
0.0
 40
0.596890743495006
100
AcDbArc
 50
7.545021176987153
 51
36.09232442904498
  0
LINE
  5
7CA
330
18
100
AcDbEntity
  8
ADP1DETAIL
100
AcDbLine
 10
-63.210594849937
 20
122.2060897053445
 30
0.0
 11
-63.07932193542402
 21
122.2607389893522
 31
0.0
  0
LINE
  5
7CB
330
18
100
AcDbEntity
  8
ADP1DETAIL
100
AcDbLine
 10
-63.19965545448967
 20
122.3809673849016
 30
0.0
 11
-63.210594849937
 21
122.2060897053445
 31
0.0
  0
ARC
  5
7CC
330
18
100
AcDbEntity
  8
ADP1DETAIL
100
AcDbCircle
 10
-62.29167417902468
 20
122.2146703263387
 30
0.0
 40
0.407912900494578
100
AcDbArc
 50
128.0856880944374
 51
187.1187649749795
  0
LINE
  5
7CD
330
18
100
AcDbEntity
  8
ADP1DETAIL
100
AcDbLine
 10
-63.07932193542402
 20
122.2607389893522
 30
0.0
 11
-63.01368550635837
 21
122.1733001495737
 31
0.0
  0
ARC
  5
7CE
330
18
100
AcDbEntity
  8
ADP1DETAIL
100
AcDbCircle
 10
-65.59859572541376
 20
126.2619083086115
 30
0.0
 40
0.4372614184892159
100
AcDbArc
 50
249.2454791487105
 51
290.7545208512893
  0
ARC
  5
7CF
330
18
100
AcDbEntity
  8
ADP1DETAIL
100
AcDbCircle
 10
-67.00264805462939
 20
126.3514051805816
 30
0.0
 40
1.483053624151177
100
AcDbArc
 50
332.446001733371
 51
345.6715929869306
  0
LWPOLYLINE
  5
7D0
330
18
100
AcDbEntity
  8
ADP1DETAIL
100
AcDbPolyline
 90
        4
 70
     0
 43
0.0
 10
-66.0540550786951
 20
125.655985042009
 42
0.154704011668365
 10
-65.8005003912252
 20
125.4214172819432
 42
0.3561681609635319
 10
-65.42486380888646
 20
125.5152443786909
 42
0.1211137842415702
 10
-65.40608201342202
 20
125.8342565585836
 42
-1.201131281584963
  0
ARC
  5
7D6
330
18
100
AcDbEntity
  8
ADP1DETAIL
100
AcDbCircle
 10
-65.41212684007994
 20
126.3611984367769
 30
0.0
 40
0.8667772901563964
100
AcDbArc
 50
223.1339262638791
 51
266.0511377671631
  0
LWPOLYLINE
  5
7D7
330
18
100
AcDbEntity
  8
ADP1DETAIL
100
AcDbPolyline
 90
        6
 70
     0
 43
0.0
 10
-66.03527322714317
 20
126.087589781671
 42
0.1548241334678396
 10
-66.15735512201201
 20
125.8436392718977
 42
0.3766878000820685
 10
-66.04466412487538
 20
125.6653677553231
 42
0.325252250111106
 10
-65.40608201342202
 20
125.8248738452695
 42
0.2321508601043706
 10
-65.46242745590284
 20
126.1907995917328
 42
0.1833044925089278
 10
-65.81928218668963
 20
126.2001823050469
 42
0.1833044925089278
  0
LWPOLYLINE
  5
7DF
330
18
100
AcDbEntity
  8
ADP1DETAIL
100
AcDbPolyline
 90
        4
 70
     0
 43
0.0
 10
-66.35456431091359
 20
126.0688243550428
 42
-0.4269823778938347
 10
-66.16674601974422
 20
126.3596883949933
 42
-0.2063205084670919
 10
-65.82867314050935
 20
126.209565018361
 42
0.179694762911739
 10
-65.61268210005583
 20
126.0312935017864
 42
0.1687874471171689
  0
ARC
  5
7E5
330
18
100
AcDbEntity
  8
ADP1DETAIL
100
AcDbCircle
 10
-63.83118460111184
 20
126.2202408912555
 30
0.0
 40
2.607898278269057
100
AcDbArc
 50
180.0284108432637
 51
212.6949890886321
  0
ARC
  5
7E6
330
18
100
AcDbEntity
  8
ADP1DETAIL
100
AcDbCircle
 10
-61.86005819628507
 20
126.5747257173588
 30
0.0
 40
4.796826313698029
100
AcDbArc
 50
183.9164297860549
 51
209.2648074535559
  0
LWPOLYLINE
  5
7E7
330
18
100
AcDbEntity
  8
ADP1DETAIL
100
AcDbPolyline
 90
        2
 70
     0
 43
0.0
 10
-66.18549731207633
 20
124.2911006105273
 42
-0.1121273579188665
 10
-66.7483620385952
 20
126.4077441998501
 42
-1.037272254373055
  0
LWPOLYLINE
  5
7EB
330
18
100
AcDbEntity
  8
ADP1DETAIL
100
AcDbPolyline
 90
        3
 70
     0
 43
0.0
 10
-66.72308822596682
 20
126.4077441998501
 10
-66.16706446090592
 20
126.4077441998501
 42
0.0038795381911076
 10
-66.16963216679716
 20
126.3591139315672
 42
0.0044931939518485
  0
ARC
  5
7F0
330
18
100
AcDbEntity
  8
ADP1DETAIL
100
AcDbCircle
 10
-66.0053693117012
 20
125.8324954502682
 30
0.0
 40
0.1768604697964294
100
AcDbArc
 50
266.3944950138851
 51
357.530137325659
  0
ARC
  5
7F1
330
18
100
AcDbEntity
  8
ADP1DETAIL
100
AcDbCircle
 10
-66.20340414275254
 20
125.9247894254424
 30
0.0
 40
0.4555470367244053
100
AcDbArc
 50
317.743113006179
 51
350.9357909093578
  0
ARC
  5
7F2
330
18
100
AcDbEntity
  8
ADP1DETAIL
100
AcDbCircle
 10
-66.4779017544719
 20
124.5755020441667
 30
0.0
 40
1.333018452549215
100
AcDbArc
 50
54.15006171720814
 51
65.38064079126583
  0
ARC
  5
7F3
330
18
100
AcDbEntity
  8
ADP1DETAIL
100
AcDbCircle
 10
-66.1517655657905
 20
125.9087365605693
 30
0.0
 40
0.1501224445313713
100
AcDbArc
 50
275.0414785260138
 51
334.3019793648181
  0
LWPOLYLINE
  5
7F4
330
18
100
AcDbEntity
  8
ADP1DETAIL
100
AcDbPolyline
 90
        3
 70
     0
 43
0.0
 10
-66.24187331377697
 20
125.99376264853
 42
-0.5657324834689143
 10
-65.94136408155847
 20
126.0500589284146
 42
-0.8435455436167076
 10
-65.97892772857486
 20
126.0031453618441
 42
-3.869145926563918
  0
ARC
  5
7F9
330
18
100
AcDbEntity
  8
ADP1DETAIL
100
AcDbCircle
 10
-65.83056873738552
 20
125.9600484900644
 30
0.0
 40
0.3838752296430742
100
AcDbArc
 50
326.7928011445321
 51
16.46099531615381
  0
ARC
  5
7FA
330
18
100
AcDbEntity
  8
ADP1DETAIL
100
AcDbCircle
 10
-64.95078690845274
 20
127.1919778563093
 30
0.0
 40
1.440925747431146
100
AcDbArc
 50
240.5317922730804
 51
251.580375329696
  0
ARC
  5
7FB
330
18
100
AcDbEntity
  8
ADP1DETAIL
100
AcDbCircle
 10
-64.4917076416581
 20
124.3563549854578
 30
0.0
 40
0.907579920991465
100
AcDbArc
 50
25.13248904748088
 51
63.42944295604923
  0
LWPOLYLINE
  5
7FC
330
18
100
AcDbEntity
  8
ADP1DETAIL
100
AcDbPolyline
 90
        3
 70
     0
 43
0.0
 10
-63.50595892168661
 20
125.259890901082
 42
0.26576599307245
 10
-63.5497165598576
 20
125.6205760877303
 42
-0.331528556401121
 10
-63.5497165598576
 20
125.8282433230583
 42
-0.5020331260529922
  0
LWPOLYLINE
  5
801
330
18
100
AcDbEntity
  8
ADP1DETAIL
100
AcDbPolyline
 90
        4
 70
     0
 43
0.0
 10
-62.85851491526178
 20
125.4307999952573
 42
-0.1513116126772222
 10
-62.42653283435473
 20
125.5527752319473
 42
0.1116479628395558
 10
-62.00394170726739
 20
125.6372196153808
 42
-0.4725535200723684
 10
-61.79734162063359
 20
125.5340098053191
 42
8.867353868885162
  0
ARC
  5
807
330
18
100
AcDbEntity
  8
ADP1DETAIL
100
AcDbCircle
 10
-66.69057236062013
 20
125.0314569641719
 30
0.0
 40
3.503832725011257
100
AcDbArc
 50
347.8448595515264
 51
4.921079932532402
  0
LWPOLYLINE
  5
808
330
18
100
AcDbEntity
  8
ADP1DETAIL
100
AcDbPolyline
 90
        6
 70
     0
 43
0.0
 10
-62.20115095225647
 20
126.1438860251623
 10
-62.17297820297233
 20
126.0969724949851
 10
-62.09785085285208
 20
126.1251205985341
 10
-62.05089630810348
 20
126.1251205985341
 10
-62.08845995511985
 20
126.1720341651046
 10
-62.06967815965541
 20
126.2846267248738
  0
DIMENSION
  5
810
330
18
100
AcDbEntity
  8
ADPDIM
100
AcDbDimension
  2
*D0
 10
-57.79867522985584
 20
126.4077441998501
 30
0.0
 11
-57.79867522985584
 21
112.5327959917526
 31
0.0
100
AcDbAlignedDimension
 13
-58.78711275210724
 23
98.65784778365508
 33
0.0
 14
-58.71129131422211
 24
126.4077441998501
 34
0.0
 50
90.0
100
AcDbRotatedDimension
  0
LWPOLYLINE
  5
811
330
18
100
AcDbEntity
  8
ADP1DETAIL
100
AcDbPolyline
 90
        2
 70
     0
 43
0.0
 10
-58.67936573516866
 20
107.9487284243384
 42
0.2510322567771261
 10
-59.53867519538797
 20
110.0698738689635
 42
0.0113882978464192
  0
LWPOLYLINE
  5
815
330
18
100
AcDbEntity
  8
ADP1DETAIL
100
AcDbPolyline
 90
        2
 70
     0
 43
0.0
 10
-58.69803815736823
 20
108.0227875744842
 42
0.1959267540893976
 10
-59.80291850709036
 20
110.1759688302555
 42
-0.0614797682496493
  0
LWPOLYLINE
  5
819
330
18
100
AcDbEntity
  8
ADP1DETAIL
100
AcDbPolyline
 90
        2
 70
     0
 43
0.0
 10
-59.22982032789996
 20
108.7164620559675
 42
-0.0936143565740005
 10
-59.13429424971607
 20
107.9487284243384
 42
-17.12536180968244
  0
LWPOLYLINE
  5
81D
330
18
100
AcDbEntity
  8
ADP1DETAIL
100
AcDbPolyline
 90
        6
 70
     0
 43
0.0
 10
-59.32158448720945
 20
108.7113683920099
 42
-0.2730730233482699
 10
-59.21219036359115
 20
108.4490519092585
 42
-0.4064627871532736
 10
-59.40909976355143
 20
108.2960339579382
 42
-0.197076862240398
 10
-60.01076724611632
 20
108.5364907124528
 42
-0.2657258391037116
 10
-59.90137317887967
 20
108.8643863433302
 42
-0.1522589951065187
 10
-59.54037267806441
 20
108.8753162074486
 42
-7.309465791801355
  0
ARC
  5
825
330
18
100
AcDbEntity
  8
ADP1DETAIL
100
AcDbCircle
 10
-59.07697483556376
 20
108.6348594163498
 30
0.0
 40
0.8815380318612158
100
AcDbArc
 50
175.7337284403471
 51
189.9960717325831
  0
ARC
  5
826
330
18
100
AcDbEntity
  8
ADP1DETAIL
100
AcDbCircle
 10
-59.38788894746939
 20
108.5146310208003
 30
0.0
 40
0.393757957044991
100
AcDbArc
 50
160.5433469771517
 51
199.4566530228483
  0
ARC
  5
827
330
18
100
AcDbEntity
  8
ADP1DETAIL
100
AcDbCircle
 10
-59.05945901571552
 20
108.6896615480849
 30
0.0
 40
0.4701297683260013
100
AcDbArc
 50
197.6112370551163
 51
234.4911491727824
  0
ARC
  5
828
330
18
100
AcDbEntity
  8
ADP1DETAIL
100
AcDbCircle
 10
-59.0689832063455
 20
108.6585850665535
 30
0.0
 40
0.5968908287208112
100
AcDbArc
 50
187.5450275871718
 51
216.0923233126739
  0
LWPOLYLINE
  5
829
330
18
100
AcDbEntity
  8
ADP1DETAIL
100
AcDbPolyline
 90
        4
 70
     0
 43
0.0
 10
-59.89044643793699
 20
103.874214791678
 42
-0.345708275846433
 10
-59.24917070872765
 20
102.7152733884779
 42
-0.0897171021519035
 10
-59.46607277791592
 20
102.1405137961314
 42
0.0524821900770591
 10
-59.56037806689757
 20
101.6976662831884
 42
1.110869346037042
  0
LWPOLYLINE
  5
82F
330
18
100
AcDbEntity
  8
ADP1DETAIL
100
AcDbPolyline
 90
        3
 70
     0
 43
0.0
 10
-60.55058318001584
 20
104.0815051292903
 42
-0.3124268181134236
 10
-59.83386328701142
 20
103.6009684508034
 42
-0.1894858297724325
 10
-59.83386328701142
 20
102.9131414347043
 42
-0.1894858297724325
  0
LWPOLYLINE
  5
834
330
18
100
AcDbEntity
  8
ADP1DETAIL
100
AcDbPolyline
 90
        3
 70
     0
 43
0.0
 10
-59.92343224246063
 20
101.4126854845203
 42
-0.0072769508552423
 10
-59.79806503171555
 20
101.2840278823427
 42
-0.1977308677170114
 10
-58.78711275210724
 20
98.65784778365508
 42
1.023226445938185
  0
LWPOLYLINE
  5
839
330
18
100
AcDbEntity
  8
ADP1DETAIL
100
AcDbPolyline
 90
        4
 70
     0
 43
0.0
 10
-58.85941343715401
 20
99.2834876872871
 42
-0.0995291904465459
 10
-58.89638108823924
 20
100.3669251794489
 42
0.1385375919243913
 10
-58.92102618896274
 20
101.4503626716107
 42
0.0676412362111478
 10
-59.3871204141802
 20
101.8337875982604
 42
-0.0598234522626375
  0
LWPOLYLINE
  5
83F
330
18
100
AcDbEntity
  8
ADP1DETAIL
100
AcDbPolyline
 90
        5
 70
     0
 43
0.0
 10
-59.57412147089854
 20
100.4407959208766
 42
0.2122998725747275
 10
-60.17792655138737
 20
100.7239670902524
 42
0.377522991205287
 10
-60.65850612825874
 20
100.3176780306918
 42
0.3030611945105201
 10
-60.44902271572742
 20
99.87445358212513
 42
-0.1227142874668904
 10
-60.11631379957864
 20
99.54203526399224
 42
0.565393069653633
  0
LWPOLYLINE
  5
846
330
18
100
AcDbEntity
  8
ADP1DETAIL
100
AcDbPolyline
 90
        4
 70
     0
 43
0.0
 10
-59.17979980294104
 20
100.3176780306918
 10
-59.06889679330367
 20
99.91138897113112
 42
-0.0901284266713878
 10
-59.08121934366541
 20
100.5885374037322
 42
0.2244307624593022
 10
-59.25373510511151
 20
101.5242334130384
 42
0.5123308461200823
  0
LWPOLYLINE
  5
84C
330
18
100
AcDbEntity
  8
ADP1DETAIL
100
AcDbPolyline
 90
        4
 70
     0
 43
0.0
 10
-60.26418446030124
 20
99.68977674684779
 42
0.2974618766935839
 10
-60.15328145066387
 20
99.2834876872871
 42
0.6726184776610583
 10
-59.58644402126028
 20
99.97294791622357
 42
0.2642754967151629
 10
-60.0793461484934
 20
99.94832432355289
 42
3.434550856522029
  0
LWPOLYLINE
  5
852
330
18
100
AcDbEntity
  8
ADP1DETAIL
100
AcDbPolyline
 90
        2
 70
     0
 43
0.0
 10
-59.29258889191139
 20
98.65784778365508
 42
0.1442968456658709
 10
-59.89230615738271
 20
100.4046215256496
 42
-0.0009380833969231
  0
LWPOLYLINE
  5
856
330
18
100
AcDbEntity
  8
ADP1DETAIL
100
AcDbPolyline
 90
        3
 70
     0
 43
0.0
 10
-60.06702359813166
 20
99.25886413120068
 42
0.2875820022055708
 10
-59.73431468198288
 20
99.09881085200979
 42
0.2682201267209117
 10
-59.36013448020123
 20
99.18985781976871
 42
0.2293105956679046
  0
ARC
  5
85B
330
18
100
AcDbEntity
  8
ADP1DETAIL
100
AcDbCircle
 10
-60.14550587125036
 20
99.56609329639958
 30
0.0
 40
0.1775303285349654
100
AcDbArc
 50
255.4022429858424
 51
4.159665170428032
  0
ARC
  5
85C
330
18
100
AcDbEntity
  8
ADP1DETAIL
100
AcDbCircle
 10
-60.22022726566314
 20
99.48663221706745
 30
0.0
 40
0.5237835971852772
100
AcDbArc
 50
347.0969427357597
 51
33.53037692549249
  0
ARC
  5
85D
330
18
100
AcDbEntity
  8
ADP1DETAIL
100
AcDbCircle
 10
-60.29130962397322
 20
99.52841314698556
 30
0.0
 40
0.4397964699921399
100
AcDbArc
 50
322.2008809039877
 51
21.52487742257276
  0
ARC
  5
85E
330
18
100
AcDbEntity
  8
ADP1DETAIL
100
AcDbCircle
 10
-59.84521766342942
 20
99.91920920721868
 30
0.0
 40
0.5704335182106487
100
AcDbArc
 50
234.3201059507664
 51
279.9516277830417
  0
LWPOLYLINE
  5
85F
330
18
100
AcDbEntity
  8
ADP1DETAIL
100
AcDbPolyline
 90
        4
 70
     0
 43
0.0
 10
-59.7096695812594
 20
100.1822483441715
 42
0.1193065034193453
 10
-60.05470104776992
 20
100.5269784586398
 42
0.6799697201184362
 10
-60.32579721210996
 20
100.0960658064084
 42
0.2965631817598622
 10
-59.86986273596208
 20
99.92370076746645
 42
-0.1079977093068407
  0
ARC
  5
865
330
18
100
AcDbEntity
  8
ADP1DETAIL
100
AcDbCircle
 10
-60.16529879567391
 20
100.244320846327
 30
0.0
 40
0.6908954638220133
100
AcDbArc
 50
291.9690931224198
 51
328.8336407256902
  0
ARC
  5
866
330
18
100
AcDbEntity
  8
ADP1DETAIL
100
AcDbCircle
 10
-59.87579781427798
 20
99.98422387782341
 30
0.0
 40
0.4879132213174126
100
AcDbArc
 50
253.0879549996547
 51
301.1497546872545
  0
ARC
  5
867
330
18
100
AcDbEntity
  8
ADP1DETAIL
100
AcDbCircle
 10
-60.05403518548215
 20
99.61588277469076
 30
0.0
 40
0.4960677218581566
100
AcDbArc
 50
352.8742752309053
 51
46.03723768095619
  0
LINE
  5
868
330
18
100
AcDbEntity
  8
ADP1DETAIL
100
AcDbLine
 10
-59.28747795238545
 20
98.65513326561234
 30
0.0
 11
-58.78883284749715
 21
98.65513326561234
 31
0.0
  0
ARC
  5
869
330
18
100
AcDbEntity
  8
ADP1DETAIL
100
AcDbCircle
 10
-61.25548688735934
 20
99.13038258297133
 30
0.0
 40
2.1903615563778
100
AcDbArc
 50
350.7607621708079
 51
24.73329136881115
  0
LWPOLYLINE
  5
86A
330
18
100
AcDbEntity
  8
ADP1DETAIL
100
AcDbPolyline
 90
        3
 70
     0
 43
0.0
 10
-59.1674772525793
 20
101.0686971681364
 42
0.5667911003549154
 10
-59.85754018560033
 20
101.4872980240324
 42
-0.1712845490028158
 10
-59.74663723234463
 20
101.5857923581309
 42
-0.1712845490028158
  0
LWPOLYLINE
  5
86F
330
18
100
AcDbEntity
  8
ADP1DETAIL
100
AcDbPolyline
 90
        3
 70
     0
 43
0.0
 10
-60.14971602211844
 20
100.7229133750183
 42
0.0374070987552836
 10
-60.5057316725467
 20
101.0567622989899
 42
-0.0009380833969231
 10
-60.65292603566557
 20
101.1522541381431
 42
-0.2669820551644844
  0
LINE
  5
874
330
18
100
AcDbEntity
  8
ADP1DETAIL
100
AcDbLine
 10
-61.21302100730059
 20
102.2506289943967
 30
0.0
 11
-61.13908570513012
 21
102.2875643468184
 31
0.0
  0
LINE
  5
875
330
18
100
AcDbEntity
  8
ADP1DETAIL
100
AcDbLine
 10
-61.13908570513012
 20
102.1275111042118
 30
0.0
 11
-61.21302100730059
 21
102.2506289943967
 31
0.0
  0
LINE
  5
876
330
18
100
AcDbEntity
  8
ADP1DETAIL
100
AcDbLine
 10
-61.29927891621447
 20
102.1151993078764
 30
0.0
 11
-61.13908570513012
 21
102.1275111042118
 31
0.0
  0
LINE
  5
877
330
18
100
AcDbEntity
  8
ADP1DETAIL
100
AcDbLine
 10
-60.53528062464129
 20
101.3272447814258
 30
0.0
 11
-59.83289508487684
 21
100.7362788500035
 31
0.0
  0
LWPOLYLINE
  5
878
330
18
100
AcDbEntity
  8
ADP1DETAIL
100
AcDbPolyline
 90
        4
 70
     0
 43
0.0
 10
-59.22087910518559
 20
103.1204317723166
 42
-0.207336656348567
 10
-59.07942125595091
 20
102.8471853950025
 42
0.5970464912028889
 10
-58.91910233768822
 20
102.7246956798639
 42
0.3867206661440388
 10
-58.79650550132305
 20
102.9319860174762
 42
-1.227955035246513
  0
LWPOLYLINE
  5
87E
330
18
100
AcDbEntity
  8
ADP1DETAIL
100
AcDbPolyline
 90
        3
 70
     0
 43
0.0
 10
-59.18315702328805
 20
102.7529625175824
 42
0.1842864020879089
 10
-59.12657387236247
 20
102.4985607594797
 42
-0.2501674269305989
 10
-59.20201809231609
 20
102.0180240809928
 42
2.006265836206302
  0
ARC
  5
883
330
18
100
AcDbEntity
  8
ADP1DETAIL
100
AcDbCircle
 10
-61.18024604419272
 20
106.6230542209403
 30
0.0
 40
2.153555690551457
100
AcDbArc
 50
313.3047595738233
 51
358.9944184488819
  0
LWPOLYLINE
  5
884
330
18
100
AcDbEntity
  8
ADP1DETAIL
100
AcDbPolyline
 90
        3
 70
     0
 43
0.0
 10
-58.64971712534279
 20
107.8999815432501
 10
-58.71129131422211
 20
107.1171778550626
 42
-0.1631098382441245
 10
-59.91967767478885
 20
104.4536347230019
 42
-0.0345246961870778
  0
LWPOLYLINE
  5
889
330
18
100
AcDbEntity
  8
ADP1DETAIL
100
AcDbPolyline
 90
       11
 70
     0
 43
0.0
 10
-60.182104406317
 20
105.318593689486
 42
0.476071132814796
 10
-60.36992269748637
 20
105.562544162866
 42
-0.1356743134346223
 10
-60.7925138245737
 20
105.7689638193828
 42
-0.5090696634540554
 10
-60.77373202910926
 20
105.9660007625856
 42
-0.4051464750954749
 10
-60.35114090202193
 20
106.0316797557844
 42
0.6493114852427559
 10
-60.47322274080327
 20
106.2005685590448
 42
-0.1021263271203591
 10
-60.91459571944255
 20
106.2756302291643
 42
-0.0287239507251642
 10
-61.13997765762828
 20
106.3788400756194
 42
0.1667174649755963
 10
-61.31840499497794
 20
106.4069882155617
 42
-0.3618069325980802
 10
-60.99911396729501
 20
106.5477288788799
 42
0.1404828936601006
 10
-60.6422592365082
 20
106.5477288788799
 42
-0.1404828936601008
  0
ARC
  5
896
330
18
100
AcDbEntity
  8
ADP1DETAIL
100
AcDbCircle
 10
-67.2283729032769
 20
108.7888574756032
 30
0.0
 40
8.283684108368076
100
AcDbArc
 50
338.9675963466996
 51
347.8474293727918
  0
ARC
  5
897
330
18
100
AcDbEntity
  8
ADP1DETAIL
100
AcDbCircle
 10
-61.59083846141747
 20
102.2562227030889
 30
0.0
 40
3.146854989286724
100
AcDbArc
 50
43.93271632383932
 51
48.91164582405515
  0
LWPOLYLINE
  5
898
330
18
100
AcDbEntity
  8
ADP1DETAIL
100
AcDbPolyline
 90
        2
 70
     0
 43
0.0
 10
-59.60753068330912
 20
103.7517250765394
 42
0.004770940491913
 10
-59.26803177775568
 20
103.5632792852596
 42
-0.595095196577173
  0
ARC
  5
89C
330
18
100
AcDbEntity
  8
ADP1DETAIL
100
AcDbCircle
 10
-59.67678622413559
 20
104.8065072380458
 30
0.0
 40
0.3968568397658471
100
AcDbArc
 50
288.4869334188213
 51
339.216431745074
  0
ARC
  5
89D
330
18
100
AcDbEntity
  8
ADP1DETAIL
100
AcDbCircle
 10
-59.80569561452219
 20
105.1322566544824
 30
0.0
 40
0.8642357563174432
100
AcDbArc
 50
285.1906069949692
 51
304.5807006717492
  0
ARC
  5
89E
330
18
100
AcDbEntity
  8
ADP1DETAIL
100
AcDbCircle
 10
-60.29518044336263
 20
103.6569387043574
 30
0.0
 40
1.087975730694535
100
AcDbArc
 50
35.50427204613232
 51
48.18581705669494
  0
ARC
  5
89F
330
18
100
AcDbEntity
  8
ADP1DETAIL
100
AcDbCircle
 10
-59.58293629019085
 20
104.4209258336408
 30
0.0
 40
0.3769018793640413
100
AcDbArc
 50
40.49659938860985
 51
88.00394588535574
  0
ARC
  5
8A0
330
18
100
AcDbEntity
  8
ADP1DETAIL
100
AcDbCircle
 10
-59.67451108403768
 20
104.7958517020761
 30
0.0
 40
0.2818628230238879
100
AcDbArc
 50
300.3511126925597
 51
19.90645408697034
  0
ARC
  5
8A1
330
18
100
AcDbEntity
  8
ADP1DETAIL
100
AcDbCircle
 10
-59.71905208654065
 20
104.8427890224821
 30
0.0
 40
0.2068715918400188
100
AcDbArc
 50
324.3510738794546
 51
43.82726205924995
  0
LWPOLYLINE
  5
8A2
330
18
100
AcDbEntity
  8
ADP1DETAIL
100
AcDbPolyline
 90
        4
 70
     0
 43
0.0
 10
-59.2303096396996
 20
103.6857690368377
 42
0.4371518993531291
 10
-59.05112965240887
 20
103.7046136196096
 42
0.1945674790482228
 10
-59.12657387236247
 20
104.024971417414
 42
0.1452334127743192
 10
-59.71126645064625
 20
104.1945725894824
 42
0.1452334127743192
  0
LWPOLYLINE
  5
8A8
330
18
100
AcDbEntity
  8
ADP1DETAIL
100
AcDbPolyline
 90
        6
 70
     0
 43
0.0
 10
-60.20165373994838
 20
104.5337749700587
 10
-59.81500221798338
 20
104.6939538507412
 42
-0.570852724887835
 10
-59.71126645064625
 20
104.9672002280552
 42
-0.2378355771416959
 10
-59.42835069601838
 20
104.9389333538973
 42
-0.3861210680502083
 10
-59.38119807960683
 20
104.2793731755166
 42
-0.6373816019189226
 10
-59.8244327524974
 20
104.3830183443228
 42
-1.230788875306834
  0
ARC
  5
8B0
330
18
100
AcDbEntity
  8
ADP1DETAIL
100
AcDbCircle
 10
-59.88638462766302
 20
103.342805471638
 30
0.0
 40
1.570464638778565
100
AcDbArc
 50
69.77550431037366
 51
82.90487146065087
  0
LWPOLYLINE
  5
8B1
330
18
100
AcDbEntity
  8
ADP1DETAIL
100
AcDbPolyline
 90
        3
 70
     0
 43
0.0
 10
-60.8995126200833
 20
104.0343937087999
 42
-0.4129709780404123
 10
-60.36197271436962
 20
103.6292353249613
 42
-0.0709377033781747
 10
-60.36197271436962
 20
103.3748335304192
 42
-0.0709377033781747
  0
LWPOLYLINE
  5
8B6
330
18
100
AcDbEntity
  8
ADP1DETAIL
100
AcDbPolyline
 90
        2
 70
     0
 43
0.0
 10
-60.92625838790253
 20
104.2518525534967
 42
0.0353391546880918
 10
-60.25369086311203
 20
105.0096415302968
 42
-0.0097762771138355
  0
LWPOLYLINE
  5
8BA
330
18
100
AcDbEntity
  8
ADP1DETAIL
100
AcDbPolyline
 90
        3
 70
     0
 43
0.0
 10
-59.80557168346937
 20
104.3735960893762
 10
-59.68297484710419
 20
104.3735960893762
 10
-59.64525276520666
 20
104.3264846324464
  0
ARC
  5
8BF
330
18
100
AcDbEntity
  8
ADP1DETAIL
100
AcDbCircle
 10
-60.51225813893758
 20
105.1995226585707
 30
0.0
 40
0.5986782118754718
100
AcDbArc
 50
7.82803561554224
 51
93.45623265450591
  0
ARC
  5
8C0
330
18
100
AcDbEntity
  8
ADP1DETAIL
100
AcDbCircle
 10
-60.05502104937406
 20
104.7602505786098
 30
0.0
 40
0.4295829547862687
100
AcDbArc
 50
356.1816303946778
 51
27.37497093284895
  0
LWPOLYLINE
  5
8C1
330
18
100
AcDbEntity
  8
ADP1DETAIL
100
AcDbPolyline
 90
        4
 70
     0
 43
0.0
 10
-59.38119807960683
 20
104.2699509205701
 42
0.2051328022930142
 10
-59.04169917405338
 20
104.4112852184807
 42
0.2281899054889844
 10
-59.08885179046494
 20
104.7599098904429
 42
0.1179469090604537
 10
-59.39062861412085
 20
104.9483556452833
 42
-6.13034338678177
  0
ARC
  5
8C7
330
18
100
AcDbEntity
  8
ADP1DETAIL
100
AcDbCircle
 10
-59.31280462583043
 20
104.9255386067238
 30
0.0
 40
0.5051000590244072
100
AcDbArc
 50
271.8698802384154
 51
303.7387358376028
  0
LWPOLYLINE
  5
8C8
330
18
100
AcDbEntity
  8
ADP1DETAIL
100
AcDbPolyline
 90
        3
 70
     0
 43
0.0
 10
-59.5396010157
 20
106.1443523701084
 42
0.0208068862915921
 10
-59.29258889191139
 20
106.6878984320355
 42
-0.0097762771138355
 10
-59.11567225989443
 20
107.8999815432501
 42
-0.8476935719412749
  0
ARC
  5
8CD
330
18
100
AcDbEntity
  8
ADP1DETAIL
100
AcDbCircle
 10
-59.55395523187949
 20
108.6238664822504
 30
0.0
 40
0.2995996649101431
100
AcDbArc
 50
259.9943801688308
 51
324.3033388621196
  0
LWPOLYLINE
  5
8CE
330
18
100
AcDbEntity
  8
ADP1DETAIL
100
AcDbPolyline
 90
        3
 70
     0
 43
0.0
 10
-59.35440272993311
 20
108.2960339579382
 42
-0.4106097569170614
 10
-59.85761554070869
 20
108.0665069943735
 42
-0.5666148256760205
 10
-59.96700960794533
 20
108.5037011566819
 42
2.415706599886759
  0
ARC
  5
8D3
330
18
100
AcDbEntity
  8
ADP1DETAIL
100
AcDbCircle
 10
-59.72634262619571
 20
108.865866281172
 30
0.0
 40
0.4473185550989832
100
AcDbArc
 50
258.7176421768019
 51
305.9396348519194
  0
ARC
  5
8D4
330
18
100
AcDbEntity
  8
ADP1DETAIL
100
AcDbCircle
 10
-60.86659103737103
 20
105.2509237954777
 30
0.0
 40
1.156234512952415
100
AcDbArc
 50
43.10773422799247
 51
90.98279523597783
  0
ARC
  5
8D5
330
18
100
AcDbEntity
  8
ADP1DETAIL
100
AcDbCircle
 10
-61.19493724195137
 20
106.9518175387746
 30
0.0
 40
0.6162673638205355
100
AcDbArc
 50
36.35253542702857
 51
70.54931165844928
  0
LWPOLYLINE
  5
8D6
330
18
100
AcDbEntity
  8
ADP1DETAIL
100
AcDbPolyline
 90
        6
 70
     0
 43
0.0
 10
-61.08363215905997
 20
107.7299505017033
 10
-61.0460685120436
 20
107.5985925516992
 10
-60.95215936645892
 20
107.5892098383851
 10
-60.9427684687267
 20
107.7393332150174
 10
-60.83007747159008
 20
107.823777598451
 10
-60.71738653054095
 20
107.8519257383933
  0
ARC
  5
8DE
330
18
100
AcDbEntity
  8
ADP1DETAIL
100
AcDbCircle
 10
-60.73024227670924
 20
106.7967149590569
 30
0.0
 40
1.203829685937034
100
AcDbArc
 50
322.2571189328453
 51
330.3165160506809
  0
ARC
  5
8DF
330
18
100
AcDbEntity
  8
ADP1DETAIL
100
AcDbCircle
 10
-60.27131810303558
 20
105.8406463803726
 30
0.0
 40
0.1861098895590441
100
AcDbArc
 50
38.54546457486673
 51
112.2372253065266
  0
ARC
  5
8E0
330
18
100
AcDbEntity
  8
ADP1DETAIL
100
AcDbCircle
 10
-59.88398913478164
 20
106.8211668227828
 30
0.0
 40
0.2906700935380608
100
AcDbArc
 50
74.53210234487028
 51
129.6369099063193
  0
ARC
  5
8E1
330
18
100
AcDbEntity
  8
ADP1DETAIL
100
AcDbCircle
 10
-59.88780118205081
 20
108.3751166457593
 30
0.0
 40
0.116086426462359
100
AcDbArc
 50
133.0254295508134
 51
240.405852879321
  0
ARC
  5
8E2
330
18
100
AcDbEntity
  8
ADP1DETAIL
100
AcDbCircle
 10
-59.73181232391937
 20
108.6497720175913
 30
0.0
 40
0.4319473090314825
100
AcDbArc
 50
240.4058528793209
 51
299.594147120679
  0
ARC
  5
8E3
330
18
100
AcDbEntity
  8
ADP1DETAIL
100
AcDbCircle
 10
-61.47660228968873
 20
107.6642715085046
 30
0.0
 40
2.551851772547871
100
AcDbArc
 50
345.3033794145353
 51
4.639733044241545
  0
LWPOLYLINE
  5
8E4
330
18
100
AcDbEntity
  8
ADP1DETAIL
100
AcDbPolyline
 90
        4
 70
     0
 43
0.0
 10
-58.85941343715401
 20
117.7912503438871
 42
-0.0995291904465459
 10
-58.89638108823924
 20
118.8746878360489
 42
0.1385375919243913
 10
-58.92102618896274
 20
119.9581253282107
 42
0.0676412362111479
 10
-59.38712041418021
 20
120.3415502548604
 42
-0.0598234522626375
  0
LWPOLYLINE
  5
8EA
330
18
100
AcDbEntity
  8
ADP1DETAIL
100
AcDbPolyline
 90
        4
 70
     0
 43
0.0
 10
-59.17979980294104
 20
118.8254406872918
 10
-59.06889679330367
 20
118.4191516277311
 42
-0.0901284266713878
 10
-59.08121934366541
 20
119.0963000603322
 42
0.2244307624593022
 10
-59.25373510511151
 20
120.0319960696385
 42
0.5123308461200823
  0
LWPOLYLINE
  5
8F0
330
18
100
AcDbEntity
  8
ADP1DETAIL
100
AcDbPolyline
 90
        3
 70
     0
 43
0.0
 10
-59.92343224246063
 20
119.9204481411203
 42
-0.0072769508552425
 10
-59.79806503171555
 20
119.7917905389427
 42
-0.0688095167253508
 10
-59.20920772543615
 20
118.9678089714137
 42
1.023226445938185
  0
LWPOLYLINE
  5
8F5
330
18
100
AcDbEntity
  8
ADP1DETAIL
100
AcDbPolyline
 90
        5
 70
     0
 43
0.0
 10
-59.57412147089854
 20
118.9485585774767
 42
0.2122998725747275
 10
-60.17792655138737
 20
119.2317297468524
 42
0.377522991205287
 10
-60.65850612825874
 20
118.8254406872918
 42
0.3030611945105201
 10
-60.44902271572742
 20
118.3822162387251
 42
-0.1227142874668904
 10
-60.11631379957864
 20
118.0497979205922
 42
0.565393069653633
  0
LWPOLYLINE
  5
8FC
330
18
100
AcDbEntity
  8
ADP1DETAIL
100
AcDbPolyline
 90
        4
 70
     0
 43
0.0
 10
-59.7096695812594
 20
118.6900110007715
 42
0.1193065034193453
 10
-60.05470104776992
 20
119.0347411152398
 42
0.6799697201184362
 10
-60.32579721210996
 20
118.6038284630084
 42
0.2965631817598622
 10
-59.86986273596208
 20
118.4314634240664
 42
-0.1079977093068407
  0
LWPOLYLINE
  5
902
330
18
100
AcDbEntity
  8
ADP1DETAIL
100
AcDbPolyline
 90
       27
 70
     0
 43
0.0
 10
-59.51849383078808
 20
109.9779198782785
 42
-0.195862766442706
 10
-59.6169485025774
 20
110.7757992272352
 42
-0.2610314799660947
 10
-59.27782684903846
 20
111.1692739696544
 42
0.1179683999431174
 10
-58.80743222460488
 20
111.5518188479552
 42
0.3387199732159474
 10
-58.80743222460488
 20
111.8032055031724
 42
0.1886261636375545
 10
-59.04809926273618
 20
111.9452935903744
 42
0.2745304126988767
 10
-58.77461403826289
 20
112.2841190853701
 42
-0.0631644407633851
 10
-58.68709876192091
 20
112.6010848521291
 42
0.1866379828524058
 10
-59.04809926273618
 20
112.6338744079
 42
0.2559440891546219
 10
-58.70897755281557
 20
113.5629119799403
 42
-0.1551209632612424
 10
-58.9168263482232
 20
113.5519821524062
 42
0.2533422907868052
 10
-59.56225146895907
 20
114.4307424007199
 42
0.5340932580143657
 10
-59.67164559257739
 20
114.3651632525939
 42
-0.1802335036480422
 10
-59.68258498802472
 20
113.6984421633049
 42
0.3337309400846509
 10
-59.62788795440639
 20
113.5017047920953
 42
0.1546619659692604
 10
-59.87949433160334
 20
113.6328630517631
 42
-0.503672370997362
 10
-59.92325196977434
 20
113.7203018915417
 42
-0.0920063786501734
 10
-60.01076724611632
 20
113.2612480009965
 42
0.1513953591602361
 10
-60.03264609339264
 20
112.9552120983559
 42
0.0457327008994333
 10
-60.3280101087606
 20
113.1082300496762
 42
-0.0832622758220674
 10
-60.30613131786593
 20
112.5835970475892
 42
0.2615409444537902
 10
-60.21861604152395
 20
112.1573327493991
 42
0.0989346710656498
 10
-60.52491950872089
 20
112.19012230517
 42
-0.4003501242698463
 10
-60.4811618705499
 20
111.9715252423079
 42
0.0217469727881879
 10
-60.43740423237891
 20
111.7201385870907
 42
0.0583943561197075
 10
-60.15297955607663
 20
111.0096980779125
 42
0.0652070261317556
 10
-59.92325196977434
 20
110.1746572494881
 42
0.6638489809022948
  0
LWPOLYLINE
  5
91F
330
18
100
AcDbEntity
  8
ADP1DETAIL
100
AcDbPolyline
 90
        7
 70
     0
 43
0.0
 10
-59.73728202164304
 20
110.207446805259
 42
-0.1185717617173606
 10
-59.84667614526135
 20
111.1802038337728
 42
-0.0520473151276641
 10
-59.48567564444608
 20
112.4808564565797
 42
0.115972721762775
 10
-59.42003915899877
 20
113.9563867223595
 42
-0.103148453170638
 10
-59.31064509176212
 20
112.8961908906514
 42
-0.1534731094287103
 10
-59.72634262619571
 20
111.475309872295
 42
-0.0335327609734602
 10
-59.85761554070869
 20
111.0709052657575
 42
-0.6767331564684684
  0
LWPOLYLINE
  5
928
330
18
100
AcDbEntity
  8
ADP1DETAIL
100
AcDbPolyline
 90
        4
 70
     0
 43
0.0
 10
-59.08091750545983
 20
113.2612480009965
 10
-59.15749332997283
 20
113.2612480009965
 42
0.2001093816505424
 10
-59.51849383078808
 20
114.2777244128153
 42
0.0760356363411159
 10
-59.52943328261707
 20
112.8677732585773
 42
-1.155486085097372
  0
LWPOLYLINE
  5
92E
330
18
100
AcDbEntity
  8
ADP1DETAIL
100
AcDbPolyline
 90
        5
 70
     0
 43
0.0
 10
-59.63882734985372
 20
110.9616067343264
 42
0.0205426147663164
 10
-59.09185690090716
 20
111.3988008966349
 42
0.0901837999322472
 10
-58.89494750094687
 20
111.6392576877337
 42
0.4910656385689336
 10
-59.31064509176212
 20
111.7376263550464
 42
-0.0465279701380806
 10
-59.54037267806441
 20
111.5846084037261
 42
-0.2524734311974588
  0
ARC
  5
935
330
18
100
AcDbEntity
  8
ADP1DETAIL
100
AcDbCircle
 10
-62.84639378777682
 20
110.4524265852898
 30
0.0
 40
2.996545071798925
100
AcDbArc
 50
6.405402575034136
 51
21.29925532421992
  0
LWPOLYLINE
  5
936
330
18
100
AcDbEntity
  8
ADP1DETAIL
100
AcDbPolyline
 90
        7
 70
     0
 43
0.0
 10
-59.98863262734868
 20
110.3423760438271
 42
-0.0510059449812348
 10
-60.78746533774683
 20
111.2580243902004
 42
-0.079994355462856
 10
-61.05001111039112
 20
111.7935872198215
 42
-0.1294929474739024
 10
-61.07188995766745
 20
112.3601908430516
 42
0.1011177226464209
 10
-60.91873825225981
 20
112.9613328207988
 42
0.3781607721152636
 10
-61.05001111039112
 20
113.1252806362375
 42
0.0130995236329558
 10
-61.05957568196856
 20
113.1266905302514
 42
-1.427612658769853
  0
LWPOLYLINE
  5
93F
330
18
100
AcDbEntity
  8
ADP1DETAIL
100
AcDbPolyline
 90
        8
 70
     0
 43
0.0
 10
-60.13110076518196
 20
111.0709052657575
 42
0.0686266501426757
 10
-60.34988895603692
 20
111.5736785761919
 42
0.1123013106308945
 10
-60.40458598965525
 20
112.0545921218054
 42
-0.096666728362766
 10
-59.99982785066899
 20
111.7704159474015
 42
0.2532558612474783
 10
-60.03264609339264
 20
112.0655219859238
 42
-0.1796208960525165
 10
-60.21861604152395
 20
112.9289804464223
 42
-0.2646460032587344
 10
-60.02170669794532
 20
112.6448042720184
 42
0.3574124356332563
 10
-59.81385790253769
 20
112.5355057040031
 42
0.3574124356332563
  0
ARC
  5
949
330
18
100
AcDbEntity
  8
ADP1DETAIL
100
AcDbCircle
 10
-59.07527540876154
 20
110.7727904049167
 30
0.0
 40
0.8107352862989197
100
AcDbArc
 50
98.93908681381963
 51
157.5925451406297
  0
LWPOLYLINE
  5
94A
330
18
100
AcDbEntity
  8
ADP1DETAIL
100
AcDbPolyline
 90
        2
 70
     0
 43
0.0
 10
-59.72634262619571
 20
109.6294761365161
 42
-0.1288795066010631
 10
-59.28876624448579
 20
109.1922819742076
 42
-1.743891995814214
  0
LWPOLYLINE
  5
94E
330
18
100
AcDbEntity
  8
ADP1DETAIL
100
AcDbPolyline
 90
        4
 70
     0
 43
0.0
 10
-59.03715986728883
 20
108.7222982561283
 42
0.370863199544719
 10
-59.34346327810413
 20
108.9627550472271
 42
0.1911762740354329
 10
-59.56225146895907
 20
108.8643863433302
 42
-0.4113925575594916
 10
-59.75916086891936
 20
108.6895087003574
 42
0.0271913496303319
  0
LWPOLYLINE
  5
954
330
18
100
AcDbEntity
  8
ADP1DETAIL
100
AcDbPolyline
 90
        2
 70
     0
 43
0.0
 10
-59.4419180062751
 20
109.7497045320655
 42
0.229200825112189
 10
-59.95607021249799
 20
110.0776001629429
 42
-0.1268974943662448
  0
LWPOLYLINE
  5
958
330
18
100
AcDbEntity
  8
ADP1DETAIL
100
AcDbPolyline
 90
        5
 70
     0
 43
0.0
 10
-59.91231257432701
 20
109.6950552480578
 42
0.2750188081875344
 10
-60.3280101087606
 20
109.5638970249743
 42
0.0968322329636994
 10
-60.50304066144456
 20
109.2687909498678
 42
-0.9429421727082665
 10
-60.76558649047051
 20
109.3452999255279
 42
-0.3504839782335989
 10
-60.30613131786593
 20
109.9901613231643
 42
7.160185260310702
  0
ARC
  5
95F
330
18
100
AcDbEntity
  8
ADP1DETAIL
100
AcDbCircle
 10
-59.91231260251783
 20
109.3301958254677
 30
0.0
 40
0.7637411695738768
100
AcDbArc
 50
265.0698785442105
 51
290.1062951047482
  0
LWPOLYLINE
  5
960
330
18
100
AcDbEntity
  8
ADP1DETAIL
100
AcDbPolyline
 90
        2
 70
     0
 43
0.0
 10
-60.42646483693157
 20
109.6731955564053
 42
-0.2150275586707529
 10
-60.04879982248864
 20
109.8975769965689
 42
0.1899694311903655
  0
LWPOLYLINE
  5
964
330
18
100
AcDbEntity
  8
ADP1DETAIL
100
AcDbPolyline
 90
        4
 70
     0
 43
0.0
 10
-59.11373569180183
 20
108.5802101323421
 42
0.4958237887240369
 10
-59.32158448720945
 20
108.7113683920099
 42
-0.0803989854298512
 10
-59.4309785544461
 20
108.6895087003574
 42
0.9638853442949503
 10
-59.4309785544461
 20
108.5802101323421
 42
-54.37917947589182
  0
LWPOLYLINE
  5
96A
330
18
100
AcDbEntity
  8
ADP1DETAIL
100
AcDbPolyline
 90
        2
 70
     0
 43
0.0
 10
-61.36725402941706
 20
112.8393556265032
 42
-0.0383761915430201
 10
-61.39166986597607
 20
112.8605270194469
 42
0.2139254127435477
  0
ARC
  5
96E
330
18
100
AcDbEntity
  8
ADP1DETAIL
100
AcDbCircle
 10
-61.01085382784434
 20
111.2834641360975
 30
0.0
 40
1.168953236367705
100
AcDbArc
 50
33.19378880742115
 51
48.05827792334685
  0
ARC
  5
96F
330
18
100
AcDbEntity
  8
ADP1DETAIL
100
AcDbCircle
 10
-59.60811706424646
 20
112.912532777239
 30
0.0
 40
0.4250392358776998
100
AcDbArc
 50
177.1923713599969
 51
222.147016230231
  0
LWPOLYLINE
  5
970
330
18
100
AcDbEntity
  8
ADP1DETAIL
100
AcDbPolyline
 90
        5
 70
     0
 43
0.0
 10
-59.72634262619571
 20
112.109241405813
 42
0.1132874651914843
 10
-59.91231257432701
 20
112.8524714707621
 42
-0.0930201094435923
 10
-59.87949433160334
 20
113.202226793292
 42
0.0991042707775314
 10
-59.84667614526135
 20
113.4864030042801
 42
-0.041738832666633
 10
-59.5841303162354
 20
113.2240865215288
 42
-2.156527424621478
  0
ARC
  5
977
330
18
100
AcDbEntity
  8
ADP1DETAIL
100
AcDbCircle
 10
-51.2619027807737
 20
113.8217564451557
 30
0.0
 40
8.483928798286703
100
AcDbArc
 50
184.85409420479
 51
190.8175798728739
  0
LWPOLYLINE
  5
978
330
18
100
AcDbEntity
  8
ADP1DETAIL
100
AcDbPolyline
 90
        6
 70
     0
 43
0.0
 10
-59.0590386581835
 20
112.4917862841138
 42
-0.7455223211141812
 10
-59.15749332997283
 20
112.568295259774
 42
0.0306118895708069
 10
-58.86212931460487
 20
113.0819984343268
 42
0.1487409230605957
 10
-58.82931107188121
 20
113.2787358055364
 42
1.351813847798257
 10
-58.92776574367053
 20
113.3661746087307
 42
0.2925165749073567
 10
-59.20125096814381
 20
113.0492088419717
 42
-0.8665598924049243
  0
LWPOLYLINE
  5
980
330
18
100
AcDbEntity
  8
ADP1DETAIL
100
AcDbPolyline
 90
        5
 70
     0
 43
0.0
 10
-59.36534212538044
 20
111.7157666633939
 42
-1.053491345230165
 10
-59.35440272993311
 20
111.8141353672908
 42
0.1425406588550739
 10
-58.90588695277586
 20
112.3715578885644
 42
0.4225507954374432
 10
-58.97152338184152
 20
112.524575876469
 42
0.0940737635536062
 10
-59.33252388265678
 20
112.2622593571334
 42
-0.4322413043079344
  0
ARC
  5
987
330
18
100
AcDbEntity
  8
ADP1DETAIL
100
AcDbCircle
 10
-63.26805564004502
 20
117.4432548442136
 30
0.0
 40
6.619029472049088
100
AcDbArc
 50
305.6624817888352
 51
309.2415377863449
  0
ARC
  5
988
330
18
100
AcDbEntity
  8
ADP1DETAIL
100
AcDbCircle
 10
-56.06588531807716
 20
110.9564799001892
 30
0.0
 40
3.675019375724412
100
AcDbArc
 50
142.2458889926986
 51
151.9970200567906
  0
ARC
  5
989
330
18
100
AcDbEntity
  8
ADP1DETAIL
100
AcDbCircle
 10
-58.35728189514119
 20
113.0634842832396
 30
0.0
 40
0.745661201680759
100
AcDbArc
 50
138.6250724144669
 51
151.9377641081142
  0
ARC
  5
98A
330
18
100
AcDbEntity
  8
ADP1DETAIL
100
AcDbCircle
 10
-63.59294339010716
 20
117.3325919577637
 30
0.0
 40
4.796826313698029
100
AcDbArc
 50
330.735192546444
 51
356.083570213945
  0
ARC
  5
98B
330
18
100
AcDbEntity
  8
ADP1DETAIL
100
AcDbCircle
 10
-61.62181698528039
 20
116.9781071316605
 30
0.0
 40
2.607898278269057
100
AcDbArc
 50
327.3050109113678
 51
359.9715891567362
  0
LWPOLYLINE
  5
98C
330
18
100
AcDbEntity
  8
ADP1DETAIL
100
AcDbPolyline
 90
        6
 70
     0
 43
0.0
 10
-59.41772835924907
 20
116.845456022076
 42
-0.1548241334678396
 10
-59.29564646438023
 20
116.6015055123027
 42
-0.3766878000820685
 10
-59.40833746151685
 20
116.4232339957281
 42
-0.325252250111106
 10
-60.04691957297021
 20
116.5827400856745
 42
-0.2321508601043706
 10
-59.99057413048939
 20
116.9486658321377
 42
-0.1833044925089278
 10
-59.63371939970259
 20
116.9580485454518
 42
-0.1833044925089278
  0
LWPOLYLINE
  5
994
330
18
100
AcDbEntity
  8
ADP1DETAIL
100
AcDbPolyline
 90
        4
 70
     0
 43
0.0
 10
-59.39894650769713
 20
116.413851282414
 42
-0.154704011668365
 10
-59.65250119516703
 20
116.1792835223481
 42
-0.3561681609635319
 10
-60.02813777750577
 20
116.2731106190958
 42
-0.1211137842415702
 10
-60.04691957297021
 20
116.5921227989886
 42
1.201131281584963
  0
ARC
  5
99A
330
18
100
AcDbEntity
  8
ADP1DETAIL
100
AcDbCircle
 10
-60.04087474631227
 20
117.1190646771818
 30
0.0
 40
0.8667772901563964
100
AcDbArc
 50
273.9488622328368
 51
316.8660737361209
  0
LWPOLYLINE
  5
99B
330
18
100
AcDbEntity
  8
ADP1DETAIL
100
AcDbPolyline
 90
        2
 70
     0
 43
0.0
 10
-59.34364616459541
 20
114.9112093035961
 42
0.1280550596064639
 10
-58.78883354568979
 20
117.165610440255
  0
LWPOLYLINE
  5
99F
330
18
100
AcDbEntity
  8
ADP1DETAIL
100
AcDbPolyline
 90
        5
 70
     0
 43
0.0
 10
-59.48567564444608
 20
114.8766804104219
 42
-0.2165181924479577
 10
-59.16843272542015
 20
115.0734177816315
 42
-0.4034113953836878
 10
-59.02622041545985
 20
114.669013175094
 42
-0.297654529012762
 10
-59.25594800176213
 20
114.2973981243273
 42
-0.5947182856841284
 10
-59.57319092078807
 20
114.6143638910863
 42
0.1446047119647887
  0
LWPOLYLINE
  5
9A6
330
18
100
AcDbEntity
  8
ADP1DETAIL
100
AcDbPolyline
 90
        2
 70
     0
 43
0.0
 10
-60.06546427973464
 20
114.526925087892
 42
-0.1548300351601908
 10
-59.39816036810411
 20
114.9094699661928
 42
-0.1548300351601908
  0
LWPOLYLINE
  5
9AA
330
18
100
AcDbEntity
  8
ADP1DETAIL
100
AcDbPolyline
 90
        4
 70
     0
 43
0.0
 10
-58.99340222911785
 20
114.8111012622959
 42
-0.0940539414818544
 10
-58.89494750094687
 20
114.5378549154262
 42
-0.1632108984331043
 10
-58.9168263482232
 20
114.4066966923426
 42
-0.121575277519584
 10
-59.19031157269648
 20
114.3301877166824
 42
-0.0154106167474892
  0
LWPOLYLINE
  5
9B0
330
18
100
AcDbEntity
  8
ADP1DETAIL
100
AcDbPolyline
 90
        4
 70
     0
 43
0.0
 10
-59.00434162456519
 20
114.8876102379561
 42
-0.073898200474074
 10
-58.75273519098657
 20
114.5597146436629
 42
-0.2926768615587608
 10
-58.7636745864339
 20
114.3848369641059
 42
-0.3067665383781351
 10
-59.29970563993313
 20
114.2864682967932
 42
0.2099102273776877
  0
ARC
  5
9B6
330
18
100
AcDbEntity
  8
ADP1DETAIL
100
AcDbCircle
 10
-60.04973037621098
 20
114.4394862481135
 30
0.0
 40
0.8955113455654068
100
AcDbArc
 50
355.098898577513
 51
20.72907360186907
  0
ARC
  5
9B7
330
18
100
AcDbEntity
  8
ADP1DETAIL
100
AcDbCircle
 10
-61.1506999350304
 20
114.3684421862204
 30
0.0
 40
1.85235718456591
100
AcDbArc
 50
357.8019771008854
 51
6.607083632833076
  0
ARC
  5
9B8
330
18
100
AcDbEntity
  8
ADP1DETAIL
100
AcDbCircle
 10
-59.38175121855144
 20
114.9157951468287
 30
0.0
 40
0.5390387715205641
100
AcDbArc
 50
260.0667089205809
 51
302.53390802457
  0
ARC
  5
9B9
330
18
100
AcDbEntity
  8
ADP1DETAIL
100
AcDbCircle
 10
-59.60558399511096
 20
115.4822540732597
 30
0.0
 40
1.00118101984322
100
AcDbArc
 50
285.1775780712943
 51
304.5937255092802
  0
ARC
  5
9BA
330
18
100
AcDbEntity
  8
ADP1DETAIL
100
AcDbCircle
 10
-59.48700118758006
 20
114.5683746371489
 30
0.0
 40
0.4674666047739489
100
AcDbArc
 50
9.701950729289627
 51
41.26363394414396
  0
ARC
  5
9BB
330
18
100
AcDbEntity
  8
ADP1DETAIL
100
AcDbCircle
 10
-59.4253803248698
 20
115.2580176600586
 30
0.0
 40
0.5754537997858433
100
AcDbArc
 50
284.8572911632846
 51
317.0260562370494
  0
LWPOLYLINE
  5
9BC
330
18
100
AcDbEntity
  8
ADP1DETAIL
100
AcDbPolyline
 90
        3
 70
     0
 43
0.0
 10
-59.21112827261526
 20
116.7516288889349
 42
0.5657324834689143
 10
-59.51163750483375
 20
116.8079251688196
 42
0.8435455436167076
 10
-59.47407385781738
 20
116.761011602249
 42
3.869145926563918
  0
ARC
  5
9C1
330
18
100
AcDbEntity
  8
ADP1DETAIL
100
AcDbCircle
 10
-59.44763227469103
 20
116.5903616906732
 30
0.0
 40
0.1768604697964294
100
AcDbArc
 50
182.4698626743409
 51
273.6055049861149
  0
LWPOLYLINE
  5
9C2
330
18
100
AcDbEntity
  8
ADP1DETAIL
100
AcDbPolyline
 90
        4
 70
     0
 43
0.0
 10
-60.26418446030124
 20
118.1975394034478
 42
0.2974618766935839
 10
-60.15328145066387
 20
117.7912503438871
 42
0.6726184776610583
 10
-59.58644402126028
 20
118.4807105728235
 42
0.2642754967151629
 10
-60.0793461484934
 20
118.4560869801529
 42
3.434550856522029
  0
LWPOLYLINE
  5
9C8
330
18
100
AcDbEntity
  8
ADP1DETAIL
100
AcDbPolyline
 90
        4
 70
     0
 43
0.0
 10
-60.06702359813166
 20
117.7666267878006
 42
0.2875820022055708
 10
-59.73431468198288
 20
117.6065735086097
 42
0.4906701843134164
 10
-59.24141255474976
 20
117.9636154194133
 42
0.2293105956679046
 10
-59.56179892053679
 20
118.4683987764882
 42
-3.514462863842329
  0
LWPOLYLINE
  5
9CE
330
18
100
AcDbEntity
  8
ADP1DETAIL
100
AcDbPolyline
 90
        4
 70
     0
 43
0.0
 10
-59.09843727547864
 20
116.8266905954478
 42
0.4269823778938347
 10
-59.28625556664801
 20
117.1175546353982
 42
0.2063205084670919
 10
-59.62432844588287
 20
116.967431258766
 42
-0.179694762911739
 10
-59.84031948633639
 20
116.7891597421913
 42
-0.1687874471171689
  0
ARC
  5
9D4
330
18
100
AcDbEntity
  8
ADP1DETAIL
100
AcDbCircle
 10
-59.62243284900671
 20
116.7179147304693
 30
0.0
 40
0.3838752296430742
100
AcDbArc
 50
163.5390046838462
 51
213.2071988554678
  0
ARC
  5
9D5
330
18
100
AcDbEntity
  8
ADP1DETAIL
100
AcDbCircle
 10
-58.45035353176284
 20
117.1092714209865
 30
0.0
 40
1.483053624151177
100
AcDbArc
 50
194.3284070130693
 51
207.553998266629
  0
ARC
  5
9D6
330
18
100
AcDbEntity
  8
ADP1DETAIL
100
AcDbCircle
 10
-60.14550587125036
 20
118.0738559529995
 30
0.0
 40
0.1775303285349654
100
AcDbArc
 50
255.4022429858424
 51
4.159665170428032
  0
ARC
  5
9D7
330
18
100
AcDbEntity
  8
ADP1DETAIL
100
AcDbCircle
 10
-60.22022726566314
 20
117.9943948736674
 30
0.0
 40
0.5237835971852772
100
AcDbArc
 50
347.0969427357597
 51
33.53037692549249
  0
ARC
  5
9D8
330
18
100
AcDbEntity
  8
ADP1DETAIL
100
AcDbCircle
 10
-59.84521766342942
 20
118.4269718638187
 30
0.0
 40
0.5704335182106487
100
AcDbArc
 50
234.3201059507664
 51
279.9516277830417
  0
ARC
  5
9D9
330
18
100
AcDbEntity
  8
ADP1DETAIL
100
AcDbCircle
 10
-60.29130962397322
 20
118.0361758035855
 30
0.0
 40
0.4397964699921399
100
AcDbArc
 50
322.2008809039877
 51
21.52487742257276
  0
ARC
  5
9DA
330
18
100
AcDbEntity
  8
ADP1DETAIL
100
AcDbCircle
 10
-59.85440586097848
 20
117.0197745490165
 30
0.0
 40
0.4372614184892159
100
AcDbArc
 50
249.2454791487106
 51
290.7545208512894
  0
ARC
  5
9DB
330
18
100
AcDbEntity
  8
ADP1DETAIL
100
AcDbCircle
 10
-60.50221467793948
 20
117.9498440967142
 30
0.0
 40
1.440925747431146
100
AcDbArc
 50
288.419624670304
 51
299.4682077269196
  0
ARC
  5
9DC
330
18
100
AcDbEntity
  8
ADP1DETAIL
100
AcDbCircle
 10
-58.97509983192033
 20
115.3333682845717
 30
0.0
 40
1.333018452549215
100
AcDbArc
 50
114.6193592087341
 51
125.8499382827918
  0
ARC
  5
9DD
330
18
100
AcDbEntity
  8
ADP1DETAIL
100
AcDbCircle
 10
-59.24959744363968
 20
116.6826556658473
 30
0.0
 40
0.4555470367244053
100
AcDbArc
 50
189.0642090906421
 51
222.2568869938209
  0
ARC
  5
9DE
330
18
100
AcDbEntity
  8
ADP1DETAIL
100
AcDbCircle
 10
-59.87579781427798
 20
118.4919865344234
 30
0.0
 40
0.4879132213174126
100
AcDbArc
 50
253.0879549996547
 51
301.1497546872545
  0
ARC
  5
9DF
330
18
100
AcDbEntity
  8
ADP1DETAIL
100
AcDbCircle
 10
-60.16529879567391
 20
118.752083502927
 30
0.0
 40
0.6908954638220133
100
AcDbArc
 50
291.9690931224198
 51
328.8336407256902
  0
ARC
  5
9E0
330
18
100
AcDbEntity
  8
ADP1DETAIL
100
AcDbCircle
 10
-59.7842336694215
 20
118.4418640301126
 30
0.0
 40
0.2356373802990971
100
AcDbArc
 50
12.26416324053997
 51
71.76007284437023
  0
ARC
  5
9E1
330
18
100
AcDbEntity
  8
ADP1DETAIL
100
AcDbCircle
 10
-60.05403518548215
 20
118.1236454312907
 30
0.0
 40
0.4960677218581566
100
AcDbArc
 50
352.8742752309053
 51
46.03723768095619
  0
ARC
  5
9E2
330
18
100
AcDbEntity
  8
ADP1DETAIL
100
AcDbCircle
 10
-59.30123602060174
 20
116.6666028009742
 30
0.0
 40
0.1501224445313713
100
AcDbArc
 50
205.6980206351818
 51
264.9585214739861
  0
LWPOLYLINE
  5
9E3
330
18
100
AcDbEntity
  8
ADP1DETAIL
100
AcDbPolyline
 90
        2
 70
     0
 43
0.0
 10
-58.92893711810575
 20
118.2680628623117
 42
-0.0755937670147185
 10
-58.78711275210724
 20
117.165610440255
 42
1.023226445938185
  0
ARC
  5
9E7
330
18
100
AcDbEntity
  8
ADP1DETAIL
100
AcDbCircle
 10
-61.25548688735934
 20
117.6381452395713
 30
0.0
 40
2.1903615563778
100
AcDbArc
 50
350.7607621708079
 51
24.73329136881115
  0
LWPOLYLINE
  5
9E8
330
18
100
AcDbEntity
  8
ADP1DETAIL
100
AcDbPolyline
 90
        2
 70
     0
 43
0.0
 10
-59.29258889191139
 20
117.165610440255
 42
0.0411149330291591
 10
-59.36013448020123
 20
117.6976204763687
 42
-0.0009380833969231
  0
LWPOLYLINE
  5
9EC
330
18
100
AcDbEntity
  8
ADP1DETAIL
100
AcDbPolyline
 90
        3
 70
     0
 43
0.0
 10
-59.28593712548631
 20
117.165610440255
 10
-59.28593712548631
 20
117.165610440255
 42
-0.0038795381911076
 10
-59.28336941959507
 20
117.1169801719722
 42
-0.0243618023825882
  0
ARC
  5
9F1
330
18
100
AcDbEntity
  8
ADP1DETAIL
100
AcDbCircle
 10
-61.18024604419272
 20
125.1308168775403
 30
0.0
 40
2.153555690551457
100
AcDbArc
 50
313.3047595738233
 51
358.9944184488819
  0
LWPOLYLINE
  5
9F2
330
18
100
AcDbEntity
  8
ADP1DETAIL
100
AcDbPolyline
 90
        3
 70
     0
 43
0.0
 10
-58.71129131422211
 20
126.4077441998501
 10
-58.71129131422211
 20
125.6249405116627
 42
-0.1260980835264416
 10
-59.50211310442207
 20
123.4811778942551
 42
-0.0345246961870778
  0
LWPOLYLINE
  5
9F7
330
18
100
AcDbEntity
  8
ADP1DETAIL
100
AcDbPolyline
 90
       11
 70
     0
 43
0.0
 10
-60.182104406317
 20
123.826356346086
 42
0.476071132814796
 10
-60.36992269748637
 20
124.070306819466
 42
-0.1356743134346223
 10
-60.7925138245737
 20
124.2767264759829
 42
-0.5090696634540554
 10
-60.77373202910926
 20
124.4737634191857
 42
-0.4051464750954749
 10
-60.35114090202193
 20
124.5394424123844
 42
0.6493114852427559
 10
-60.47322274080327
 20
124.7083312156449
 42
-0.1021263271203591
 10
-60.91459571944255
 20
124.7833928857643
 42
-0.0287239507251642
 10
-61.13997765762828
 20
124.8866027322194
 42
0.1667174649755963
 10
-61.31840499497794
 20
124.9147508721617
 42
-0.3618069325980802
 10
-60.99911396729501
 20
125.0554915354799
 42
0.1404828936601006
 10
-60.6422592365082
 20
125.0554915354799
 42
-0.1404828936601008
  0
ARC
  5
A04
330
18
100
AcDbEntity
  8
ADP1DETAIL
100
AcDbCircle
 10
-60.51225813893758
 20
123.7072853151707
 30
0.0
 40
0.5986782118754718
100
AcDbArc
 50
7.82803561554224
 51
93.45623265450591
  0
LWPOLYLINE
  5
A05
330
18
100
AcDbEntity
  8
ADP1DETAIL
100
AcDbPolyline
 90
        4
 70
     0
 43
0.0
 10
-59.22087910518559
 20
121.6281944289166
 42
-0.207336656348567
 10
-59.07942125595091
 20
121.3549480516026
 42
0.5970464912028889
 10
-58.91910233768822
 20
121.2324583364639
 42
0.3867206661440388
 10
-58.79650550132305
 20
121.4397486740762
 42
-1.227955035246513
  0
LWPOLYLINE
  5
A0B
330
18
100
AcDbEntity
  8
ADP1DETAIL
100
AcDbPolyline
 90
        4
 70
     0
 43
0.0
 10
-59.89044643793699
 20
122.3819774482781
 42
-0.345708275846433
 10
-59.24917070872765
 20
121.223036045078
 42
-0.0897171021519035
 10
-59.46607277791592
 20
120.6482764527315
 42
0.0524821900770591
 10
-59.56037806689757
 20
120.2054289397885
 42
1.110869346037042
  0
LWPOLYLINE
  5
A11
330
18
100
AcDbEntity
  8
ADP1DETAIL
100
AcDbPolyline
 90
        3
 70
     0
 43
0.0
 10
-60.55058318001584
 20
122.5892677858903
 42
-0.3124268181134236
 10
-59.83386328701142
 20
122.1087311074035
 42
-0.1894858297724325
 10
-59.83386328701142
 20
121.4209040913043
 42
-0.1894858297724325
  0
LWPOLYLINE
  5
A16
330
18
100
AcDbEntity
  8
ADP1DETAIL
100
AcDbPolyline
 90
        3
 70
     0
 43
0.0
 10
-59.1674772525793
 20
119.5764598247365
 42
0.5667911003549154
 10
-59.85754018560033
 20
119.9950606806325
 42
-0.1712845490028158
 10
-59.74663723234463
 20
120.0935550147309
 42
-0.1712845490028158
  0
LINE
  5
A1B
330
18
100
AcDbEntity
  8
ADP1DETAIL
100
AcDbLine
 10
-60.53528062464129
 20
119.8350074380258
 30
0.0
 11
-59.83289508487684
 21
119.2440415066036
 31
0.0
  0
LWPOLYLINE
  5
A1C
330
18
100
AcDbEntity
  8
ADP1DETAIL
100
AcDbPolyline
 90
        3
 70
     0
 43
0.0
 10
-60.14971602211843
 20
119.2306760316183
 42
0.0374070987552838
 10
-60.5057316725467
 20
119.56452495559
 42
-0.0009380833969231
 10
-60.65292603566557
 20
119.6600167947431
 42
-0.2491411958847478
  0
LINE
  5
A21
330
18
100
AcDbEntity
  8
ADP1DETAIL
100
AcDbLine
 10
-61.13908570513012
 20
120.6352737608118
 30
0.0
 11
-61.21302100730059
 21
120.7583916509967
 31
0.0
  0
LINE
  5
A22
330
18
100
AcDbEntity
  8
ADP1DETAIL
100
AcDbLine
 10
-61.29927891621447
 20
120.6229619644765
 30
0.0
 11
-61.13908570513012
 21
120.6352737608118
 31
0.0
  0
LINE
  5
A23
330
18
100
AcDbEntity
  8
ADP1DETAIL
100
AcDbLine
 10
-61.21302100730059
 20
120.7583916509967
 30
0.0
 11
-61.13908570513012
 21
120.7953270034185
 31
0.0
  0
LWPOLYLINE
  5
A24
330
18
100
AcDbEntity
  8
ADP1DETAIL
100
AcDbPolyline
 90
        3
 70
     0
 43
0.0
 10
-59.18315702328805
 20
121.2607251741824
 42
0.1842864020879089
 10
-59.12657387236247
 20
121.0063234160797
 42
-0.2501674269305989
 10
-59.20201809231609
 20
120.5257867375928
 42
2.006265836206302
  0
ARC
  5
A29
330
18
100
AcDbEntity
  8
ADP1DETAIL
100
AcDbCircle
 10
-61.59083846141747
 20
120.7639853596889
 30
0.0
 40
3.146854989286724
100
AcDbArc
 50
43.93271632383932
 51
48.91164582405515
  0
LWPOLYLINE
  5
A2A
330
18
100
AcDbEntity
  8
ADP1DETAIL
100
AcDbPolyline
 90
        2
 70
     0
 43
0.0
 10
-59.60753068330912
 20
122.2594877331394
 42
0.004770940491913
 10
-59.26803177775568
 20
122.0710419418596
 42
-0.595095196577173
  0
ARC
  5
A2E
330
18
100
AcDbEntity
  8
ADP1DETAIL
100
AcDbCircle
 10
-59.80569561452219
 20
123.6400193110825
 30
0.0
 40
0.8642357563174432
100
AcDbArc
 50
285.1906069949692
 51
304.5807006717492
  0
ARC
  5
A2F
330
18
100
AcDbEntity
  8
ADP1DETAIL
100
AcDbCircle
 10
-60.29518044336263
 20
122.1647013609574
 30
0.0
 40
1.087975730694535
100
AcDbArc
 50
35.50427204613232
 51
48.18581705669494
  0
LWPOLYLINE
  5
A30
330
18
100
AcDbEntity
  8
ADP1DETAIL
100
AcDbPolyline
 90
        4
 70
     0
 43
0.0
 10
-59.2303096396996
 20
122.1935316934377
 42
0.4371518993531291
 10
-59.05112965240887
 20
122.2123762762096
 42
0.1945674790482228
 10
-59.12657387236247
 20
122.532734074014
 42
0.1084266845009812
 10
-59.5567107310911
 20
122.6920713720363
 42
0.1452334127743192
  0
ARC
  5
A36
330
18
100
AcDbEntity
  8
ADP1DETAIL
100
AcDbCircle
 10
-59.67678622413559
 20
123.3142698946459
 30
0.0
 40
0.3968568397658471
100
AcDbArc
 50
288.4869334188213
 51
339.216431745074
  0
ARC
  5
A37
330
18
100
AcDbEntity
  8
ADP1DETAIL
100
AcDbCircle
 10
-59.58293629019085
 20
122.9286884902408
 30
0.0
 40
0.3769018793640413
100
AcDbArc
 50
40.49659938860985
 51
88.00394588535574
  0
ARC
  5
A38
330
18
100
AcDbEntity
  8
ADP1DETAIL
100
AcDbCircle
 10
-59.67451108403768
 20
123.3036143586761
 30
0.0
 40
0.2818628230238879
100
AcDbArc
 50
300.3511126925597
 51
19.90645408697034
  0
ARC
  5
A39
330
18
100
AcDbEntity
  8
ADP1DETAIL
100
AcDbCircle
 10
-59.71905208654065
 20
123.3505516790821
 30
0.0
 40
0.2068715918400188
100
AcDbArc
 50
324.3510738794546
 51
43.82726205924995
  0
LWPOLYLINE
  5
A3A
330
18
100
AcDbEntity
  8
ADP1DETAIL
100
AcDbPolyline
 90
        6
 70
     0
 43
0.0
 10
-60.20165373994838
 20
123.0415376266588
 10
-59.81500221798338
 20
123.2017165073412
 42
-0.570852724887835
 10
-59.71126645064625
 20
123.4749628846552
 42
-0.2378355771416959
 10
-59.42835069601838
 20
123.4466960104974
 42
-0.3861210680502083
 10
-59.38119807960683
 20
122.7871358321167
 42
-0.6373816019189226
 10
-59.8244327524974
 20
122.8907810009228
 42
-1.230788875306834
  0
ARC
  5
A42
330
18
100
AcDbEntity
  8
ADP1DETAIL
100
AcDbCircle
 10
-59.88638462766302
 20
121.850568128238
 30
0.0
 40
1.570464638778565
100
AcDbArc
 50
69.77550431037366
 51
82.90487146065087
  0
LWPOLYLINE
  5
A43
330
18
100
AcDbEntity
  8
ADP1DETAIL
100
AcDbPolyline
 90
        3
 70
     0
 43
0.0
 10
-60.8995126200833
 20
122.5421563654
 42
-0.4129709780404123
 10
-60.36197271436962
 20
122.1369979815613
 42
-0.0709377033781747
 10
-60.36197271436962
 20
121.8825961870192
 42
-0.0709377033781747
  0
LWPOLYLINE
  5
A48
330
18
100
AcDbEntity
  8
ADP1DETAIL
100
AcDbPolyline
 90
        2
 70
     0
 43
0.0
 10
-60.92625838790254
 20
122.7596152100968
 42
0.0353391546880919
 10
-60.25369086311203
 20
123.5174041868969
 42
-0.0097762771138355
  0
LWPOLYLINE
  5
A4C
330
18
100
AcDbEntity
  8
ADP1DETAIL
100
AcDbPolyline
 90
        3
 70
     0
 43
0.0
 10
-59.80557168346937
 20
122.8813587459763
 10
-59.68297484710419
 20
122.8813587459763
 10
-59.64525276520666
 20
122.8342472890465
  0
LWPOLYLINE
  5
A51
330
18
100
AcDbEntity
  8
ADP1DETAIL
100
AcDbPolyline
 90
        2
 70
     0
 43
0.0
 10
-59.64792925174151
 20
122.700847904692
 42
0.0148048779416934
 10
-59.71126645064625
 20
122.7023352460824
 42
0.1452334127743192
  0
ARC
  5
A55
330
18
100
AcDbEntity
  8
ADP1DETAIL
100
AcDbCircle
 10
-60.05502104937406
 20
123.2680132352098
 30
0.0
 40
0.4295829547862687
100
AcDbArc
 50
356.1816303946778
 51
27.37497093284895
  0
LWPOLYLINE
  5
A56
330
18
100
AcDbEntity
  8
ADP1DETAIL
100
AcDbPolyline
 90
        4
 70
     0
 43
0.0
 10
-59.38119807960683
 20
122.7777135771701
 42
0.2051328022930142
 10
-59.04169917405338
 20
122.9190478750807
 42
0.2281899054889844
 10
-59.08885179046494
 20
123.267672547043
 42
0.1179469090604537
 10
-59.39062861412085
 20
123.4561183018833
 42
-6.13034338678177
  0
ARC
  5
A5C
330
18
100
AcDbEntity
  8
ADP1DETAIL
100
AcDbCircle
 10
-59.31280462583043
 20
123.4333012633238
 30
0.0
 40
0.5051000590244072
100
AcDbArc
 50
271.8698802384154
 51
303.7387358376028
  0
LWPOLYLINE
  5
A5D
330
18
100
AcDbEntity
  8
ADP1DETAIL
100
AcDbPolyline
 90
        3
 70
     0
 43
0.0
 10
-59.5396010157
 20
124.6521150267084
 42
0.020806886291592
 10
-59.29258889191139
 20
125.1956610886356
 42
-0.0097762771138355
 10
-59.11567225989443
 20
126.4077441998501
 42
-0.8476935719412749
  0
ARC
  5
A62
330
18
100
AcDbEntity
  8
ADP1DETAIL
100
AcDbCircle
 10
-60.86659103737103
 20
123.7586864520777
 30
0.0
 40
1.156234512952415
100
AcDbArc
 50
43.10773422799247
 51
90.98279523597783
  0
ARC
  5
A63
330
18
100
AcDbEntity
  8
ADP1DETAIL
100
AcDbCircle
 10
-60.73024227670924
 20
125.3044776156569
 30
0.0
 40
1.203829685937034
100
AcDbArc
 50
322.2571189328453
 51
330.3165160506809
  0
ARC
  5
A64
330
18
100
AcDbEntity
  8
ADP1DETAIL
100
AcDbCircle
 10
-60.27131810303558
 20
124.3484090369726
 30
0.0
 40
0.1861098895590441
100
AcDbArc
 50
38.54546457486673
 51
112.2372253065266
  0
LWPOLYLINE
  5
A65
330
18
100
AcDbEntity
  8
ADP1DETAIL
100
AcDbPolyline
 90
        6
 70
     0
 43
0.0
 10
-61.08363215905997
 20
126.2377131583033
 10
-61.0460685120436
 20
126.1063552082992
 10
-60.95215936645892
 20
126.0969724949851
 10
-60.9427684687267
 20
126.2470958716174
 10
-60.83007747159008
 20
126.331540255051
 10
-60.71738653054095
 20
126.3596883949933
  0
ARC
  5
A6D
330
18
100
AcDbEntity
  8
ADP1DETAIL
100
AcDbCircle
 10
-61.19493724195137
 20
125.4595801953746
 30
0.0
 40
0.6162673638205355
100
AcDbArc
 50
36.35253542702857
 51
70.54931165844928
  0
ARC
  5
A6E
330
18
100
AcDbEntity
  8
ADP1DETAIL
100
AcDbCircle
 10
-59.88398913478164
 20
125.3289294793828
 30
0.0
 40
0.2906700935380608
100
AcDbArc
 50
74.53210234487028
 51
129.6369099063193
  0
LINE
  5
A6F
330
18
100
AcDbEntity
  8
ADP1DETAIL
100
AcDbLine
 10
-59.11567225989443
 20
126.4077441998501
 30
0.0
 11
-58.71129131422211
 21
126.4077441998501
 31
0.0
  0
ARC
  5
A70
330
18
100
AcDbEntity
  8
ADP1DETAIL
100
AcDbCircle
 10
-67.2283729032769
 20
127.2966201322032
 30
0.0
 40
8.283684108368076
100
AcDbArc
 50
338.9675963466996
 51
347.8474293727918
  0
ARC
  5
A71
330
18
100
AcDbEntity
  8
ADP1DETAIL
100
AcDbCircle
 10
-61.47660228968873
 20
126.1720341651046
 30
0.0
 40
2.551851772547871
100
AcDbArc
 50
345.3033794145353
 51
4.639733044241545
  0
TEXT
  5
A7F
330
18
100
AcDbEntity
  8
ADPDIM
100
AcDbText
 10
-88.38160690265281
 20
96.97949588895557
 30
0.0
 40
0.5
  1
J U L I U S  B L U M  &  C O . ,  I N C .      ( 8 0 0 )  5 2 6 - 6 2 9 3        W W W . J U L I U S B L U M . C O M        P A R T  N o .  5 4 8
 41
1.25
  7
ARIAL_WIDE
 72
     1
 11
-62.64277675258461
 21
97.47949588895558
 31
0.0
100
AcDbText
 73
     3
  0
ENDSEC
  0
SECTION
  2
OBJECTS
  0
DICTIONARY
  5
C
330
0
100
AcDbDictionary
  3
ACAD_GROUP
350
D
  3
ACAD_LAYOUT
350
A78
  3
ACAD_MLINESTYLE
350
E
  3
ACAD_PLOTSETTINGS
350
A79
  3
ACAD_PLOTSTYLENAME
350
A76
  3
ACDBHEADERROUNDTRIPXREC
350
BC7
  3
ACDBVARIABLEDICTIONARY
350
AD9
  0
DICTIONARY
  5
AD3
330
18
100
AcDbDictionary
280
     1
  3
ACAD_LAYOUTSELFREF
360
BE8
  0
DICTIONARY
  5
AD1
330
15
100
AcDbDictionary
280
     1
  3
ACAD_LAYOUTSELFREF
360
BE7
  0
DICTIONARY
  5
D
102
{ACAD_REACTORS
330
C
102
}
330
C
100
AcDbDictionary
  0
DICTIONARY
  5
A78
102
{ACAD_REACTORS
330
C
102
}
330
C
100
AcDbDictionary
  0
DICTIONARY
  5
E
102
{ACAD_REACTORS
330
C
102
}
330
C
100
AcDbDictionary
  3
STANDARD
350
1B
  0
DICTIONARY
  5
A79
102
{ACAD_REACTORS
330
C
102
}
330
C
100
AcDbDictionary
  0
ACDBDICTIONARYWDFLT
  5
A76
102
{ACAD_REACTORS
330
C
102
}
330
C
100
AcDbDictionary
281
     1
  3
Normal
350
A77
100
AcDbDictionaryWithDefault
340
A77
  0
DICTIONARY
  5
BC7
102
{ACAD_REACTORS
330
C
102
}
330
C
100
AcDbDictionary
  3
CEPSNTYPE
350
BD1
  3
FINGERPRINTGUID
350
BD2
  3
HYPERLINKBASE
350
BCA
  3
INSUNITS
350
BD0
  3
LAYOUTDICT
350
BCC
  3
LWETCUNION
350
BCF
  3
PLOTSETDICT
350
BCD
  3
PLOTSTYLNAMDICT
350
BCE
  3
PSVPSCALE
350
BD4
  3
PUCSBASE
350
BD7
  3
PUCSORGBACK
350
BDD
  3
PUCSORGBOTTOM
350
BD9
  3
PUCSORGFRONT
350
BDC
  3
PUCSORGLEFT
350
BDA
  3
PUCSORGRIGHT
350
BDB
  3
PUCSORGTOP
350
BD8
  3
PUCSORTHOREF
350
BD5
  3
PUCSORTHOVIEW
350
BD6
  3
STYLESHEET
350
BCB
  3
TSTACKALIGN
350
BC8
  3
TSTACKSIZE
350
BC9
  3
UCSBASE
350
BE0
  3
UCSORGBACK
350
BE6
  3
UCSORGBOTTOM
350
BE2
  3
UCSORGFRONT
350
BE5
  3
UCSORGLEFT
350
BE3
  3
UCSORGRIGHT
350
BE4
  3
UCSORGTOP
350
BE1
  3
UCSORTHOREF
350
BDE
  3
UCSORTHOVIEW
350
BDF
  3
VERSIONGUID
350
BD3
  0
DICTIONARY
  5
AD9
102
{ACAD_REACTORS
330
C
102
}
330
C
100
AcDbDictionary
  3
DIMASSOC
350
ADA
  0
XRECORD
  5
BE8
102
{ACAD_REACTORS
330
AD3
102
}
330
AD3
100
AcDbXrecord
340
18
  0
XRECORD
  5
BE7
102
{ACAD_REACTORS
330
AD1
102
}
330
AD1
100
AcDbXrecord
340
15
  0
MLINESTYLE
  5
1B
102
{ACAD_REACTORS
330
E
102
}
330
E
100
AcDbMlineStyle
  2
STANDARD
 70
     0
  3

 62
     0
 51
90.0
 52
90.0
 71
     2
 49
0.5
 62
   256
  6
BYLAYER
 49
-0.5
 62
   256
  6
BYLAYER
  0
ACDBPLACEHOLDER
  5
A77
102
{ACAD_REACTORS
330
A76
102
}
330
A76
100
AcDbPlaceHolder
280
     0
  0
XRECORD
  5
BD1
102
{ACAD_REACTORS
330
BC7
102
}
330
BC7
100
AcDbXrecord
 90
        0
  0
XRECORD
  5
BD2
102
{ACAD_REACTORS
330
BC7
102
}
330
BC7
100
AcDbXrecord
  1
{22145CA6-8C11-4D4C-8AC3-2921A01B9A07}
  0
XRECORD
  5
BCA
102
{ACAD_REACTORS
330
BC7
102
}
330
BC7
100
AcDbXrecord
  1

  0
XRECORD
  5
BD0
102
{ACAD_REACTORS
330
BC7
102
}
330
BC7
100
AcDbXrecord
 90
        0
  0
XRECORD
  5
BCC
102
{ACAD_REACTORS
330
BC7
102
}
330
BC7
100
AcDbXrecord
340
A78
  0
XRECORD
  5
BCF
102
{ACAD_REACTORS
330
BC7
102
}
330
BC7
100
AcDbXrecord
 90
    14877
  0
XRECORD
  5
BCD
102
{ACAD_REACTORS
330
BC7
102
}
330
BC7
100
AcDbXrecord
340
A79
  0
XRECORD
  5
BCE
102
{ACAD_REACTORS
330
BC7
102
}
330
BC7
100
AcDbXrecord
340
A76
  0
XRECORD
  5
BD4
102
{ACAD_REACTORS
330
BC7
102
}
330
BC7
100
AcDbXrecord
 40
0.0
  0
XRECORD
  5
BD7
102
{ACAD_REACTORS
330
BC7
102
}
330
BC7
100
AcDbXrecord
340
0
  0
XRECORD
  5
BDD
102
{ACAD_REACTORS
330
BC7
102
}
330
BC7
100
AcDbXrecord
 10
0.0
 20
0.0
 30
0.0
  0
XRECORD
  5
BD9
102
{ACAD_REACTORS
330
BC7
102
}
330
BC7
100
AcDbXrecord
 10
0.0
 20
0.0
 30
0.0
  0
XRECORD
  5
BDC
102
{ACAD_REACTORS
330
BC7
102
}
330
BC7
100
AcDbXrecord
 10
0.0
 20
0.0
 30
0.0
  0
XRECORD
  5
BDA
102
{ACAD_REACTORS
330
BC7
102
}
330
BC7
100
AcDbXrecord
 10
0.0
 20
0.0
 30
0.0
  0
XRECORD
  5
BDB
102
{ACAD_REACTORS
330
BC7
102
}
330
BC7
100
AcDbXrecord
 10
0.0
 20
0.0
 30
0.0
  0
XRECORD
  5
BD8
102
{ACAD_REACTORS
330
BC7
102
}
330
BC7
100
AcDbXrecord
 10
0.0
 20
0.0
 30
0.0
  0
XRECORD
  5
BD5
102
{ACAD_REACTORS
330
BC7
102
}
330
BC7
100
AcDbXrecord
340
0
  0
XRECORD
  5
BD6
102
{ACAD_REACTORS
330
BC7
102
}
330
BC7
100
AcDbXrecord
 70
     0
  0
XRECORD
  5
BCB
102
{ACAD_REACTORS
330
BC7
102
}
330
BC7
100
AcDbXrecord
  1

  0
XRECORD
  5
BC8
102
{ACAD_REACTORS
330
BC7
102
}
330
BC7
100
AcDbXrecord
 90
        1
  0
XRECORD
  5
BC9
102
{ACAD_REACTORS
330
BC7
102
}
330
BC7
100
AcDbXrecord
 90
       70
  0
XRECORD
  5
BE0
102
{ACAD_REACTORS
330
BC7
102
}
330
BC7
100
AcDbXrecord
340
0
  0
XRECORD
  5
BE6
102
{ACAD_REACTORS
330
BC7
102
}
330
BC7
100
AcDbXrecord
 10
0.0
 20
0.0
 30
0.0
  0
XRECORD
  5
BE2
102
{ACAD_REACTORS
330
BC7
102
}
330
BC7
100
AcDbXrecord
 10
0.0
 20
0.0
 30
0.0
  0
XRECORD
  5
BE5
102
{ACAD_REACTORS
330
BC7
102
}
330
BC7
100
AcDbXrecord
 10
0.0
 20
0.0
 30
0.0
  0
XRECORD
  5
BE3
102
{ACAD_REACTORS
330
BC7
102
}
330
BC7
100
AcDbXrecord
 10
0.0
 20
0.0
 30
0.0
  0
XRECORD
  5
BE4
102
{ACAD_REACTORS
330
BC7
102
}
330
BC7
100
AcDbXrecord
 10
0.0
 20
0.0
 30
0.0
  0
XRECORD
  5
BE1
102
{ACAD_REACTORS
330
BC7
102
}
330
BC7
100
AcDbXrecord
 10
0.0
 20
0.0
 30
0.0
  0
XRECORD
  5
BDE
102
{ACAD_REACTORS
330
BC7
102
}
330
BC7
100
AcDbXrecord
340
0
  0
XRECORD
  5
BDF
102
{ACAD_REACTORS
330
BC7
102
}
330
BC7
100
AcDbXrecord
 70
     0
  0
XRECORD
  5
BD3
102
{ACAD_REACTORS
330
BC7
102
}
330
BC7
100
AcDbXrecord
  1
{E0369FFA-8281-4686-A1B7-272C30948D26}
  0
DICTIONARYVAR
  5
ADA
102
{ACAD_REACTORS
330
AD9
102
}
330
AD9
100
DictionaryVariables
280
     0
  1
1
  0
ENDSEC
  0
EOF
