  0
SECTION
  2
HEADER
  9
$ACADVER
  1
AC1014
  9
$ACADMAINTVER
 70
     9
  9
$DWGCODEPAGE
  3
ANSI_1252
  9
$INSBASE
 10
-113.0943750957222
 20
100.1349450643455
 30
0.0
  9
$EXTMIN
 10
-144.0848817760828
 20
97.77282617228822
 30
0.0
  9
$EXTMAX
 10
-92.60722147594638
 20
124.2599450643455
 30
0.0
  9
$LIMMIN
 10
0.0
 20
0.0
  9
$LIMMAX
 10
36.0
 20
36.0
  9
$ORTHOMODE
 70
     1
  9
$REGENMODE
 70
     1
  9
$FILLMODE
 70
     1
  9
$QTEXTMODE
 70
     0
  9
$MIRRTEXT
 70
     1
  9
$DRAGMODE
 70
     0
  9
$LTSCALE
 40
1.0
  9
$OSMODE
 70
    37
  9
$ATTMODE
 70
     1
  9
$TEXTSIZE
 40
0.2
  9
$TRACEWID
 40
0.05
  9
$TEXTSTYLE
  7
STANDARD
  9
$CLAYER
  8
ADPDIM
  9
$CELTYPE
  6
BYLAYER
  9
$CECOLOR
 62
   256
  9
$CELTSCALE
 40
1.0
  9
$DELOBJ
 70
     1
  9
$DISPSILH
 70
     0
  9
$DIMSCALE
 40
1.0
  9
$DIMASZ
 40
0.125
  9
$DIMEXO
 40
0.0625
  9
$DIMDLI
 40
0.38
  9
$DIMRND
 40
0.0
  9
$DIMDLE
 40
0.0
  9
$DIMEXE
 40
0.18
  9
$DIMTP
 40
0.0
  9
$DIMTM
 40
0.0
  9
$DIMTXT
 40
0.125
  9
$DIMCEN
 40
0.1875
  9
$DIMTSZ
 40
0.125
  9
$DIMTOL
 70
     0
  9
$DIMLIM
 70
     0
  9
$DIMTIH
 70
     0
  9
$DIMTOH
 70
     0
  9
$DIMSE1
 70
     0
  9
$DIMSE2
 70
     0
  9
$DIMTAD
 70
     0
  9
$DIMZIN
 70
     3
  9
$DIMBLK
  1

  9
$DIMASO
 70
     1
  9
$DIMSHO
 70
     1
  9
$DIMPOST
  1

  9
$DIMAPOST
  1

  9
$DIMALT
 70
     0
  9
$DIMALTD
 70
     1
  9
$DIMALTF
 40
25.4
  9
$DIMLFAC
 40
1.0
  9
$DIMTOFL
 70
     0
  9
$DIMTVP
 40
0.0
  9
$DIMTIX
 70
     0
  9
$DIMSOXD
 70
     0
  9
$DIMSAH
 70
     0
  9
$DIMBLK1
  1

  9
$DIMBLK2
  1

  9
$DIMSTYLE
  2
STANDARD
  9
$DIMCLRD
 70
     0
  9
$DIMCLRE
 70
     0
  9
$DIMCLRT
 70
     0
  9
$DIMTFAC
 40
1.0
  9
$DIMGAP
 40
0.125
  9
$DIMJUST
 70
     0
  9
$DIMSD1
 70
     0
  9
$DIMSD2
 70
     0
  9
$DIMTOLJ
 70
     1
  9
$DIMTZIN
 70
     0
  9
$DIMALTZ
 70
     0
  9
$DIMALTTZ
 70
     0
  9
$DIMFIT
 70
     3
  9
$DIMUPT
 70
     0
  9
$DIMUNIT
 70
     2
  9
$DIMDEC
 70
     4
  9
$DIMTDEC
 70
     4
  9
$DIMALTU
 70
     2
  9
$DIMALTTD
 70
     2
  9
$DIMTXSTY
  7
STANDARD
  9
$DIMAUNIT
 70
     0
  9
$LUNITS
 70
     5
  9
$LUPREC
 70
     4
  9
$SKETCHINC
 40
0.1
  9
$FILLETRAD
 40
0.062
  9
$AUNITS
 70
     0
  9
$AUPREC
 70
     0
  9
$MENU
  1
acad
  9
$ELEVATION
 40
0.0
  9
$PELEVATION
 40
0.0
  9
$THICKNESS
 40
0.0
  9
$LIMCHECK
 70
     0
  9
$BLIPMODE
 70
     0
  9
$CHAMFERA
 40
0.0
  9
$CHAMFERB
 40
0.0
  9
$CHAMFERC
 40
0.0
  9
$CHAMFERD
 40
0.0
  9
$SKPOLY
 70
     0
  9
$TDCREATE
 40
2450407.587168587
  9
$TDUPDATE
 40
2452297.072505787
  9
$TDINDWG
 40
0.0203862153
  9
$TDUSRTIMER
 40
0.0203862153
  9
$USRTIMER
 70
     1
  9
$ANGBASE
 50
0.0
  9
$ANGDIR
 70
     0
  9
$PDMODE
 70
     0
  9
$PDSIZE
 40
0.0
  9
$PLINEWID
 40
0.0
  9
$COORDS
 70
     2
  9
$SPLFRAME
 70
     0
  9
$SPLINETYPE
 70
     6
  9
$SPLINESEGS
 70
     8
  9
$ATTDIA
 70
     0
  9
$ATTREQ
 70
     1
  9
$HANDLING
 70
 22529
  9
$HANDSEED
  5
217
  9
$SURFTAB1
 70
     6
  9
$SURFTAB2
 70
     6
  9
$SURFTYPE
 70
     6
  9
$SURFU
 70
     6
  9
$SURFV
 70
     6
  9
$UCSNAME
  2

  9
$UCSORG
 10
0.0
 20
0.0
 30
0.0
  9
$UCSXDIR
 10
1.0
 20
0.0
 30
0.0
  9
$UCSYDIR
 10
0.0
 20
1.0
 30
0.0
  9
$PUCSNAME
  2

  9
$PUCSORG
 10
0.0
 20
0.0
 30
0.0
  9
$PUCSXDIR
 10
1.0
 20
0.0
 30
0.0
  9
$PUCSYDIR
 10
0.0
 20
1.0
 30
0.0
  9
$USERI1
 70
     0
  9
$USERI2
 70
     0
  9
$USERI3
 70
     0
  9
$USERI4
 70
     0
  9
$USERI5
 70
     0
  9
$USERR1
 40
0.0
  9
$USERR2
 40
0.0
  9
$USERR3
 40
0.0
  9
$USERR4
 40
0.0
  9
$USERR5
 40
0.0
  9
$WORLDVIEW
 70
     1
  9
$SHADEDGE
 70
     3
  9
$SHADEDIF
 70
    70
  9
$TILEMODE
 70
     1
  9
$MAXACTVP
 70
    15
  9
$PINSBASE
 10
0.0008545038290322
 20
1.250283272183907
 30
0.0
  9
$PLIMCHECK
 70
     0
  9
$PEXTMIN
 10
1.000000000000000E+20
 20
1.000000000000000E+20
 30
1.000000000000000E+20
  9
$PEXTMAX
 10
-1.000000000000000E+20
 20
-1.000000000000000E+20
 30
-1.000000000000000E+20
  9
$PLIMMIN
 10
0.0
 20
0.0
  9
$PLIMMAX
 10
12.0
 20
9.0
  9
$UNITMODE
 70
     0
  9
$VISRETAIN
 70
     0
  9
$PLINEGEN
 70
     0
  9
$PSLTSCALE
 70
     1
  9
$TREEDEPTH
 70
  3020
  9
$PICKSTYLE
 70
     1
  9
$CMLSTYLE
  2
STANDARD
  9
$CMLJUST
 70
     0
  9
$CMLSCALE
 40
1.0
  9
$PROXYGRAPHICS
 70
     1
  9
$MEASUREMENT
 70
     0
  0
ENDSEC
  0
SECTION
  2
CLASSES
  0
CLASS
  1
ACDBDICTIONARYWDFLT
  2
AcDbDictionaryWithDefault
  3
AutoCAD 2000
 90
        0
280
     0
281
     0
  0
CLASS
  1
ACDBPLACEHOLDER
  2
AcDbPlaceHolder
  3
AutoCAD 2000
 90
        0
280
     0
281
     0
  0
CLASS
  1
LAYOUT
  2
AcDbLayout
  3
AutoCAD 2000
 90
        0
280
     0
281
     0
  0
CLASS
  1
DICTIONARYVAR
  2
AcDbDictionaryVar
  3
AutoCAD 2000
 90
        0
280
     0
281
     0
  0
CLASS
  1
LONG_TRANSACTION
  2
AcDbLongTransaction
  3
AutoCAD 2000
 90
        0
280
     0
281
     0
  0
CLASS
  1
LWPOLYLINE
  2
AcDbPolyline
  3
AutoCAD 2000
 90
        0
280
     0
281
     1
  0
CLASS
  1
HATCH
  2
AcDbHatch
  3
AutoCAD 2000
 90
        0
280
     0
281
     1
  0
CLASS
  1
XRECORD
  2
AcDbXrecord
  3
AutoCAD 2000
 90
        0
280
     0
281
     0
  0
CLASS
  1
LONG_TRANSACTION
  2
AcDbLongTransaction
  3
AutoCAD 2000
 90
        0
280
     0
281
     0
  0
CLASS
  1
LWPOLYLINE
  2
AcDbPolyline
  3
AutoCAD 2000
 90
        0
280
     0
281
     1
  0
CLASS
  1
HATCH
  2
AcDbHatch
  3
AutoCAD 2000
 90
        0
280
     0
281
     1
  0
CLASS
  1
XRECORD
  2
AcDbXrecord
  3
AutoCAD 2000
 90
        0
280
     0
281
     0
  0
CLASS
  1
LONG_TRANSACTION
  2
AcDbLongTransaction
  3
AutoCAD 2000
 90
        0
280
     0
281
     0
  0
CLASS
  1
LWPOLYLINE
  2
AcDbPolyline
  3
AutoCAD 2000
 90
        0
280
     0
281
     1
  0
CLASS
  1
HATCH
  2
AcDbHatch
  3
AutoCAD 2000
 90
        0
280
     0
281
     1
  0
CLASS
  1
XRECORD
  2
AcDbXrecord
  3
AutoCAD 2000
 90
        0
280
     0
281
     0
  0
CLASS
  1
LONG_TRANSACTION
  2
AcDbLongTransaction
  3
AutoCAD 2000
 90
        0
280
     0
281
     0
  0
CLASS
  1
LWPOLYLINE
  2
AcDbPolyline
  3
AutoCAD 2000
 90
        0
280
     0
281
     1
  0
CLASS
  1
HATCH
  2
AcDbHatch
  3
AutoCAD 2000
 90
        0
280
     0
281
     1
  0
CLASS
  1
XRECORD
  2
AcDbXrecord
  3
AutoCAD 2000
 90
        0
280
     0
281
     0
  0
CLASS
  1
LONG_TRANSACTION
  2
AcDbLongTransaction
  3
AutoCAD 2000
 90
        0
280
     0
281
     0
  0
CLASS
  1
LWPOLYLINE
  2
AcDbPolyline
  3
AutoCAD 2000
 90
        0
280
     0
281
     1
  0
CLASS
  1
HATCH
  2
AcDbHatch
  3
AutoCAD 2000
 90
        0
280
     0
281
     1
  0
CLASS
  1
XRECORD
  2
AcDbXrecord
  3
AutoCAD 2000
 90
        0
280
     0
281
     0
  0
CLASS
  1
LONG_TRANSACTION
  2
AcDbLongTransaction
  3
AutoCAD 2000
 90
        0
280
     0
281
     0
  0
CLASS
  1
LWPOLYLINE
  2
AcDbPolyline
  3
AutoCAD 2000
 90
        0
280
     0
281
     1
  0
CLASS
  1
HATCH
  2
AcDbHatch
  3
AutoCAD 2000
 90
        0
280
     0
281
     1
  0
CLASS
  1
XRECORD
  2
AcDbXrecord
  3
AutoCAD 2000
 90
        0
280
     0
281
     0
  0
ENDSEC
  0
SECTION
  2
TABLES
  0
TABLE
  2
VPORT
  5
8
330
0
100
AcDbSymbolTable
 70
     2
  0
VPORT
  5
1F4
330
8
100
AcDbSymbolTableRecord
100
AcDbViewportTableRecord
  2
*ACTIVE
 70
     0
 10
0.0
 20
0.0
 11
1.0
 21
1.0
 12
-118.3032214952605
 22
111.0184692515894
 13
0.0
 23
0.0
 14
0.5740882589684922
 24
0.5740882589684922
 15
0.5
 25
0.5
 16
0.0
 26
0.0
 36
1.0
 17
0.0
 27
0.0
 37
0.0
 40
32.99962990185532
 41
1.570528967254408
 42
50.0
 43
0.0
 44
0.0
 50
0.0
 51
0.0
 71
     0
 72
   100
 73
     1
 74
     0
 75
     0
 76
     0
 77
     0
 78
     0
  0
ENDTAB
  0
TABLE
  2
LTYPE
  5
5
330
0
100
AcDbSymbolTable
 70
     1
  0
LTYPE
  5
12
330
5
100
AcDbSymbolTableRecord
100
AcDbLinetypeTableRecord
  2
BYBLOCK
 70
     0
  3

 72
    65
 73
     0
 40
0.0
  0
LTYPE
  5
13
330
5
100
AcDbSymbolTableRecord
100
AcDbLinetypeTableRecord
  2
BYLAYER
 70
     0
  3

 72
    65
 73
     0
 40
0.0
  0
LTYPE
  5
14
330
5
100
AcDbSymbolTableRecord
100
AcDbLinetypeTableRecord
  2
CONTINUOUS
 70
     0
  3
Solid line
 72
    65
 73
     0
 40
0.0
  0
ENDTAB
  0
TABLE
  2
LAYER
  5
2
330
0
100
AcDbSymbolTable
 70
     4
  0
LAYER
  5
F
330
2
100
AcDbSymbolTableRecord
100
AcDbLayerTableRecord
  2
0
 70
     0
 62
     7
  6
CONTINUOUS
  0
LAYER
  5
1F
330
2
100
AcDbSymbolTableRecord
100
AcDbLayerTableRecord
  2
DEFPOINTS
 70
     0
 62
     7
  6
CONTINUOUS
  0
LAYER
  5
20
330
2
100
AcDbSymbolTableRecord
100
AcDbLayerTableRecord
  2
ADPDIM
 70
     0
 62
     3
  6
CONTINUOUS
  0
LAYER
  5
21
330
2
100
AcDbSymbolTableRecord
100
AcDbLayerTableRecord
  2
ADP1DETAIL
 70
     0
 62
     7
  6
CONTINUOUS
  0
ENDTAB
  0
TABLE
  2
STYLE
  5
3
330
0
100
AcDbSymbolTable
 70
     2
  0
STYLE
  5
10
330
3
100
AcDbSymbolTableRecord
100
AcDbTextStyleTableRecord
  2
STANDARD
 70
     0
 40
0.0
 41
1.0
 50
0.0
 71
     0
 42
0.2
  3
txt
  4

  0
STYLE
  5
AC
330
3
100
AcDbSymbolTableRecord
100
AcDbTextStyleTableRecord
  2
ARIAL_WIDE
 70
     0
 40
0.0
 41
1.25
 50
0.0
 71
     0
 42
0.2
  3
ARIAL.TTF
  4

1001
ACAD
1000
Arial
1071
       34
  0
ENDTAB
  0
TABLE
  2
VIEW
  5
6
330
0
100
AcDbSymbolTable
 70
     0
  0
ENDTAB
  0
TABLE
  2
UCS
  5
7
330
0
100
AcDbSymbolTable
 70
     0
  0
ENDTAB
  0
TABLE
  2
APPID
  5
9
330
0
100
AcDbSymbolTable
 70
     1
  0
APPID
  5
11
330
9
100
AcDbSymbolTableRecord
100
AcDbRegAppTableRecord
  2
ACAD
 70
     0
  0
ENDTAB
  0
TABLE
  2
DIMSTYLE
  5
A
330
0
100
AcDbSymbolTable
 70
     1
  0
DIMSTYLE
105
A0
330
A
100
AcDbSymbolTableRecord
100
AcDbDimStyleTableRecord
  2
STANDARD
 70
     0
  3

  4

  5

  6

  7

 40
1.0
 41
0.18
 42
0.0625
 43
0.38
 44
0.18
 45
0.0
 46
0.0
 47
0.0
 48
0.0
140
0.18
141
0.09
142
0.0
143
25.4
144
1.0
145
0.0
146
1.0
147
0.09
 71
     0
 72
     0
 73
     1
 74
     1
 75
     0
 76
     0
 77
     0
 78
     0
170
     0
171
     2
172
     0
173
     0
174
     0
175
     0
176
     0
177
     0
178
     0
270
     2
271
     4
272
     4
273
     2
274
     2
340
10
275
     0
280
     0
281
     0
282
     0
283
     1
284
     0
285
     0
286
     0
287
     3
288
     0
  0
ENDTAB
  0
TABLE
  2
BLOCK_RECORD
  5
1
330
0
100
AcDbSymbolTable
 70
     2
  0
BLOCK_RECORD
  5
18
102
{ACAD_XDICTIONARY
360
101
102
}
330
1
100
AcDbSymbolTableRecord
100
AcDbBlockTableRecord
  2
*MODEL_SPACE
  0
BLOCK_RECORD
  5
15
102
{ACAD_XDICTIONARY
360
FF
102
}
330
1
100
AcDbSymbolTableRecord
100
AcDbBlockTableRecord
  2
*PAPER_SPACE
  0
BLOCK_RECORD
  5
1C
330
1
100
AcDbSymbolTableRecord
100
AcDbBlockTableRecord
  2
*D0
  0
BLOCK_RECORD
  5
1D
330
1
100
AcDbSymbolTableRecord
100
AcDbBlockTableRecord
  2
*D1
  0
ENDTAB
  0
ENDSEC
  0
SECTION
  2
BLOCKS
  0
BLOCK
  5
24
330
18
100
AcDbEntity
  8
0
100
AcDbBlockBegin
  2
*MODEL_SPACE
 70
     0
 10
0.0
 20
0.0
 30
0.0
  3
*MODEL_SPACE
  1

  0
ENDBLK
  5
25
330
18
100
AcDbEntity
  8
0
100
AcDbBlockEnd
  0
BLOCK
  5
22
330
15
100
AcDbEntity
 67
     1
  8
0
100
AcDbBlockBegin
  2
*PAPER_SPACE
 70
     0
 10
0.0
 20
0.0
 30
0.0
  3
*PAPER_SPACE
  1

  0
ENDBLK
  5
23
330
15
100
AcDbEntity
 67
     1
  8
0
100
AcDbBlockEnd
  0
BLOCK
  5
26
330
1C
100
AcDbEntity
  8
0
100
AcDbBlockBegin
  2
*D0
 70
     1
 10
0.0
 20
0.0
 30
0.0
  3
*D0
  1

  0
LINE
  5
27
330
1C
100
AcDbEntity
  8
0
  6
BYBLOCK
 62
     0
100
AcDbLine
 10
-123.8308738961903
 20
99.49274006416988
 30
0.0
 11
-123.8308738961903
 21
98.72769005317362
 31
0.0
  0
LINE
  5
28
330
1C
100
AcDbEntity
  8
0
  6
BYBLOCK
 62
     0
100
AcDbLine
 10
-113.2058738961903
 20
99.49274006416988
 30
0.0
 11
-113.2058738961903
 21
98.72769005317362
 31
0.0
  0
LINE
  5
29
330
1C
100
AcDbEntity
  8
0
  6
BYBLOCK
 62
     0
100
AcDbLine
 10
-123.8308738961903
 20
98.90769005317363
 30
0.0
 11
-118.966290562857
 21
98.90769005317363
 31
0.0
  0
LINE
  5
2A
330
1C
100
AcDbEntity
  8
0
  6
BYBLOCK
 62
     0
100
AcDbLine
 10
-113.2058738961903
 20
98.90769005317363
 30
0.0
 11
-118.0704572295236
 21
98.90769005317363
 31
0.0
  0
LINE
  5
2B
330
1C
100
AcDbEntity
  8
0
  6
BYBLOCK
 62
     0
100
AcDbLine
 10
-123.9558738961903
 20
98.78269005317363
 30
0.0
 11
-123.7058738961903
 21
99.03269005317362
 31
0.0
  0
LINE
  5
2C
330
1C
100
AcDbEntity
  8
0
  6
BYBLOCK
 62
     0
100
AcDbLine
 10
-113.3308738961903
 20
98.78269005317363
 30
0.0
 11
-113.0808738961903
 21
99.03269005317362
 31
0.0
  0
TEXT
  5
2D
330
1C
100
AcDbEntity
  8
0
  6
BYBLOCK
 62
     0
100
AcDbText
 10
-118.841290562857
 20
98.84519005317363
 30
0.0
 40
0.125
  1
10 5/8
 72
     1
 11
-118.5183738961903
 21
98.90769005317363
 31
0.0
100
AcDbText
 73
     2
  0
POINT
  5
2E
330
1C
100
AcDbEntity
  8
DEFPOINTS
  6
BYBLOCK
 62
     0
100
AcDbPoint
 10
-123.8308738961903
 20
99.55524006416988
 30
0.0
  0
POINT
  5
2F
330
1C
100
AcDbEntity
  8
DEFPOINTS
  6
BYBLOCK
 62
     0
100
AcDbPoint
 10
-113.2058738961903
 20
99.55524006416988
 30
0.0
  0
POINT
  5
30
330
1C
100
AcDbEntity
  8
DEFPOINTS
  6
BYBLOCK
 62
     0
100
AcDbPoint
 10
-113.2058738961903
 20
98.90769005317363
 30
0.0
  0
ENDBLK
  5
31
330
1C
100
AcDbEntity
  8
0
100
AcDbBlockEnd
  0
BLOCK
  5
32
330
1D
100
AcDbEntity
  8
0
100
AcDbBlockBegin
  2
*D1
 70
     1
 10
0.0
 20
0.0
 30
0.0
  3
*D1
  1

  0
LINE
  5
33
330
1D
100
AcDbEntity
  8
0
  6
BYBLOCK
 62
     0
100
AcDbLine
 10
-108.7900427437837
 20
100.1218462153703
 30
0.0
 11
-107.3366375103331
 21
100.1218462153703
 31
0.0
  0
LINE
  5
34
330
1D
100
AcDbEntity
  8
0
  6
BYBLOCK
 62
     0
100
AcDbLine
 10
-108.7900427437837
 20
124.1218462153703
 30
0.0
 11
-107.3366375103331
 21
124.1218462153703
 31
0.0
  0
LINE
  5
35
330
1D
100
AcDbEntity
  8
0
  6
BYBLOCK
 62
     0
100
AcDbLine
 10
-107.5166375103331
 20
100.1218462153703
 30
0.0
 11
-107.5166375103331
 21
111.8926795487036
 31
0.0
  0
LINE
  5
36
330
1D
100
AcDbEntity
  8
0
  6
BYBLOCK
 62
     0
100
AcDbLine
 10
-107.5166375103331
 20
124.1218462153703
 30
0.0
 11
-107.5166375103331
 21
112.3510128820369
 31
0.0
  0
LINE
  5
37
330
1D
100
AcDbEntity
  8
0
  6
BYBLOCK
 62
     0
100
AcDbLine
 10
-107.3916375103331
 20
99.99684621537031
 30
0.0
 11
-107.6416375103331
 21
100.2468462153703
 31
0.0
  0
LINE
  5
38
330
1D
100
AcDbEntity
  8
0
  6
BYBLOCK
 62
     0
100
AcDbLine
 10
-107.3916375103331
 20
123.9968462153703
 30
0.0
 11
-107.6416375103331
 21
124.2468462153703
 31
0.0
  0
TEXT
  5
39
330
1D
100
AcDbEntity
  8
0
  6
BYBLOCK
 62
     0
100
AcDbText
 10
-107.4541375103331
 20
112.0176795487036
 30
0.0
 40
0.125
  1
24
 50
90.0
 72
     1
 11
-107.5166375103331
 21
112.1218462153703
 31
0.0
100
AcDbText
 73
     2
  0
POINT
  5
3A
330
1D
100
AcDbEntity
  8
DEFPOINTS
  6
BYBLOCK
 62
     0
100
AcDbPoint
 10
-108.8525427437837
 20
100.1218462153703
 30
0.0
  0
POINT
  5
3B
330
1D
100
AcDbEntity
  8
DEFPOINTS
  6
BYBLOCK
 62
     0
100
AcDbPoint
 10
-108.8525427437837
 20
124.1218462153703
 30
0.0
  0
POINT
  5
3C
330
1D
100
AcDbEntity
  8
DEFPOINTS
  6
BYBLOCK
 62
     0
100
AcDbPoint
 10
-107.5166375103331
 20
124.1218462153703
 30
0.0
  0
ENDBLK
  5
3D
330
1D
100
AcDbEntity
  8
0
100
AcDbBlockEnd
  0
ENDSEC
  0
SECTION
  2
ENTITIES
  0
DIMENSION
  5
3E
330
18
100
AcDbEntity
  8
ADPDIM
100
AcDbDimension
  2
*D0
 10
-113.0943750957222
 20
99.48739505334927
 30
0.0
 11
-118.4068750957222
 21
99.48739505334927
 31
0.0
 12
0.1114988004680839
 22
0.5797050001756503
 32
0.0
100
AcDbAlignedDimension
 13
-123.7193750957222
 23
100.1349450643455
 33
0.0
 14
-113.0943750957222
 24
100.1349450643455
 34
0.0
100
AcDbRotatedDimension
  0
LINE
  5
3F
330
18
100
AcDbEntity
  8
ADP1DETAIL
100
AcDbLine
 10
-121.2664574755849
 20
118.1135263000434
 30
0.0
 11
-123.8498899698641
 21
112.1030915174347
 31
0.0
  0
LINE
  5
40
330
18
100
AcDbEntity
  8
ADP1DETAIL
100
AcDbLine
 10
-123.3226588485826
 20
112.1030915174347
 30
0.0
 11
-121.0028419149442
 21
117.4808489545057
 31
0.0
  0
LINE
  5
41
330
18
100
AcDbEntity
  8
ADP1DETAIL
100
AcDbLine
 10
-121.0028419149442
 20
118.7462036455812
 30
0.0
 11
-123.2699357364545
 21
124.071237970524
 31
0.0
  0
LINE
  5
42
330
18
100
AcDbEntity
  8
ADP1DETAIL
100
AcDbLine
 10
-123.8498899698641
 20
124.071237970524
 30
0.0
 11
-121.2664574755849
 21
118.1135263000434
 31
0.0
  0
LINE
  5
43
330
18
100
AcDbEntity
  8
ADP1DETAIL
100
AcDbLine
 10
-121.2664574755849
 20
106.0399336226979
 30
0.0
 11
-123.7971668577359
 21
100.1349450643455
 31
0.0
  0
LINE
  5
44
330
18
100
AcDbEntity
  8
ADP1DETAIL
100
AcDbLine
 10
-123.2172126243263
 20
100.1349450643455
 30
0.0
 11
-121.0028419149442
 21
105.354533165032
 31
0.0
  0
LINE
  5
45
330
18
100
AcDbEntity
  8
ADP1DETAIL
100
AcDbLine
 10
-123.8498899698641
 20
112.1030915174347
 30
0.0
 11
-121.2664574755849
 21
106.0399336226979
 31
0.0
  0
LINE
  5
46
330
18
100
AcDbEntity
  8
ADP1DETAIL
100
AcDbLine
 10
-121.0028419149442
 20
106.6726109682356
 30
0.0
 11
-123.3226588485826
 21
112.1030915174347
 31
0.0
  0
LINE
  5
47
330
18
100
AcDbEntity
  8
ADP1DETAIL
100
AcDbLine
 10
-123.7971668577359
 20
100.1349450643455
 30
0.0
 11
-123.2172126243263
 21
100.1349450643455
 31
0.0
  0
LINE
  5
48
330
18
100
AcDbEntity
  8
ADP1DETAIL
100
AcDbLine
 10
-123.8498899698641
 20
112.1030915174347
 30
0.0
 11
-123.8498899698641
 21
112.1030915174347
 31
0.0
  0
LINE
  5
49
330
18
100
AcDbEntity
  8
ADP1DETAIL
100
AcDbLine
 10
-123.2699357364545
 20
124.071237970524
 30
0.0
 11
-123.8498899698641
 21
124.071237970524
 31
0.0
  0
LINE
  5
4A
330
18
100
AcDbEntity
  8
ADP1DETAIL
100
AcDbLine
 10
-115.6250844778732
 20
106.092656734826
 30
0.0
 11
-113.0943750957222
 21
112.1558146295629
 31
0.0
  0
LINE
  5
4B
330
18
100
AcDbEntity
  8
ADP1DETAIL
100
AcDbLine
 10
-113.6216062170037
 20
112.1558146295629
 30
0.0
 11
-115.888700038514
 21
106.7253340803638
 31
0.0
  0
LINE
  5
4C
330
18
100
AcDbEntity
  8
ADP1DETAIL
100
AcDbLine
 10
-118.1030707478961
 20
110.6268443778466
 30
0.0
 11
-116.1523155991547
 21
106.1453798469542
 31
0.0
  0
LINE
  5
4D
330
18
100
AcDbEntity
  8
ADP1DETAIL
100
AcDbLine
 10
-115.888700038514
 20
106.7253340803638
 30
0.0
 11
-117.6812858508709
 21
110.8904599384874
 31
0.0
  0
LINE
  5
4E
330
18
100
AcDbEntity
  8
ADP1DETAIL
100
AcDbLine
 10
-119.1575329904591
 20
110.9431830506155
 30
0.0
 11
-121.0028419149442
 21
106.6726109682356
 31
0.0
  0
LINE
  5
4F
330
18
100
AcDbEntity
  8
ADP1DETAIL
100
AcDbLine
 10
-120.6865032421753
 20
106.0399336226979
 30
0.0
 11
-118.7357480934339
 21
110.6268443778466
 31
0.0
  0
DIMENSION
  5
50
330
18
100
AcDbEntity
  8
ADPDIM
100
AcDbDimension
  2
*D1
 10
-111.7584698622716
 20
124.1349450643455
 30
0.0
 11
-111.7584698622716
 21
112.1349450643455
 31
0.0
 12
-4.241832351938469
 22
0.0130988489752184
 32
0.0
100
AcDbAlignedDimension
 13
-113.0943750957222
 23
100.1349450643455
 33
0.0
 14
-113.0943750957222
 24
124.1349450643455
 34
0.0
 50
90.0
100
AcDbRotatedDimension
  0
LINE
  5
51
330
18
100
AcDbEntity
  8
ADP1DETAIL
100
AcDbLine
 10
-115.888700038514
 20
105.4599793892883
 30
0.0
 11
-113.6216062170037
 21
100.1349450643455
 31
0.0
  0
LINE
  5
52
330
18
100
AcDbEntity
  8
ADP1DETAIL
100
AcDbLine
 10
-113.0943750957222
 20
100.1349450643455
 30
0.0
 11
-115.6250844778732
 21
106.092656734826
 31
0.0
  0
LINE
  5
53
330
18
100
AcDbEntity
  8
ADP1DETAIL
100
AcDbLine
 10
-118.2085169721524
 20
100.1349450643455
 30
0.0
 11
-115.888700038514
 21
105.4599793892883
 31
0.0
  0
LINE
  5
54
330
18
100
AcDbEntity
  8
ADP1DETAIL
100
AcDbLine
 10
-116.1523155991547
 20
106.1453798469542
 30
0.0
 11
-118.4721325327932
 21
100.7676224098832
 31
0.0
  0
LINE
  5
55
330
18
100
AcDbEntity
  8
ADP1DETAIL
100
AcDbLine
 10
-121.0028419149442
 20
105.354533165032
 30
0.0
 11
-118.7357480934339
 21
100.1349450643455
 31
0.0
  0
LINE
  5
56
330
18
100
AcDbEntity
  8
ADP1DETAIL
100
AcDbLine
 10
-118.4721325327932
 20
100.7676224098832
 30
0.0
 11
-120.6865032421753
 21
106.0399336226979
 31
0.0
  0
LINE
  5
57
330
18
100
AcDbEntity
  8
ADP1DETAIL
100
AcDbLine
 10
-118.7357480934339
 20
100.1349450643455
 30
0.0
 11
-118.2085169721524
 21
100.1349450643455
 31
0.0
  0
LINE
  5
58
330
18
100
AcDbEntity
  8
ADP1DETAIL
100
AcDbLine
 10
-113.6216062170037
 20
100.1349450643455
 30
0.0
 11
-113.0943750957222
 21
100.1349450643455
 31
0.0
  0
LINE
  5
59
330
18
100
AcDbEntity
  8
ADP1DETAIL
100
AcDbLine
 10
-113.5688831048755
 20
124.071237970524
 30
0.0
 11
-115.8359769263858
 21
118.693480533453
 31
0.0
  0
LINE
  5
5A
330
18
100
AcDbEntity
  8
ADP1DETAIL
100
AcDbLine
 10
-115.8359769263858
 20
118.693480533453
 30
0.0
 11
-118.1557938600243
 21
124.071237970524
 31
0.0
  0
LINE
  5
5B
330
18
100
AcDbEntity
  8
ADP1DETAIL
100
AcDbLine
 10
-118.4721325327932
 20
123.5440068492425
 30
0.0
 11
-116.0995924870265
 21
118.0608031879153
 31
0.0
  0
LINE
  5
5C
330
18
100
AcDbEntity
  8
ADP1DETAIL
100
AcDbLine
 10
-115.5723613657451
 20
118.0608031879153
 30
0.0
 11
-112.9889288714659
 21
124.071237970524
 31
0.0
  0
LINE
  5
5D
330
18
100
AcDbEntity
  8
ADP1DETAIL
100
AcDbLine
 10
-118.7357480934339
 20
124.071237970524
 30
0.0
 11
-121.0028419149442
 21
118.7462036455812
 31
0.0
  0
LINE
  5
5E
330
18
100
AcDbEntity
  8
ADP1DETAIL
100
AcDbLine
 10
-120.7392263543034
 20
118.1135263000434
 30
0.0
 11
-118.4721325327932
 21
123.5440068492425
 31
0.0
  0
LINE
  5
5F
330
18
100
AcDbEntity
  8
ADP1DETAIL
100
AcDbLine
 10
-113.0943750957222
 20
112.1558146295629
 30
0.0
 11
-115.5723613657451
 21
118.0608031879153
 31
0.0
  0
LINE
  5
60
330
18
100
AcDbEntity
  8
ADP1DETAIL
100
AcDbLine
 10
-115.8359769263858
 20
117.4281258423775
 30
0.0
 11
-113.6216062170037
 21
112.1558146295629
 31
0.0
  0
LWPOLYLINE
  5
61
330
18
100
AcDbEntity
  8
ADP1DETAIL
100
AcDbPolyline
 90
        8
 70
     0
 43
0.0
 10
-117.6297161749277
 20
110.9865583144307
 42
0.5796521402902294
 10
-117.4169042873961
 20
111.9308091336877
 10
-117.1024850536462
 20
112.1464667812499
 10
-117.4269120139736
 20
112.3008952474414
 42
0.5878570497884663
 10
-117.6297161749277
 20
113.253652135941
 10
-117.735162399184
 20
113.7281601450943
 10
-118.1174456471824
 20
113.62120246859
 42
1.178425233801245
 10
-118.7379250695081
 20
113.6312047643942
 42
0.7458251987607155
  0
LINE
  5
6B
330
18
100
AcDbEntity
  8
ADP1DETAIL
100
AcDbLine
 10
-117.6285627387428
 20
113.2102768721258
 30
0.0
 11
-115.8359769263858
 21
117.4281258423775
 31
0.0
  0
LINE
  5
6C
330
18
100
AcDbEntity
  8
ADP1DETAIL
100
AcDbLine
 10
-116.0995924870265
 20
118.0608031879153
 30
0.0
 11
-118.050347635768
 21
113.5793386570228
 31
0.0
  0
LINE
  5
6D
330
18
100
AcDbEntity
  8
ADP1DETAIL
100
AcDbLine
 10
-118.8411943176902
 20
113.5793386570228
 30
0.0
 11
-120.7392263543034
 21
118.1135263000434
 31
0.0
  0
LINE
  5
6E
330
18
100
AcDbEntity
  8
ADP1DETAIL
100
AcDbLine
 10
-121.0028419149442
 20
117.4808489545057
 30
0.0
 11
-119.2102561025872
 21
113.2102768721258
 31
0.0
  0
LINE
  5
6F
330
18
100
AcDbEntity
  8
ADP1DETAIL
100
AcDbLine
 10
-118.4850318819345
 20
112.4436499727424
 30
0.0
 11
-118.7379250695081
 21
113.6312047643942
 31
0.0
  0
LWPOLYLINE
  5
70
330
18
100
AcDbEntity
  8
ADP1DETAIL
100
AcDbPolyline
 90
       16
 70
     1
 43
0.0
 10
-118.6767252738584
 20
112.0574734830431
 42
0.0756527779689115
 10
-118.6573991281077
 20
111.9128546208736
 42
0.0859272741379194
 10
-118.6008187349683
 20
111.7972919163535
 42
0.1060277232238524
 10
-118.508719732831
 20
111.7144057542002
 42
0.1265088446274075
 10
-118.4081613686267
 20
111.6865915781376
 42
0.1265088446274026
 10
-118.3066588538016
 20
111.7107339161701
 42
0.1060277232238555
 10
-118.2116092471454
 20
111.7902192251629
 42
0.0859272741379335
 10
-118.150867599112
 20
111.9036499606714
 42
0.0756527779689221
 10
-118.126299937575
 20
112.0474711872389
 42
0.0756527779689165
 10
-118.1456260833257
 20
112.1920900494084
 42
0.0859272741379307
 10
-118.2022064764651
 20
112.3076527539285
 42
0.1060277232238476
 10
-118.2943054786024
 20
112.3905389160818
 42
0.1265088446273956
 10
-118.3948638428067
 20
112.4183530921444
 42
0.1265088446274022
 10
-118.4963663576318
 20
112.3942107541119
 42
0.1060277232238461
 10
-118.591415964288
 20
112.3147254451191
 42
0.0859272741379293
 10
-118.6521576123214
 20
112.2012947096106
 42
0.0756527779689156
  0
LWPOLYLINE
  5
82
330
18
100
AcDbEntity
  8
ADP1DETAIL
100
AcDbPolyline
 90
       12
 70
     0
 43
0.0
 10
-118.7369015296187
 20
113.622713920838
 10
-119.0532402023876
 20
113.7281601450943
 10
-119.1586864266439
 20
113.253652135941
 42
0.5804784598548628
 10
-119.368412343252
 20
112.3008952474414
 10
-119.7386406600535
 20
112.1464667812499
 10
-119.3695788751565
 20
111.9355743327373
 42
0.5753656040706296
 10
-119.1582498354436
 20
110.9805881097928
 10
-119.1059633145158
 20
110.5647734174056
 10
-118.7369015296187
 20
110.6702196416618
 42
1.340623101673188
 10
-118.1074379206049
 20
110.670515937864
 10
-117.735162399184
 20
110.5647734174056
 10
-117.6370743969413
 20
111.0005927849012
  0
LINE
  5
90
330
18
100
AcDbEntity
  8
ADP1DETAIL
100
AcDbLine
 10
-119.1582498354436
 20
110.9805881097928
 30
0.0
 11
-118.5885810031115
 21
111.823538309755
 31
0.0
  0
LINE
  5
91
330
18
100
AcDbEntity
  8
ADP1DETAIL
100
AcDbLine
 10
-118.4979440061009
 20
111.7514293593478
 30
0.0
 11
-118.7179096163532
 21
110.670515937864
 31
0.0
  0
LINE
  5
92
330
18
100
AcDbEntity
  8
ADP1DETAIL
100
AcDbLine
 10
-118.6718449277685
 20
112.1687974439042
 30
0.0
 11
-119.368412343252
 21
112.3008952474414
 31
0.0
  0
LINE
  5
93
330
18
100
AcDbEntity
  8
ADP1DETAIL
100
AcDbLine
 10
-119.3784200698295
 20
111.9208068378835
 30
0.0
 11
-118.6767252738584
 21
112.0574734830431
 31
0.0
  0
LINE
  5
94
330
18
100
AcDbEntity
  8
ADP1DETAIL
100
AcDbLine
 10
-119.1682575620211
 20
113.2411140590321
 30
0.0
 11
-118.5771936282189
 21
112.376232999563
 31
0.0
  0
LINE
  5
95
330
18
100
AcDbEntity
  8
ADP1DETAIL
100
AcDbLine
 10
-118.2093678847212
 20
111.8380077746032
 30
0.0
 11
-117.6370743969413
 21
111.0005927849012
 31
0.0
  0
LINE
  5
96
330
18
100
AcDbEntity
  8
ADP1DETAIL
100
AcDbLine
 10
-118.1074379206049
 20
110.670515937864
 30
0.0
 11
-118.3356010260732
 21
111.7419413557515
 31
0.0
  0
LINE
  5
97
330
18
100
AcDbEntity
  8
ADP1DETAIL
100
AcDbLine
 10
-118.1174456471824
 20
113.62120246859
 30
0.0
 11
-118.3544053170685
 21
112.456780051665
 31
0.0
  0
LINE
  5
98
330
18
100
AcDbEntity
  8
ADP1DETAIL
100
AcDbLine
 10
-118.1316135038477
 20
112.1636429990095
 30
0.0
 11
-117.4269120139736
 21
112.3008952474414
 31
0.0
  0
LINE
  5
99
330
18
100
AcDbEntity
  8
ADP1DETAIL
100
AcDbLine
 10
-117.4169042873961
 20
111.9308091336877
 30
0.0
 11
-118.1285589572139
 21
112.0657681005734
 31
0.0
  0
LINE
  5
9A
330
18
100
AcDbEntity
  8
ADP1DETAIL
100
AcDbLine
 10
-118.2188564311547
 20
112.3706270465323
 30
0.0
 11
-117.6170589437864
 21
113.2611186506404
 31
0.0
  0
LINE
  5
9B
330
18
100
AcDbEntity
  8
ADP1DETAIL
100
AcDbLine
 10
-115.5723613657451
 20
118.0608031879153
 30
0.0
 11
-115.5723613657451
 21
118.0608031879153
 31
0.0
  0
LINE
  5
9C
330
18
100
AcDbEntity
  8
ADP1DETAIL
100
AcDbLine
 10
-118.2085169721524
 20
124.071237970524
 30
0.0
 11
-118.6830249813057
 21
124.071237970524
 31
0.0
  0
LINE
  5
9D
330
18
100
AcDbEntity
  8
ADP1DETAIL
100
AcDbLine
 10
-118.6830249813057
 20
124.071237970524
 30
0.0
 11
-118.7357480934339
 21
124.071237970524
 31
0.0
  0
LINE
  5
9E
330
18
100
AcDbEntity
  8
ADP1DETAIL
100
AcDbLine
 10
-118.1557938600243
 20
124.071237970524
 30
0.0
 11
-118.2085169721524
 21
124.071237970524
 31
0.0
  0
LINE
  5
9F
330
18
100
AcDbEntity
  8
ADP1DETAIL
100
AcDbLine
 10
-112.9889288714659
 20
124.071237970524
 30
0.0
 11
-113.5688831048755
 21
124.071237970524
 31
0.0
  0
TEXT
  5
AD
330
18
100
AcDbEntity
  8
ADPDIM
100
AcDbText
 10
-144.0848817760828
 20
97.92084800039191
 30
0.0
 40
0.5
  1
J U L I U S  B L U M  &  C O . ,  I N C .      ( 8 0 0 )  5 2 6 - 6 2 9 3        W W W . J U L I U S B L U M . C O M        P A R T  N o .  5 4 0
 41
1.25
  7
ARIAL_WIDE
 72
     1
 11
-118.3460516260145
 21
98.4208480003919
 31
0.0
100
AcDbText
 73
     3
  0
ENDSEC
  0
SECTION
  2
OBJECTS
  0
DICTIONARY
  5
C
330
0
100
AcDbDictionary
  3
ACAD_GROUP
350
D
  3
ACAD_LAYOUT
350
A6
  3
ACAD_MLINESTYLE
350
E
  3
ACAD_PLOTSETTINGS
350
A7
  3
ACAD_PLOTSTYLENAME
350
A4
  3
ACDBHEADERROUNDTRIPXREC
350
1F5
  3
ACDBVARIABLEDICTIONARY
350
107
  0
DICTIONARY
  5
101
330
18
100
AcDbDictionary
280
     1
  3
ACAD_LAYOUTSELFREF
360
216
  0
DICTIONARY
  5
FF
330
15
100
AcDbDictionary
280
     1
  3
ACAD_LAYOUTSELFREF
360
215
  0
DICTIONARY
  5
D
102
{ACAD_REACTORS
330
C
102
}
330
C
100
AcDbDictionary
  0
DICTIONARY
  5
A6
102
{ACAD_REACTORS
330
C
102
}
330
C
100
AcDbDictionary
  0
DICTIONARY
  5
E
102
{ACAD_REACTORS
330
C
102
}
330
C
100
AcDbDictionary
  3
STANDARD
350
1B
  0
DICTIONARY
  5
A7
102
{ACAD_REACTORS
330
C
102
}
330
C
100
AcDbDictionary
  0
ACDBDICTIONARYWDFLT
  5
A4
102
{ACAD_REACTORS
330
C
102
}
330
C
100
AcDbDictionary
281
     1
  3
Normal
350
A5
100
AcDbDictionaryWithDefault
340
A5
  0
DICTIONARY
  5
1F5
102
{ACAD_REACTORS
330
C
102
}
330
C
100
AcDbDictionary
  3
CEPSNTYPE
350
1FF
  3
FINGERPRINTGUID
350
200
  3
HYPERLINKBASE
350
1F8
  3
INSUNITS
350
1FE
  3
LAYOUTDICT
350
1FA
  3
LWETCUNION
350
1FD
  3
PLOTSETDICT
350
1FB
  3
PLOTSTYLNAMDICT
350
1FC
  3
PSVPSCALE
350
202
  3
PUCSBASE
350
205
  3
PUCSORGBACK
350
20B
  3
PUCSORGBOTTOM
350
207
  3
PUCSORGFRONT
350
20A
  3
PUCSORGLEFT
350
208
  3
PUCSORGRIGHT
350
209
  3
PUCSORGTOP
350
206
  3
PUCSORTHOREF
350
203
  3
PUCSORTHOVIEW
350
204
  3
STYLESHEET
350
1F9
  3
TSTACKALIGN
350
1F6
  3
TSTACKSIZE
350
1F7
  3
UCSBASE
350
20E
  3
UCSORGBACK
350
214
  3
UCSORGBOTTOM
350
210
  3
UCSORGFRONT
350
213
  3
UCSORGLEFT
350
211
  3
UCSORGRIGHT
350
212
  3
UCSORGTOP
350
20F
  3
UCSORTHOREF
350
20C
  3
UCSORTHOVIEW
350
20D
  3
VERSIONGUID
350
201
  0
DICTIONARY
  5
107
102
{ACAD_REACTORS
330
C
102
}
330
C
100
AcDbDictionary
  3
DIMASSOC
350
108
  0
XRECORD
  5
216
102
{ACAD_REACTORS
330
101
102
}
330
101
100
AcDbXrecord
340
18
  0
XRECORD
  5
215
102
{ACAD_REACTORS
330
FF
102
}
330
FF
100
AcDbXrecord
340
15
  0
MLINESTYLE
  5
1B
102
{ACAD_REACTORS
330
E
102
}
330
E
100
AcDbMlineStyle
  2
STANDARD
 70
     0
  3

 62
     0
 51
90.0
 52
90.0
 71
     2
 49
0.5
 62
   256
  6
BYLAYER
 49
-0.5
 62
   256
  6
BYLAYER
  0
ACDBPLACEHOLDER
  5
A5
102
{ACAD_REACTORS
330
A4
102
}
330
A4
100
AcDbPlaceHolder
280
     0
  0
XRECORD
  5
1FF
102
{ACAD_REACTORS
330
1F5
102
}
330
1F5
100
AcDbXrecord
 90
        0
  0
XRECORD
  5
200
102
{ACAD_REACTORS
330
1F5
102
}
330
1F5
100
AcDbXrecord
  1
{EA028FEB-709E-4D61-B571-21F024082AA4}
  0
XRECORD
  5
1F8
102
{ACAD_REACTORS
330
1F5
102
}
330
1F5
100
AcDbXrecord
  1

  0
XRECORD
  5
1FE
102
{ACAD_REACTORS
330
1F5
102
}
330
1F5
100
AcDbXrecord
 90
        0
  0
XRECORD
  5
1FA
102
{ACAD_REACTORS
330
1F5
102
}
330
1F5
100
AcDbXrecord
340
A6
  0
XRECORD
  5
1FD
102
{ACAD_REACTORS
330
1F5
102
}
330
1F5
100
AcDbXrecord
 90
    14877
  0
XRECORD
  5
1FB
102
{ACAD_REACTORS
330
1F5
102
}
330
1F5
100
AcDbXrecord
340
A7
  0
XRECORD
  5
1FC
102
{ACAD_REACTORS
330
1F5
102
}
330
1F5
100
AcDbXrecord
340
A4
  0
XRECORD
  5
202
102
{ACAD_REACTORS
330
1F5
102
}
330
1F5
100
AcDbXrecord
 40
0.0
  0
XRECORD
  5
205
102
{ACAD_REACTORS
330
1F5
102
}
330
1F5
100
AcDbXrecord
340
0
  0
XRECORD
  5
20B
102
{ACAD_REACTORS
330
1F5
102
}
330
1F5
100
AcDbXrecord
 10
0.0
 20
0.0
 30
0.0
  0
XRECORD
  5
207
102
{ACAD_REACTORS
330
1F5
102
}
330
1F5
100
AcDbXrecord
 10
0.0
 20
0.0
 30
0.0
  0
XRECORD
  5
20A
102
{ACAD_REACTORS
330
1F5
102
}
330
1F5
100
AcDbXrecord
 10
0.0
 20
0.0
 30
0.0
  0
XRECORD
  5
208
102
{ACAD_REACTORS
330
1F5
102
}
330
1F5
100
AcDbXrecord
 10
0.0
 20
0.0
 30
0.0
  0
XRECORD
  5
209
102
{ACAD_REACTORS
330
1F5
102
}
330
1F5
100
AcDbXrecord
 10
0.0
 20
0.0
 30
0.0
  0
XRECORD
  5
206
102
{ACAD_REACTORS
330
1F5
102
}
330
1F5
100
AcDbXrecord
 10
0.0
 20
0.0
 30
0.0
  0
XRECORD
  5
203
102
{ACAD_REACTORS
330
1F5
102
}
330
1F5
100
AcDbXrecord
340
0
  0
XRECORD
  5
204
102
{ACAD_REACTORS
330
1F5
102
}
330
1F5
100
AcDbXrecord
 70
     0
  0
XRECORD
  5
1F9
102
{ACAD_REACTORS
330
1F5
102
}
330
1F5
100
AcDbXrecord
  1

  0
XRECORD
  5
1F6
102
{ACAD_REACTORS
330
1F5
102
}
330
1F5
100
AcDbXrecord
 90
        1
  0
XRECORD
  5
1F7
102
{ACAD_REACTORS
330
1F5
102
}
330
1F5
100
AcDbXrecord
 90
       70
  0
XRECORD
  5
20E
102
{ACAD_REACTORS
330
1F5
102
}
330
1F5
100
AcDbXrecord
340
0
  0
XRECORD
  5
214
102
{ACAD_REACTORS
330
1F5
102
}
330
1F5
100
AcDbXrecord
 10
0.0
 20
0.0
 30
0.0
  0
XRECORD
  5
210
102
{ACAD_REACTORS
330
1F5
102
}
330
1F5
100
AcDbXrecord
 10
0.0
 20
0.0
 30
0.0
  0
XRECORD
  5
213
102
{ACAD_REACTORS
330
1F5
102
}
330
1F5
100
AcDbXrecord
 10
0.0
 20
0.0
 30
0.0
  0
XRECORD
  5
211
102
{ACAD_REACTORS
330
1F5
102
}
330
1F5
100
AcDbXrecord
 10
0.0
 20
0.0
 30
0.0
  0
XRECORD
  5
212
102
{ACAD_REACTORS
330
1F5
102
}
330
1F5
100
AcDbXrecord
 10
0.0
 20
0.0
 30
0.0
  0
XRECORD
  5
20F
102
{ACAD_REACTORS
330
1F5
102
}
330
1F5
100
AcDbXrecord
 10
0.0
 20
0.0
 30
0.0
  0
XRECORD
  5
20C
102
{ACAD_REACTORS
330
1F5
102
}
330
1F5
100
AcDbXrecord
340
0
  0
XRECORD
  5
20D
102
{ACAD_REACTORS
330
1F5
102
}
330
1F5
100
AcDbXrecord
 70
     0
  0
XRECORD
  5
201
102
{ACAD_REACTORS
330
1F5
102
}
330
1F5
100
AcDbXrecord
  1
{A20D87DB-8FE3-4022-A103-83E2AE802671}
  0
DICTIONARYVAR
  5
108
102
{ACAD_REACTORS
330
107
102
}
330
107
100
DictionaryVariables
280
     0
  1
1
  0
ENDSEC
  0
EOF
